osu file format v14

[General]
AudioFilename: audio.mp3
AudioLeadIn: 0
PreviewTime: 58957
Countdown: 0
SampleSet: Soft
StackLeniency: 0.7
Mode: 0
LetterboxInBreaks: 0
WidescreenStoryboard: 0

[Editor]
DistanceSpacing: 1.2
BeatDivisor: 4
GridSize: 4
TimelineZoom: 2.799999

[Metadata]
Title:Xiao Yao Xian
TitleUnicode:逍遥仙
Artist:San Wu Marblue
ArtistUnicode:三无Marblue
Creator:Narcissu
Version:An
Source:
Tags:chinese pop 三無Marblue 冉语优 塔库 向往 栗原 一念逍遥 经乱离后天恩流夜郎忆旧游书怀赠江夏韦太守良宰 Silent Rock Setu
BeatmapID:3453677
BeatmapSetID:1690033

[Difficulty]
HPDrainRate:5
CircleSize:4
OverallDifficulty:8
ApproachRate:9
SliderMultiplier:1
SliderTickRate:1

[Events]
//Background and Video events
0,0,"BG.jpg",0,0
//Break Periods
//Storyboard Layer 0 (Background)
//Storyboard Layer 1 (Fail)
//Storyboard Layer 2 (Pass)
//Storyboard Layer 3 (Foreground)
//Storyboard Layer 4 (Overlay)
//Storyboard Sound Samples

[TimingPoints]
2001,361.44578313253,4,2,1,60,1,0
24772,-71.4285714285714,4,2,1,60,0,0
35073,-71.4285714285714,4,2,0,60,0,0
35254,-71.4285714285714,4,2,1,60,0,0
36699,-62.5,4,2,1,60,0,0
48988,-62.5,4,2,0,60,0,0
49169,-62.5,4,2,1,60,0,0
50434,-62.5,4,2,0,60,0,0
50615,-62.5,4,2,1,60,0,0
51880,-62.5,4,2,0,60,0,0
52061,-62.5,4,2,1,60,0,0
53326,-62.5,4,2,0,60,0,0
53507,-62.5,4,2,1,60,0,0
54772,-62.5,4,2,0,60,0,0
54952,-62.5,4,2,1,60,0,0
56217,-62.5,4,2,0,60,0,0
56398,-62.5,4,2,1,60,0,0
57663,-62.5,4,2,0,60,0,0
57844,-35.7142857142857,4,2,1,60,0,0
58386,-62.5,4,2,1,60,0,0
59832,-58.8235294117647,4,2,1,70,0,1
71217,-58.8235294117647,4,2,1,70,0,0
71398,-58.8235294117647,4,2,1,70,0,1
82964,-58.8235294117647,4,2,1,70,0,0
84229,-58.8235294117647,4,2,0,70,0,0
84591,-58.8235294117647,4,2,1,70,0,0
96699,-71.4285714285714,4,2,1,60,0,0
107362,-71.4285714285714,4,2,0,60,0,0
107543,-71.4285714285714,4,2,1,60,0,0
108988,-62.5,4,2,1,60,0,0
121278,-62.5,4,2,0,60,0,0
121458,-62.5,4,2,1,60,0,0
122723,-62.5,4,2,0,60,0,0
122904,-62.5,4,2,1,60,0,0
124169,-62.5,4,2,0,60,0,0
124350,-62.5,4,2,1,60,0,0
125615,-62.5,4,2,0,60,0,0
125796,-62.5,4,2,1,60,0,0
127061,-62.5,4,2,0,60,0,0
127241,-62.5,4,2,1,60,0,0
128507,-62.5,4,2,0,60,0,0
128687,-62.5,4,2,1,60,0,0
129952,-62.5,4,2,0,60,0,0
130133,-35.7142857142857,4,2,1,60,0,0
130675,-62.5,4,2,1,60,0,0
132121,-58.8235294117647,4,2,1,70,0,1
143507,-58.8235294117647,4,2,1,70,0,0
143687,-58.8235294117647,4,2,1,70,0,1
155254,-58.8235294117647,4,2,1,70,0,0
156699,-58.8235294117647,4,2,0,70,0,0
156880,-58.8235294117647,4,2,1,70,0,0
176217,-52.6315789473684,4,2,1,60,0,0
176579,-58.8235294117647,4,2,1,60,0,0
177663,-45.4545454545455,4,2,1,60,0,0
178025,-58.8235294117647,4,2,1,60,0,0
179832,-50,4,2,1,60,0,0
181278,-55.5555555555556,4,2,1,80,0,1
192663,-55.5555555555556,4,2,1,80,0,0
192844,-55.5555555555556,4,2,1,80,0,1
204410,-55.5555555555556,4,2,1,80,0,0
208025,-55.5555555555556,4,2,1,60,0,0
208747,-55.5555555555556,4,2,1,50,0,0
209470,-55.5555555555556,4,2,1,40,0,0
210193,-55.5555555555556,4,2,1,30,0,0
210916,-55.5555555555556,4,2,1,20,0,0
211639,-55.5555555555556,4,2,1,10,0,0

[Colours]
Combo1 : 255,128,255
Combo2 : 128,255,255
Combo3 : 255,128,0
Combo4 : 128,128,255

[HitObjects]
184,204,24772,5,0,0:0:0:0:
184,204,24952,1,0,0:0:0:0:
268,212,25133,6,0,P|290:246|300:292,1,69.9999978637696,2|0,1:2|0:0,0:0:0:0:
208,352,25494,2,0,P|215:317|212:283,1,69.9999978637696,2|0,0:0|0:0,0:0:0:0:
80,136,25856,2,0,P|56:196|91:287,1,139.999995727539,8|0,0:0|0:0,0:0:0:0:
64,108,26398,6,0,B|104:128|104:128|228:108,1,139.999995727539,2|0,1:2|0:0,0:0:0:0:
280,100,26940,1,2,1:2:0:0:
397,34,27121,2,0,L|328:28,1,69.9999978637696,0|8,0:0|0:0,0:0:0:0:
424,140,27482,5,0,0:0:0:0:
504,120,27663,1,0,0:0:0:0:
404,60,27844,1,2,1:2:0:0:
444,224,28025,5,2,1:2:0:0:
504,120,28205,1,2,1:2:0:0:
332,148,28386,1,2,0:0:0:0:
420,220,28567,1,2,1:2:0:0:
404,60,28747,2,0,B|380:36|380:36|328:16|264:52,1,139.999995727539,8|0,0:0|0:0,0:0:0:0:
296,60,29290,6,0,B|239:63|239:63|219:71|219:71|152:64,1,139.999995727539,2|0,1:2|0:0,0:0:0:0:
76,56,29832,1,2,1:2:0:0:
76,56,30013,1,0,0:0:0:0:
136,156,30193,2,0,L|205:149,1,69.9999978637696,8|0,0:0|0:0,0:0:0:0:
44,216,30555,1,0,0:0:0:0:
84,72,30735,1,2,1:2:0:0:
152,172,30916,6,0,B|172:184|172:184|224:188,1,69.9999978637696,2|0,1:2|0:0,0:0:0:0:
362,44,31278,2,0,B|315:47|315:47|295:59,1,69.9999978637696,2|0,0:0|0:0,0:0:0:0:
360,259,31639,2,0,P|371:191|344:128,1,139.999995727539,8|0,0:0|0:0,0:0:0:0:
140,204,32181,6,0,P|130:273|127:343,1,139.999995727539,2|2,1:2|1:2,0:0:0:0:
276,204,32723,1,2,1:2:0:0:
304,312,32904,1,0,0:0:0:0:
168,276,33085,5,8,0:0:0:0:
316,296,33265,1,2,0:0:0:0:
184,268,33446,1,2,0:0:0:0:
328,280,33627,1,2,1:2:0:0:
248,192,33808,6,0,P|308:164|404:184,1,139.999995727539,2|2,1:2|1:2,0:0:0:0:
452,216,34350,2,0,P|472:248|484:284,1,69.9999978637696,2|8,0:0|0:0,0:0:0:0:
384,144,34711,2,0,P|401:110|426:82,1,69.9999978637696,2|0,0:0|0:0,0:0:0:0:
328,264,35073,6,0,P|368:340|328:388,1,139.999995727539,2|0,3:2|0:0,0:0:0:0:
268,156,35615,1,2,3:0:0:0:
391,167,35796,1,0,3:0:0:0:
224,300,35976,2,0,L|188:304,1,23.3333326212565,4|0,0:0|0:0,0:0:0:0:
48,316,36338,6,0,P|64:284|80:224,1,69.9999978637696,0|2,0:0|1:2,0:0:0:0:
28,192,36609,1,2,1:2:0:0:
28,192,36699,6,0,B|8:168|8:168|0:96,1,80,2|0,1:2|0:0,0:0:0:0:
293,83,37061,2,0,B|287:131|287:131|267:155,1,80,0|2,0:0|1:2,0:0:0:0:
132,56,37422,2,0,B|136:124|136:124|148:140|148:140|164:236,1,160,8|0,0:0|0:0,0:0:0:0:
180,236,37964,6,0,P|180:276|194:314,1,80,2|0,1:2|0:0,0:0:0:0:
412,312,38326,1,2,1:2:0:0:
272,256,38506,1,2,1:2:0:0:
296,348,38687,1,0,0:0:0:0:
428,216,38868,5,8,0:0:0:0:
248,164,39048,1,2,1:2:0:0:
148,296,39229,1,2,0:0:0:0:
56,204,39410,1,2,3:2:0:0:
56,204,39500,1,2,3:2:0:0:
56,204,39591,6,0,P|20:276|40:376,1,160,2|0,1:2|0:0,0:0:0:0:
148,296,40133,2,0,P|191:284|252:288,1,80,2|8,1:2|0:0,0:0:0:0:
108,124,40494,2,0,P|69:112|29:111,1,80,2|0,0:0|0:0,0:0:0:0:
56,204,40856,1,2,1:2:0:0:
212,176,41037,6,0,B|244:160|286:178|286:178|328:196|366:178,1,160,2|2,1:2|1:2,0:0:0:0:
328,88,41579,1,2,1:2:0:0:
344,212,41759,2,0,L|352:296,1,80,8|0,0:0|0:0,0:0:0:0:
468,120,42121,1,2,1:2:0:0:
452,248,42301,1,0,0:0:0:0:
366,177,42482,6,0,P|288:164|224:220,1,160,2|0,1:2|0:0,0:0:0:0:
196,304,43025,2,0,P|171:335|140:360,1,80,2|8,1:2|0:0,0:0:0:0:
104,272,43386,2,0,P|66:286|27:292,1,80,2|0,1:2|0:0,0:0:0:0:
136,181,43747,1,0,0:0:0:0:
116,8,43928,6,0,P|104:72|100:184,1,160,2|2,1:2|1:2,0:0:0:0:
228,48,44470,2,0,P|266:48|332:64,1,80,2|8,0:0|0:0,0:0:0:0:
296,152,44832,2,0,P|257:151|192:136,2,80,2|0|2,1:2|0:0|0:0,0:0:0:0:
507,79,45374,6,0,P|436:53|384:108,1,160,2|0,1:2|0:0,0:0:0:0:
424,300,45916,2,0,P|418:260|418:220,1,80,2|8,1:2|0:0,0:0:0:0:
446,199,46278,2,0,P|452:159|452:120,2,80,2|0|2,0:0|0:0|1:2,0:0:0:0:
296,152,46820,5,2,1:2:0:0:
328,300,47000,2,0,L|220:288,1,80,8|2,0:0|1:2,0:0:0:0:
208,288,47272,1,0,3:0:0:0:
208,288,47362,1,0,3:0:0:0:
120,176,47543,5,8,0:0:0:0:
36,344,47723,1,8,0:0:0:0:
208,288,47904,1,2,3:2:0:0:
208,288,47994,1,0,3:0:0:0:
208,288,48085,1,0,3:0:0:0:
208,288,48175,1,0,3:0:0:0:
208,288,48266,6,0,L|208:104,1,160,4|2,0:0|3:0,0:0:0:0:
304,256,48988,2,0,L|304:96,1,160,0|2,1:0|3:0,0:0:0:0:
112,256,49711,2,0,L|112:72,1,160,4|2,0:0|3:0,0:0:0:0:
400,288,50434,2,0,L|400:128,1,160,0|2,1:0|3:0,0:0:0:0:
92,60,51157,5,4,0:0:0:0:
424,120,51519,1,2,3:0:0:0:
60,324,51880,1,0,1:0:0:0:
448,288,52241,1,2,3:0:0:0:
120,192,52603,6,0,B|144:216|144:216|192:208|192:208|220:216|252:252|252:252|264:208|288:184|288:184|344:164|344:164|344:224,1,320,4|0,0:0|1:0,0:0:0:0:
224,124,53687,1,2,3:0:0:0:
200,340,54049,6,0,P|276:352|348:284,1,160,4|2,0:0|3:0,0:0:0:0:
84,188,54772,2,0,P|36:250|48:327,1,160,0|2,1:0|3:0,0:0:0:0:
427,351,55494,2,0,P|439:274|391:212,1,160,4|2,0:0|3:0,0:0:0:0:
156,48,56217,2,0,P|218:95|295:83,1,160,0|2,1:0|3:0,0:0:0:0:
244,0,56940,5,4,0:0:0:0:
248,312,57663,1,0,1:0:0:0:
248,312,57844,2,0,B|260:288|276:268|276:268|232:220|232:136|232:136|244:120|244:120|254:79|252:36,1,279.999991455078,4|0,0:0|0:0,0:0:0:0:
244,0,58386,2,0,L|240:32,1,26.6666666666667,4|0,3:0|0:0,0:0:0:0:
336,52,59109,5,2,0:0:0:0:
340,60,59290,1,2,0:2:0:0:
432,36,59470,1,2,0:2:0:0:
436,44,59651,1,2,0:2:0:0:
468,264,59832,6,0,B|396:288|340:248|340:248|324:204,1,170.000003242493,4|0,1:0|0:0,0:0:0:0:
228,240,60374,2,0,L|216:332,1,85.0000016212464,2|8,1:2|0:1,0:0:0:0:
419,171,60735,2,0,P|360:115|278:124,1,170.000003242493,2|2,1:2|1:2,0:0:0:0:
327,214,61278,5,2,0:0:0:0:
120,220,61458,2,0,P|163:214|216:200,1,85.0000016212464,2|0,1:2|1:2,0:0:0:0:
256,116,61820,1,2,0:0:0:0:
272,372,62000,2,0,B|260:344|260:344|256:272,1,85.0000016212464,8|0,0:1|0:0,0:0:0:0:
327,214,62362,1,2,1:2:0:0:
156,276,62543,1,2,3:2:0:0:
156,276,62633,1,2,3:2:0:0:
156,276,62723,6,0,P|76:285|26:220,1,170.000003242493,2|0,1:2|0:0,0:0:0:0:
176,92,63266,2,0,P|165:136|161:176,1,85.0000016212464,2|8,1:2|0:1,0:0:0:0:
23,20,63627,2,0,P|38:103|46:188,1,170.000003242493,2|2,0:0|1:2,0:0:0:0:
156,64,64170,5,2,0:0:0:0:
420,108,64350,2,0,B|384:124|384:124|348:116|348:116|300:140|240:108,1,170.000003242493,8|0,0:1|0:0,0:0:0:0:
396,152,64892,1,8,0:1:0:0:
300,36,65073,1,2,1:2:0:0:
356,260,65254,1,2,1:2:0:0:
496,128,65435,1,8,0:1:0:0:
240,144,65615,5,4,1:0:0:0:
416,180,65796,2,0,B|452:208|452:208|476:276|428:352,1,170.000003242493,2|2,1:2|1:2,0:0:0:0:
200,328,66338,2,0,L|188:244,1,85.0000016212464,8|0,0:1|0:0,0:0:0:0:
336,272,66699,2,0,L|324:356,1,85.0000016212464,2|2,0:0|1:2,0:0:0:0:
240,144,67061,5,2,0:0:0:0:
438,94,67241,2,0,B|415:56|415:56|347:24|296:60,1,170.000003242493,2|0,1:2|0:0,0:0:0:0:
56,96,67784,2,0,P|96:104|152:108,1,85.0000016212464,8|2,0:1|1:2,0:0:0:0:
344,156,68145,2,0,P|304:164|248:168,1,85.0000016212464,2|0,1:2|0:0,0:0:0:0:
180,344,68507,6,0,P|140:280|153:183,1,170.000003242493,2|0,1:2|0:0,0:0:0:0:
438,94,69049,2,0,P|449:176|407:248,1,170.000003242493,2|0,1:2|0:0,0:0:0:0:
156,80,69591,2,0,P|196:91|239:91,1,85.0000016212464,2|2,0:0|3:2,0:0:0:0:
316,72,69862,1,2,3:2:0:0:
316,72,69952,5,4,1:0:0:0:
168,264,70133,1,2,1:2:0:0:
412,220,70314,1,2,1:2:0:0:
280,200,70494,1,0,3:0:0:0:
280,200,70585,1,0,3:0:0:0:
280,200,70675,5,8,0:1:0:0:
300,336,70856,1,8,0:1:0:0:
88,200,71037,1,8,0:1:0:0:
12,332,71217,1,8,0:1:0:0:
168,263,71398,6,0,P|188:183|136:108,1,170.000003242493,4|0,1:0|0:0,0:0:0:0:
5,182,71940,2,0,P|49:196|105:198,1,85.0000016212464,2|8,0:0|0:1,0:0:0:0:
204,44,72301,2,0,B|148:4|80:36|80:36|65:72,1,170.000003242493,2|2,1:2|1:2,0:0:0:0:
232,144,72844,5,2,0:0:0:0:
388,44,73024,2,0,L|400:148,1,85.0000016212464,2|0,1:2|1:2,0:0:0:0:
412,228,73386,1,2,0:0:0:0:
264,84,73566,2,0,L|252:196,1,85.0000016212464,8|0,0:1|0:0,0:0:0:0:
240,272,73928,1,2,1:2:0:0:
472,292,74109,1,2,3:2:0:0:
472,292,74199,1,2,3:2:0:0:
472,292,74289,6,0,P|388:284|320:340,1,170.000003242493,2|0,1:2|0:0,0:0:0:0:
68,304,74832,2,0,P|110:303|151:315,1,85.0000016212464,2|8,1:2|0:1,0:0:0:0:
328,156,75193,2,0,P|287:167|244:167,1,85.0000016212464,2|0,0:0|0:0,0:0:0:0:
84,48,75555,6,0,P|76:152|120:204,1,170.000003242493,2|8,1:2|0:1,0:0:0:0:
236,356,76097,2,0,L|240:260,1,85.0000016212464,2|2,1:2|1:2,0:0:0:0:
244,167,76458,5,8,0:1:0:0:
337,197,76639,1,2,1:2:0:0:
346,33,76820,1,2,1:2:0:0:
248,58,77000,1,8,0:1:0:0:
401,118,77181,2,0,B|444:148|444:148|456:260,1,127.50000243187,4|0,0:0|0:0,0:0:0:0:
480,256,77543,2,0,L|476:360,1,85.0000016212464,2|2,1:2|1:2,0:0:0:0:
336,348,77904,5,8,0:1:0:0:
371,268,78085,1,2,0:0:0:0:
306,210,78265,1,2,1:2:0:0:
232,254,78446,1,2,1:2:0:0:
252,344,78627,2,0,P|184:364|104:352,1,127.50000243187,4|0,0:0|0:0,0:0:0:0:
104,324,78988,2,0,P|60:312|4:316,1,85.0000016212464,2|0,1:2|0:0,0:0:0:0:
115,123,79350,5,8,0:1:0:0:
232,254,79531,1,2,0:0:0:0:
213,78,79711,1,2,1:2:0:0:
125,232,79892,1,2,1:2:0:0:
287,158,80073,6,0,B|416:144|416:144|383:178,1,170.000003242493,4|2,0:0|0:0,0:0:0:0:
316,260,80615,2,0,L|212:252,1,85.0000016212464,2|8,0:0|0:1,0:0:0:0:
416,144,80976,2,0,L|406:51,1,85.0000016212464,2|2,0:0|1:2,0:0:0:0:
452,272,81338,5,8,0:1:0:0:
300,135,81519,1,8,0:1:0:0:
332,292,81699,1,8,0:1:0:0:
88,336,81880,2,0,L|-8:324,1,85.0000016212464,2|0,1:2|0:0,0:0:0:0:
76,208,82241,5,8,3:1:0:0:
92,227,82331,1,0,3:0:0:0:
113,241,82421,1,0,3:0:0:0:
138,248,82512,1,0,3:0:0:0:
163,248,82602,1,2,3:2:0:0:
188,242,82692,1,0,3:0:0:0:
209,228,82783,1,0,3:0:0:0:
226,210,82873,1,0,3:0:0:0:
238,187,82964,6,0,B|200:156|200:156|184:80|244:32,1,170.000003242493,4|0,1:0|0:0,0:0:0:0:
104,68,83507,1,2,1:2:0:0:
300,116,83687,1,8,0:1:0:0:
113,241,83868,1,2,1:2:0:0:
164,152,84049,1,0,0:0:0:0:
252,204,84229,1,2,3:0:0:0:
252,204,84320,1,2,3:0:0:0:
252,204,84410,6,0,P|335:205|400:140,1,170.000003242493,2|0,1:2|0:0,0:0:0:0:
488,108,84952,1,2,3:0:0:0:
488,108,85043,1,2,3:0:0:0:
488,108,85133,2,0,L|504:208,1,85.0000016212464,8|2,0:1|1:2,0:0:0:0:
412,56,85494,2,2,L|356:32,3,42.5000008106232,2|2|2|0,1:2|1:2|1:2|1:2,0:0:0:0:
396,148,85856,5,4,0:0:0:0:
380,248,86037,1,0,0:0:0:0:
304,112,86217,1,0,0:0:0:0:
288,212,86398,1,2,1:2:0:0:
288,212,86488,1,2,1:2:0:0:
288,212,86579,1,8,0:0:0:0:
172,320,86940,5,2,1:2:0:0:
60,244,87121,1,0,3:0:0:0:
60,244,87211,1,0,3:0:0:0:
60,244,87302,1,2,3:0:0:0:
84,344,87482,1,2,1:2:0:0:
184,328,87663,1,0,0:0:0:0:
32,116,88025,5,8,0:0:0:0:
132,136,88205,1,8,0:0:0:0:
28,124,88386,1,2,1:2:0:0:
128,144,88566,1,0,0:0:0:0:
228,108,88747,6,0,P|300:76|400:96,1,170.000003242493,4|2,0:0|0:0,0:0:0:0:
400,192,89290,2,0,P|328:224|228:204,1,170.000003242493,2|0,1:2|0:0,0:0:0:0:
148,168,89832,2,0,P|104:152|32:148,1,85.0000016212464,2|0,1:2|3:0,0:0:0:0:
24,152,90103,1,0,3:0:0:0:
24,152,90193,5,2,3:0:0:0:
84,236,90374,1,0,0:0:0:0:
4,300,90555,1,2,1:2:0:0:
148,316,90735,1,2,1:2:0:0:
148,316,90826,1,2,1:2:0:0:
148,316,90916,5,8,0:0:0:0:
84,236,91097,1,2,1:2:0:0:
164,172,91278,2,0,L|276:180,1,85.0000016212464,2|0,1:2|3:0,0:0:0:0:
292,184,91549,1,0,3:0:0:0:
292,184,91639,5,4,0:0:0:0:
312,284,91820,1,0,0:0:0:0:
388,152,92000,1,2,1:2:0:0:
408,252,92181,1,2,1:2:0:0:
408,252,92272,1,2,0:0:0:0:
408,252,92362,1,10,0:0:0:0:
452,64,92723,5,2,1:2:0:0:
376,132,92904,1,0,3:0:0:0:
376,132,92994,1,0,3:0:0:0:
376,132,93085,1,0,3:0:0:0:
288,84,93265,1,0,0:0:0:0:
188,96,93446,1,0,0:0:0:0:
32,28,93808,5,8,0:0:0:0:
12,128,93988,1,8,0:0:0:0:
24,24,94169,1,2,1:2:0:0:
4,124,94349,1,0,0:0:0:0:
44,220,94530,6,0,P|116:252|216:232,1,170.000003242493,4|8,0:0|0:0,0:0:0:0:
280,308,95073,1,2,1:2:0:0:
203,238,95254,2,0,P|184:280|176:328,1,85.0000016212464,8|2,0:0|1:2,0:0:0:0:
300,160,95615,1,2,1:2:0:0:
432,316,95796,1,0,3:0:0:0:
432,316,95886,1,0,3:0:0:0:
432,316,95976,2,0,L|440:352,1,28.3333338737488,4|0,0:0|0:0,0:0:0:0:
424,216,97061,5,0,0:0:0:0:
424,216,97241,1,0,0:0:0:0:
416,132,97422,6,0,P|382:110|336:100,1,69.9999978637696,2|0,1:2|0:0,0:0:0:0:
276,191,97783,2,0,P|310:185|344:187,1,69.9999978637696,2|0,0:0|0:0,0:0:0:0:
204,260,98145,2,0,P|179:195|197:129,1,139.999995727539,8|0,0:0|0:0,0:0:0:0:
232,280,98687,6,0,B|192:300|192:300|68:280,1,139.999995727539,2|0,1:2|0:0,0:0:0:0:
16,156,99229,1,2,1:2:0:0:
8,240,99410,2,0,L|2:309,1,69.9999978637696,0|8,0:0|0:0,0:0:0:0:
16,156,99771,5,0,0:0:0:0:
100,172,99952,1,0,0:0:0:0:
180,140,100133,1,2,1:2:0:0:
72,76,100314,5,2,0:0:0:0:
100,172,100494,1,2,1:2:0:0:
216,60,100675,1,2,0:0:0:0:
200,144,100856,1,2,1:2:0:0:
312,96,101036,2,0,B|336:72|336:72|388:52|452:88,1,139.999995727539,8|0,0:0|0:0,0:0:0:0:
456,56,101579,6,0,B|462:117|462:117|454:137|454:137|451:194,1,139.999995727539,2|0,1:2|0:0,0:0:0:0:
452,280,102121,1,2,1:2:0:0:
452,280,102302,1,0,0:0:0:0:
276,272,102482,2,0,L|283:341,1,69.9999978637696,8|0,0:0|0:0,0:0:0:0:
224,196,102844,1,0,0:0:0:0:
368,240,103024,1,2,1:2:0:0:
224,196,103205,6,0,B|244:184|244:184|296:180,1,69.9999978637696,2|0,1:2|0:0,0:0:0:0:
184,320,103567,2,0,B|137:317|137:317|117:305,1,69.9999978637696,2|0,0:0|0:0,0:0:0:0:
15,228,103928,2,0,P|-11:291|0:359,1,139.999995727539,8|0,0:0|0:0,0:0:0:0:
164,228,104470,6,0,P|161:158|151:88,1,139.999995727539,2|2,1:2|1:2,0:0:0:0:
80,40,105012,1,2,1:2:0:0:
132,108,105193,1,0,0:0:0:0:
216,16,105375,5,8,0:0:0:0:
260,144,105555,1,0,0:0:0:0:
232,32,105736,1,2,0:0:0:0:
280,152,105917,1,2,1:2:0:0:
360,56,106097,6,0,P|428:48|491:76,1,139.999995727539,2|2,1:2|1:2,0:0:0:0:
500,224,106639,2,0,P|468:244|432:256,1,69.9999978637696,2|8,0:0|0:0,0:0:0:0:
380,192,107000,2,0,P|402:165|417:133,1,69.9999978637696,2|0,0:0|0:0,0:0:0:0:
360,292,107362,6,0,P|307:332|245:307,1,139.999995727539,2|0,3:2|0:0,0:0:0:0:
228,156,107904,1,2,3:0:0:0:
144,328,108085,1,0,3:0:0:0:
324,200,108265,2,0,L|352:196,1,23.3333326212565,4|0,0:0|0:0,0:0:0:0:
204,184,108627,6,0,P|168:192|108:188,1,69.9999978637696,0|2,0:0|1:2,0:0:0:0:
88,132,108898,1,2,1:2:0:0:
88,132,108988,6,0,B|82:83|82:83|62:59,1,80,2|0,1:2|0:0,0:0:0:0:
340,60,109350,2,0,B|320:84|320:84|314:132,1,80,2|2,0:0|1:2,0:0:0:0:
232,284,109711,2,0,B|228:216|228:216|216:200|216:200|200:104,1,160,8|0,0:0|0:0,0:0:0:0:
184,104,110254,6,0,P|183:64|197:26,1,80,2|0,1:2|0:0,0:0:0:0:
416,176,110615,1,2,1:2:0:0:
320,192,110795,1,2,1:2:0:0:
364,16,110976,1,0,0:0:0:0:
460,32,111157,5,8,0:0:0:0:
496,232,111337,1,2,1:2:0:0:
308,164,111518,1,0,0:0:0:0:
404,104,111699,1,2,1:2:0:0:
404,104,111789,1,2,1:2:0:0:
404,103,111880,6,0,P|411:181|376:251,1,160,2|0,1:2|0:0,0:0:0:0:
308,164,112422,2,0,P|265:152|204:156,1,80,2|8,1:2|0:0,0:0:0:0:
384,360,112783,2,0,P|423:348|463:347,1,80,2|0,0:0|0:0,0:0:0:0:
256,272,113145,6,0,B|224:256|182:274|182:274|140:292|102:274,1,160,2|2,1:2|1:2,0:0:0:0:
140,184,113687,1,2,1:2:0:0:
140,184,113868,1,2,1:2:0:0:
124,308,114048,2,0,L|116:400,1,80,8|0,0:0|0:0,0:0:0:0:
0,216,114410,1,2,1:2:0:0:
16,344,114590,1,0,0:0:0:0:
102,273,114771,6,0,P|180:260|244:316,1,160,2|0,1:2|0:0,0:0:0:0:
408,336,115314,2,0,P|439:310|464:279,1,80,2|8,1:2|0:0,0:0:0:0:
330,275,115675,2,0,P|343:238|350:199,1,80,2|0,1:2|0:0,0:0:0:0:
328,104,116036,1,0,0:0:0:0:
464,16,116217,6,0,P|460:95|447:174,1,160,2|2,1:2|1:2,0:0:0:0:
328,104,116759,2,0,P|290:104|224:88,1,80,2|8,0:0|0:0,0:0:0:0:
260,0,117121,2,0,P|299:1|364:16,2,80,2|0|2,1:2|0:0|0:0,0:0:0:0:
30,55,117663,6,0,P|100:28|152:83,1,160,2|0,1:2|0:0,0:0:0:0:
112,275,118205,2,0,P|118:235|118:195,1,80,2|8,1:2|0:0,0:0:0:0:
90,174,118567,2,0,P|84:134|84:95,2,80,2|0|2,0:0|0:0|1:2,0:0:0:0:
240,128,119109,5,2,0:0:0:0:
208,276,119289,2,0,L|316:264,1,80,8|2,0:0|1:2,0:0:0:0:
328,264,119561,1,0,3:0:0:0:
328,264,119651,1,0,3:0:0:0:
504,208,119832,5,8,0:0:0:0:
408,336,120012,1,8,0:0:0:0:
328,264,120193,1,2,2:0:0:0:
328,264,120283,1,0,3:0:0:0:
328,264,120374,1,0,3:0:0:0:
328,264,120464,1,0,3:0:0:0:
328,264,120555,6,0,L|144:264,1,160,4|2,0:0|3:0,0:0:0:0:
344,120,121278,2,0,L|184:120,1,160,0|2,1:0|3:0,0:0:0:0:
392,368,122000,2,0,L|208:368,1,160,4|2,0:0|3:0,0:0:0:0:
280,16,122723,2,0,L|120:16,1,160,0|2,1:0|3:0,0:0:0:0:
416,272,123446,5,4,0:0:0:0:
380,92,123808,1,2,3:0:0:0:
28,296,124169,1,0,1:0:0:0:
96,32,124530,1,2,3:0:0:0:
168,195,124892,6,0,B|168:220|168:220|224:200|224:200|248:176|260:132|260:132|292:168|320:176|320:176|368:168|368:168|392:192,1,320,4|0,0:0|1:0,0:0:0:0:
288,260,125976,1,2,3:0:0:0:
172,79,126338,6,0,P|234:32|312:44,1,160,4|2,0:0|3:0,0:0:0:0:
60,288,127061,2,0,P|12:226|23:149,1,160,0|2,1:0|3:0,0:0:0:0:
464,28,127783,2,0,P|476:105|428:167,1,160,4|2,0:0|3:0,0:0:0:0:
244,276,128506,2,0,P|320:263|383:310,1,160,0|2,1:0|3:0,0:0:0:0:
295,358,129229,5,4,0:0:0:0:
280,60,129952,1,0,1:0:0:0:
280,60,130133,2,0,B|273:114|277:170|277:170|249:226|249:226|309:262|277:338,1,279.999991455078,4|0,0:0|0:0,0:0:0:0:
295,358,130675,2,0,L|300:328,1,26.6666666666667,4|0,3:0|0:0,0:0:0:0:
176,332,131398,5,2,0:0:0:0:
172,324,131579,1,2,0:2:0:0:
80,348,131759,1,2,0:2:0:0:
76,340,131940,1,2,0:2:0:0:
232,228,132121,6,0,B|304:204|360:244|360:244|376:288,1,170.000003242493,4|0,1:0|0:0,0:0:0:0:
480,248,132663,2,0,L|468:340,1,85.0000016212464,2|8,0:0|0:1,0:0:0:0:
427,156,133024,2,0,P|484:95|474:14,1,170.000003242493,2|2,1:2|1:2,0:0:0:0:
384,64,133567,5,2,0:0:0:0:
208,96,133747,2,0,P|249:106|291:111,1,85.0000016212464,2|0,1:2|1:2,0:0:0:0:
384,64,134109,1,2,0:0:0:0:
168,0,134289,2,0,B|113:3|113:3|85:15,1,85.0000016212464,8|0,0:1|0:0,0:0:0:0:
16,88,134651,1,2,1:2:0:0:
200,124,134832,1,2,3:2:0:0:
200,124,134922,1,2,3:2:0:0:
200,124,135012,6,0,P|209:204|144:254,1,170.000003242493,2|0,1:2|0:0,0:0:0:0:
32,240,135555,2,0,P|74:235|115:225,1,85.0000016212464,2|8,0:0|0:1,0:0:0:0:
332,116,135916,2,0,P|247:108|163:92,1,170.000003242493,2|2,0:0|1:2,0:0:0:0:
320,204,136459,5,2,0:0:0:0:
88,332,136639,2,0,B|124:316|124:316|160:324|160:324|208:300|268:332,1,170.000003242493,8|0,0:1|0:0,0:0:0:0:
108,308,137181,1,8,0:1:0:0:
92,176,137362,1,2,1:2:0:0:
280,212,137543,1,2,1:2:0:0:
308,84,137724,1,8,0:1:0:0:
124,188,137904,5,4,1:0:0:0:
264,304,138085,2,0,B|292:340|292:340|360:364|436:316,1,170.000003242493,2|2,1:2|1:2,0:0:0:0:
392,96,138627,2,0,L|308:84,1,85.0000016212464,8|0,0:1|0:0,0:0:0:0:
376,220,138988,2,0,L|460:208,1,85.0000016212464,2|2,0:0|1:2,0:0:0:0:
280,296,139350,5,2,0:0:0:0:
148,188,139530,2,0,B|97:152|29:184|29:184|6:222,1,170.000003242493,2|0,1:2|0:0,0:0:0:0:
200,112,140073,2,0,P|196:69|188:28,1,85.0000016212464,8|2,0:1|0:0,0:0:0:0:
88,264,140434,2,0,P|80:304|76:360,1,85.0000016212464,2|0,1:2|0:0,0:0:0:0:
364,360,140796,6,0,P|375:277|333:205,1,170.000003242493,2|0,1:2|0:0,0:0:0:0:
100,88,141338,2,0,P|58:159|68:242,1,170.000003242493,2|0,1:2|0:0,0:0:0:0:
264,60,141880,2,0,P|304:49|347:49,1,85.0000016212464,2|2,0:0|3:2,0:0:0:0:
424,68,142151,1,2,3:2:0:0:
424,68,142241,5,4,1:0:0:0:
384,280,142422,1,2,1:2:0:0:
196,160,142603,1,2,1:2:0:0:
320,148,142783,1,0,3:0:0:0:
320,148,142874,1,0,3:0:0:0:
320,148,142964,5,8,0:1:0:0:
268,348,143145,1,8,0:1:0:0:
480,220,143326,1,8,0:1:0:0:
500,352,143506,1,8,0:1:0:0:
332,268,143687,6,0,P|251:248|181:292,1,170.000003242493,4|0,1:0|0:0,0:0:0:0:
92,244,144229,2,0,P|48:258|-8:260,1,85.0000016212464,2|8,0:0|0:1,0:0:0:0:
28,148,144590,2,0,B|84:108|152:140|152:140|167:176,1,170.000003242493,2|2,1:2|1:2,0:0:0:0:
92,244,145133,5,2,0:0:0:0:
272,208,145314,2,0,L|281:123,1,85.0000016212464,2|0,1:2|1:2,0:0:0:0:
296,20,145675,1,2,0:0:0:0:
157,91,145856,2,0,L|169:203,1,85.0000016212464,8|0,0:1|0:0,0:0:0:0:
180,276,146217,1,2,1:2:0:0:
448,208,146398,1,2,3:2:0:0:
448,208,146488,1,2,3:2:0:0:
448,208,146578,6,0,P|456:292|400:360,1,170.000003242493,2|0,1:2|0:0,0:0:0:0:
277,253,147121,2,0,P|317:264|359:263,1,85.0000016212464,2|8,0:0|0:1,0:0:0:0:
476,96,147482,2,0,P|435:107|392:107,1,85.0000016212464,2|0,0:0|0:0,0:0:0:0:
156,18,147844,6,0,P|226:62|308:48,1,170.000003242493,2|8,1:2|0:1,0:0:0:0:
63,136,148386,2,0,L|60:52,1,85.0000016212464,2|2,1:2|1:2,0:0:0:0:
172,132,148747,5,8,0:1:0:0:
202,225,148928,1,2,1:2:0:0:
38,234,149109,1,2,1:2:0:0:
63,136,149289,1,8,0:1:0:0:
123,289,149470,2,0,B|153:332|153:332|265:344,1,127.50000243187,4|0,0:0|0:0,0:0:0:0:
261,368,149832,2,0,L|365:364,1,85.0000016212464,2|2,1:2|1:2,0:0:0:0:
500,268,150193,5,8,0:1:0:0:
420,303,150374,1,2,0:0:0:0:
362,238,150554,1,2,1:2:0:0:
406,164,150735,1,2,1:2:0:0:
496,184,150916,2,0,P|516:116|504:36,1,127.50000243187,4|0,0:0|0:0,0:0:0:0:
476,36,151277,2,0,P|432:48|376:44,1,85.0000016212464,2|0,1:2|0:0,0:0:0:0:
339,260,151639,5,8,0:1:0:0:
221,128,151820,1,2,0:0:0:0:
240,304,152000,1,2,1:2:0:0:
328,150,152181,1,2,1:2:0:0:
167,224,152362,6,0,B|34:236|34:236|70:204,1,170.000003242493,4|2,0:0|0:0,0:0:0:0:
136,16,152904,2,0,L|144:120,1,85.0000016212464,2|8,0:0|0:1,0:0:0:0:
240,304,153265,2,0,L|250:211,1,85.0000016212464,2|2,0:0|1:2,0:0:0:0:
164,88,153627,5,8,0:1:0:0:
336,160,153808,1,8,0:1:0:0:
275,38,153988,1,8,0:1:0:0:
385,259,154169,2,0,L|480:245,1,85.0000016212464,2|0,1:2|0:0,0:0:0:0:
409,99,154530,5,8,3:1:0:0:
393,80,154620,1,0,3:0:0:0:
372,66,154710,1,0,3:0:0:0:
347,59,154801,1,0,3:0:0:0:
322,59,154891,1,2,3:2:0:0:
297,65,154981,1,0,3:0:0:0:
276,79,155072,1,0,3:0:0:0:
259,97,155162,1,0,3:0:0:0:
247,120,155253,6,0,B|216:158|216:158|140:174|92:114,1,170.000003242493,4|0,1:0|0:0,0:0:0:0:
276,236,155796,1,2,1:2:0:0:
180,64,155976,1,8,0:1:0:0:
64,216,156157,2,0,L|52:40,1,170.000003242493,2|0,1:2|0:0,0:0:0:0:
44,192,156699,6,0,P|16:284|60:364,1,170.000003242493,2|2,1:2|1:2,0:0:0:0:
136,272,157241,1,2,1:2:0:0:
168,268,157332,1,2,1:2:0:0:
200,264,157422,1,8,0:1:0:0:
284,320,157603,2,0,B|308:300|308:300|312:220,2,85.0000016212464,2|2|0,1:2|1:2|0:0,0:0:0:0:
396,320,158145,5,2,3:2:0:0:
400,324,158235,1,0,3:0:0:0:
404,328,158326,2,0,L|396:272,1,42.5000008106232,0|0,3:0|0:0,0:0:0:0:
484,292,158507,1,0,3:0:0:0:
488,296,158597,1,0,3:0:0:0:
492,300,158688,2,0,L|484:244,1,42.5000008106232,2|0,3:2|0:0,0:0:0:0:
408,200,158868,5,8,3:1:0:0:
412,204,158958,1,0,3:0:0:0:
416,208,159049,2,0,L|408:152,1,42.5000008106232,0|0,3:0|0:0,0:0:0:0:
496,172,159230,1,0,3:0:0:0:
500,176,159320,1,0,3:0:0:0:
504,180,159411,2,0,L|496:124,1,42.5000008106232,2|0,3:2|0:0,0:0:0:0:
432,36,159591,5,0,3:0:0:0:
436,40,159681,1,0,3:0:0:0:
440,44,159772,2,0,L|432:116,1,42.5000008106232,2|0,3:2|0:0,0:0:0:0:
328,68,159952,1,2,3:2:0:0:
332,72,160042,1,0,3:0:0:0:
336,76,160133,2,0,L|344:132,1,42.5000008106232,0|0,3:0|0:0,0:0:0:0:
216,44,160314,5,8,3:1:0:0:
220,48,160404,1,0,3:0:0:0:
224,52,160495,2,0,L|220:100,1,42.5000008106232,0|0,3:0|0:0,0:0:0:0:
104,80,160675,1,2,3:2:0:0:
108,84,160765,1,0,3:0:0:0:
112,88,160856,2,0,L|100:140,1,42.5000008106232,0|0,3:0|0:0,0:0:0:0:
20,32,161037,6,0,B|-4:64|-4:64|12:224,1,170.000003242493,2|0,1:2|0:0,0:0:0:0:
24,296,161579,1,2,1:2:0:0:
192,228,161760,2,0,L|195:124,1,85.0000016212464,8|0,0:1|0:0,0:0:0:0:
92,308,162121,2,0,L|-12:324,1,85.0000016212464,2|2,0:0|1:2,0:0:0:0:
280,284,162482,5,2,0:0:0:0:
180,240,162663,2,0,B|148:208|148:208|128:140|172:72,1,170.000003242493,8|0,0:1|0:0,0:0:0:0:
288,156,163205,1,8,0:1:0:0:
440,88,163386,1,2,1:2:0:0:
312,136,163567,1,2,1:2:0:0:
192,64,163747,1,8,0:1:0:0:
464,108,163928,6,0,B|472:184|472:184|480:200|480:200|484:284,1,170.000003242493,4|0,1:0|0:0,0:0:0:0:
336,120,164470,1,2,1:2:0:0:
380,232,164651,2,0,L|372:320,1,85.0000016212464,8|0,0:1|0:0,0:0:0:0:
336,120,165013,1,2,1:2:0:0:
276,268,165193,2,0,B|256:316|256:316|220:340,1,85.0000016212464,2|0,1:2|0:0,0:0:0:0:
104,276,165555,6,0,P|64:271|23:247,1,85.0000016212464,2|2,1:2|1:2,0:0:0:0:
181,119,165916,2,0,P|196:158|196:200,1,85.0000016212464,2|8,0:0|0:1,0:0:0:0:
3,131,166278,2,0,P|28:97|64:76,1,85.0000016212464,2|0,1:2|0:0,0:0:0:0:
97,176,166639,1,2,1:2:0:0:
292,116,166820,6,0,P|380:120|488:152,1,170.000003242493,2|0,1:2|0:0,0:0:0:0:
304,144,167362,1,2,1:2:0:0:
476,248,167543,2,0,P|393:268|308:272,1,170.000003242493,8|0,0:1|0:0,0:0:0:0:
195,200,168085,1,2,1:2:0:0:
195,200,168175,1,2,1:2:0:0:
195,200,168266,5,4,0:0:0:0:
300,40,168446,1,2,1:2:0:0:
172,88,168627,1,2,1:2:0:0:
44,40,168808,1,0,3:0:0:0:
44,40,168898,1,0,3:0:0:0:
44,40,168988,5,8,0:1:0:0:
56,124,169169,1,2,1:2:0:0:
68,208,169350,1,2,1:2:0:0:
80,292,169531,1,8,0:1:0:0:
176,224,169711,5,0,3:0:0:0:
199,214,169801,1,0,3:0:0:0:
224,212,169891,1,0,3:0:0:0:
249,219,169982,1,0,3:0:0:0:
270,233,170072,1,0,3:0:0:0:
285,253,170162,1,0,3:0:0:0:
292,278,170254,2,0,L|284:328,1,42.5000008106232,2|0,3:2|0:0,0:0:0:0:
384,316,170434,5,8,3:1:0:0:
407,326,170524,1,0,3:0:0:0:
432,328,170614,1,2,3:2:0:0:
457,321,170705,1,0,3:0:0:0:
478,307,170795,1,0,3:0:0:0:
493,287,170885,1,0,3:0:0:0:
500,262,170977,2,0,L|492:212,1,42.5000008106232,2|0,3:2|0:0,0:0:0:0:
456,124,171157,5,0,3:0:0:0:
453,136,171247,1,0,3:0:0:0:
421,148,171337,1,2,3:2:0:0:
414,159,171428,1,0,3:0:0:0:
380,156,171518,1,2,3:2:0:0:
369,162,171609,1,0,3:0:0:0:
339,145,171699,2,0,L|276:168,1,42.5000008106232,0|0,3:0|0:0,0:0:0:0:
388,63,171880,1,8,3:1:0:0:
353,37,171970,1,0,3:0:0:0:
313,25,172060,1,0,3:0:0:0:
271,25,172151,1,0,3:0:0:0:
231,39,172241,1,2,3:2:0:0:
197,64,172331,1,0,3:0:0:0:
173,100,172422,2,0,L|152:24,1,42.5000008106232,0|0,3:0|0:0,0:0:0:0:
68,88,172603,6,0,P|140:112|164:200,1,170.000003242493,2|0,1:2|0:0,0:0:0:0:
100,276,173145,1,2,1:2:0:0:
99,276,173326,2,0,P|23:247|2:168,1,170.000003242493,8|0,0:1|0:0,0:0:0:0:
179,340,173868,2,0,P|147:366|106:379,1,85.0000016212464,2|0,1:2|0:0,0:0:0:0:
204,168,174229,5,8,0:1:0:0:
376,308,174410,1,2,1:2:0:0:
356,208,174591,1,2,1:2:0:0:
208,288,174772,1,8,0:1:0:0:
336,108,174952,1,2,1:2:0:0:
476,248,175133,1,2,1:2:0:0:
392,24,175314,1,8,0:1:0:0:
188,144,175494,6,0,B|164:136|164:136|144:140|144:140|56:132|56:132|104:120,1,170.000003242493,4|0,0:0|0:0,0:0:0:0:
248,64,176037,1,2,1:2:0:0:
80,248,176217,2,0,B|120:248|152:236|152:236|168:240|168:240|232:232|232:232|244:224|244:224|272:220,1,189.999994926453,8|2,0:1|0:0,0:0:0:0:
352,168,176760,1,2,1:2:0:0:
512,260,176940,6,0,P|478:233|439:218,1,85.0000016212464,6|0,0:0|1:2,0:0:0:0:
356,276,177302,2,0,P|381:308|397:347,1,85.0000016212464,2|0,1:2|0:0,0:0:0:0:
352,168,177663,2,0,B|380:128|380:128|388:48|388:48|368:16|368:16|392:32|428:36,1,220.000006713867,8|2,0:1|1:2,0:0:0:0:
280,76,178205,1,2,1:2:0:0:
476,120,178386,6,0,L|484:232,1,85.0000016212464,4|0,0:0|0:0,0:0:0:0:
343,251,178747,2,0,L|351:167,1,85.0000016212464,2|2,1:2|1:2,0:0:0:0:
368,16,179109,1,8,0:1:0:0:
256,192,179290,1,2,1:2:0:0:
56,156,179470,1,2,1:2:0:0:
203,111,179651,1,0,3:0:0:0:
203,111,179741,1,0,3:0:0:0:
203,111,179832,6,0,B|203:110|214:105|214:105|213:95|213:95|219:103|219:103|231:98|243:96|243:96|244:87|244:87|248:96|248:96|261:95|273:97|273:97|277:88|277:88|278:98|278:98|291:101|301:106|301:106|308:99|308:99|305:109|305:109|317:115|325:124|325:124|333:119|333:119|329:127|329:127|338:137|343:148|343:148|352:146|352:146|345:152|345:152|351:165|353:176|353:176|362:177|362:177|353:181|353:181|355:194|353:206|353:206|362:210|362:210|352:211|352:211|350:224|345:234|345:234|352:241|352:241|343:239|343:239|336:251|328:259|328:259|333:267|333:267|325:263|325:263|315:272|305:278|305:278|307:287|307:287|301:280|301:280|289:286|277:289|277:289|276:298|276:298|272:290|272:290|259:292|247:291|247:291|244:299|244:299|242:290|242:290|230:288|218:283|218:283|212:290|212:290|213:281|213:281|201:275|192:267|192:267|184:272|184:272|189:264|189:264|179:255|173:245|173:245|164:247|164:247|170:240|170:240|169:237|168:236|166:244,1,700,4|0,3:0|0:0,0:0:0:0:
256,191,181278,6,0,P|345:180|435:175,1,179.999994506836,4|0,1:0|0:0,0:0:0:0:
172,124,181820,2,0,P|124:114|48:116,1,89.9999972534181,2|8,0:0|0:1,0:0:0:0:
204,340,182181,2,0,P|308:340|364:260,1,179.999994506836,2|2,1:2|1:2,0:0:0:0:
328,68,182724,5,2,0:0:0:0:
264,155,182904,2,0,P|255:200|255:245,1,89.9999972534181,2|0,1:2|1:2,0:0:0:0:
408,216,183266,1,2,0:0:0:0:
124,272,183446,2,0,B|69:275|69:275|24:256,1,89.9999972534181,8|0,0:1|0:0,0:0:0:0:
68,48,183808,1,2,1:2:0:0:
176,32,183989,1,2,3:2:0:0:
176,32,184079,1,2,3:2:0:0:
176,32,184169,6,0,P|160:117|71:155,1,179.999994506836,2|0,1:2|0:0,0:0:0:0:
332,83,184711,2,0,P|376:79|421:82,1,89.9999972534181,2|8,0:0|0:1,0:0:0:0:
304,328,185073,2,0,B|268:296|268:296|260:164,1,179.999994506836,2|2,0:0|1:2,0:0:0:0:
144,320,185616,5,2,0:0:0:0:
400,224,185796,2,0,P|464:256|472:364,1,179.999994506836,8|0,0:1|0:0,0:0:0:0:
316,304,186338,1,8,0:1:0:0:
175,83,186519,1,2,1:2:0:0:
336,144,186700,1,2,1:2:0:0:
160,292,186881,1,8,0:1:0:0:
324,164,187061,5,4,1:0:0:0:
72,12,187242,2,0,B|29:73|53:141|53:141|89:169,1,179.999994506836,2|2,1:2|1:2,0:0:0:0:
265,76,187784,2,0,L|165:84,1,89.9999972534181,8|0,0:1|0:0,0:0:0:0:
30,280,188145,2,0,L|122:288,1,89.9999972534181,2|2,0:0|1:2,0:0:0:0:
352,264,188507,5,2,0:0:0:0:
428,216,188687,2,0,B|400:180|400:180|324:156|268:208,1,179.999994506836,2|0,1:2|0:0,0:0:0:0:
488,152,189230,2,0,P|492:109|488:56,1,89.9999972534181,8|2,0:1|0:0,0:0:0:0:
352,264,189591,2,0,P|348:308|353:353,1,89.9999972534181,2|0,1:2|0:0,0:0:0:0:
384,80,189953,6,0,P|301:69|188:72,1,179.999994506836,2|0,1:2|0:0,0:0:0:0:
48,304,190494,2,0,P|131:315|244:312,1,179.999994506836,2|0,1:2|0:0,0:0:0:0:
496,168,191037,2,0,P|451:169|406:177,1,89.9999972534181,2|2,0:0|3:2,0:0:0:0:
332,208,191308,1,2,3:2:0:0:
332,208,191398,5,4,1:0:0:0:
80,120,191579,1,2,1:2:0:0:
304,104,191760,1,2,1:2:0:0:
244,192,191940,1,0,3:0:0:0:
244,192,192031,1,0,3:0:0:0:
244,192,192121,5,8,0:1:0:0:
464,48,192302,1,8,0:1:0:0:
200,32,192483,1,8,0:1:0:0:
436,252,192663,1,8,0:1:0:0:
268,345,192844,6,0,P|180:349|111:294,1,179.999994506836,4|0,1:0|0:0,0:0:0:0:
212,252,193386,2,0,P|228:210|233:165,1,89.9999972534181,2|8,0:0|0:1,0:0:0:0:
28,212,193747,2,0,B|0:256|0:256|10:383,1,179.999994506836,2|2,1:2|1:2,0:0:0:0:
136,188,194290,5,2,0:0:0:0:
64,108,194470,2,0,L|48:4,1,89.9999972534181,2|0,1:2|1:2,0:0:0:0:
244,176,194832,1,2,0:0:0:0:
122,294,195013,2,0,L|112:384,1,89.9999972534181,8|0,0:1|0:0,0:0:0:0:
244,176,195374,1,2,1:2:0:0:
336,348,195555,1,2,3:2:0:0:
336,348,195645,1,2,3:2:0:0:
336,348,195735,6,0,P|421:366|494:317,1,179.999994506836,2|0,1:2|0:0,0:0:0:0:
464,107,196278,2,0,P|471:63|486:21,1,89.9999972534181,2|8,0:0|0:1,0:0:0:0:
400,259,196639,2,0,P|391:215|377:173,1,89.9999972534181,2|0,0:0|0:0,0:0:0:0:
216,304,197001,6,0,P|124:312|72:228,1,179.999994506836,2|8,1:2|0:1,0:0:0:0:
92,144,197543,2,0,L|104:48,1,89.9999972534181,2|2,1:2|1:2,0:0:0:0:
256,108,197904,5,8,0:1:0:0:
352,57,198085,1,2,1:2:0:0:
383,230,198266,1,2,1:2:0:0:
275,214,198446,1,8,0:1:0:0:
429,132,198627,2,0,B|468:164|468:164|488:276,1,134.999995880127,4|0,0:0|0:0,0:0:0:0:
460,276,198988,2,0,L|456:376,1,89.9999972534181,2|2,1:2|1:2,0:0:0:0:
299,359,199350,5,8,0:1:0:0:
339,277,199531,1,2,0:0:0:0:
275,214,199711,1,2,1:2:0:0:
195,255,199892,1,2,1:2:0:0:
208,343,200073,2,0,P|144:331|108:276,1,134.999995880127,4|0,0:0|0:0,0:0:0:0:
84,248,200434,2,0,P|80:200|92:144,1,89.9999972534181,2|0,1:2|0:0,0:0:0:0:
300,56,200796,5,8,0:1:0:0:
190,207,200976,1,2,0:0:0:0:
367,149,201157,1,2,1:2:0:0:
190,92,201338,1,2,1:2:0:0:
300,242,201519,6,0,B|432:232|432:232|400:268,1,179.999994506836,4|2,0:0|0:0,0:0:0:0:
352,368,202061,2,0,L|248:352,1,89.9999972534181,2|8,0:0|0:1,0:0:0:0:
264,124,202422,2,0,L|352:137,1,89.9999972534181,2|2,0:0|1:2,0:0:0:0:
328,249,202784,5,8,0:1:0:0:
220,264,202964,1,8,0:1:0:0:
112,280,203145,1,8,0:1:0:0:
4,292,203326,2,0,L|24:192,1,89.9999972534181,2|0,1:2|0:0,0:0:0:0:
104,108,203687,5,8,3:1:0:0:
108,112,203778,1,0,3:0:0:0:
112,116,203868,1,0,3:0:0:0:
116,120,203958,1,0,3:0:0:0:
120,124,204049,1,2,3:2:0:0:
124,128,204139,1,0,3:0:0:0:
128,132,204229,1,0,3:0:0:0:
132,136,204320,1,0,3:0:0:0:
136,140,204410,6,0,B|176:108|176:108|320:100,1,179.999994506836,4|0,1:0|0:0,0:0:0:0:
412,96,204952,1,2,1:2:0:0:
412,96,205133,1,8,0:1:0:0:
344,220,205314,2,0,L|236:208,1,89.9999972534181,2|0,1:2|0:0,0:0:0:0:
368,192,205675,6,0,P|424:244|388:360,1,179.999994506836,2|2,1:2|1:2,0:0:0:0:
288,304,206217,1,0,0:0:0:0:
180,316,206398,1,2,3:2:0:0:
180,316,206488,1,2,3:2:0:0:
180,316,206579,2,0,L|80:328,1,89.9999972534181,8|2,0:1|1:2,0:0:0:0:
0,200,206940,2,0,P|60:224|140:200,1,134.999995880127,2|0,1:2|0:0,0:0:0:0:
148,196,207302,6,0,L|152:240,1,29.9999990844727,4|0,0:0|0:0,0:0:0:0:
256,192,207482,12,0,211639,0:0:0:0:
