osu file format v14

[General]
AudioFilename: audio.ogg
AudioLeadIn: 0
PreviewTime: 61381
Countdown: 0
SampleSet: Soft
StackLeniency: 0.7
Mode: 3
LetterboxInBreaks: 0
SpecialStyle: 0
WidescreenStoryboard: 1

[Editor]
DistanceSpacing: 2.4
BeatDivisor: 12
GridSize: 32
TimelineZoom: 2.8

[Metadata]
Title:everything matters (when it comes to you) (Aiobahn Remix)
TitleUnicode:everything matters (when it comes to you) (Aiobahn Remix)
Artist:San Holo
ArtistUnicode:San Holo
Creator:Tigerinity
Version:nostalgia
Source:
Tags:album1 a lot of remixes indoroid xtrippin fvrex hytex famoss future bass electronic dance music electronica edm instrumental sander van djick justin burns 김민혁 min-hyuk kim min-seung kim bitbird english
BeatmapID:3544392
BeatmapSetID:1734103

[Difficulty]
HPDrainRate:8.5
CircleSize:4
OverallDifficulty:7.7
ApproachRate:5
SliderMultiplier:1.4
SliderTickRate:1

[Events]
//Background and Video events
0,0,"yu-yiming-.jpg",0,0
//Break Periods
//Storyboard Layer 0 (Background)
//Storyboard Layer 1 (Fail)
//Storyboard Layer 2 (Pass)
//Storyboard Layer 3 (Foreground)
//Storyboard Layer 4 (Overlay)
//Storyboard Sound Samples
Sample,58334,0,"LR_Drum Hit P2.wav",50
Sample,58803,0,"LR_Drum Hit P2.wav",50
Sample,59271,0,"LR_Drum Hit P2.wav",50
Sample,59740,0,"LR_Drum Hit P2.wav",50
Sample,60209,0,"LR_Drum Hit P2.wav",50
Sample,60678,0,"LR_Drum Hit P2.wav",50
Sample,62318,0,"cymbal.wav",70
Sample,62318,0,"vibraslap.wav",70
Sample,69818,0,"cymbal.wav",70
Sample,77318,0,"cymbal.wav",70
Sample,77318,0,"vibraslap.wav",70
Sample,84818,0,"cymbal.wav",70
Sample,122787,0,"LR_Drum Hit P2.wav",70
Sample,124662,0,"LR_Drum Hit P2.wav",70
Sample,126537,0,"LR_Drum Hit P2.wav",70
Sample,128412,0,"LR_Drum Hit P2.wav",70
Sample,130287,0,"LR_Drum Hit P2.wav",50
Sample,132162,0,"LR_Drum Hit P2.wav",50
Sample,133803,0,"LR_Drum Hit P2.wav",50
Sample,134037,0,"LR_Drum Hit P2.wav",50
Sample,134740,0,"LR_Drum Hit P2.wav",50
Sample,135678,0,"LR_Drum Hit P2.wav",50
Sample,137318,0,"cymbal.wav",70
Sample,137318,0,"vibraslap.wav",70
Sample,144818,0,"cymbal.wav",70
Sample,152318,0,"cymbal.wav",70
Sample,152318,0,"vibraslap.wav",70
Sample,159818,0,"cymbal.wav",70

[TimingPoints]
1850,468.75,4,2,1,40,1,0
16850,-100,4,2,2,40,0,0
31850,-100,4,2,1,50,0,0
61850,-100,4,2,1,60,0,1
89975,-100,4,2,1,50,0,0
91850,-100,4,2,1,40,0,0
121850,-100,4,2,1,50,0,0
136850,-100,4,2,1,60,0,1
164975,-100,4,2,1,50,0,0
166850,-100,4,2,2,40,0,0
211850,476.190490722656,4,2,2,40,1,0
211850,-98.4374923706055,4,2,2,40,0,0
213755,487.804870605469,4,2,2,40,1,0
213755,-96.09375,4,2,2,40,0,0
215706,500,4,2,2,40,1,0
215706,-93.7499923706055,4,2,2,40,0,0
217706,521.739135742188,4,2,2,40,1,0
217706,-89.8437576293945,4,2,2,40,0,0
219793,535.714294433594,4,2,2,40,1,0
219793,-87.4999923706055,4,2,2,40,0,0
221936,545.454528808594,4,2,2,40,1,0
221936,-85.9375,4,2,2,40,0,0
223027,555.555541992188,4,2,2,40,1,0
223027,-84.375,4,2,2,40,0,0
224138,566.037719726563,4,2,2,40,1,0
224138,-82.8125,4,2,2,40,0,0
225270,576.923095703125,4,2,2,40,1,0
225270,-81.25,4,2,2,40,0,0
226424,576.923095703125,4,2,2,40,1,0
226424,-81.25,4,2,2,40,0,0
227577,600,4,2,2,40,1,0
227577,-78.125,4,2,2,40,0,0
228777,600,4,2,2,40,1,0
228777,-78.125,4,2,2,40,0,0

[HitObjects]
320,192,1381,128,0,1850:0:0:0:0:
448,192,1615,128,0,1850:0:0:0:0:
64,192,1850,128,0,2670:0:0:0:70:LR_Drum Hit P2.wav
192,192,1850,128,0,2084:0:0:0:0:
320,192,2553,128,0,2670:0:0:0:0:
320,192,2787,128,0,3842:0:0:0:0:
64,192,3490,128,0,3607:0:0:0:70:LR_Drum Kick Low.wav
448,192,3490,128,0,3607:0:0:0:0:
64,192,3725,128,0,3842:0:0:0:70:LR_Drum Kick Low.wav
448,192,3725,128,0,3842:0:0:0:0:
64,192,4193,128,0,4662:0:0:0:0:
448,192,4662,128,0,5717:0:0:0:0:
64,192,5365,128,0,5482:0:0:0:70:LR_Drum Kick Low.wav
192,192,5365,128,0,5482:0:0:0:0:
64,192,5600,128,0,5717:0:0:0:70:LR_Drum Kick Low.wav
192,192,5600,128,0,6537:0:0:0:0:
64,192,6537,128,0,7592:0:0:0:0:
320,192,7240,128,0,7357:0:0:0:70:LR_Drum Kick Low.wav
448,192,7240,128,0,7357:0:0:0:0:
320,192,7475,128,0,8881:0:0:0:70:LR_Drum Kick Low.wav
448,192,7475,128,0,7592:0:0:0:0:
448,192,8412,128,0,8881:0:0:0:0:
64,192,8881,128,0,9350:0:0:0:0:
320,192,9115,1,0,0:0:0:70:LR_Drum Kick Low.wav
448,192,9115,1,0,0:0:0:0:
320,192,9350,1,0,0:0:0:70:LR_Drum Hit P2.wav
448,192,9350,128,0,10170:0:0:0:0:
192,192,10053,128,0,10170:0:0:0:0:
192,192,10287,128,0,11342:0:0:0:0:
64,192,10990,128,0,11107:0:0:0:70:LR_Drum Kick Low.wav
448,192,10990,128,0,11107:0:0:0:0:
64,192,11225,128,0,11342:0:0:0:70:LR_Drum Kick Low.wav
448,192,11225,128,0,11342:0:0:0:0:
192,192,11693,128,0,12162:0:0:0:0:
64,192,12162,128,0,13217:0:0:0:0:
320,192,12865,128,0,12982:0:0:0:70:LR_Drum Kick Low.wav
448,192,12865,128,0,12982:0:0:0:0:
320,192,13100,128,0,14037:0:0:0:70:LR_Drum Kick Low.wav
448,192,13100,128,0,13217:0:0:0:0:
192,192,14037,128,0,15092:0:0:0:0:
64,192,14740,128,0,14857:0:0:0:70:LR_Drum Kick Low.wav
448,192,14740,128,0,14857:0:0:0:0:
64,192,14975,128,0,15092:0:0:0:70:LR_Drum Kick Low.wav
448,192,14975,128,0,16381:0:0:0:0:
64,192,15678,1,0,0:0:0:70:LR_Drum Hit P.wav
192,192,15678,1,0,0:0:0:0:
320,192,15912,128,0,16381:0:0:0:0:
64,192,16146,1,0,0:0:0:70:LR_Drum Hit P.wav
192,192,16146,1,0,0:0:0:0:
64,192,16381,128,0,16732:0:0:0:0:
320,192,16615,1,0,0:0:0:70:LR_Drum Kick Low.wav
448,192,16615,1,0,0:0:0:0:
64,192,16850,1,0,0:0:0:70:cymbal.wav
320,192,16850,1,0,0:0:0:70:LR_Drum Hit P2.wav
448,192,16850,128,0,17670:0:0:0:0:
192,192,17084,1,0,0:0:0:0:
320,192,17318,1,0,0:0:0:0:
192,192,17553,128,0,17670:0:0:0:0:
192,192,17787,128,0,18842:0:0:0:0:
448,192,18021,1,0,0:0:0:0:
320,192,18256,1,0,0:0:0:0:
64,192,18490,128,0,18607:0:0:0:70:LR_Drum Kick Low.wav
448,192,18490,128,0,18607:0:0:0:0:
64,192,18725,128,0,18842:0:0:0:70:LR_Drum Kick Low.wav
448,192,18725,128,0,18842:0:0:0:0:
192,192,18959,1,0,0:0:0:0:
64,192,19193,128,0,19662:0:0:0:0:
192,192,19428,1,0,0:0:0:0:
448,192,19662,128,0,20717:0:0:0:0:
64,192,19896,1,0,0:0:0:0:
320,192,20131,1,0,0:0:0:0:
64,192,20365,128,0,20482:0:0:0:70:LR_Drum Kick Low.wav
192,192,20365,128,0,20482:0:0:0:0:
64,192,20600,128,0,20717:0:0:0:70:LR_Drum Kick Low.wav
192,192,20600,128,0,21537:0:0:0:0:
448,192,20834,1,0,0:0:0:0:
64,192,21068,1,0,0:0:0:0:
448,192,21303,1,0,0:0:0:0:
64,192,21537,128,0,22592:0:0:0:0:
320,192,21771,1,0,0:0:0:0:
192,192,22006,1,0,0:0:0:0:
320,192,22240,128,0,22357:0:0:0:70:LR_Drum Kick Low.wav
448,192,22240,128,0,22357:0:0:0:0:
320,192,22475,128,0,23881:0:0:0:70:LR_Drum Kick Low.wav
448,192,22475,128,0,22592:0:0:0:0:
64,192,22709,1,0,0:0:0:0:
448,192,22943,1,0,0:0:0:0:
64,192,23178,1,0,0:0:0:70:LR_Drum Hit P.wav
192,192,23178,1,0,0:0:0:0:
448,192,23412,128,0,23881:0:0:0:0:
64,192,23646,1,0,0:0:0:70:LR_Drum Hit P.wav
192,192,23646,1,0,0:0:0:0:
64,192,23881,128,0,24232:0:0:0:0:
320,192,24115,1,0,0:0:0:70:LR_Drum Kick Low.wav
448,192,24115,1,0,0:0:0:0:
64,192,24350,128,0,25170:0:0:0:70:cymbal.wav
192,192,24350,1,0,0:0:0:70:LR_Drum Hit P2.wav
448,192,24350,1,0,0:0:0:0:
320,192,24584,1,0,0:0:0:0:
192,192,24818,1,0,0:0:0:0:
320,192,25053,128,0,25170:0:0:0:0:
320,192,25287,128,0,26342:0:0:0:0:
64,192,25521,1,0,0:0:0:0:
192,192,25756,1,0,0:0:0:0:
64,192,25990,128,0,26107:0:0:0:70:LR_Drum Kick Low.wav
448,192,25990,128,0,26107:0:0:0:0:
64,192,26225,128,0,26342:0:0:0:70:LR_Drum Kick Low.wav
448,192,26225,128,0,26342:0:0:0:0:
320,192,26459,1,0,0:0:0:0:
192,192,26693,128,0,27162:0:0:0:0:
320,192,26928,1,0,0:0:0:0:
64,192,27162,128,0,28217:0:0:0:0:
448,192,27396,1,0,0:0:0:0:
192,192,27631,1,0,0:0:0:0:
320,192,27865,128,0,27982:0:0:0:70:LR_Drum Kick Low.wav
448,192,27865,128,0,27982:0:0:0:0:
320,192,28100,128,0,29037:0:0:0:70:LR_Drum Kick Low.wav
448,192,28100,128,0,28217:0:0:0:0:
64,192,28334,1,0,0:0:0:0:
192,192,28568,1,0,0:0:0:0:
448,192,28803,1,0,0:0:0:0:
192,192,29037,128,0,30092:0:0:0:0:
64,192,29271,1,0,0:0:0:0:
320,192,29506,1,0,0:0:0:0:
64,192,29740,128,0,29857:0:0:0:70:LR_Drum Kick Low.wav
448,192,29740,128,0,29857:0:0:0:0:
64,192,29975,128,0,30092:0:0:0:70:LR_Drum Kick Low.wav
448,192,29975,128,0,31381:0:0:0:0:
192,192,30209,1,0,0:0:0:0:
320,192,30443,1,0,0:0:0:0:
64,192,30678,1,0,0:0:0:70:LR_Drum Hit P.wav
192,192,30678,1,0,0:0:0:0:
320,192,30912,128,0,31381:0:0:0:0:
64,192,31146,1,0,0:0:0:70:LR_Drum Hit P.wav
192,192,31146,1,0,0:0:0:0:
64,192,31381,128,0,31732:0:0:0:0:
320,192,31615,1,0,0:0:0:70:LR_Drum Kick Low.wav
448,192,31615,1,0,0:0:0:0:
64,192,31850,1,0,0:0:0:70:Kick 6.wav
320,192,31850,1,0,0:0:0:70:cymbal.wav
448,192,31850,1,0,0:0:0:0:
192,192,32084,128,0,32201:0:0:0:0:
64,192,32201,1,0,0:0:0:0:
320,192,32318,128,0,32435:0:0:0:70:Kick 6.wav
448,192,32318,1,0,0:0:0:70:LR_Clap hollow echo.wav
192,192,32553,128,0,32670:0:0:0:0:
320,192,32670,1,0,0:0:0:0:
64,192,32787,1,0,0:0:0:70:Kick 6.wav
448,192,32787,128,0,32904:0:0:0:0:
320,192,33021,128,0,33139:0:0:0:0:
64,192,33256,128,0,33373:0:0:0:70:Kick 6.wav
192,192,33256,1,0,0:0:0:70:LR_Clap hollow echo.wav
448,192,33490,128,0,33607:0:0:0:0:
192,192,33607,1,0,0:0:0:0:
192,192,33725,1,0,0:0:0:70:Kick 6.wav
448,192,33725,1,0,0:0:0:0:
320,192,33959,128,0,34076:0:0:0:0:
448,192,34076,1,0,0:0:0:0:
64,192,34193,1,0,0:0:0:70:Kick 6.wav
192,192,34193,128,0,34310:0:0:0:70:LR_Clap hollow echo.wav
448,192,34428,128,0,34545:0:0:0:0:
192,192,34545,1,0,0:0:0:0:
64,192,34662,128,0,34779:0:0:0:70:Kick 6.wav
320,192,34662,1,0,0:0:0:0:
192,192,34896,128,0,35014:0:0:0:0:
64,192,35014,1,0,0:0:0:0:
320,192,35131,128,0,35482:0:0:0:70:Kick 6.wav
448,192,35131,1,0,0:0:0:70:LR_Clap hollow echo.wav
64,192,35248,1,0,0:0:0:0:
448,192,35365,128,0,35482:0:0:0:0:
192,192,35482,1,0,0:0:0:0:
64,192,35600,1,0,0:0:0:70:Kick 6.wav
448,192,35600,1,0,0:0:0:0:
64,192,35834,128,0,35951:0:0:0:0:
192,192,35951,1,0,0:0:0:0:
320,192,36068,128,0,36185:0:0:0:70:Kick 6.wav
448,192,36068,1,0,0:0:0:70:LR_Clap hollow echo.wav
192,192,36303,128,0,36420:0:0:0:0:
320,192,36420,1,0,0:0:0:0:
64,192,36537,1,0,0:0:0:70:Kick 6.wav
448,192,36537,128,0,36654:0:0:0:0:
192,192,36771,128,0,36889:0:0:0:0:
320,192,37006,1,0,0:0:0:70:Kick 6.wav
448,192,37006,128,0,37123:0:0:0:70:LR_Clap hollow echo.wav
64,192,37240,128,0,37357:0:0:0:0:
320,192,37357,1,0,0:0:0:0:
64,192,37475,1,0,0:0:0:70:Kick 6.wav
320,192,37475,1,0,0:0:0:0:
192,192,37709,128,0,37826:0:0:0:0:
64,192,37826,1,0,0:0:0:0:
320,192,37943,128,0,38060:0:0:0:70:Kick 6.wav
448,192,37943,1,0,0:0:0:70:LR_Clap hollow echo.wav
64,192,38178,128,0,38295:0:0:0:0:
448,192,38295,1,0,0:0:0:0:
192,192,38412,1,0,0:0:0:70:Kick 6.wav
320,192,38412,128,0,38646:0:0:0:0:
64,192,38646,128,0,38764:0:0:0:0:
192,192,38764,1,0,0:0:0:0:
320,192,38881,128,0,39232:0:0:0:70:Kick 6.wav
448,192,38881,1,0,0:0:0:70:LR_Clap hollow echo.wav
64,192,38998,1,0,0:0:0:0:
448,192,39115,128,0,39232:0:0:0:0:
192,192,39232,1,0,0:0:0:0:
64,192,39350,1,0,0:0:0:70:Kick 6.wav
448,192,39350,1,0,0:0:0:70:cymbal.wav
192,192,39584,128,0,39701:0:0:0:0:
448,192,39701,1,0,0:0:0:0:
64,192,39818,128,0,39935:0:0:0:70:Kick 6.wav
192,192,39818,1,0,0:0:0:70:LR_Clap hollow echo.wav
320,192,40053,128,0,40170:0:0:0:0:
192,192,40170,1,0,0:0:0:0:
64,192,40287,1,0,0:0:0:70:Kick 6.wav
448,192,40287,128,0,40404:0:0:0:0:
192,192,40521,128,0,40639:0:0:0:0:
320,192,40756,128,0,40873:0:0:0:70:Kick 6.wav
448,192,40756,1,0,0:0:0:70:LR_Clap hollow echo.wav
64,192,40990,128,0,41107:0:0:0:0:
448,192,41107,1,0,0:0:0:0:
64,192,41225,1,0,0:0:0:70:Kick 6.wav
448,192,41225,1,0,0:0:0:0:
320,192,41459,128,0,41576:0:0:0:0:
64,192,41576,1,0,0:0:0:0:
192,192,41693,128,0,41810:0:0:0:70:Kick 6.wav
448,192,41693,1,0,0:0:0:70:LR_Clap hollow echo.wav
64,192,41928,128,0,42045:0:0:0:0:
320,192,42045,1,0,0:0:0:0:
192,192,42162,1,0,0:0:0:70:Kick 6.wav
448,192,42162,128,0,42279:0:0:0:0:
320,192,42396,128,0,42514:0:0:0:0:
448,192,42514,1,0,0:0:0:0:
64,192,42631,1,0,0:0:0:70:Kick 6.wav
192,192,42631,128,0,42982:0:0:0:70:LR_Clap hollow echo.wav
320,192,42748,1,0,0:0:0:0:
64,192,42865,128,0,42982:0:0:0:0:
448,192,42982,1,0,0:0:0:0:
64,192,43100,1,0,0:0:0:70:Kick 6.wav
192,192,43100,1,0,0:0:0:0:
448,192,43334,128,0,43451:0:0:0:0:
192,192,43451,1,0,0:0:0:0:
64,192,43568,128,0,43685:0:0:0:70:Kick 6.wav
448,192,43568,1,0,0:0:0:70:LR_Clap hollow echo.wav
320,192,43803,128,0,43920:0:0:0:0:
192,192,43920,1,0,0:0:0:0:
320,192,44037,1,0,0:0:0:70:Kick 6.wav
448,192,44037,128,0,44154:0:0:0:0:
64,192,44271,128,0,44389:0:0:0:0:
192,192,44506,128,0,44623:0:0:0:70:Kick 6.wav
320,192,44506,1,0,0:0:0:70:LR_Clap hollow echo.wav
448,192,44740,128,0,44857:0:0:0:0:
64,192,44857,1,0,0:0:0:0:
64,192,44975,1,0,0:0:0:70:Kick 6.wav
448,192,44975,1,0,0:0:0:0:
192,192,45209,128,0,45326:0:0:0:0:
64,192,45326,1,0,0:0:0:0:
320,192,45443,1,0,0:0:0:70:Kick 6.wav
448,192,45443,128,0,45560:0:0:0:70:LR_Clap hollow echo.wav
192,192,45678,128,0,45795:0:0:0:0:
320,192,45795,1,0,0:0:0:0:
64,192,45912,1,0,0:0:0:70:Kick 6.wav
448,192,45912,128,0,46146:0:0:0:0:
64,192,46146,128,0,46264:0:0:0:0:
192,192,46264,1,0,0:0:0:0:
320,192,46381,1,0,0:0:0:70:Kick 6.wav
448,192,46381,128,0,46732:0:0:0:70:LR_Clap hollow echo.wav
64,192,46498,1,0,0:0:0:0:
320,192,46615,128,0,46732:0:0:0:0:
192,192,46732,1,0,0:0:0:0:
64,192,46850,1,0,0:0:0:70:Kick 6.wav
320,192,46850,1,0,0:0:0:70:cymbal.wav
448,192,46850,1,0,0:0:0:70:LR_Drum Hit P2.wav
192,192,47084,128,0,47201:0:0:0:0:
448,192,47201,1,0,0:0:0:0:
64,192,47318,128,0,47435:0:0:0:70:LR_Drum Hit P2.wav
320,192,47553,128,0,47670:0:0:0:0:
192,192,47670,1,0,0:0:0:0:
64,192,47787,1,0,0:0:0:70:Kick 6.wav
448,192,47787,128,0,47904:0:0:0:70:LR_Drum Hit P2.wav
192,192,48021,128,0,48139:0:0:0:0:
448,192,48256,128,0,48373:0:0:0:70:LR_Drum Hit P2.wav
64,192,48490,128,0,48607:0:0:0:0:
320,192,48607,1,0,0:0:0:0:
64,192,48725,1,0,0:0:0:70:Kick 6.wav
192,192,48725,1,0,0:0:0:70:LR_Drum Hit P2.wav
320,192,48959,128,0,49076:0:0:0:0:
448,192,49076,1,0,0:0:0:0:
192,192,49193,128,0,49310:0:0:0:70:LR_Drum Hit P2.wav
64,192,49428,128,0,49545:0:0:0:0:
448,192,49545,1,0,0:0:0:0:
192,192,49662,1,0,0:0:0:70:Kick 6.wav
320,192,49662,128,0,49779:0:0:0:70:LR_Drum Hit P2.wav
64,192,49896,128,0,50014:0:0:0:0:
448,192,50014,1,0,0:0:0:0:
320,192,50131,128,0,50482:0:0:0:70:LR_Drum Hit P2.wav
64,192,50248,1,0,0:0:0:0:
448,192,50365,128,0,50482:0:0:0:0:
192,192,50482,1,0,0:0:0:0:
64,192,50600,1,0,0:0:0:70:Kick 6.wav
448,192,50600,1,0,0:0:0:70:LR_Drum Hit P2.wav
192,192,50834,128,0,50951:0:0:0:0:
448,192,50951,1,0,0:0:0:0:
64,192,51068,128,0,51185:0:0:0:70:LR_Drum Hit P2.wav
320,192,51303,128,0,51420:0:0:0:0:
192,192,51420,1,0,0:0:0:0:
320,192,51537,1,0,0:0:0:70:Kick 6.wav
448,192,51537,128,0,51654:0:0:0:70:LR_Drum Hit P2.wav
64,192,51771,128,0,51889:0:0:0:0:
448,192,52006,128,0,52123:0:0:0:70:LR_Drum Hit P2.wav
192,192,52240,128,0,52357:0:0:0:0:
320,192,52357,1,0,0:0:0:0:
64,192,52475,1,0,0:0:0:70:Kick 6.wav
448,192,52475,1,0,0:0:0:70:LR_Drum Hit P2.wav
192,192,52709,128,0,52826:0:0:0:0:
64,192,52826,1,0,0:0:0:0:
320,192,52943,128,0,53060:0:0:0:70:LR_Drum Hit P2.wav
64,192,53178,128,0,53295:0:0:0:0:
448,192,53295,1,0,0:0:0:0:
192,192,53412,1,0,0:0:0:70:Kick 6.wav
320,192,53412,128,0,53646:0:0:0:70:LR_Drum Hit P2.wav
64,192,53646,128,0,53764:0:0:0:0:
448,192,53764,1,0,0:0:0:0:
320,192,53881,128,0,54232:0:0:0:70:LR_Drum Hit P2.wav
64,192,53998,1,0,0:0:0:0:
448,192,54115,128,0,54232:0:0:0:0:
192,192,54232,1,0,0:0:0:0:
64,192,54350,1,0,0:0:0:70:Kick 6.wav
320,192,54350,128,0,54584:0:0:0:50:LR_Drum Hit P2.wav
448,192,54350,128,0,55170:0:0:0:0:
64,192,54584,128,0,54701:0:0:0:70:Kick 6.wav
192,192,54584,128,0,54701:0:0:0:50:LR_Drum Hit P2.wav
64,192,54818,128,0,54935:0:0:0:70:Kick 6.wav
320,192,54818,128,0,54935:0:0:0:50:LR_Drum Hit P2.wav
192,192,55053,128,0,55170:0:0:0:70:Kick 6.wav
320,192,55053,128,0,55170:0:0:0:50:LR_Drum Hit P2.wav
64,192,55287,128,0,55756:0:0:0:70:Kick 6.wav
448,192,55287,128,0,55404:0:0:0:50:LR_Drum Hit P2.wav
320,192,55521,128,0,55639:0:0:0:70:Kick 6.wav
448,192,55521,128,0,55639:0:0:0:50:LR_Drum Hit P2.wav
192,192,55756,128,0,55873:0:0:0:70:Kick 6.wav
448,192,55756,128,0,55873:0:0:0:50:LR_Drum Hit P2.wav
192,192,55990,128,0,56107:0:0:0:70:Kick 6.wav
320,192,55990,128,0,56107:0:0:0:50:LR_Drum Hit P2.wav
64,192,56225,128,0,57045:0:0:0:70:Kick 6.wav
448,192,56225,128,0,56342:0:0:0:50:LR_Drum Hit P2.wav
192,192,56459,128,0,56576:0:0:0:70:Kick 6.wav
320,192,56459,128,0,56576:0:0:0:50:LR_Drum Hit P2.wav
192,192,56693,128,0,56810:0:0:0:70:Kick 6.wav
448,192,56693,128,0,56810:0:0:0:50:LR_Drum Hit P2.wav
320,192,56928,128,0,57045:0:0:0:70:Kick 6.wav
448,192,56928,128,0,57045:0:0:0:50:LR_Drum Hit P2.wav
64,192,57162,128,0,57279:0:0:0:70:Kick 6.wav
448,192,57162,128,0,57631:0:0:0:50:LR_Drum Hit P2.wav
64,192,57396,128,0,57514:0:0:0:70:Kick 6.wav
192,192,57396,128,0,57514:0:0:0:50:LR_Drum Hit P2.wav
64,192,57631,128,0,57748:0:0:0:70:Kick 6.wav
320,192,57631,128,0,57748:0:0:0:50:LR_Drum Hit P2.wav
192,192,57865,128,0,57982:0:0:0:70:Kick 6.wav
320,192,57865,128,0,57982:0:0:0:50:LR_Drum Hit P2.wav
64,192,58100,1,0,0:0:0:70:Kick 6.wav
448,192,58100,128,0,58217:0:0:0:50:LR_Drum Hit P2.wav
320,192,58217,1,0,0:0:0:50:LR_Drum Hit P2.wav
64,192,58334,128,0,58451:0:0:0:70:Kick 6.wav
320,192,58451,1,0,0:0:0:50:LR_Drum Hit P2.wav
192,192,58568,128,0,58685:0:0:0:70:Kick 6.wav
448,192,58568,1,0,0:0:0:50:LR_Drum Hit P2.wav
64,192,58685,1,0,0:0:0:50:LR_Drum Hit P2.wav
320,192,58803,128,0,58920:0:0:0:70:Kick 6.wav
192,192,58920,1,0,0:0:0:50:LR_Drum Hit P2.wav
64,192,59037,128,0,59154:0:0:0:70:Kick 6.wav
448,192,59037,128,0,59271:0:0:0:50:LR_Drum Hit P2.wav
192,192,59154,1,0,0:0:0:50:LR_Drum Hit P2.wav
320,192,59271,128,0,59506:0:0:0:70:Kick 6.wav
448,192,59389,1,0,0:0:0:50:LR_Drum Hit P2.wav
64,192,59506,1,0,0:0:0:70:Kick 6.wav
192,192,59506,128,0,59740:0:0:0:50:LR_Drum Hit P2.wav
320,192,59623,1,0,0:0:0:50:LR_Drum Hit P2.wav
64,192,59740,128,0,59975:0:0:0:70:Kick 6.wav
192,192,59857,1,0,0:0:0:50:LR_Drum Hit P2.wav
320,192,59975,1,0,0:0:0:70:Kick 6.wav
448,192,59975,128,0,60209:0:0:0:50:LR_Drum Hit P2.wav
192,192,60092,128,0,60209:0:0:0:50:LR_Drum Hit P2.wav
320,192,60209,128,0,60443:0:0:0:70:Kick 6.wav
64,192,60326,128,0,60443:0:0:0:50:LR_Drum Hit P2.wav
192,192,60443,1,0,0:0:0:70:Kick 6.wav
448,192,60443,128,0,60678:0:0:0:50:LR_Drum Hit P2.wav
64,192,60560,128,0,60795:0:0:0:50:LR_Drum Hit P2.wav
320,192,60678,128,0,60795:0:0:0:70:Kick 6.wav
192,192,60795,128,0,60912:0:0:0:50:LR_Drum Hit P2.wav
64,192,60912,128,0,61146:0:0:0:100:h_Fill4_007_Reverb.wav
320,192,60912,128,0,61029:0:0:0:0:
448,192,60912,128,0,61146:0:0:0:0:
64,192,61381,128,0,61498:0:0:0:0:
448,192,61381,128,0,61732:0:0:0:0:
64,192,61850,128,0,62553:0:0:0:70:Kick 6.wav
320,192,61850,128,0,62084:0:0:0:0:
448,192,61850,128,0,61967:0:0:0:0:
192,192,62318,128,0,62553:0:0:0:70:Kick 6.wav
448,192,62318,128,0,62553:0:0:0:70:LR_Clap hollow echo.wav
320,192,62553,128,0,62670:0:0:0:0:
192,192,62787,128,0,62904:0:0:0:70:Kick 6.wav
320,192,62787,128,0,63021:0:0:0:0:
320,192,63178,1,0,0:0:0:0:
64,192,63256,1,0,0:0:0:70:Kick 6.wav
448,192,63256,1,0,0:0:0:70:LR_Clap hollow echo.wav
320,192,63373,1,0,0:0:0:0:
64,192,63490,1,0,0:0:0:0:
192,192,63490,128,0,63725:0:0:0:0:
320,192,63607,128,0,63725:0:0:0:0:
64,192,63725,128,0,64662:0:0:0:70:Kick 6.wav
448,192,63725,1,0,0:0:0:0:
192,192,63959,128,0,64076:0:0:0:0:
320,192,63959,128,0,64076:0:0:0:0:
192,192,64193,128,0,64310:0:0:0:70:Kick 6.wav
448,192,64193,128,0,64310:0:0:0:70:LR_Clap hollow echo.wav
320,192,64428,128,0,64545:0:0:0:0:
448,192,64428,128,0,64545:0:0:0:0:
320,192,64662,128,0,64779:0:0:0:70:Kick 6.wav
448,192,64662,128,0,64896:0:0:0:0:
448,192,65053,1,0,0:0:0:0:
64,192,65131,1,0,0:0:0:70:Kick 6.wav
192,192,65131,1,0,0:0:0:70:LR_Clap hollow echo.wav
64,192,65248,1,0,0:0:0:0:
192,192,65365,128,0,65600:0:0:0:0:
320,192,65365,1,0,0:0:0:0:
320,192,65482,128,0,65600:0:0:0:0:
64,192,65600,1,0,0:0:0:70:Kick 6.wav
448,192,65600,128,0,66537:0:0:0:0:
192,192,65834,128,0,65951:0:0:0:0:
320,192,65834,128,0,65951:0:0:0:0:
64,192,66068,128,0,66185:0:0:0:70:Kick 6.wav
320,192,66068,128,0,66185:0:0:0:70:LR_Clap hollow echo.wav
64,192,66303,128,0,66420:0:0:0:0:
192,192,66303,128,0,66420:0:0:0:0:
64,192,66537,128,0,66771:0:0:0:70:Kick 6.wav
192,192,66537,128,0,66654:0:0:0:0:
64,192,66928,1,0,0:0:0:0:
320,192,67006,1,0,0:0:0:70:Kick 6.wav
448,192,67006,1,0,0:0:0:70:LR_Clap hollow echo.wav
64,192,67240,128,0,67357:0:0:0:0:
192,192,67240,1,0,0:0:0:0:
320,192,67357,128,0,67475:0:0:0:0:
64,192,67475,128,0,67592:0:0:0:70:Kick 6.wav
448,192,67475,1,0,0:0:0:0:
192,192,67592,128,0,67709:0:0:0:0:
320,192,67709,128,0,67826:0:0:0:0:
192,192,67826,128,0,67943:0:0:0:0:
64,192,67943,1,0,0:0:0:70:Kick 6.wav
448,192,67943,128,0,68060:0:0:0:70:LR_Clap hollow echo.wav
320,192,68060,128,0,68178:0:0:0:0:
64,192,68178,128,0,68295:0:0:0:0:
192,192,68295,128,0,68412:0:0:0:0:
320,192,68412,128,0,68529:0:0:0:70:Kick 6.wav
448,192,68412,128,0,68646:0:0:0:0:
192,192,68803,128,0,69115:0:0:0:0:
64,192,68881,128,0,69115:0:0:0:70:Kick 6.wav
448,192,68881,128,0,69115:0:0:0:70:LR_Clap hollow echo.wav
320,192,69115,1,0,0:0:0:0:
192,192,69232,1,0,0:0:0:0:
64,192,69350,128,0,69467:0:0:0:70:Kick 6.wav
320,192,69350,128,0,69584:0:0:0:0:
448,192,69350,128,0,70053:0:0:0:0:
64,192,69818,128,0,69935:0:0:0:70:Kick 6.wav
320,192,69818,128,0,69935:0:0:0:70:LR_Clap hollow echo.wav
64,192,70053,128,0,70170:0:0:0:0:
192,192,70053,128,0,70170:0:0:0:0:
64,192,70287,128,0,70404:0:0:0:70:Kick 6.wav
192,192,70287,128,0,70521:0:0:0:0:
192,192,70678,1,0,0:0:0:0:
64,192,70756,1,0,0:0:0:70:Kick 6.wav
448,192,70756,1,0,0:0:0:70:LR_Clap hollow echo.wav
192,192,70873,1,0,0:0:0:0:
320,192,70990,128,0,71225:0:0:0:0:
448,192,70990,1,0,0:0:0:0:
192,192,71107,128,0,71225:0:0:0:0:
64,192,71225,1,0,0:0:0:70:Kick 6.wav
448,192,71225,128,0,72162:0:0:0:0:
192,192,71459,128,0,71576:0:0:0:0:
320,192,71459,128,0,71576:0:0:0:0:
64,192,71693,128,0,71810:0:0:0:70:Kick 6.wav
320,192,71693,128,0,71810:0:0:0:70:LR_Clap hollow echo.wav
64,192,71928,128,0,72045:0:0:0:0:
192,192,71928,128,0,72045:0:0:0:0:
64,192,72162,128,0,72279:0:0:0:70:Kick 6.wav
192,192,72162,128,0,72396:0:0:0:0:
192,192,72553,1,0,0:0:0:0:
64,192,72631,1,0,0:0:0:70:Kick 6.wav
448,192,72631,1,0,0:0:0:70:LR_Clap hollow echo.wav
448,192,72748,1,0,0:0:0:0:
192,192,72865,1,0,0:0:0:0:
320,192,72865,128,0,73100:0:0:0:0:
192,192,72982,128,0,73100:0:0:0:0:
64,192,73100,128,0,74037:0:0:0:70:Kick 6.wav
448,192,73100,1,0,0:0:0:0:
192,192,73334,128,0,73451:0:0:0:0:
320,192,73334,128,0,73451:0:0:0:0:
192,192,73568,128,0,73685:0:0:0:70:Kick 6.wav
448,192,73568,128,0,73685:0:0:0:70:LR_Clap hollow echo.wav
320,192,73803,128,0,73920:0:0:0:0:
448,192,73803,128,0,73920:0:0:0:0:
320,192,74037,128,0,74154:0:0:0:70:Kick 6.wav
448,192,74037,128,0,74271:0:0:0:0:
448,192,74428,1,0,0:0:0:0:
64,192,74506,1,0,0:0:0:70:Kick 6.wav
192,192,74506,128,0,74623:0:0:0:70:LR_Clap hollow echo.wav
320,192,74623,128,0,74740:0:0:0:0:
64,192,74740,128,0,74857:0:0:0:0:
448,192,74740,1,0,0:0:0:0:
192,192,74857,128,0,74975:0:0:0:0:
64,192,74975,128,0,75443:0:0:0:70:Kick 6.wav
448,192,74975,128,0,75326:0:0:0:0:
448,192,75443,128,0,75795:0:0:0:0:
320,192,75678,1,0,0:0:0:70:LR_Drum Hit P.wav
192,192,75736,1,0,0:0:0:0:
64,192,75795,1,0,0:0:0:0:
320,192,75912,1,0,0:0:0:70:LR_Drum Hit P.wav
448,192,75912,1,0,0:0:0:0:
64,192,76029,1,0,0:0:0:70:LR_Drum Hit P.wav
192,192,76029,1,0,0:0:0:0:
320,192,76146,128,0,76225:0:0:0:0:
448,192,76225,128,0,76303:0:0:0:0:
192,192,76303,128,0,76381:0:0:0:0:
64,192,76381,128,0,76537:0:0:0:70:LR_Drum Hit P2.wav
320,192,76381,128,0,76459:0:0:0:70:soft-hitclap.wav
448,192,76459,128,0,76615:0:0:0:0:
192,192,76537,128,0,76615:0:0:0:0:
320,192,76615,128,0,76693:0:0:0:0:
192,192,76693,128,0,76771:0:0:0:0:
64,192,76771,128,0,76850:0:0:0:0:
320,192,76850,128,0,77084:0:0:0:70:Kick 6.wav
448,192,76850,128,0,77553:0:0:0:0:
192,192,77084,1,0,0:0:0:0:
64,192,77318,128,0,77553:0:0:0:70:Kick 6.wav
320,192,77318,128,0,77553:0:0:0:70:LR_Clap hollow echo.wav
192,192,77553,128,0,77670:0:0:0:0:
192,192,77787,128,0,78021:0:0:0:70:Kick 6.wav
320,192,77787,128,0,77904:0:0:0:0:
448,192,78021,1,0,0:0:0:0:
192,192,78178,1,0,0:0:0:0:
64,192,78256,1,0,0:0:0:70:Kick 6.wav
320,192,78256,1,0,0:0:0:70:LR_Clap hollow echo.wav
192,192,78373,1,0,0:0:0:0:
320,192,78490,128,0,78725:0:0:0:0:
448,192,78490,1,0,0:0:0:0:
192,192,78607,128,0,78725:0:0:0:0:
64,192,78725,128,0,79076:0:0:0:70:Kick 6.wav
448,192,78725,128,0,78842:0:0:0:0:
320,192,78959,128,0,79076:0:0:0:0:
448,192,78959,128,0,79076:0:0:0:0:
64,192,79193,128,0,79310:0:0:0:70:Kick 6.wav
448,192,79193,128,0,79545:0:0:0:70:LR_Clap hollow echo.wav
64,192,79428,128,0,79545:0:0:0:0:
192,192,79428,128,0,79545:0:0:0:0:
320,192,79662,128,0,79779:0:0:0:70:Kick 6.wav
448,192,79662,128,0,79896:0:0:0:0:
192,192,79896,1,0,0:0:0:0:
448,192,80053,1,0,0:0:0:0:
64,192,80131,1,0,0:0:0:70:Kick 6.wav
192,192,80131,1,0,0:0:0:70:LR_Clap hollow echo.wav
64,192,80248,1,0,0:0:0:0:
192,192,80365,128,0,80600:0:0:0:0:
320,192,80365,1,0,0:0:0:0:
320,192,80482,128,0,80600:0:0:0:0:
64,192,80600,128,0,80717:0:0:0:70:Kick 6.wav
448,192,80600,128,0,80951:0:0:0:0:
64,192,80834,128,0,80951:0:0:0:0:
320,192,80834,128,0,80951:0:0:0:0:
192,192,81068,128,0,81420:0:0:0:70:Kick 6.wav
448,192,81068,128,0,81185:0:0:0:70:LR_Clap hollow echo.wav
320,192,81303,128,0,81420:0:0:0:0:
448,192,81303,128,0,81420:0:0:0:0:
64,192,81537,128,0,81654:0:0:0:70:Kick 6.wav
192,192,81537,128,0,81771:0:0:0:0:
448,192,81771,1,0,0:0:0:0:
192,192,81928,1,0,0:0:0:0:
64,192,82006,1,0,0:0:0:70:Kick 6.wav
320,192,82006,1,0,0:0:0:70:LR_Clap hollow echo.wav
64,192,82240,128,0,82357:0:0:0:0:
448,192,82240,1,0,0:0:0:0:
320,192,82357,128,0,82475:0:0:0:0:
64,192,82475,128,0,82592:0:0:0:70:Kick 6.wav
448,192,82475,1,0,0:0:0:0:
192,192,82592,128,0,82709:0:0:0:0:
320,192,82709,128,0,82826:0:0:0:0:
192,192,82826,128,0,82943:0:0:0:0:
64,192,82943,1,0,0:0:0:70:Kick 6.wav
448,192,82943,128,0,83060:0:0:0:70:LR_Clap hollow echo.wav
320,192,83060,128,0,83178:0:0:0:0:
192,192,83178,128,0,83295:0:0:0:0:
448,192,83295,128,0,83412:0:0:0:0:
64,192,83412,128,0,83646:0:0:0:70:Kick 6.wav
192,192,83412,128,0,83529:0:0:0:0:
448,192,83646,1,0,0:0:0:0:
320,192,83803,128,0,84115:0:0:0:0:
64,192,83881,128,0,84115:0:0:0:70:Kick 6.wav
448,192,83881,128,0,84115:0:0:0:70:LR_Clap hollow echo.wav
192,192,84115,1,0,0:0:0:0:
320,192,84232,1,0,0:0:0:0:
64,192,84350,128,0,85053:0:0:0:70:Kick 6.wav
192,192,84350,128,0,84467:0:0:0:0:
448,192,84350,128,0,84584:0:0:0:0:
192,192,84584,1,0,0:0:0:0:
320,192,84818,128,0,84935:0:0:0:70:Kick 6.wav
448,192,84818,128,0,84935:0:0:0:70:LR_Clap hollow echo.wav
192,192,85053,128,0,85170:0:0:0:0:
320,192,85053,128,0,85170:0:0:0:0:
64,192,85287,128,0,85404:0:0:0:70:Kick 6.wav
192,192,85287,128,0,85521:0:0:0:0:
448,192,85521,1,0,0:0:0:0:
192,192,85678,1,0,0:0:0:0:
64,192,85756,1,0,0:0:0:70:Kick 6.wav
320,192,85756,1,0,0:0:0:70:LR_Clap hollow echo.wav
192,192,85873,1,0,0:0:0:0:
320,192,85990,128,0,86225:0:0:0:0:
448,192,85990,1,0,0:0:0:0:
192,192,86107,128,0,86225:0:0:0:0:
64,192,86225,128,0,86576:0:0:0:70:Kick 6.wav
448,192,86225,128,0,86342:0:0:0:0:
320,192,86459,128,0,86576:0:0:0:0:
448,192,86459,128,0,86576:0:0:0:0:
192,192,86693,128,0,86810:0:0:0:70:Kick 6.wav
448,192,86693,128,0,87045:0:0:0:70:LR_Clap hollow echo.wav
64,192,86928,128,0,87045:0:0:0:0:
192,192,86928,128,0,87045:0:0:0:0:
64,192,87162,128,0,87279:0:0:0:70:Kick 6.wav
192,192,87162,128,0,87396:0:0:0:0:
448,192,87396,1,0,0:0:0:0:
192,192,87553,1,0,0:0:0:0:
64,192,87631,1,0,0:0:0:70:Kick 6.wav
448,192,87631,1,0,0:0:0:70:LR_Clap hollow echo.wav
448,192,87748,1,0,0:0:0:0:
192,192,87865,1,0,0:0:0:0:
320,192,87865,128,0,88100:0:0:0:0:
192,192,87982,128,0,88100:0:0:0:0:
64,192,88100,128,0,88217:0:0:0:70:Kick 6.wav
448,192,88100,128,0,88451:0:0:0:0:
64,192,88334,128,0,88451:0:0:0:0:
192,192,88334,128,0,88451:0:0:0:0:
64,192,88568,128,0,88920:0:0:0:70:Kick 6.wav
320,192,88568,128,0,88685:0:0:0:70:LR_Clap hollow echo.wav
320,192,88803,128,0,88920:0:0:0:0:
448,192,88803,128,0,88920:0:0:0:0:
320,192,89037,128,0,89154:0:0:0:70:Kick 6.wav
448,192,89037,128,0,89271:0:0:0:0:
192,192,89271,1,0,0:0:0:0:
448,192,89428,1,0,0:0:0:0:
64,192,89506,1,0,0:0:0:70:Kick 6.wav
192,192,89506,128,0,89623:0:0:0:70:LR_Clap hollow echo.wav
320,192,89623,128,0,89740:0:0:0:0:
64,192,89740,128,0,89857:0:0:0:0:
448,192,89740,1,0,0:0:0:0:
192,192,89857,128,0,89975:0:0:0:0:
64,192,89975,128,0,90678:0:0:0:70:Kick 6.wav
448,192,89975,1,0,0:0:0:70:cymbal.wav
320,192,90443,1,0,0:0:0:0:
448,192,90443,128,0,91029:0:0:0:0:
64,192,90912,128,0,91381:0:0:0:0:
192,192,90912,1,0,0:0:0:0:
320,192,91146,128,0,91381:0:0:0:0:
192,192,91381,128,0,91615:0:0:0:70:soft-hitclap.wav
448,192,91381,128,0,91615:0:0:0:0:
64,192,91850,128,0,91967:0:0:0:70:Kick 6.wav
320,192,91850,128,0,92201:0:0:0:70:cymbal.wav
448,192,91850,1,0,0:0:0:70:F4.wav
64,192,92084,128,0,92787:0:0:0:0:
320,192,92318,128,0,92435:0:0:0:70:A4.wav
448,192,92318,128,0,92670:0:0:0:0:
448,192,92787,128,0,92904:0:0:0:70:C5.wav
192,192,93256,128,0,93373:0:0:0:70:E5.wav
320,192,93256,128,0,93607:0:0:0:0:
192,192,93490,1,0,0:0:0:0:
320,192,93725,128,0,93959:0:0:0:70:F5.wav
448,192,93725,128,0,93842:0:0:0:0:
192,192,94076,128,0,94193:0:0:0:0:
64,192,94193,128,0,94310:0:0:0:70:E5.wav
320,192,94193,128,0,94545:0:0:0:0:
64,192,94428,128,0,94896:0:0:0:0:
320,192,94662,128,0,94779:0:0:0:70:C5.wav
192,192,94896,1,0,0:0:0:0:
320,192,95131,128,0,95482:0:0:0:70:A4.wav
448,192,95131,128,0,95248:0:0:0:0:
192,192,95600,128,0,95717:0:0:0:70:F4.wav
192,192,95834,128,0,96537:0:0:0:0:
64,192,96068,128,0,96185:0:0:0:70:A4.wav
448,192,96068,128,0,96420:0:0:0:0:
320,192,96537,128,0,96654:0:0:0:70:C5.wav
64,192,97006,128,0,97123:0:0:0:70:E5.wav
320,192,97006,128,0,97357:0:0:0:0:
64,192,97240,1,0,0:0:0:0:
192,192,97475,128,0,97709:0:0:0:70:F5.wav
448,192,97475,128,0,97592:0:0:0:0:
320,192,97826,128,0,97943:0:0:0:0:
192,192,97943,128,0,98060:0:0:0:70:E5.wav
448,192,97943,128,0,98295:0:0:0:0:
192,192,98178,128,0,98646:0:0:0:0:
448,192,98412,128,0,98529:0:0:0:70:C5.wav
64,192,98646,1,0,0:0:0:0:
320,192,98881,128,0,99232:0:0:0:0:
448,192,98881,128,0,99350:0:0:0:0:
64,192,99350,1,0,0:0:0:70:cymbal.wav
192,192,99350,1,0,0:0:0:70:F4.wav
320,192,99350,128,0,99467:0:0:0:0:
320,192,99584,128,0,100287:0:0:0:0:
64,192,99818,128,0,100170:0:0:0:70:A4.wav
448,192,99818,128,0,99935:0:0:0:0:
192,192,100287,128,0,100404:0:0:0:70:C5.wav
64,192,100639,128,0,100756:0:0:0:0:
320,192,100756,128,0,100873:0:0:0:70:E5.wav
448,192,100756,128,0,101107:0:0:0:0:
320,192,100990,1,0,0:0:0:0:
64,192,101225,128,0,101342:0:0:0:70:F5.wav
192,192,101225,128,0,101459:0:0:0:0:
320,192,101576,128,0,101693:0:0:0:0:
192,192,101693,128,0,102045:0:0:0:70:E5.wav
448,192,101693,128,0,101810:0:0:0:0:
448,192,101928,128,0,102396:0:0:0:0:
192,192,102162,128,0,102279:0:0:0:70:C5.wav
64,192,102396,1,0,0:0:0:0:
192,192,102631,128,0,102748:0:0:0:70:A4.wav
320,192,102631,128,0,102982:0:0:0:0:
64,192,103100,128,0,103217:0:0:0:70:F4.wav
64,192,103334,128,0,104037:0:0:0:0:
192,192,103568,128,0,103685:0:0:0:70:A4.wav
448,192,103568,128,0,103920:0:0:0:0:
320,192,104037,128,0,104154:0:0:0:70:C5.wav
320,192,104271,1,0,0:0:0:0:
64,192,104506,128,0,104857:0:0:0:70:E5.wav
192,192,104506,128,0,104623:0:0:0:0:
192,192,104740,1,0,0:0:0:0:
320,192,104975,128,0,105092:0:0:0:70:F5.wav
448,192,104975,128,0,105209:0:0:0:0:
64,192,105326,128,0,105443:0:0:0:0:
192,192,105443,128,0,105795:0:0:0:70:E5.wav
320,192,105443,128,0,105560:0:0:0:0:
320,192,105678,128,0,106146:0:0:0:0:
192,192,105912,128,0,106029:0:0:0:70:C5.wav
64,192,106146,1,0,0:0:0:0:
448,192,106205,1,0,0:0:0:0:
192,192,106264,1,0,0:0:0:0:
64,192,106303,1,0,0:0:0:0:
320,192,106342,1,0,0:0:0:0:
448,192,106381,1,0,0:0:0:0:
192,192,106615,1,0,0:0:0:70:LR_Drum Kick Low.wav
64,192,106850,128,0,106967:0:0:0:70:cymbal.wav
192,192,106850,1,0,0:0:0:70:LR_Drum Hit P2.wav
448,192,106850,1,0,0:0:0:70:F4.wav
64,192,107084,128,0,107787:0:0:0:0:
192,192,107318,128,0,107435:0:0:0:70:A4.wav
448,192,107318,128,0,107670:0:0:0:0:
320,192,107787,128,0,108021:0:0:0:70:h01.wav
448,192,107787,128,0,108021:0:0:0:70:D5.wav
320,192,108256,128,0,108373:0:0:0:70:E5.wav
448,192,108256,128,0,108607:0:0:0:0:
64,192,108490,128,0,108607:0:0:0:70:LR_Drum Kick Low.wav
320,192,108490,128,0,108607:0:0:0:0:
64,192,108725,128,0,108959:0:0:0:70:LR_Drum Kick Low.wav
192,192,108725,128,0,108842:0:0:0:70:F5.wav
320,192,108959,1,0,0:0:0:0:
192,192,109193,128,0,109545:0:0:0:70:G5.wav
448,192,109193,128,0,109310:0:0:0:0:
448,192,109428,128,0,109662:0:0:0:0:
64,192,109662,128,0,109896:0:0:0:70:h01.wav
192,192,109662,128,0,109896:0:0:0:70:F5.wav
448,192,109896,1,0,0:0:0:0:
64,192,110131,128,0,110482:0:0:0:70:E5.wav
192,192,110131,128,0,110248:0:0:0:0:
320,192,110365,128,0,110482:0:0:0:70:LR_Drum Kick Low.wav
448,192,110365,128,0,110482:0:0:0:0:
192,192,110600,128,0,110717:0:0:0:70:LR_Drum Kick Low.wav
448,192,110600,128,0,110717:0:0:0:70:F4.wav
192,192,110834,128,0,111537:0:0:0:0:
64,192,111068,128,0,111185:0:0:0:70:A4.wav
448,192,111068,128,0,111420:0:0:0:0:
64,192,111537,128,0,111771:0:0:0:70:h01.wav
448,192,111537,128,0,111771:0:0:0:70:D5.wav
320,192,111771,1,0,0:0:0:0:
64,192,112006,128,0,112357:0:0:0:70:E5.wav
192,192,112006,128,0,112123:0:0:0:0:
192,192,112240,128,0,112357:0:0:0:70:LR_Drum Kick Low.wav
448,192,112240,128,0,112357:0:0:0:0:
320,192,112475,128,0,112709:0:0:0:70:LR_Drum Kick Low.wav
448,192,112475,128,0,112592:0:0:0:70:F5.wav
64,192,112943,128,0,113060:0:0:0:70:G5.wav
192,192,112943,128,0,113178:0:0:0:0:
64,192,113178,1,0,0:0:0:70:LR_Drum Hit P.wav
448,192,113178,1,0,0:0:0:0:
192,192,113412,128,0,113646:0:0:0:70:h01.wav
320,192,113412,128,0,113646:0:0:0:70:F5.wav
64,192,113646,1,0,0:0:0:70:LR_Drum Hit P.wav
448,192,113646,1,0,0:0:0:0:
64,192,113881,128,0,114232:0:0:0:0:
320,192,114115,1,0,0:0:0:70:LR_Drum Kick Low.wav
448,192,114115,1,0,0:0:0:0:
64,192,114350,1,0,0:0:0:70:cymbal.wav
320,192,114350,128,0,114467:0:0:0:70:LR_Drum Hit P2.wav
448,192,114350,128,0,114818:0:0:0:70:F4.wav
64,192,114818,128,0,114935:0:0:0:70:A4.wav
448,192,115053,1,0,0:0:0:0:
192,192,115170,1,0,0:0:0:0:
64,192,115287,128,0,115521:0:0:0:70:h01.wav
320,192,115287,128,0,115521:0:0:0:70:C5.wav
448,192,115521,1,0,0:0:0:0:
192,192,115639,1,0,0:0:0:0:
64,192,115756,1,0,0:0:0:70:E5.wav
448,192,115756,128,0,115873:0:0:0:0:
320,192,115873,1,0,0:0:0:0:
64,192,115990,128,0,116107:0:0:0:70:LR_Drum Kick Low.wav
192,192,115990,128,0,116107:0:0:0:0:
448,192,116107,1,0,0:0:0:0:
64,192,116225,128,0,116342:0:0:0:70:LR_Drum Kick Low.wav
192,192,116225,128,0,116342:0:0:0:70:F5.wav
448,192,116459,1,0,0:0:0:0:
320,192,116576,1,0,0:0:0:0:
192,192,116693,128,0,116810:0:0:0:70:E5.wav
64,192,116928,1,0,0:0:0:0:
320,192,117045,1,0,0:0:0:0:
192,192,117162,128,0,117396:0:0:0:70:h01.wav
448,192,117162,128,0,117396:0:0:0:70:C5.wav
320,192,117396,1,0,0:0:0:0:
192,192,117514,1,0,0:0:0:0:
64,192,117631,128,0,117748:0:0:0:70:A4.wav
448,192,117748,1,0,0:0:0:0:
192,192,117865,128,0,117982:0:0:0:70:LR_Drum Kick Low.wav
320,192,117865,128,0,117982:0:0:0:0:
64,192,117982,1,0,0:0:0:0:
192,192,118100,128,0,118217:0:0:0:70:LR_Drum Kick Low.wav
320,192,118100,128,0,118217:0:0:0:70:F4.wav
320,192,118334,1,0,0:0:0:0:
448,192,118451,1,0,0:0:0:0:
64,192,118568,128,0,118685:0:0:0:70:A4.wav
192,192,118568,1,0,0:0:0:0:
320,192,118803,1,0,0:0:0:0:
192,192,118920,1,0,0:0:0:0:
64,192,119037,128,0,119271:0:0:0:70:h01.wav
448,192,119037,128,0,119271:0:0:0:70:C5.wav
192,192,119271,1,0,0:0:0:0:
448,192,119389,1,0,0:0:0:0:
64,192,119506,128,0,119623:0:0:0:70:E5.wav
192,192,119623,1,0,0:0:0:0:
320,192,119740,128,0,119857:0:0:0:70:LR_Drum Kick Low.wav
448,192,119740,128,0,119857:0:0:0:0:
64,192,119857,1,0,0:0:0:0:
320,192,119975,128,0,120092:0:0:0:70:LR_Drum Kick Low.wav
448,192,119975,128,0,120092:0:0:0:70:F5.wav
192,192,120209,1,0,0:0:0:0:
64,192,120326,1,0,0:0:0:0:
192,192,120443,128,0,120560:0:0:0:70:E5.wav
320,192,120678,1,0,0:0:0:70:LR_Drum Hit P.wav
448,192,120678,1,0,0:0:0:0:
64,192,120795,1,0,0:0:0:0:
192,192,120912,128,0,121029:0:0:0:70:h01.wav
448,192,120912,128,0,121146:0:0:0:70:C5.wav
192,192,121146,128,0,121498:0:0:0:70:LR_Drum Hit P.wav
64,192,121381,128,0,121498:0:0:0:70:LR_Clap hollow echo.wav
320,192,121381,128,0,121850:0:0:0:0:
448,192,121381,128,0,121498:0:0:0:0:
64,192,121850,1,0,0:0:0:70:Kick 6.wav
192,192,121850,1,0,0:0:0:70:cymbal.wav
448,192,121850,1,0,0:0:0:70:LR_Drum Hit P2.wav
192,192,122084,128,0,122201:0:0:0:0:
320,192,122084,1,0,0:0:0:0:
448,192,122201,1,0,0:0:0:0:
64,192,122318,128,0,122435:0:0:0:70:LR_Drum Hit P2.wav
320,192,122553,128,0,122670:0:0:0:0:
192,192,122670,1,0,0:0:0:0:
64,192,122787,1,0,0:0:0:70:Kick 6.wav
448,192,122787,128,0,122904:0:0:0:70:h01.wav
192,192,123021,128,0,123139:0:0:0:0:
320,192,123021,1,0,0:0:0:0:
64,192,123139,1,0,0:0:0:0:
448,192,123256,128,0,123373:0:0:0:70:LR_Drum Hit P2.wav
64,192,123490,128,0,123607:0:0:0:0:
320,192,123607,1,0,0:0:0:0:
64,192,123725,1,0,0:0:0:70:Kick 6.wav
192,192,123725,1,0,0:0:0:70:LR_Drum Hit P2.wav
64,192,123959,1,0,0:0:0:0:
320,192,123959,128,0,124076:0:0:0:0:
448,192,124076,1,0,0:0:0:0:
192,192,124193,128,0,124310:0:0:0:70:LR_Drum Hit P2.wav
64,192,124428,128,0,124545:0:0:0:0:
448,192,124545,1,0,0:0:0:0:
192,192,124662,1,0,0:0:0:70:Kick 6.wav
320,192,124662,128,0,124779:0:0:0:70:h01.wav
64,192,124896,128,0,125014:0:0:0:0:
192,192,124896,1,0,0:0:0:0:
448,192,125014,1,0,0:0:0:0:
320,192,125131,128,0,125482:0:0:0:70:LR_Drum Hit P2.wav
64,192,125248,1,0,0:0:0:0:
448,192,125365,128,0,125482:0:0:0:0:
192,192,125482,1,0,0:0:0:0:
64,192,125600,1,0,0:0:0:70:Kick 6.wav
448,192,125600,1,0,0:0:0:70:LR_Drum Hit P2.wav
192,192,125834,128,0,125951:0:0:0:0:
448,192,125834,1,0,0:0:0:0:
320,192,125951,1,0,0:0:0:0:
64,192,126068,128,0,126185:0:0:0:70:LR_Drum Hit P2.wav
320,192,126303,128,0,126420:0:0:0:0:
192,192,126420,1,0,0:0:0:0:
320,192,126537,1,0,0:0:0:70:Kick 6.wav
448,192,126537,128,0,126654:0:0:0:70:h01.wav
64,192,126771,128,0,126889:0:0:0:0:
320,192,126771,1,0,0:0:0:0:
192,192,126889,1,0,0:0:0:0:
448,192,127006,128,0,127123:0:0:0:70:LR_Drum Hit P2.wav
192,192,127240,128,0,127357:0:0:0:0:
320,192,127357,1,0,0:0:0:0:
64,192,127475,1,0,0:0:0:70:Kick 6.wav
192,192,127475,1,0,0:0:0:70:LR_Drum Hit P2.wav
192,192,127709,1,0,0:0:0:0:
448,192,127709,128,0,127826:0:0:0:0:
320,192,127826,1,0,0:0:0:0:
64,192,127943,128,0,128060:0:0:0:70:LR_Drum Hit P2.wav
192,192,128178,128,0,128295:0:0:0:0:
320,192,128295,1,0,0:0:0:0:
64,192,128412,1,0,0:0:0:70:Kick 6.wav
448,192,128412,128,0,128529:0:0:0:70:h01.wav
64,192,128646,1,0,0:0:0:0:
192,192,128646,128,0,128764:0:0:0:0:
448,192,128764,1,0,0:0:0:0:
320,192,128881,128,0,129232:0:0:0:70:LR_Drum Hit P2.wav
64,192,128998,1,0,0:0:0:0:
448,192,129115,128,0,129232:0:0:0:0:
192,192,129232,1,0,0:0:0:0:
64,192,129350,1,0,0:0:0:70:Kick 6.wav
320,192,129350,128,0,129584:0:0:0:50:LR_Drum Hit P2.wav
448,192,129350,128,0,130170:0:0:0:0:
64,192,129584,128,0,129701:0:0:0:70:Kick 6.wav
192,192,129584,128,0,129701:0:0:0:50:LR_Drum Hit P2.wav
64,192,129818,128,0,129935:0:0:0:70:Kick 6.wav
320,192,129818,128,0,129935:0:0:0:50:LR_Drum Hit P2.wav
192,192,130053,128,0,130170:0:0:0:70:Kick 6.wav
320,192,130053,128,0,130170:0:0:0:50:LR_Drum Hit P2.wav
64,192,130287,128,0,130756:0:0:0:70:Kick 6.wav
448,192,130287,128,0,130404:0:0:0:70:h01.wav
320,192,130521,128,0,130639:0:0:0:70:Kick 6.wav
448,192,130521,128,0,130639:0:0:0:50:LR_Drum Hit P2.wav
192,192,130756,128,0,130873:0:0:0:70:Kick 6.wav
448,192,130756,128,0,130873:0:0:0:50:LR_Drum Hit P2.wav
64,192,130990,1,0,0:0:0:70:Kick 6.wav
192,192,130990,1,0,0:0:0:50:LR_Drum Hit P2.wav
320,192,131068,1,0,0:0:0:0:
192,192,131146,1,0,0:0:0:0:
64,192,131225,128,0,132045:0:0:0:70:Kick 6.wav
448,192,131225,128,0,131342:0:0:0:50:LR_Drum Hit P2.wav
192,192,131459,128,0,131576:0:0:0:70:Kick 6.wav
320,192,131459,128,0,131576:0:0:0:50:LR_Drum Hit P2.wav
192,192,131693,128,0,131810:0:0:0:70:Kick 6.wav
448,192,131693,128,0,131810:0:0:0:50:LR_Drum Hit P2.wav
320,192,131928,1,0,0:0:0:70:Kick 6.wav
448,192,131928,1,0,0:0:0:50:LR_Drum Hit P2.wav
192,192,132006,1,0,0:0:0:0:
320,192,132084,1,0,0:0:0:0:
64,192,132162,128,0,132279:0:0:0:70:Kick 6.wav
448,192,132162,128,0,132631:0:0:0:70:h01.wav
64,192,132396,128,0,132514:0:0:0:70:Kick 6.wav
192,192,132396,128,0,132514:0:0:0:50:LR_Drum Hit P2.wav
64,192,132631,128,0,132748:0:0:0:70:Kick 6.wav
320,192,132631,128,0,132748:0:0:0:50:LR_Drum Hit P2.wav
64,192,132865,1,0,0:0:0:70:Kick 6.wav
192,192,132865,1,0,0:0:0:50:LR_Drum Hit P2.wav
320,192,132943,1,0,0:0:0:0:
192,192,133021,1,0,0:0:0:0:
64,192,133100,1,0,0:0:0:70:Kick 6.wav
448,192,133100,128,0,133217:0:0:0:50:LR_Drum Hit P2.wav
320,192,133217,1,0,0:0:0:50:LR_Drum Hit P2.wav
64,192,133334,128,0,133451:0:0:0:70:Kick 6.wav
192,192,133334,1,0,0:0:0:50:LR_Drum Hit P2.wav
320,192,133451,1,0,0:0:0:50:LR_Drum Hit P2.wav
192,192,133568,128,0,133685:0:0:0:70:Kick 6.wav
448,192,133568,1,0,0:0:0:50:LR_Drum Hit P2.wav
64,192,133685,1,0,0:0:0:50:LR_Drum Hit P2.wav
320,192,133803,128,0,133920:0:0:0:70:Kick 6.wav
192,192,133920,1,0,0:0:0:50:LR_Drum Hit P2.wav
64,192,134037,128,0,134154:0:0:0:70:Kick 6.wav
448,192,134037,128,0,134271:0:0:0:70:h01.wav
192,192,134154,1,0,0:0:0:50:LR_Drum Hit P2.wav
64,192,134271,1,0,0:0:0:70:Kick 6.wav
320,192,134271,128,0,134506:0:0:0:50:LR_Drum Hit P2.wav
448,192,134389,1,0,0:0:0:50:LR_Drum Hit P2.wav
64,192,134506,1,0,0:0:0:70:Kick 6.wav
192,192,134506,128,0,134740:0:0:0:50:LR_Drum Hit P2.wav
320,192,134623,1,0,0:0:0:50:LR_Drum Hit P2.wav
64,192,134740,128,0,134975:0:0:0:70:Kick 6.wav
192,192,134857,1,0,0:0:0:50:LR_Drum Hit P2.wav
320,192,134975,1,0,0:0:0:70:Kick 6.wav
448,192,134975,128,0,135209:0:0:0:50:LR_Drum Hit P2.wav
64,192,135092,128,0,135209:0:0:0:50:LR_Drum Hit P2.wav
192,192,135209,1,0,0:0:0:70:Kick 6.wav
320,192,135209,128,0,135443:0:0:0:50:LR_Drum Hit P2.wav
448,192,135326,128,0,135443:0:0:0:50:LR_Drum Hit P2.wav
64,192,135443,128,0,135678:0:0:0:70:Kick 6.wav
192,192,135443,1,0,0:0:0:50:LR_Drum Hit P2.wav
448,192,135560,128,0,135795:0:0:0:50:LR_Drum Hit P2.wav
320,192,135678,128,0,135795:0:0:0:70:Kick 6.wav
192,192,135795,128,0,135912:0:0:0:50:LR_Drum Hit P2.wav
64,192,135912,128,0,136146:0:0:0:100:h_Fill4_007_Reverb.wav
320,192,135912,128,0,136029:0:0:0:0:
448,192,135912,128,0,136146:0:0:0:0:
192,192,136381,128,0,136498:0:0:0:0:
448,192,136381,128,0,136732:0:0:0:0:
64,192,136498,128,0,136615:0:0:0:0:
320,192,136615,128,0,136732:0:0:0:0:
192,192,136732,128,0,136850:0:0:0:0:
64,192,136850,128,0,136967:0:0:0:70:Kick 6.wav
320,192,136850,128,0,137084:0:0:0:0:
448,192,136850,128,0,137553:0:0:0:0:
192,192,137084,1,0,0:0:0:0:
64,192,137318,128,0,137553:0:0:0:70:Kick 6.wav
320,192,137318,128,0,137553:0:0:0:70:LR_Clap hollow echo.wav
192,192,137553,128,0,137670:0:0:0:0:
64,192,137787,128,0,137904:0:0:0:70:Kick 6.wav
192,192,137787,128,0,138021:0:0:0:0:
448,192,138021,1,0,0:0:0:0:
192,192,138178,1,0,0:0:0:0:
64,192,138256,1,0,0:0:0:70:Kick 6.wav
320,192,138256,1,0,0:0:0:70:LR_Clap hollow echo.wav
192,192,138373,1,0,0:0:0:0:
320,192,138490,128,0,138725:0:0:0:0:
448,192,138490,1,0,0:0:0:0:
192,192,138607,128,0,138725:0:0:0:0:
64,192,138725,1,0,0:0:0:70:Kick 6.wav
448,192,138725,128,0,139662:0:0:0:0:
192,192,138959,128,0,139076:0:0:0:0:
320,192,138959,128,0,139076:0:0:0:0:
64,192,139193,128,0,139310:0:0:0:70:Kick 6.wav
320,192,139193,128,0,139310:0:0:0:70:LR_Clap hollow echo.wav
64,192,139428,128,0,139545:0:0:0:0:
192,192,139428,128,0,139545:0:0:0:0:
64,192,139662,128,0,139896:0:0:0:70:Kick 6.wav
192,192,139662,128,0,139779:0:0:0:0:
320,192,139896,1,0,0:0:0:0:
64,192,140053,1,0,0:0:0:0:
320,192,140131,1,0,0:0:0:70:Kick 6.wav
448,192,140131,1,0,0:0:0:70:LR_Clap hollow echo.wav
448,192,140248,1,0,0:0:0:0:
192,192,140365,1,0,0:0:0:0:
320,192,140365,128,0,140600:0:0:0:0:
192,192,140482,128,0,140600:0:0:0:0:
64,192,140600,128,0,141537:0:0:0:70:Kick 6.wav
448,192,140600,1,0,0:0:0:0:
192,192,140834,128,0,140951:0:0:0:0:
320,192,140834,128,0,140951:0:0:0:0:
192,192,141068,128,0,141185:0:0:0:70:Kick 6.wav
448,192,141068,128,0,141185:0:0:0:70:LR_Clap hollow echo.wav
320,192,141303,128,0,141420:0:0:0:0:
448,192,141303,128,0,141420:0:0:0:0:
320,192,141537,128,0,141654:0:0:0:70:Kick 6.wav
448,192,141537,128,0,141771:0:0:0:0:
192,192,141771,1,0,0:0:0:0:
448,192,141928,1,0,0:0:0:0:
64,192,142006,1,0,0:0:0:70:Kick 6.wav
192,192,142006,1,0,0:0:0:70:LR_Clap hollow echo.wav
64,192,142240,1,0,0:0:0:0:
448,192,142240,128,0,142357:0:0:0:0:
192,192,142357,128,0,142475:0:0:0:0:
320,192,142475,128,0,142592:0:0:0:70:Kick 6.wav
448,192,142475,1,0,0:0:0:0:
64,192,142592,128,0,142709:0:0:0:0:
192,192,142709,128,0,142826:0:0:0:0:
320,192,142826,128,0,142943:0:0:0:0:
64,192,142943,128,0,143060:0:0:0:70:Kick 6.wav
448,192,142943,1,0,0:0:0:70:LR_Clap hollow echo.wav
192,192,143060,128,0,143178:0:0:0:0:
448,192,143178,128,0,143295:0:0:0:0:
320,192,143295,128,0,143412:0:0:0:0:
64,192,143412,128,0,143646:0:0:0:70:Kick 6.wav
192,192,143412,128,0,143529:0:0:0:0:
448,192,143646,1,0,0:0:0:0:
320,192,143803,128,0,144115:0:0:0:0:
64,192,143881,128,0,144115:0:0:0:70:Kick 6.wav
448,192,143881,128,0,144115:0:0:0:70:LR_Clap hollow echo.wav
192,192,144115,1,0,0:0:0:0:
320,192,144232,1,0,0:0:0:0:
64,192,144350,128,0,145053:0:0:0:70:Kick 6.wav
192,192,144350,128,0,144584:0:0:0:0:
448,192,144350,128,0,144467:0:0:0:0:
320,192,144584,1,0,0:0:0:0:
192,192,144818,128,0,144935:0:0:0:70:Kick 6.wav
448,192,144818,128,0,144935:0:0:0:70:LR_Clap hollow echo.wav
320,192,145053,128,0,145170:0:0:0:0:
448,192,145053,128,0,145170:0:0:0:0:
320,192,145287,128,0,145521:0:0:0:70:Kick 6.wav
448,192,145287,128,0,145404:0:0:0:0:
64,192,145521,1,0,0:0:0:0:
320,192,145678,1,0,0:0:0:0:
192,192,145756,1,0,0:0:0:70:Kick 6.wav
448,192,145756,1,0,0:0:0:70:LR_Clap hollow echo.wav
320,192,145873,1,0,0:0:0:0:
64,192,145990,1,0,0:0:0:0:
192,192,145990,128,0,146225:0:0:0:0:
320,192,146107,128,0,146225:0:0:0:0:
64,192,146225,128,0,147162:0:0:0:70:Kick 6.wav
448,192,146225,1,0,0:0:0:0:
192,192,146459,128,0,146576:0:0:0:0:
320,192,146459,128,0,146576:0:0:0:0:
192,192,146693,128,0,146810:0:0:0:70:Kick 6.wav
448,192,146693,128,0,146810:0:0:0:70:LR_Clap hollow echo.wav
320,192,146928,128,0,147045:0:0:0:0:
448,192,146928,128,0,147045:0:0:0:0:
320,192,147162,128,0,147396:0:0:0:70:Kick 6.wav
448,192,147162,128,0,147279:0:0:0:0:
64,192,147396,1,0,0:0:0:0:
320,192,147553,1,0,0:0:0:0:
64,192,147631,1,0,0:0:0:70:Kick 6.wav
448,192,147631,1,0,0:0:0:70:LR_Clap hollow echo.wav
64,192,147748,1,0,0:0:0:0:
192,192,147865,128,0,148100:0:0:0:0:
320,192,147865,1,0,0:0:0:0:
320,192,147982,128,0,148100:0:0:0:0:
64,192,148100,1,0,0:0:0:70:Kick 6.wav
448,192,148100,128,0,149037:0:0:0:0:
192,192,148334,128,0,148451:0:0:0:0:
320,192,148334,128,0,148451:0:0:0:0:
64,192,148568,128,0,148685:0:0:0:70:Kick 6.wav
320,192,148568,128,0,148685:0:0:0:70:LR_Clap hollow echo.wav
64,192,148803,128,0,148920:0:0:0:0:
192,192,148803,128,0,148920:0:0:0:0:
64,192,149037,128,0,149271:0:0:0:70:Kick 6.wav
192,192,149037,128,0,149154:0:0:0:0:
320,192,149271,1,0,0:0:0:0:
64,192,149428,1,0,0:0:0:0:
320,192,149506,128,0,149623:0:0:0:70:Kick 6.wav
448,192,149506,1,0,0:0:0:70:LR_Clap hollow echo.wav
192,192,149623,128,0,149740:0:0:0:0:
64,192,149740,1,0,0:0:0:0:
448,192,149740,128,0,149857:0:0:0:0:
320,192,149857,128,0,149975:0:0:0:0:
64,192,149975,128,0,150326:0:0:0:70:Kick 6.wav
448,192,149975,128,0,150443:0:0:0:0:
64,192,150443,128,0,150795:0:0:0:0:
192,192,150678,1,0,0:0:0:70:LR_Drum Hit P.wav
320,192,150736,1,0,0:0:0:0:
448,192,150795,1,0,0:0:0:0:
64,192,150912,1,0,0:0:0:70:LR_Drum Hit P.wav
192,192,150912,1,0,0:0:0:0:
320,192,151029,1,0,0:0:0:70:LR_Drum Hit P.wav
448,192,151029,1,0,0:0:0:0:
64,192,151146,128,0,151225:0:0:0:0:
192,192,151225,128,0,151303:0:0:0:0:
320,192,151303,128,0,151381:0:0:0:0:
192,192,151381,128,0,151459:0:0:0:70:LR_Drum Hit P2.wav
448,192,151381,128,0,151537:0:0:0:70:soft-hitclap.wav
64,192,151459,128,0,151615:0:0:0:0:
320,192,151537,128,0,151615:0:0:0:0:
192,192,151615,128,0,151693:0:0:0:0:
448,192,151693,128,0,151771:0:0:0:0:
320,192,151771,128,0,151850:0:0:0:0:
64,192,151850,128,0,152553:0:0:0:70:Kick 6.wav
192,192,151850,128,0,152084:0:0:0:0:
320,192,152084,1,0,0:0:0:0:
192,192,152318,128,0,152553:0:0:0:70:Kick 6.wav
448,192,152318,128,0,152553:0:0:0:70:LR_Clap hollow echo.wav
320,192,152553,128,0,152670:0:0:0:0:
320,192,152787,128,0,153021:0:0:0:70:Kick 6.wav
448,192,152787,128,0,152904:0:0:0:0:
64,192,153021,1,0,0:0:0:0:
320,192,153178,1,0,0:0:0:0:
192,192,153256,1,0,0:0:0:70:Kick 6.wav
448,192,153256,1,0,0:0:0:70:LR_Clap hollow echo.wav
320,192,153373,1,0,0:0:0:0:
64,192,153490,1,0,0:0:0:0:
192,192,153490,128,0,153725:0:0:0:0:
320,192,153607,128,0,153725:0:0:0:0:
64,192,153725,128,0,153842:0:0:0:70:Kick 6.wav
448,192,153725,128,0,154076:0:0:0:0:
64,192,153959,128,0,154076:0:0:0:0:
192,192,153959,128,0,154076:0:0:0:0:
64,192,154193,128,0,154545:0:0:0:70:Kick 6.wav
448,192,154193,128,0,154310:0:0:0:70:LR_Clap hollow echo.wav
320,192,154428,128,0,154545:0:0:0:0:
448,192,154428,128,0,154545:0:0:0:0:
64,192,154662,128,0,154896:0:0:0:70:Kick 6.wav
192,192,154662,128,0,154779:0:0:0:0:
320,192,154896,1,0,0:0:0:0:
64,192,155053,1,0,0:0:0:0:
320,192,155131,1,0,0:0:0:70:Kick 6.wav
448,192,155131,1,0,0:0:0:70:LR_Clap hollow echo.wav
448,192,155248,1,0,0:0:0:0:
192,192,155365,1,0,0:0:0:0:
320,192,155365,128,0,155600:0:0:0:0:
192,192,155482,128,0,155600:0:0:0:0:
64,192,155600,128,0,155951:0:0:0:70:Kick 6.wav
448,192,155600,128,0,155717:0:0:0:0:
192,192,155834,128,0,155951:0:0:0:0:
448,192,155834,128,0,155951:0:0:0:0:
64,192,156068,128,0,156185:0:0:0:70:Kick 6.wav
320,192,156068,128,0,156420:0:0:0:70:LR_Clap hollow echo.wav
64,192,156303,128,0,156420:0:0:0:0:
192,192,156303,128,0,156420:0:0:0:0:
320,192,156537,128,0,156771:0:0:0:70:Kick 6.wav
448,192,156537,128,0,156654:0:0:0:0:
64,192,156771,1,0,0:0:0:0:
320,192,156928,1,0,0:0:0:0:
192,192,157006,1,0,0:0:0:70:Kick 6.wav
448,192,157006,1,0,0:0:0:70:LR_Clap hollow echo.wav
320,192,157240,1,0,0:0:0:0:
448,192,157240,128,0,157357:0:0:0:0:
192,192,157357,128,0,157475:0:0:0:0:
64,192,157475,1,0,0:0:0:70:Kick 6.wav
448,192,157475,128,0,157592:0:0:0:0:
320,192,157592,128,0,157709:0:0:0:0:
192,192,157709,128,0,157826:0:0:0:0:
320,192,157826,128,0,157943:0:0:0:0:
64,192,157943,128,0,158060:0:0:0:70:Kick 6.wav
448,192,157943,1,0,0:0:0:70:LR_Clap hollow echo.wav
192,192,158060,128,0,158178:0:0:0:0:
320,192,158178,128,0,158295:0:0:0:0:
64,192,158295,128,0,158412:0:0:0:0:
320,192,158412,128,0,158529:0:0:0:70:Kick 6.wav
448,192,158412,128,0,158646:0:0:0:0:
64,192,158646,1,0,0:0:0:0:
192,192,158803,128,0,159115:0:0:0:0:
64,192,158881,128,0,159115:0:0:0:70:Kick 6.wav
448,192,158881,128,0,159115:0:0:0:70:LR_Clap hollow echo.wav
320,192,159115,1,0,0:0:0:0:
192,192,159232,1,0,0:0:0:0:
64,192,159350,128,0,160053:0:0:0:70:Kick 6.wav
320,192,159350,128,0,159467:0:0:0:0:
448,192,159350,128,0,159584:0:0:0:0:
192,192,159584,1,0,0:0:0:0:
320,192,159818,128,0,159935:0:0:0:70:Kick 6.wav
448,192,159818,128,0,159935:0:0:0:70:LR_Clap hollow echo.wav
192,192,160053,128,0,160170:0:0:0:0:
320,192,160053,128,0,160170:0:0:0:0:
64,192,160287,128,0,160404:0:0:0:70:Kick 6.wav
192,192,160287,128,0,160521:0:0:0:0:
448,192,160521,1,0,0:0:0:0:
192,192,160678,1,0,0:0:0:0:
64,192,160756,1,0,0:0:0:70:Kick 6.wav
320,192,160756,1,0,0:0:0:70:LR_Clap hollow echo.wav
192,192,160873,1,0,0:0:0:0:
320,192,160990,128,0,161225:0:0:0:0:
448,192,160990,1,0,0:0:0:0:
192,192,161107,128,0,161225:0:0:0:0:
64,192,161225,128,0,161576:0:0:0:70:Kick 6.wav
448,192,161225,128,0,161342:0:0:0:0:
320,192,161459,128,0,161576:0:0:0:0:
448,192,161459,128,0,161576:0:0:0:0:
192,192,161693,128,0,161810:0:0:0:70:Kick 6.wav
448,192,161693,128,0,162045:0:0:0:70:LR_Clap hollow echo.wav
64,192,161928,128,0,162045:0:0:0:0:
192,192,161928,128,0,162045:0:0:0:0:
64,192,162162,128,0,162279:0:0:0:70:Kick 6.wav
192,192,162162,128,0,162396:0:0:0:0:
448,192,162396,1,0,0:0:0:0:
192,192,162553,1,0,0:0:0:0:
64,192,162631,1,0,0:0:0:70:Kick 6.wav
448,192,162631,1,0,0:0:0:70:LR_Clap hollow echo.wav
448,192,162748,1,0,0:0:0:0:
192,192,162865,1,0,0:0:0:0:
320,192,162865,128,0,163100:0:0:0:0:
192,192,162982,128,0,163100:0:0:0:0:
64,192,163100,128,0,163217:0:0:0:70:Kick 6.wav
448,192,163100,128,0,163451:0:0:0:0:
64,192,163334,128,0,163451:0:0:0:0:
192,192,163334,128,0,163451:0:0:0:0:
64,192,163568,128,0,163920:0:0:0:70:Kick 6.wav
320,192,163568,128,0,163685:0:0:0:70:LR_Clap hollow echo.wav
320,192,163803,128,0,163920:0:0:0:0:
448,192,163803,128,0,163920:0:0:0:0:
320,192,164037,128,0,164154:0:0:0:70:Kick 6.wav
448,192,164037,128,0,164271:0:0:0:0:
64,192,164271,1,0,0:0:0:0:
448,192,164428,1,0,0:0:0:0:
64,192,164506,1,0,0:0:0:70:Kick 6.wav
192,192,164506,128,0,164623:0:0:0:70:LR_Clap hollow echo.wav
320,192,164623,128,0,164740:0:0:0:0:
64,192,164740,128,0,164857:0:0:0:0:
448,192,164740,1,0,0:0:0:0:
192,192,164857,128,0,164975:0:0:0:0:
320,192,164975,128,0,165443:0:0:0:70:Kick 6.wav
448,192,164975,128,0,166146:0:0:0:70:cymbal.wav
64,192,165443,128,0,165795:0:0:0:0:
320,192,165912,128,0,166146:0:0:0:0:
192,192,166146,128,0,166381:0:0:0:0:
64,192,166381,128,0,166615:0:0:0:70:soft-hitclap.wav
448,192,166381,128,0,166615:0:0:0:0:
64,192,166850,1,0,0:0:0:70:Kick 6.wav
192,192,166850,1,0,0:0:0:70:cymbal.wav
448,192,166850,1,0,0:0:0:0:
320,192,167084,1,0,0:0:0:0:
64,192,167318,1,0,0:0:0:70:LR_Drum Kick Low.wav
64,192,167553,1,0,0:0:0:70:LR_Drum Kick Low.wav
192,192,167787,1,0,0:0:0:70:h01.wav
448,192,167787,1,0,0:0:0:0:
320,192,168021,1,0,0:0:0:0:
64,192,168256,1,0,0:0:0:70:LR_Drum Kick Low.wav
64,192,168490,1,0,0:0:0:70:LR_Drum Kick Low.wav
320,192,168725,1,0,0:0:0:0:
448,192,168959,1,0,0:0:0:70:LR_Drum Kick Low.wav
448,192,169193,1,0,0:0:0:70:LR_Drum Kick Low.wav
192,192,169428,1,0,0:0:0:70:LR_Drum Kick Low.wav
64,192,169662,1,0,0:0:0:70:h01.wav
448,192,169662,1,0,0:0:0:0:
320,192,169896,1,0,0:0:0:0:
64,192,170131,1,0,0:0:0:70:LR_Drum Kick Low.wav
64,192,170365,1,0,0:0:0:70:LR_Drum Kick Low.wav
320,192,170600,1,0,0:0:0:70:LR_Drum Kick Low.wav
448,192,170600,1,0,0:0:0:0:
192,192,170834,1,0,0:0:0:0:
448,192,171068,1,0,0:0:0:70:LR_Drum Kick Low.wav
448,192,171303,1,0,0:0:0:70:LR_Drum Kick Low.wav
64,192,171537,1,0,0:0:0:70:h01.wav
320,192,171537,1,0,0:0:0:0:
192,192,171771,1,0,0:0:0:0:
448,192,172006,1,0,0:0:0:70:LR_Drum Kick Low.wav
448,192,172240,1,0,0:0:0:70:LR_Drum Kick Low.wav
320,192,172475,1,0,0:0:0:0:
64,192,172709,1,0,0:0:0:70:LR_Drum Kick Low.wav
64,192,172943,1,0,0:0:0:70:LR_Drum Kick Low.wav
192,192,172943,1,0,0:0:0:70:LR_Drum Hit P.wav
320,192,173178,1,0,0:0:0:70:LR_Drum Kick Low.wav
192,192,173412,1,0,0:0:0:70:h01.wav
448,192,173412,1,0,0:0:0:0:
64,192,173646,1,0,0:0:0:0:
448,192,173881,1,0,0:0:0:70:LR_Drum Kick Low.wav
448,192,174115,1,0,0:0:0:70:LR_Drum Kick Low.wav
64,192,174350,1,0,0:0:0:70:LR_Drum Kick Low.wav
192,192,174350,1,0,0:0:0:0:
320,192,174584,1,0,0:0:0:0:
64,192,174818,1,0,0:0:0:70:LR_Drum Kick Low.wav
64,192,175053,1,0,0:0:0:70:LR_Drum Kick Low.wav
192,192,175287,1,0,0:0:0:70:h01.wav
448,192,175287,1,0,0:0:0:0:
320,192,175521,1,0,0:0:0:0:
64,192,175756,1,0,0:0:0:70:LR_Drum Kick Low.wav
64,192,175990,1,0,0:0:0:70:LR_Drum Kick Low.wav
192,192,176225,1,0,0:0:0:0:
448,192,176459,1,0,0:0:0:70:LR_Drum Kick Low.wav
448,192,176693,1,0,0:0:0:70:LR_Drum Kick Low.wav
320,192,176928,1,0,0:0:0:70:LR_Drum Kick Low.wav
64,192,177162,128,0,177396:0:0:0:70:h01.wav
192,192,177162,128,0,177631:0:0:0:0:
320,192,177396,128,0,177865:0:0:0:0:
64,192,177631,128,0,178100:0:0:0:70:LR_Drum Kick Low.wav
448,192,177631,128,0,177865:0:0:0:0:
192,192,177865,1,0,0:0:0:70:LR_Drum Kick Low.wav
320,192,178100,128,0,178568:0:0:0:70:LR_Drum Kick Low.wav
448,192,178100,128,0,178334:0:0:0:0:
192,192,178334,128,0,178803:0:0:0:0:
64,192,178568,128,0,178803:0:0:0:70:LR_Drum Kick Low.wav
448,192,178803,1,0,0:0:0:70:LR_Drum Kick Low.wav
64,192,179037,1,0,0:0:0:70:h01.wav
192,192,179037,1,0,0:0:0:0:
320,192,179271,1,0,0:0:0:0:
192,192,179506,128,0,179975:0:0:0:70:LR_Drum Kick Low.wav
64,192,179740,128,0,179975:0:0:0:70:LR_Drum Kick Low.wav
320,192,179975,128,0,180209:0:0:0:0:
448,192,179975,128,0,180443:0:0:0:0:
192,192,180209,1,0,0:0:0:70:LR_Drum Kick Low.wav
64,192,180443,1,0,0:0:0:70:LR_Drum Kick Low.wav
320,192,180443,128,0,180912:0:0:0:70:LR_Drum Hit P.wav
448,192,180678,128,0,180912:0:0:0:70:LR_Drum Kick Low.wav
64,192,180912,128,0,181146:0:0:0:70:h01.wav
192,192,180912,128,0,181381:0:0:0:0:
320,192,181146,128,0,181615:0:0:0:0:
64,192,181381,128,0,181850:0:0:0:70:LR_Drum Kick Low.wav
448,192,181381,128,0,181615:0:0:0:0:
192,192,181615,1,0,0:0:0:70:LR_Drum Kick Low.wav
320,192,181850,1,0,0:0:0:70:LR_Drum Kick Low.wav
448,192,181850,1,0,0:0:0:0:
192,192,182084,1,0,0:0:0:0:
448,192,182318,1,0,0:0:0:70:LR_Drum Kick Low.wav
448,192,182553,1,0,0:0:0:70:LR_Drum Kick Low.wav
64,192,182787,1,0,0:0:0:70:h01.wav
192,192,182787,1,0,0:0:0:0:
320,192,183021,1,0,0:0:0:0:
192,192,183256,128,0,183725:0:0:0:70:LR_Drum Kick Low.wav
64,192,183490,128,0,183725:0:0:0:70:LR_Drum Kick Low.wav
320,192,183725,128,0,183959:0:0:0:0:
448,192,183725,128,0,184193:0:0:0:0:
192,192,183959,1,0,0:0:0:70:LR_Drum Kick Low.wav
320,192,184193,128,0,184662:0:0:0:70:LR_Drum Kick Low.wav
448,192,184428,128,0,184662:0:0:0:70:LR_Drum Kick Low.wav
64,192,184662,128,0,184896:0:0:0:70:h01.wav
192,192,184662,128,0,185131:0:0:0:0:
320,192,184896,128,0,185365:0:0:0:0:
64,192,185131,128,0,185600:0:0:0:70:LR_Drum Kick Low.wav
448,192,185131,128,0,185365:0:0:0:0:
192,192,185365,1,0,0:0:0:70:LR_Drum Kick Low.wav
320,192,185600,128,0,186068:0:0:0:70:LR_Drum Kick Low.wav
448,192,185600,128,0,185834:0:0:0:0:
192,192,185834,128,0,186303:0:0:0:0:
64,192,186068,128,0,186303:0:0:0:70:LR_Drum Kick Low.wav
448,192,186303,128,0,187240:0:0:0:70:LR_Drum Kick Low.wav
64,192,186537,1,0,0:0:0:70:h01.wav
192,192,186537,1,0,0:0:0:0:
320,192,186771,128,0,187240:0:0:0:0:
64,192,187006,1,0,0:0:0:70:LR_Drum Kick Low.wav
192,192,187240,1,0,0:0:0:70:LR_Drum Kick Low.wav
448,192,187475,1,0,0:0:0:0:
64,192,187709,1,0,0:0:0:70:LR_Drum Kick Low.wav
64,192,187943,1,0,0:0:0:70:LR_Drum Kick Low.wav
448,192,187943,1,0,0:0:0:70:LR_Drum Hit P.wav
320,192,188178,1,0,0:0:0:70:LR_Drum Kick Low.wav
64,192,188412,128,0,188646:0:0:0:70:h01.wav
192,192,188412,128,0,188881:0:0:0:0:
320,192,188646,128,0,189115:0:0:0:0:
64,192,188881,128,0,189350:0:0:0:70:LR_Drum Kick Low.wav
448,192,188881,128,0,189115:0:0:0:0:
192,192,189115,1,0,0:0:0:70:LR_Drum Kick Low.wav
320,192,189350,1,0,0:0:0:70:LR_Drum Kick Low.wav
448,192,189350,1,0,0:0:0:0:
192,192,189584,1,0,0:0:0:0:
448,192,189818,1,0,0:0:0:70:LR_Drum Kick Low.wav
448,192,190053,1,0,0:0:0:70:LR_Drum Kick Low.wav
64,192,190287,1,0,0:0:0:70:h01.wav
320,192,190287,1,0,0:0:0:0:
192,192,190521,1,0,0:0:0:0:
448,192,190756,1,0,0:0:0:70:LR_Drum Kick Low.wav
448,192,190990,1,0,0:0:0:70:LR_Drum Kick Low.wav
192,192,191225,1,0,0:0:0:0:
64,192,191459,1,0,0:0:0:70:LR_Drum Kick Low.wav
64,192,191693,1,0,0:0:0:70:LR_Drum Kick Low.wav
320,192,191928,1,0,0:0:0:70:LR_Drum Kick Low.wav
64,192,192162,128,0,192396:0:0:0:70:h01.wav
192,192,192162,128,0,192631:0:0:0:0:
320,192,192396,128,0,192865:0:0:0:0:
64,192,192631,128,0,193100:0:0:0:70:LR_Drum Kick Low.wav
448,192,192631,128,0,192865:0:0:0:0:
192,192,192865,1,0,0:0:0:70:LR_Drum Kick Low.wav
320,192,193100,128,0,193568:0:0:0:70:LR_Drum Kick Low.wav
448,192,193100,128,0,193334:0:0:0:0:
192,192,193334,128,0,193803:0:0:0:0:
64,192,193568,128,0,193803:0:0:0:70:LR_Drum Kick Low.wav
448,192,193803,1,0,0:0:0:70:LR_Drum Kick Low.wav
64,192,194037,1,0,0:0:0:70:h01.wav
192,192,194037,1,0,0:0:0:0:
320,192,194271,1,0,0:0:0:0:
192,192,194506,128,0,194975:0:0:0:70:LR_Drum Kick Low.wav
64,192,194740,128,0,194975:0:0:0:70:LR_Drum Kick Low.wav
320,192,194975,128,0,195209:0:0:0:0:
448,192,194975,128,0,195443:0:0:0:0:
192,192,195209,1,0,0:0:0:70:LR_Drum Kick Low.wav
64,192,195443,1,0,0:0:0:70:LR_Drum Kick Low.wav
320,192,195443,128,0,195912:0:0:0:70:LR_Drum Hit P.wav
448,192,195678,128,0,195912:0:0:0:70:LR_Drum Kick Low.wav
64,192,195912,128,0,196381:0:0:0:70:h01.wav
192,192,195912,128,0,196146:0:0:0:0:
320,192,196146,1,0,0:0:0:0:
192,192,196381,128,0,196850:0:0:0:70:LR_Drum Kick Low.wav
448,192,196381,128,0,196615:0:0:0:0:
64,192,196615,1,0,0:0:0:70:LR_Drum Kick Low.wav
320,192,196850,128,0,197318:0:0:0:70:LR_Drum Kick Low.wav
448,192,196850,128,0,197084:0:0:0:0:
64,192,197084,1,0,0:0:0:0:
448,192,197318,1,0,0:0:0:70:LR_Drum Kick Low.wav
192,192,197553,128,0,197670:0:0:0:70:LR_Drum Kick Low.wav
192,192,197787,128,0,198021:0:0:0:70:h01.wav
448,192,197787,1,0,0:0:0:0:
320,192,198021,1,0,0:0:0:0:
192,192,198256,128,0,198725:0:0:0:70:LR_Drum Kick Low.wav
64,192,198490,128,0,198725:0:0:0:70:LR_Drum Kick Low.wav
320,192,198725,128,0,198959:0:0:0:0:
448,192,198725,128,0,199193:0:0:0:0:
192,192,198959,1,0,0:0:0:70:LR_Drum Kick Low.wav
320,192,199193,128,0,199662:0:0:0:70:LR_Drum Kick Low.wav
448,192,199428,128,0,199662:0:0:0:70:LR_Drum Kick Low.wav
64,192,199662,128,0,200131:0:0:0:70:h01.wav
192,192,199662,128,0,199896:0:0:0:0:
320,192,199896,1,0,0:0:0:0:
192,192,200131,1,0,0:0:0:70:LR_Drum Kick Low.wav
192,192,200365,1,0,0:0:0:70:LR_Drum Kick Low.wav
320,192,200600,1,0,0:0:0:70:LR_Drum Kick Low.wav
448,192,200600,1,0,0:0:0:0:
192,192,200834,1,0,0:0:0:0:
448,192,201068,1,0,0:0:0:70:LR_Drum Kick Low.wav
448,192,201303,1,0,0:0:0:70:LR_Drum Kick Low.wav
64,192,201537,1,0,0:0:0:70:h01.wav
192,192,201537,1,0,0:0:0:0:
320,192,201771,1,0,0:0:0:0:
192,192,202006,128,0,202475:0:0:0:70:LR_Drum Kick Low.wav
64,192,202240,128,0,202475:0:0:0:70:LR_Drum Kick Low.wav
320,192,202475,128,0,202709:0:0:0:0:
448,192,202475,128,0,202943:0:0:0:0:
192,192,202709,1,0,0:0:0:70:LR_Drum Kick Low.wav
64,192,202943,1,0,0:0:0:70:LR_Drum Kick Low.wav
320,192,202943,128,0,203412:0:0:0:70:LR_Drum Hit P.wav
448,192,203178,128,0,203412:0:0:0:70:LR_Drum Kick Low.wav
64,192,203412,128,0,203881:0:0:0:70:h01.wav
192,192,203412,128,0,203646:0:0:0:0:
320,192,203646,1,0,0:0:0:0:
192,192,203881,128,0,204350:0:0:0:70:LR_Drum Kick Low.wav
448,192,203881,128,0,204115:0:0:0:0:
64,192,204115,1,0,0:0:0:70:LR_Drum Kick Low.wav
320,192,204350,128,0,204818:0:0:0:70:LR_Drum Kick Low.wav
448,192,204350,128,0,204584:0:0:0:0:
64,192,204584,1,0,0:0:0:0:
448,192,204818,1,0,0:0:0:70:LR_Drum Kick Low.wav
192,192,205053,128,0,205170:0:0:0:70:LR_Drum Kick Low.wav
192,192,205287,128,0,205521:0:0:0:70:h01.wav
448,192,205287,1,0,0:0:0:0:
320,192,205521,1,0,0:0:0:0:
192,192,205756,128,0,206225:0:0:0:70:LR_Drum Kick Low.wav
64,192,205990,128,0,206225:0:0:0:70:LR_Drum Kick Low.wav
320,192,206225,128,0,206693:0:0:0:0:
448,192,206225,128,0,206459:0:0:0:0:
192,192,206459,1,0,0:0:0:70:LR_Drum Kick Low.wav
448,192,206693,128,0,207162:0:0:0:70:LR_Drum Kick Low.wav
320,192,206928,128,0,207162:0:0:0:70:LR_Drum Kick Low.wav
64,192,207162,128,0,207631:0:0:0:70:h01.wav
192,192,207162,128,0,207396:0:0:0:0:
320,192,207396,1,0,0:0:0:0:
448,192,207631,1,0,0:0:0:70:LR_Drum Kick Low.wav
448,192,207865,1,0,0:0:0:70:LR_Drum Kick Low.wav
64,192,208100,1,0,0:0:0:70:LR_Drum Kick Low.wav
320,192,208100,1,0,0:0:0:0:
192,192,208334,1,0,0:0:0:0:
448,192,208568,1,0,0:0:0:70:LR_Drum Kick Low.wav
448,192,208803,1,0,0:0:0:70:LR_Drum Kick Low.wav
64,192,209037,1,0,0:0:0:70:h01.wav
192,192,209037,1,0,0:0:0:0:
320,192,209271,1,0,0:0:0:0:
192,192,209506,128,0,209975:0:0:0:70:LR_Drum Kick Low.wav
448,192,209506,1,0,0:0:0:0:
64,192,209740,128,0,209975:0:0:0:70:LR_Drum Kick Low.wav
320,192,209975,128,0,210209:0:0:0:0:
448,192,209975,128,0,210443:0:0:0:0:
192,192,210209,1,0,0:0:0:70:LR_Drum Kick Low.wav
64,192,210443,1,0,0:0:0:70:LR_Drum Kick Low.wav
320,192,210443,128,0,210912:0:0:0:70:LR_Drum Hit P.wav
448,192,210678,128,0,211146:0:0:0:70:LR_Drum Kick Low.wav
64,192,210912,128,0,211381:0:0:0:70:h01.wav
192,192,210912,128,0,211146:0:0:0:0:
320,192,211146,128,0,211615:0:0:0:0:
192,192,211381,128,0,211850:0:0:0:70:LR_Drum Kick Low.wav
448,192,211381,128,0,211615:0:0:0:0:
64,192,211615,1,0,0:0:0:70:LR_Drum Kick Low.wav
320,192,211850,128,0,212326:0:0:0:70:LR_Drum Kick Low.wav
448,192,211850,128,0,212088:0:0:0:0:
64,192,212088,1,0,0:0:0:0:
448,192,212326,1,0,0:0:0:70:LR_Drum Kick Low.wav
192,192,212564,128,0,212683:0:0:0:70:LR_Drum Kick Low.wav
192,192,212802,128,0,213040:0:0:0:70:h01.wav
448,192,212802,1,0,0:0:0:0:
320,192,213040,1,0,0:0:0:0:
192,192,213278,128,0,213755:0:0:0:70:LR_Drum Kick Low.wav
64,192,213516,128,0,213755:0:0:0:70:LR_Drum Kick Low.wav
448,192,213755,128,0,214120:0:0:0:0:
320,192,213755,128,0,213998:0:0:0:0:
192,192,213998,1,0,0:0:0:70:LR_Drum Kick Low.wav
320,192,214120,128,0,214486:0:0:0:0:
448,192,214242,128,0,214608:0:0:0:70:LR_Drum Kick Low.wav
192,192,214486,1,0,0:0:0:70:LR_Drum Kick Low.wav
320,192,214608,128,0,215218:0:0:0:0:
64,192,214730,1,0,0:0:0:70:h01.wav
448,192,214730,128,0,214974:0:0:0:0:
192,192,214974,1,0,0:0:0:0:
448,192,215218,128,0,215706:0:0:0:70:LR_Drum Kick Low.wav
320,192,215462,128,0,215706:0:0:0:70:LR_Drum Kick Low.wav
64,192,215706,128,0,216206:0:0:0:70:LR_Drum Kick Low.wav
192,192,215706,128,0,215956:0:0:0:0:
320,192,215956,1,0,0:0:0:0:
192,192,216206,1,0,0:0:0:70:LR_Drum Kick Low.wav
320,192,216456,128,0,216956:0:0:0:70:LR_Drum Kick Low.wav
64,192,216706,1,0,0:0:0:70:h01.wav
448,192,216706,128,0,217206:0:0:0:0:
192,192,216956,1,0,0:0:0:0:
320,192,217206,1,0,0:0:0:70:LR_Drum Kick Low.wav
320,192,217456,1,0,0:0:0:70:LR_Drum Kick Low.wav
64,192,217706,1,0,0:0:0:0:
448,192,217706,1,0,0:0:0:0:
192,192,217966,1,0,0:0:0:70:LR_Drum Kick Low.wav
192,192,218227,1,0,0:0:0:70:LR_Drum Kick Low.wav
448,192,218227,1,0,0:0:0:70:LR_Drum Hit P.wav
64,192,218488,1,0,0:0:0:70:LR_Drum Kick Low.wav
320,192,218749,1,0,0:0:0:70:h01.wav
448,192,218749,128,0,219271:0:0:0:0:
64,192,219010,1,0,0:0:0:0:
192,192,219271,128,0,219793:0:0:0:70:LR_Drum Kick Low.wav
320,192,219271,128,0,219532:0:0:0:0:
448,192,219532,1,0,0:0:0:70:LR_Drum Kick Low.wav
64,192,219793,128,0,220730:0:0:0:70:LR_Drum Kick Low.wav
320,192,219793,128,0,220328:0:0:0:0:
448,192,219793,128,0,220060:0:0:0:0:
192,192,220060,1,0,0:0:0:0:
448,192,220328,1,0,0:0:0:70:LR_Drum Kick Low.wav
192,192,220596,128,0,220730:0:0:0:70:LR_Drum Kick Low.wav
192,192,220864,128,0,221132:0:0:0:70:h01.wav
448,192,220864,1,0,0:0:0:0:
64,192,221132,1,0,0:0:0:0:
320,192,221400,1,0,0:0:0:70:LR_Drum Kick Low.wav
320,192,221668,1,0,0:0:0:70:LR_Drum Kick Low.wav
448,192,221936,1,0,0:0:0:0:
64,192,221936,1,0,0:0:0:0:
192,192,222208,1,0,0:0:0:70:LR_Drum Kick Low.wav
192,192,222481,1,0,0:0:0:70:LR_Drum Kick Low.wav
64,192,222754,1,0,0:0:0:70:LR_Drum Kick Low.wav
448,192,223027,1,0,0:0:0:0:
320,192,223027,1,0,0:0:0:70:h01.wav
192,192,223304,1,0,0:0:0:0:
448,192,223582,1,0,0:0:0:70:LR_Drum Kick Low.wav
448,192,223860,1,0,0:0:0:70:LR_Drum Kick Low.wav
64,192,224138,1,0,0:0:0:70:LR_Drum Kick Low.wav
192,192,224138,1,0,0:0:0:0:
320,192,224421,1,0,0:0:0:0:
64,192,224704,1,0,0:0:0:70:LR_Drum Kick Low.wav
64,192,224987,1,0,0:0:0:70:LR_Drum Kick Low.wav
192,192,225270,1,0,0:0:0:70:h01.wav
448,192,225270,1,0,0:0:0:0:
320,192,225558,1,0,0:0:0:0:
64,192,225846,1,0,0:0:0:70:LR_Drum Kick Low.wav
448,192,225846,1,0,0:0:0:0:
64,192,226135,1,0,0:0:0:70:LR_Drum Kick Low.wav
192,192,226423,1,0,0:0:0:0:
448,192,226712,1,0,0:0:0:70:LR_Drum Kick Low.wav
64,192,227000,1,0,0:0:0:70:LR_Drum Kick Low.wav
448,192,227000,1,0,0:0:0:70:LR_Drum Hit P.wav
320,192,227289,1,0,0:0:0:70:LR_Drum Kick Low.wav
192,192,227577,1,0,0:0:0:70:h01.wav
448,192,227577,1,0,0:0:0:0:
64,192,227877,1,0,0:0:0:0:
320,192,228177,1,0,0:0:0:70:LR_Drum Kick Low.wav
320,192,228477,1,0,0:0:0:70:LR_Drum Kick Low.wav
64,192,228777,1,0,0:0:0:70:Kick 6.wav
192,192,228777,1,0,0:0:0:70:i dont think you understand how funny this sounds.wav
448,192,228777,1,0,0:0:0:0:
