osu file format v14

[General]
AudioFilename: audio.mp3
AudioLeadIn: 0
PreviewTime: 49929
Countdown: 1
SampleSet: Soft
StackLeniency: 0.7
Mode: 3
LetterboxInBreaks: 0
SpecialStyle: 0
WidescreenStoryboard: 1

[Editor]
DistanceSpacing: 1.2
BeatDivisor: 8
GridSize: 4
TimelineZoom: 1.4

[Metadata]
Title:Light (Crankdat Re-Crank)
TitleUnicode:Light (Crankdat Re-Crank)
Artist:San Holo
ArtistUnicode:San Holo
Creator:Combistein
Version:[NSV]
Source:
Tags:
BeatmapID:1396664
BeatmapSetID:659433

[Difficulty]
HPDrainRate:7
CircleSize:4
OverallDifficulty:7
ApproachRate:5
SliderMultiplier:1.4
SliderTickRate:1

[Events]
//Background and Video events
0,0,"anime_fantasy_girl-wide.jpg",0,0
//Break Periods
//Storyboard Layer 0 (Background)
//Storyboard Layer 1 (Fail)
//Storyboard Layer 2 (Pass)
//Storyboard Layer 3 (Foreground)
//Storyboard Sound Samples

[TimingPoints]
379,400,4,2,0,20,1,0

[HitObjects]
320,192,378,5,0,0:0:0:0:
448,192,378,1,0,0:0:0:0:
192,192,578,1,0,0:0:0:0:
64,192,778,1,0,0:0:0:0:
320,192,978,1,0,0:0:0:0:
448,192,978,1,0,0:0:0:0:
64,192,1178,1,0,0:0:0:0:
192,192,1178,1,0,0:0:0:0:
320,192,1178,1,0,0:0:0:0:
448,192,1378,1,0,0:0:0:0:
64,192,1578,1,0,0:0:0:0:
320,192,1778,1,0,0:0:0:0:
192,192,1978,1,0,0:0:0:0:
448,192,2178,1,0,0:0:0:0:
320,192,2378,1,0,0:0:0:0:
192,192,2378,1,0,0:0:0:0:
320,192,2578,1,0,0:0:0:0:
448,192,2578,128,0,2778:0:0:0:0:
64,192,2778,1,0,0:0:0:0:
192,192,2778,1,0,0:0:0:0:
192,192,2978,1,0,0:0:0:0:
320,192,3178,1,0,0:0:0:0:
448,192,3378,1,0,0:0:0:0:
192,192,3578,1,0,0:0:0:0:
320,192,3578,1,0,0:0:0:0:
64,192,3778,1,0,0:0:0:0:
448,192,3978,1,0,0:0:0:0:
192,192,4178,1,0,0:0:0:0:
320,192,4178,1,0,0:0:0:0:
64,192,4378,1,0,0:0:0:0:
192,192,4378,1,0,0:0:0:0:
448,192,4378,1,0,0:0:0:0:
320,192,4578,1,0,0:0:0:0:
192,192,4778,1,0,0:0:0:0:
448,192,4978,1,0,0:0:0:0:
320,192,5178,1,0,0:0:0:0:
192,192,5378,1,0,0:0:0:0:
64,192,5578,1,0,0:0:0:0:
448,192,5578,1,0,0:0:0:0:
320,192,5778,1,0,0:0:0:0:
448,192,5778,128,0,5978:0:0:0:0:
64,192,5978,1,0,0:0:0:0:
192,192,5978,1,0,0:0:0:0:
320,192,6178,1,0,0:0:0:0:
192,192,6378,1,0,0:0:0:0:
448,192,6378,1,0,0:0:0:0:
64,192,6378,1,0,0:0:0:0:
320,192,6578,1,0,0:0:0:0:
64,192,6578,1,0,0:0:0:0:
448,192,6578,1,0,0:0:0:0:
192,192,6778,1,0,0:0:0:0:
64,192,6778,1,0,0:0:0:0:
448,192,6978,1,0,0:0:0:0:
64,192,7178,1,0,0:0:0:0:
192,192,7378,1,0,0:0:0:0:
320,192,7378,1,0,0:0:0:0:
64,192,7578,1,0,0:0:0:0:
320,192,7578,1,0,0:0:0:0:
448,192,7578,1,0,0:0:0:0:
192,192,7778,1,0,0:0:0:0:
320,192,7978,1,0,0:0:0:0:
448,192,8178,1,0,0:0:0:0:
64,192,8378,1,0,0:0:0:0:
320,192,8378,1,0,0:0:0:0:
192,192,8578,1,0,0:0:0:0:
320,192,8778,1,0,0:0:0:0:
448,192,8778,1,0,0:0:0:0:
192,192,8978,1,0,0:0:0:0:
320,192,8978,128,0,9178:0:0:0:0:
64,192,9178,1,0,0:0:0:0:
448,192,9178,1,0,0:0:0:0:
192,192,9378,1,0,0:0:0:0:
448,192,9578,1,0,0:0:0:0:
64,192,9778,1,0,0:0:0:0:
192,192,9978,1,0,0:0:0:0:
320,192,9978,1,0,0:0:0:0:
448,192,10178,1,0,0:0:0:0:
64,192,10378,1,0,0:0:0:0:
320,192,10578,1,0,0:0:0:0:
448,192,10578,1,0,0:0:0:0:
192,192,10778,1,0,0:0:0:0:
320,192,10778,1,0,0:0:0:0:
64,192,10778,1,0,0:0:0:0:
448,192,10978,1,0,0:0:0:0:
192,192,11179,1,0,0:0:0:0:
448,192,11378,1,0,0:0:0:0:
64,192,11578,1,0,0:0:0:0:
192,192,11578,1,0,0:0:0:0:
320,192,11578,1,0,0:0:0:0:
320,192,11778,1,0,0:0:0:0:
448,192,11778,1,0,0:0:0:0:
192,192,11778,1,0,0:0:0:0:
64,192,11978,1,0,0:0:0:0:
448,192,12178,1,0,0:0:0:0:
320,192,12178,1,0,0:0:0:0:
192,192,12178,1,0,0:0:0:0:
192,192,12378,1,0,0:0:0:0:
320,192,12378,1,0,0:0:0:0:
64,192,12378,1,0,0:0:0:0:
448,192,12578,1,0,0:0:0:0:
320,192,12778,1,0,0:0:0:0:
192,192,12778,1,0,0:0:0:0:
64,192,12978,128,0,13178:0:0:0:0:
448,192,12979,128,0,13179:0:0:0:0:
320,192,13179,128,0,14379:0:0:0:0:
448,192,14379,128,0,16379:0:0:0:0:
64,192,16379,128,0,17579:0:0:0:0:
448,192,17579,128,0,19579:0:0:0:0:
192,192,17979,1,0,0:0:0:0:
320,192,18179,1,0,0:0:0:0:
64,192,18379,1,0,0:0:0:0:
192,192,18579,1,0,0:0:0:0:
320,192,18779,1,0,0:0:0:0:
64,192,18979,1,0,0:0:0:0:
320,192,19179,128,0,19579:0:0:0:0:
192,192,19579,128,0,20779:0:0:0:0:
448,192,20779,128,0,22779:0:0:0:0:
64,192,22779,128,0,23979:0:0:0:0:
320,192,23979,128,0,24379:0:0:0:0:
448,192,24379,128,0,25179:0:0:0:0:
64,192,24579,1,0,0:0:0:0:
192,192,24779,1,0,0:0:0:0:
320,192,24979,1,0,0:0:0:0:
64,192,25179,1,0,0:0:0:0:
192,192,25179,1,0,0:0:0:0:
320,192,25379,1,0,0:0:0:0:
192,192,25379,1,0,0:0:0:0:
64,192,25579,1,0,0:0:0:0:
448,192,25579,1,0,0:0:0:0:
320,192,25579,1,0,0:0:0:0:
192,192,25779,1,0,0:0:0:0:
64,192,25779,1,0,0:0:0:0:
64,192,25979,128,0,26004:0:0:0:0:
448,192,25979,1,0,0:0:0:0:
320,192,25979,1,0,0:0:0:0:
192,192,26179,1,0,0:0:0:0:
192,192,26379,1,0,0:0:0:0:
448,192,26379,1,0,0:0:0:0:
320,192,26579,1,0,0:0:0:0:
320,192,26779,1,0,0:0:0:0:
64,192,26779,1,0,0:0:0:0:
448,192,26979,1,0,0:0:0:0:
448,192,27179,1,0,0:0:0:0:
192,192,27179,1,0,0:0:0:0:
64,192,27379,1,0,0:0:0:0:
64,192,27579,1,0,0:0:0:0:
320,192,27579,1,0,0:0:0:0:
192,192,27779,1,0,0:0:0:0:
192,192,27979,1,0,0:0:0:0:
448,192,27979,1,0,0:0:0:0:
320,192,28179,1,0,0:0:0:0:
192,192,28279,1,0,0:0:0:0:
64,192,28379,1,0,0:0:0:0:
448,192,28379,1,0,0:0:0:0:
320,192,28579,1,0,0:0:0:0:
192,192,28779,1,0,0:0:0:0:
448,192,28779,1,0,0:0:0:0:
64,192,28979,1,0,0:0:0:0:
192,192,29179,1,0,0:0:0:0:
320,192,29179,1,0,0:0:0:0:
448,192,29379,1,0,0:0:0:0:
64,192,29579,1,0,0:0:0:0:
320,192,29579,1,0,0:0:0:0:
192,192,29779,1,0,0:0:0:0:
64,192,29979,1,0,0:0:0:0:
448,192,29979,1,0,0:0:0:0:
320,192,30179,1,0,0:0:0:0:
448,192,30379,128,0,31579:0:0:0:0:
192,192,30379,1,0,0:0:0:0:
64,192,30579,1,0,0:0:0:0:
320,192,30779,1,0,0:0:0:0:
192,192,30779,1,0,0:0:0:0:
64,192,30979,1,0,0:0:0:0:
192,192,31179,1,0,0:0:0:0:
320,192,31179,1,0,0:0:0:0:
64,192,31379,1,0,0:0:0:0:
192,192,31479,1,0,0:0:0:0:
320,192,31579,1,0,0:0:0:0:
64,192,31779,1,0,0:0:0:0:
192,192,31979,1,0,0:0:0:0:
448,192,31979,1,0,0:0:0:0:
64,192,32179,1,0,0:0:0:0:
192,192,32179,1,0,0:0:0:0:
320,192,32229,1,0,0:0:0:0:
448,192,32279,1,0,0:0:0:0:
64,192,32329,1,0,0:0:0:0:
192,192,32379,1,0,0:0:0:0:
320,192,32379,1,0,0:0:0:0:
320,192,32579,1,0,0:0:0:0:
64,192,32779,1,0,0:0:0:0:
448,192,32779,1,0,0:0:0:0:
192,192,32979,1,0,0:0:0:0:
320,192,33179,1,0,0:0:0:0:
448,192,33179,1,0,0:0:0:0:
64,192,33379,1,0,0:0:0:0:
192,192,33579,1,0,0:0:0:0:
320,192,33579,1,0,0:0:0:0:
448,192,33779,1,0,0:0:0:0:
320,192,33979,1,0,0:0:0:0:
64,192,33979,1,0,0:0:0:0:
192,192,34179,1,0,0:0:0:0:
448,192,34379,1,0,0:0:0:0:
64,192,34379,1,0,0:0:0:0:
192,192,34579,1,0,0:0:0:0:
320,192,34679,1,0,0:0:0:0:
448,192,34779,1,0,0:0:0:0:
64,192,34779,1,0,0:0:0:0:
192,192,34979,1,0,0:0:0:0:
320,192,35179,1,0,0:0:0:0:
448,192,35179,1,0,0:0:0:0:
192,192,35379,1,0,0:0:0:0:
64,192,35579,1,0,0:0:0:0:
320,192,35579,1,0,0:0:0:0:
448,192,35579,1,0,0:0:0:0:
192,192,35779,1,0,0:0:0:0:
320,192,35979,1,0,0:0:0:0:
64,192,35979,1,0,0:0:0:0:
192,192,36179,1,0,0:0:0:0:
320,192,36379,1,0,0:0:0:0:
448,192,36379,1,0,0:0:0:0:
64,192,36579,1,0,0:0:0:0:
192,192,36779,1,0,0:0:0:0:
448,192,36779,1,0,0:0:0:0:
320,192,36979,1,0,0:0:0:0:
64,192,37179,128,0,38779:0:0:0:0:
448,192,37179,1,0,0:0:0:0:
320,192,37279,1,0,0:0:0:0:
192,192,37379,1,0,0:0:0:0:
320,192,37479,1,0,0:0:0:0:
448,192,37579,1,0,0:0:0:0:
320,192,37679,1,0,0:0:0:0:
192,192,37779,1,0,0:0:0:0:
448,192,37879,1,0,0:0:0:0:
320,192,37979,1,0,0:0:0:0:
192,192,38079,1,0,0:0:0:0:
320,192,38179,1,0,0:0:0:0:
448,192,38279,1,0,0:0:0:0:
192,192,38379,1,0,0:0:0:0:
320,192,38479,1,0,0:0:0:0:
192,192,38579,1,0,0:0:0:0:
320,192,38679,1,0,0:0:0:0:
448,192,38779,1,0,0:0:0:0:
192,192,38779,1,0,0:0:0:0:
320,192,38979,1,0,0:0:0:0:
320,192,39179,1,0,0:0:0:0:
448,192,39179,1,0,0:0:0:0:
64,192,39179,1,0,0:0:0:0:
192,192,39379,1,0,0:0:0:0:
320,192,39379,1,0,0:0:0:0:
192,192,39579,1,0,0:0:0:0:
64,192,39579,1,0,0:0:0:0:
448,192,39579,1,0,0:0:0:0:
64,192,39979,1,0,0:0:0:0:
192,192,39979,1,0,0:0:0:0:
320,192,39979,1,0,0:0:0:0:
448,192,40179,1,0,0:0:0:0:
192,192,40379,1,0,0:0:0:0:
64,192,40379,1,0,0:0:0:0:
448,192,40379,1,0,0:0:0:0:
320,192,40579,1,0,0:0:0:0:
320,192,40779,1,0,0:0:0:0:
192,192,40779,1,0,0:0:0:0:
448,192,40779,1,0,0:0:0:0:
64,192,40979,1,0,0:0:0:0:
192,192,41179,1,0,0:0:0:0:
320,192,41179,1,0,0:0:0:0:
448,192,41379,1,0,0:0:0:0:
64,192,41579,1,0,0:0:0:0:
192,192,41579,1,0,0:0:0:0:
320,192,41779,1,0,0:0:0:0:
192,192,41979,1,0,0:0:0:0:
448,192,41979,1,0,0:0:0:0:
64,192,42179,1,0,0:0:0:0:
192,192,42379,1,0,0:0:0:0:
320,192,42379,1,0,0:0:0:0:
320,192,42579,1,0,0:0:0:0:
448,192,42579,1,0,0:0:0:0:
64,192,42779,1,0,0:0:0:0:
192,192,42779,1,0,0:0:0:0:
192,192,43179,1,0,0:0:0:0:
448,192,43179,1,0,0:0:0:0:
320,192,43379,1,0,0:0:0:0:
64,192,43579,1,0,0:0:0:0:
192,192,43579,1,0,0:0:0:0:
320,192,43779,1,0,0:0:0:0:
192,192,43979,1,0,0:0:0:0:
448,192,43979,1,0,0:0:0:0:
64,192,44179,1,0,0:0:0:0:
192,192,44179,1,0,0:0:0:0:
320,192,44379,1,0,0:0:0:0:
448,192,44379,1,0,0:0:0:0:
192,192,44579,1,0,0:0:0:0:
64,192,44779,1,0,0:0:0:0:
448,192,44779,1,0,0:0:0:0:
320,192,44779,128,0,45179:0:0:0:0:
192,192,45179,1,0,0:0:0:0:
448,192,45179,1,0,0:0:0:0:
64,192,45379,1,0,0:0:0:0:
192,192,45579,1,0,0:0:0:0:
320,192,45579,1,0,0:0:0:0:
448,192,45579,1,0,0:0:0:0:
64,192,45779,1,0,0:0:0:0:
192,192,45779,1,0,0:0:0:0:
192,192,45979,1,0,0:0:0:0:
320,192,45979,1,0,0:0:0:0:
448,192,45979,1,0,0:0:0:0:
320,192,46179,1,0,0:0:0:0:
64,192,46379,1,0,0:0:0:0:
192,192,46379,1,0,0:0:0:0:
448,192,46379,1,0,0:0:0:0:
320,192,46579,1,0,0:0:0:0:
192,192,46779,1,0,0:0:0:0:
320,192,46779,1,0,0:0:0:0:
448,192,46779,1,0,0:0:0:0:
64,192,46979,1,0,0:0:0:0:
64,192,47179,1,0,0:0:0:0:
192,192,47179,1,0,0:0:0:0:
448,192,47179,1,0,0:0:0:0:
192,192,47379,1,0,0:0:0:0:
320,192,47379,1,0,0:0:0:0:
64,192,47579,1,0,0:0:0:0:
320,192,47579,1,0,0:0:0:0:
448,192,47579,1,0,0:0:0:0:
192,192,47779,1,0,0:0:0:0:
320,192,47779,1,0,0:0:0:0:
64,192,47979,1,0,0:0:0:0:
192,192,47979,1,0,0:0:0:0:
448,192,47979,1,0,0:0:0:0:
192,192,48179,1,0,0:0:0:0:
320,192,48179,1,0,0:0:0:0:
64,192,48379,1,0,0:0:0:0:
320,192,48379,1,0,0:0:0:0:
448,192,48379,1,0,0:0:0:0:
64,192,48579,1,0,0:0:0:0:
192,192,48579,1,0,0:0:0:0:
448,192,48579,1,0,0:0:0:0:
192,192,48779,1,0,0:0:0:0:
320,192,48779,1,0,0:0:0:0:
448,192,48779,1,0,0:0:0:0:
64,192,48979,1,0,0:0:0:0:
192,192,48979,1,0,0:0:0:0:
320,192,48979,1,0,0:0:0:0:
448,192,49179,1,0,0:0:0:0:
64,192,49179,1,0,0:0:0:0:
192,192,49179,1,0,0:0:0:0:
320,192,49379,1,0,0:0:0:0:
448,192,49379,1,0,0:0:0:0:
64,192,49379,1,0,0:0:0:0:
192,192,49579,1,0,0:0:0:0:
320,192,49579,1,0,0:0:0:0:
448,192,49579,1,0,0:0:0:0:
64,192,49779,1,0,0:0:0:0:
192,192,49779,1,0,0:0:0:0:
448,192,49779,1,0,0:0:0:0:
192,192,49979,1,0,0:0:0:0:
320,192,49979,1,0,0:0:0:0:
64,192,49979,1,0,0:0:0:0:
192,192,51179,1,0,0:0:0:0:
320,192,51179,1,0,0:0:0:0:
448,192,51179,1,0,0:0:0:0:
64,192,51379,1,0,0:0:0:0:
192,192,51379,1,0,0:0:0:0:
448,192,51579,1,0,0:0:0:0:
192,192,51579,1,0,0:0:0:0:
64,192,51579,128,0,51604:0:0:0:0:
320,192,51779,1,0,0:0:0:0:
64,192,51979,1,0,0:0:0:0:
192,192,51979,128,0,52179:0:0:0:0:
448,192,52179,1,0,0:0:0:0:
64,192,52379,1,0,0:0:0:0:
192,192,52379,1,0,0:0:0:0:
320,192,52379,1,0,0:0:0:0:
320,192,52779,1,0,0:0:0:0:
448,192,52779,128,0,52979:0:0:0:0:
192,192,52979,1,0,0:0:0:0:
64,192,53179,1,0,0:0:0:0:
320,192,53179,1,0,0:0:0:0:
192,192,53379,1,0,0:0:0:0:
64,192,53579,1,0,0:0:0:0:
448,192,53579,1,0,0:0:0:0:
320,192,53779,128,0,53979:0:0:0:0:
64,192,53979,1,0,0:0:0:0:
192,192,53979,1,0,0:0:0:0:
448,192,54179,1,0,0:0:0:0:
64,192,54379,1,0,0:0:0:0:
320,192,54379,1,0,0:0:0:0:
192,192,54579,1,0,0:0:0:0:
320,192,54779,1,0,0:0:0:0:
448,192,54779,1,0,0:0:0:0:
192,192,54979,1,0,0:0:0:0:
64,192,55179,128,0,55229:0:0:0:0:
448,192,55379,1,0,0:0:0:0:
64,192,55579,1,0,0:0:0:0:
192,192,55579,1,0,0:0:0:0:
320,192,55579,1,0,0:0:0:0:
448,192,55779,1,0,0:0:0:0:
192,192,55979,1,0,0:0:0:0:
320,192,55979,1,0,0:0:0:0:
64,192,56179,1,0,0:0:0:0:
192,192,56379,1,0,0:0:0:0:
448,192,56379,1,0,0:0:0:0:
320,192,56579,1,0,0:0:0:0:
64,192,56779,1,0,0:0:0:0:
448,192,56779,1,0,0:0:0:0:
192,192,56979,1,0,0:0:0:0:
448,192,56979,1,0,0:0:0:0:
64,192,57179,1,0,0:0:0:0:
192,192,57179,1,0,0:0:0:0:
320,192,57179,1,0,0:0:0:0:
448,192,57379,1,0,0:0:0:0:
64,192,57579,1,0,0:0:0:0:
320,192,57579,1,0,0:0:0:0:
192,192,57779,1,0,0:0:0:0:
448,192,57979,1,0,0:0:0:0:
64,192,57979,1,0,0:0:0:0:
320,192,58179,1,0,0:0:0:0:
64,192,58379,1,0,0:0:0:0:
192,192,58379,128,0,58579:0:0:0:0:
448,192,58579,1,0,0:0:0:0:
64,192,58779,1,0,0:0:0:0:
192,192,58779,1,0,0:0:0:0:
320,192,58779,1,0,0:0:0:0:
448,192,58979,1,0,0:0:0:0:
320,192,59179,1,0,0:0:0:0:
64,192,59179,128,0,59379:0:0:0:0:
192,192,59379,1,0,0:0:0:0:
64,192,59579,1,0,0:0:0:0:
320,192,59579,1,0,0:0:0:0:
192,192,59779,1,0,0:0:0:0:
64,192,59979,1,0,0:0:0:0:
448,192,59979,1,0,0:0:0:0:
320,192,60179,128,0,60379:0:0:0:0:
64,192,60379,1,0,0:0:0:0:
192,192,60379,1,0,0:0:0:0:
448,192,60579,1,0,0:0:0:0:
64,192,60779,1,0,0:0:0:0:
320,192,60779,1,0,0:0:0:0:
192,192,60979,1,0,0:0:0:0:
320,192,61179,1,0,0:0:0:0:
448,192,61179,1,0,0:0:0:0:
192,192,61379,1,0,0:0:0:0:
64,192,61579,128,0,61629:0:0:0:0:
448,192,61779,1,0,0:0:0:0:
64,192,61979,1,0,0:0:0:0:
192,192,61979,1,0,0:0:0:0:
320,192,61979,1,0,0:0:0:0:
448,192,62179,1,0,0:0:0:0:
192,192,62379,1,0,0:0:0:0:
320,192,62379,1,0,0:0:0:0:
64,192,62579,1,0,0:0:0:0:
192,192,62779,1,0,0:0:0:0:
448,192,62779,128,0,63579:0:0:0:0:
320,192,62979,1,0,0:0:0:0:
192,192,63179,1,0,0:0:0:0:
64,192,63379,1,0,0:0:0:0:
320,192,63579,1,0,0:0:0:0:
192,192,63579,1,0,0:0:0:0:
64,192,63779,1,0,0:0:0:0:
192,192,63779,1,0,0:0:0:0:
192,192,63879,1,0,0:0:0:0:
448,192,63879,1,0,0:0:0:0:
320,192,63979,1,0,0:0:0:0:
64,192,63979,1,0,0:0:0:0:
448,192,64179,1,0,0:0:0:0:
64,192,64179,1,0,0:0:0:0:
320,192,64229,1,0,0:0:0:0:
192,192,64279,1,0,0:0:0:0:
64,192,64329,1,0,0:0:0:0:
320,192,64379,1,0,0:0:0:0:
448,192,64379,128,0,64404:0:0:0:0:
192,192,64579,1,0,0:0:0:0:
64,192,64779,1,0,0:0:0:0:
320,192,64779,128,0,64979:0:0:0:0:
448,192,64979,1,0,0:0:0:0:
64,192,65179,1,0,0:0:0:0:
192,192,65179,1,0,0:0:0:0:
320,192,65179,1,0,0:0:0:0:
192,192,65379,1,0,0:0:0:0:
320,192,65579,1,0,0:0:0:0:
448,192,65579,128,0,65779:0:0:0:0:
192,192,65779,1,0,0:0:0:0:
64,192,65979,1,0,0:0:0:0:
320,192,65979,1,0,0:0:0:0:
192,192,66179,1,0,0:0:0:0:
64,192,66379,1,0,0:0:0:0:
448,192,66379,1,0,0:0:0:0:
320,192,66579,128,0,66779:0:0:0:0:
192,192,66579,1,0,0:0:0:0:
64,192,66779,1,0,0:0:0:0:
192,192,66779,1,0,0:0:0:0:
448,192,66979,1,0,0:0:0:0:
64,192,67179,1,0,0:0:0:0:
320,192,67179,1,0,0:0:0:0:
192,192,67379,128,0,67579:0:0:0:0:
320,192,67579,1,0,0:0:0:0:
448,192,67579,1,0,0:0:0:0:
192,192,67779,1,0,0:0:0:0:
64,192,67979,128,0,68029:0:0:0:0:
320,192,68179,1,0,0:0:0:0:
64,192,68379,1,0,0:0:0:0:
192,192,68379,1,0,0:0:0:0:
320,192,68379,1,0,0:0:0:0:
448,192,68579,1,0,0:0:0:0:
192,192,68779,1,0,0:0:0:0:
320,192,68779,1,0,0:0:0:0:
64,192,68979,1,0,0:0:0:0:
192,192,69179,1,0,0:0:0:0:
448,192,69179,1,0,0:0:0:0:
320,192,69379,1,0,0:0:0:0:
64,192,69579,1,0,0:0:0:0:
448,192,69579,1,0,0:0:0:0:
192,192,69779,1,0,0:0:0:0:
448,192,69779,1,0,0:0:0:0:
64,192,69979,1,0,0:0:0:0:
192,192,69979,1,0,0:0:0:0:
320,192,69979,1,0,0:0:0:0:
448,192,70179,1,0,0:0:0:0:
64,192,70379,1,0,0:0:0:0:
320,192,70379,1,0,0:0:0:0:
192,192,70579,1,0,0:0:0:0:
448,192,70779,1,0,0:0:0:0:
64,192,70779,1,0,0:0:0:0:
320,192,70979,1,0,0:0:0:0:
64,192,71179,1,0,0:0:0:0:
192,192,71179,128,0,71379:0:0:0:0:
448,192,71379,1,0,0:0:0:0:
64,192,71579,1,0,0:0:0:0:
192,192,71579,1,0,0:0:0:0:
320,192,71579,1,0,0:0:0:0:
448,192,71779,1,0,0:0:0:0:
320,192,71979,1,0,0:0:0:0:
448,192,71979,128,0,72179:0:0:0:0:
192,192,72179,1,0,0:0:0:0:
64,192,72379,1,0,0:0:0:0:
320,192,72379,1,0,0:0:0:0:
192,192,72579,1,0,0:0:0:0:
64,192,72779,1,0,0:0:0:0:
448,192,72779,1,0,0:0:0:0:
320,192,72979,128,0,73179:0:0:0:0:
64,192,73179,1,0,0:0:0:0:
192,192,73179,1,0,0:0:0:0:
448,192,73379,1,0,0:0:0:0:
64,192,73579,1,0,0:0:0:0:
320,192,73579,1,0,0:0:0:0:
192,192,73779,1,0,0:0:0:0:
320,192,73979,1,0,0:0:0:0:
448,192,73979,1,0,0:0:0:0:
192,192,74179,1,0,0:0:0:0:
64,192,74379,128,0,74429:0:0:0:0:
448,192,74579,1,0,0:0:0:0:
64,192,74779,1,0,0:0:0:0:
192,192,74779,1,0,0:0:0:0:
320,192,74779,1,0,0:0:0:0:
448,192,74979,1,0,0:0:0:0:
192,192,75179,1,0,0:0:0:0:
320,192,75179,1,0,0:0:0:0:
64,192,75379,1,0,0:0:0:0:
192,192,75579,1,0,0:0:0:0:
448,192,75579,128,0,75979:0:0:0:0:
320,192,75779,1,0,0:0:0:0:
192,192,75979,1,0,0:0:0:0:
64,192,75979,1,0,0:0:0:0:
320,192,76079,1,0,0:0:0:0:
448,192,76179,1,0,0:0:0:0:
64,192,76179,1,0,0:0:0:0:
192,192,76279,1,0,0:0:0:0:
320,192,76379,1,0,0:0:0:0:
448,192,76379,1,0,0:0:0:0:
64,192,76379,1,0,0:0:0:0:
320,192,76579,128,0,76679:0:0:0:0:
64,192,76579,1,0,0:0:0:0:
448,192,76679,128,0,76779:0:0:0:0:
192,192,76679,1,0,0:0:0:0:
320,192,76779,1,0,0:0:0:0:
320,192,76979,128,0,77179:0:0:0:0:
192,192,76979,128,0,77179:0:0:0:0:
64,192,77179,1,0,0:0:0:0:
448,192,77179,128,0,78379:0:0:0:0:
64,192,78379,128,0,80379:0:0:0:0:
192,192,80379,128,0,81579:0:0:0:0:
320,192,81579,128,0,83579:0:0:0:0:
64,192,83579,128,0,84779:0:0:0:0:
448,192,83579,128,0,84779:0:0:0:0:
192,192,84779,128,0,86779:0:0:0:0:
320,192,84779,128,0,86779:0:0:0:0:
64,192,86779,128,0,87979:0:0:0:0:
448,192,87979,128,0,89979:0:0:0:0:
64,192,89979,128,0,91179:0:0:0:0:
192,192,89979,1,0,0:0:0:0:
320,192,90179,1,0,0:0:0:0:
192,192,90779,1,0,0:0:0:0:
448,192,90779,1,0,0:0:0:0:
320,192,90979,1,0,0:0:0:0:
448,192,91179,128,0,92779:0:0:0:0:
192,192,91179,1,0,0:0:0:0:
64,192,91579,1,0,0:0:0:0:
192,192,91579,1,0,0:0:0:0:
192,192,91979,1,0,0:0:0:0:
320,192,91979,1,0,0:0:0:0:
192,192,92379,128,0,92779:0:0:0:0:
64,192,92779,128,0,94379:0:0:0:0:
320,192,92779,128,0,93179:0:0:0:0:
448,192,93179,1,0,0:0:0:0:
192,192,93379,1,0,0:0:0:0:
448,192,93579,1,0,0:0:0:0:
320,192,93779,1,0,0:0:0:0:
192,192,93979,1,0,0:0:0:0:
448,192,94179,1,0,0:0:0:0:
192,192,94379,128,0,96379:0:0:0:0:
320,192,94379,128,0,95579:0:0:0:0:
448,192,95579,1,0,0:0:0:0:
320,192,95979,1,0,0:0:0:0:
64,192,96379,128,0,97579:0:0:0:0:
448,192,96379,1,0,0:0:0:0:
320,192,96579,1,0,0:0:0:0:
320,192,97179,1,0,0:0:0:0:
448,192,97379,1,0,0:0:0:0:
192,192,97579,128,0,99579:0:0:0:0:
320,192,97579,1,0,0:0:0:0:
448,192,97979,1,0,0:0:0:0:
64,192,98379,1,0,0:0:0:0:
320,192,98779,1,0,0:0:0:0:
64,192,99179,1,0,0:0:0:0:
448,192,99179,1,0,0:0:0:0:
64,192,99579,128,0,100779:0:0:0:0:
320,192,99579,1,0,0:0:0:0:
448,192,99779,1,0,0:0:0:0:
192,192,99979,1,0,0:0:0:0:
448,192,100179,1,0,0:0:0:0:
320,192,100379,1,0,0:0:0:0:
192,192,100579,1,0,0:0:0:0:
448,192,100779,128,0,101979:0:0:0:0:
320,192,100779,1,0,0:0:0:0:
64,192,101179,128,0,101979:0:0:0:0:
320,192,101379,1,0,0:0:0:0:
192,192,101579,1,0,0:0:0:0:
320,192,101779,1,0,0:0:0:0:
192,192,101979,1,0,0:0:0:0:
320,192,101979,1,0,0:0:0:0:
320,192,102179,1,0,0:0:0:0:
448,192,102179,1,0,0:0:0:0:
64,192,102379,1,0,0:0:0:0:
192,192,102379,1,0,0:0:0:0:
320,192,102379,1,0,0:0:0:0:
192,192,102579,1,0,0:0:0:0:
448,192,102579,1,0,0:0:0:0:
320,192,102779,1,0,0:0:0:0:
192,192,102779,1,0,0:0:0:0:
64,192,102779,128,0,102804:0:0:0:0:
448,192,102779,128,0,102829:0:0:0:0:
320,192,102979,1,0,0:0:0:0:
192,192,103179,1,0,0:0:0:0:
448,192,103179,1,0,0:0:0:0:
320,192,103379,1,0,0:0:0:0:
320,192,103579,1,0,0:0:0:0:
64,192,103579,1,0,0:0:0:0:
192,192,103779,1,0,0:0:0:0:
448,192,103979,1,0,0:0:0:0:
192,192,103979,1,0,0:0:0:0:
64,192,104179,1,0,0:0:0:0:
64,192,104379,1,0,0:0:0:0:
320,192,104379,1,0,0:0:0:0:
192,192,104579,1,0,0:0:0:0:
192,192,104779,1,0,0:0:0:0:
448,192,104779,1,0,0:0:0:0:
320,192,104979,1,0,0:0:0:0:
192,192,105079,1,0,0:0:0:0:
64,192,105179,1,0,0:0:0:0:
448,192,105179,1,0,0:0:0:0:
320,192,105379,1,0,0:0:0:0:
192,192,105579,1,0,0:0:0:0:
448,192,105579,1,0,0:0:0:0:
64,192,105779,1,0,0:0:0:0:
192,192,105979,1,0,0:0:0:0:
320,192,105979,1,0,0:0:0:0:
448,192,106179,1,0,0:0:0:0:
64,192,106379,1,0,0:0:0:0:
320,192,106379,1,0,0:0:0:0:
192,192,106579,1,0,0:0:0:0:
64,192,106779,1,0,0:0:0:0:
448,192,106779,1,0,0:0:0:0:
320,192,106979,1,0,0:0:0:0:
448,192,107179,128,0,108379:0:0:0:0:
192,192,107179,1,0,0:0:0:0:
64,192,107379,1,0,0:0:0:0:
320,192,107579,1,0,0:0:0:0:
192,192,107579,1,0,0:0:0:0:
64,192,107779,1,0,0:0:0:0:
192,192,107979,1,0,0:0:0:0:
320,192,107979,1,0,0:0:0:0:
64,192,108179,1,0,0:0:0:0:
192,192,108279,1,0,0:0:0:0:
320,192,108379,1,0,0:0:0:0:
64,192,108579,1,0,0:0:0:0:
192,192,108779,1,0,0:0:0:0:
448,192,108779,1,0,0:0:0:0:
64,192,108979,1,0,0:0:0:0:
448,192,108979,1,0,0:0:0:0:
320,192,109029,1,0,0:0:0:0:
192,192,109079,1,0,0:0:0:0:
64,192,109129,1,0,0:0:0:0:
192,192,109179,1,0,0:0:0:0:
320,192,109179,1,0,0:0:0:0:
64,192,109379,1,0,0:0:0:0:
320,192,109579,1,0,0:0:0:0:
448,192,109579,1,0,0:0:0:0:
192,192,109779,1,0,0:0:0:0:
64,192,109979,1,0,0:0:0:0:
448,192,109979,1,0,0:0:0:0:
320,192,110179,1,0,0:0:0:0:
192,192,110379,1,0,0:0:0:0:
448,192,110379,1,0,0:0:0:0:
64,192,110579,1,0,0:0:0:0:
320,192,110779,1,0,0:0:0:0:
448,192,110779,1,0,0:0:0:0:
192,192,110979,1,0,0:0:0:0:
448,192,111179,1,0,0:0:0:0:
64,192,111179,1,0,0:0:0:0:
192,192,111379,1,0,0:0:0:0:
320,192,111479,1,0,0:0:0:0:
448,192,111579,1,0,0:0:0:0:
64,192,111579,1,0,0:0:0:0:
192,192,111779,1,0,0:0:0:0:
320,192,111979,1,0,0:0:0:0:
448,192,111979,1,0,0:0:0:0:
192,192,112179,1,0,0:0:0:0:
64,192,112379,1,0,0:0:0:0:
320,192,112379,1,0,0:0:0:0:
448,192,112379,1,0,0:0:0:0:
192,192,112579,1,0,0:0:0:0:
320,192,112779,1,0,0:0:0:0:
64,192,112779,1,0,0:0:0:0:
192,192,112979,1,0,0:0:0:0:
320,192,113179,1,0,0:0:0:0:
448,192,113179,1,0,0:0:0:0:
64,192,113379,1,0,0:0:0:0:
192,192,113579,1,0,0:0:0:0:
448,192,113579,1,0,0:0:0:0:
320,192,113779,1,0,0:0:0:0:
448,192,113979,1,0,0:0:0:0:
320,192,114079,1,0,0:0:0:0:
192,192,114179,1,0,0:0:0:0:
448,192,114279,1,0,0:0:0:0:
64,192,114279,1,0,0:0:0:0:
320,192,114379,1,0,0:0:0:0:
192,192,114479,1,0,0:0:0:0:
64,192,114579,1,0,0:0:0:0:
448,192,114579,1,0,0:0:0:0:
320,192,114679,1,0,0:0:0:0:
192,192,114779,1,0,0:0:0:0:
64,192,114779,1,0,0:0:0:0:
448,192,114829,1,0,0:0:0:0:
320,192,114879,1,0,0:0:0:0:
64,192,114929,1,0,0:0:0:0:
192,192,114979,1,0,0:0:0:0:
448,192,115029,1,0,0:0:0:0:
320,192,115079,1,0,0:0:0:0:
64,192,115129,1,0,0:0:0:0:
192,192,115179,1,0,0:0:0:0:
320,192,115179,1,0,0:0:0:0:
448,192,115229,1,0,0:0:0:0:
64,192,115279,1,0,0:0:0:0:
192,192,115329,1,0,0:0:0:0:
320,192,115379,1,0,0:0:0:0:
448,192,115429,1,0,0:0:0:0:
64,192,115479,1,0,0:0:0:0:
192,192,115529,1,0,0:0:0:0:
448,192,115579,1,0,0:0:0:0:
320,192,115579,1,0,0:0:0:0:
192,192,115779,1,0,0:0:0:0:
64,192,115979,1,0,0:0:0:0:
448,192,115979,1,0,0:0:0:0:
320,192,116179,1,0,0:0:0:0:
192,192,116379,1,0,0:0:0:0:
64,192,116379,1,0,0:0:0:0:
320,192,116579,1,0,0:0:0:0:
192,192,116779,1,0,0:0:0:0:
448,192,116779,128,0,116979:0:0:0:0:
320,192,116979,1,0,0:0:0:0:
64,192,117179,1,0,0:0:0:0:
192,192,117179,1,0,0:0:0:0:
448,192,117379,1,0,0:0:0:0:
192,192,117579,1,0,0:0:0:0:
320,192,117579,1,0,0:0:0:0:
64,192,117779,1,0,0:0:0:0:
192,192,117879,1,0,0:0:0:0:
320,192,117979,1,0,0:0:0:0:
448,192,117979,1,0,0:0:0:0:
64,192,118179,1,0,0:0:0:0:
192,192,118379,1,0,0:0:0:0:
448,192,118379,1,0,0:0:0:0:
64,192,118579,1,0,0:0:0:0:
192,192,118779,1,0,0:0:0:0:
320,192,118779,128,0,118979:0:0:0:0:
448,192,118979,1,0,0:0:0:0:
64,192,119179,1,0,0:0:0:0:
320,192,119179,1,0,0:0:0:0:
192,192,119379,1,0,0:0:0:0:
64,192,119579,1,0,0:0:0:0:
448,192,119579,1,0,0:0:0:0:
320,192,119779,1,0,0:0:0:0:
448,192,119979,128,0,121179:0:0:0:0:
192,192,119979,1,0,0:0:0:0:
64,192,120179,1,0,0:0:0:0:
320,192,120379,1,0,0:0:0:0:
192,192,120379,1,0,0:0:0:0:
64,192,120579,1,0,0:0:0:0:
192,192,120779,1,0,0:0:0:0:
320,192,120779,1,0,0:0:0:0:
64,192,120979,1,0,0:0:0:0:
192,192,121079,1,0,0:0:0:0:
320,192,121179,1,0,0:0:0:0:
64,192,121379,1,0,0:0:0:0:
192,192,121579,1,0,0:0:0:0:
448,192,121579,1,0,0:0:0:0:
64,192,121779,1,0,0:0:0:0:
192,192,121779,1,0,0:0:0:0:
320,192,121829,1,0,0:0:0:0:
448,192,121879,1,0,0:0:0:0:
64,192,121929,1,0,0:0:0:0:
320,192,121979,1,0,0:0:0:0:
192,192,121979,128,0,122179:0:0:0:0:
320,192,122179,1,0,0:0:0:0:
64,192,122379,1,0,0:0:0:0:
448,192,122379,1,0,0:0:0:0:
192,192,122579,1,0,0:0:0:0:
320,192,122779,1,0,0:0:0:0:
448,192,122779,1,0,0:0:0:0:
64,192,122979,1,0,0:0:0:0:
192,192,123179,1,0,0:0:0:0:
320,192,123179,128,0,123379:0:0:0:0:
448,192,123379,1,0,0:0:0:0:
320,192,123579,1,0,0:0:0:0:
64,192,123579,1,0,0:0:0:0:
192,192,123779,1,0,0:0:0:0:
448,192,123979,1,0,0:0:0:0:
64,192,123979,1,0,0:0:0:0:
192,192,124179,1,0,0:0:0:0:
320,192,124279,1,0,0:0:0:0:
448,192,124379,1,0,0:0:0:0:
64,192,124379,1,0,0:0:0:0:
192,192,124579,1,0,0:0:0:0:
320,192,124779,1,0,0:0:0:0:
448,192,124779,1,0,0:0:0:0:
192,192,124979,1,0,0:0:0:0:
64,192,125179,1,0,0:0:0:0:
320,192,125179,1,0,0:0:0:0:
448,192,125379,1,0,0:0:0:0:
320,192,125379,1,0,0:0:0:0:
320,192,125579,1,0,0:0:0:0:
64,192,125579,1,0,0:0:0:0:
192,192,125779,1,0,0:0:0:0:
448,192,125779,1,0,0:0:0:0:
320,192,125979,1,0,0:0:0:0:
448,192,125979,1,0,0:0:0:0:
64,192,126179,1,0,0:0:0:0:
320,192,126179,1,0,0:0:0:0:
192,192,126379,1,0,0:0:0:0:
448,192,126379,1,0,0:0:0:0:
320,192,126579,1,0,0:0:0:0:
192,192,126579,1,0,0:0:0:0:
64,192,126779,1,0,0:0:0:0:
192,192,126779,1,0,0:0:0:0:
320,192,126879,1,0,0:0:0:0:
448,192,126979,1,0,0:0:0:0:
64,192,126979,1,0,0:0:0:0:
192,192,127079,1,0,0:0:0:0:
320,192,127179,1,0,0:0:0:0:
448,192,127179,1,0,0:0:0:0:
64,192,127279,1,0,0:0:0:0:
192,192,127379,1,0,0:0:0:0:
448,192,127379,1,0,0:0:0:0:
320,192,127479,1,0,0:0:0:0:
192,192,127579,1,0,0:0:0:0:
64,192,127579,1,0,0:0:0:0:
448,192,127629,1,0,0:0:0:0:
320,192,127679,1,0,0:0:0:0:
64,192,127729,1,0,0:0:0:0:
192,192,127779,1,0,0:0:0:0:
448,192,127829,1,0,0:0:0:0:
320,192,127879,1,0,0:0:0:0:
64,192,127929,1,0,0:0:0:0:
320,192,127979,1,0,0:0:0:0:
192,192,127979,1,0,0:0:0:0:
448,192,128029,1,0,0:0:0:0:
64,192,128079,1,0,0:0:0:0:
192,192,128129,1,0,0:0:0:0:
320,192,128179,1,0,0:0:0:0:
448,192,128229,1,0,0:0:0:0:
64,192,128279,1,0,0:0:0:0:
192,192,128329,1,0,0:0:0:0:
320,192,128379,1,0,0:0:0:0:
448,192,128379,1,0,0:0:0:0:
192,192,128579,1,0,0:0:0:0:
320,192,128779,1,0,0:0:0:0:
448,192,128779,1,0,0:0:0:0:
64,192,128779,1,0,0:0:0:0:
192,192,128979,1,0,0:0:0:0:
320,192,128979,1,0,0:0:0:0:
192,192,129179,1,0,0:0:0:0:
64,192,129179,1,0,0:0:0:0:
448,192,129179,1,0,0:0:0:0:
64,192,129579,1,0,0:0:0:0:
192,192,129579,1,0,0:0:0:0:
320,192,129579,1,0,0:0:0:0:
448,192,129779,1,0,0:0:0:0:
192,192,129979,1,0,0:0:0:0:
64,192,129979,1,0,0:0:0:0:
448,192,129979,1,0,0:0:0:0:
320,192,130179,1,0,0:0:0:0:
320,192,130379,1,0,0:0:0:0:
192,192,130379,1,0,0:0:0:0:
448,192,130379,1,0,0:0:0:0:
64,192,130579,1,0,0:0:0:0:
192,192,130779,1,0,0:0:0:0:
320,192,130779,1,0,0:0:0:0:
448,192,130779,1,0,0:0:0:0:
448,192,130979,1,0,0:0:0:0:
64,192,131179,1,0,0:0:0:0:
192,192,131179,1,0,0:0:0:0:
320,192,131179,1,0,0:0:0:0:
320,192,131379,1,0,0:0:0:0:
192,192,131579,1,0,0:0:0:0:
448,192,131579,1,0,0:0:0:0:
320,192,131579,1,0,0:0:0:0:
64,192,131779,1,0,0:0:0:0:
192,192,131979,1,0,0:0:0:0:
320,192,131979,1,0,0:0:0:0:
448,192,131979,1,0,0:0:0:0:
320,192,132179,1,0,0:0:0:0:
448,192,132179,1,0,0:0:0:0:
64,192,132379,1,0,0:0:0:0:
192,192,132379,1,0,0:0:0:0:
320,192,132379,1,0,0:0:0:0:
192,192,132779,1,0,0:0:0:0:
448,192,132779,1,0,0:0:0:0:
64,192,132779,1,0,0:0:0:0:
320,192,132979,1,0,0:0:0:0:
64,192,133179,1,0,0:0:0:0:
192,192,133179,1,0,0:0:0:0:
448,192,133179,1,0,0:0:0:0:
320,192,133379,1,0,0:0:0:0:
192,192,133579,1,0,0:0:0:0:
448,192,133579,1,0,0:0:0:0:
64,192,133579,1,0,0:0:0:0:
64,192,133779,1,0,0:0:0:0:
192,192,133779,1,0,0:0:0:0:
320,192,133979,1,0,0:0:0:0:
448,192,133979,1,0,0:0:0:0:
192,192,133979,1,0,0:0:0:0:
192,192,134179,1,0,0:0:0:0:
64,192,134379,1,0,0:0:0:0:
448,192,134379,1,0,0:0:0:0:
320,192,134379,128,0,134779:0:0:0:0:
192,192,134779,1,0,0:0:0:0:
448,192,134779,1,0,0:0:0:0:
64,192,134979,1,0,0:0:0:0:
192,192,135179,1,0,0:0:0:0:
320,192,135179,1,0,0:0:0:0:
448,192,135179,1,0,0:0:0:0:
64,192,135379,1,0,0:0:0:0:
192,192,135379,1,0,0:0:0:0:
192,192,135579,1,0,0:0:0:0:
320,192,135579,1,0,0:0:0:0:
448,192,135579,1,0,0:0:0:0:
320,192,135779,1,0,0:0:0:0:
64,192,135979,1,0,0:0:0:0:
192,192,135979,1,0,0:0:0:0:
448,192,135979,1,0,0:0:0:0:
320,192,136179,1,0,0:0:0:0:
192,192,136379,1,0,0:0:0:0:
320,192,136379,1,0,0:0:0:0:
448,192,136379,1,0,0:0:0:0:
64,192,136579,1,0,0:0:0:0:
64,192,136779,1,0,0:0:0:0:
192,192,136779,1,0,0:0:0:0:
448,192,136779,1,0,0:0:0:0:
192,192,136979,1,0,0:0:0:0:
320,192,136979,1,0,0:0:0:0:
64,192,137179,1,0,0:0:0:0:
320,192,137179,1,0,0:0:0:0:
448,192,137179,1,0,0:0:0:0:
192,192,137379,1,0,0:0:0:0:
320,192,137379,1,0,0:0:0:0:
64,192,137579,1,0,0:0:0:0:
192,192,137579,1,0,0:0:0:0:
448,192,137579,1,0,0:0:0:0:
192,192,137779,1,0,0:0:0:0:
320,192,137779,1,0,0:0:0:0:
64,192,137979,1,0,0:0:0:0:
320,192,137979,1,0,0:0:0:0:
448,192,137979,1,0,0:0:0:0:
64,192,138179,1,0,0:0:0:0:
192,192,138179,1,0,0:0:0:0:
448,192,138179,1,0,0:0:0:0:
192,192,138379,1,0,0:0:0:0:
320,192,138379,1,0,0:0:0:0:
448,192,138379,1,0,0:0:0:0:
64,192,138579,1,0,0:0:0:0:
192,192,138579,1,0,0:0:0:0:
320,192,138579,1,0,0:0:0:0:
448,192,138779,1,0,0:0:0:0:
64,192,138779,1,0,0:0:0:0:
192,192,138779,1,0,0:0:0:0:
320,192,138979,1,0,0:0:0:0:
448,192,138979,1,0,0:0:0:0:
64,192,138979,1,0,0:0:0:0:
192,192,139179,1,0,0:0:0:0:
320,192,139179,1,0,0:0:0:0:
448,192,139179,1,0,0:0:0:0:
64,192,139379,1,0,0:0:0:0:
192,192,139379,1,0,0:0:0:0:
448,192,139379,1,0,0:0:0:0:
192,192,139579,1,0,0:0:0:0:
320,192,139579,1,0,0:0:0:0:
64,192,139579,1,0,0:0:0:0:
192,192,140779,1,0,0:0:0:0:
320,192,140779,1,0,0:0:0:0:
448,192,140779,1,0,0:0:0:0:
64,192,140979,1,0,0:0:0:0:
192,192,140979,1,0,0:0:0:0:
320,192,141179,1,0,0:0:0:0:
448,192,141179,1,0,0:0:0:0:
64,192,141179,1,0,0:0:0:0:
192,192,141379,1,0,0:0:0:0:
320,192,141579,1,0,0:0:0:0:
448,192,141579,128,0,141779:0:0:0:0:
192,192,141779,1,0,0:0:0:0:
448,192,141979,1,0,0:0:0:0:
64,192,141979,128,0,142379:0:0:0:0:
320,192,141979,128,0,142379:0:0:0:0:
192,192,142379,128,0,142779:0:0:0:0:
448,192,142379,128,0,142779:0:0:0:0:
320,192,142779,1,0,0:0:0:0:
192,192,142879,1,0,0:0:0:0:
64,192,142979,1,0,0:0:0:0:
448,192,142979,1,0,0:0:0:0:
320,192,143079,1,0,0:0:0:0:
192,192,143179,1,0,0:0:0:0:
64,192,143179,1,0,0:0:0:0:
448,192,143279,1,0,0:0:0:0:
320,192,143379,1,0,0:0:0:0:
64,192,143379,1,0,0:0:0:0:
192,192,143479,1,0,0:0:0:0:
320,192,143579,1,0,0:0:0:0:
448,192,143579,1,0,0:0:0:0:
64,192,143579,1,0,0:0:0:0:
192,192,143779,1,0,0:0:0:0:
320,192,143979,1,0,0:0:0:0:
448,192,143979,1,0,0:0:0:0:
192,192,144179,1,0,0:0:0:0:
320,192,144279,1,0,0:0:0:0:
448,192,144379,1,0,0:0:0:0:
64,192,144379,1,0,0:0:0:0:
192,192,144579,1,0,0:0:0:0:
320,192,144779,1,0,0:0:0:0:
448,192,144779,128,0,144979:0:0:0:0:
192,192,144979,1,0,0:0:0:0:
320,192,145179,1,0,0:0:0:0:
448,192,145179,1,0,0:0:0:0:
64,192,145279,1,0,0:0:0:0:
192,192,145279,1,0,0:0:0:0:
320,192,145379,1,0,0:0:0:0:
448,192,145379,1,0,0:0:0:0:
192,192,145479,1,0,0:0:0:0:
64,192,145479,1,0,0:0:0:0:
320,192,145579,1,0,0:0:0:0:
448,192,145579,128,0,145979:0:0:0:0:
64,192,145979,1,0,0:0:0:0:
192,192,145979,1,0,0:0:0:0:
320,192,146079,1,0,0:0:0:0:
448,192,146179,1,0,0:0:0:0:
64,192,146179,1,0,0:0:0:0:
192,192,146279,1,0,0:0:0:0:
320,192,146379,1,0,0:0:0:0:
448,192,146479,1,0,0:0:0:0:
64,192,146479,1,0,0:0:0:0:
192,192,146579,1,0,0:0:0:0:
320,192,146579,1,0,0:0:0:0:
448,192,146679,1,0,0:0:0:0:
64,192,146779,1,0,0:0:0:0:
192,192,146779,1,0,0:0:0:0:
320,192,146779,1,0,0:0:0:0:
320,192,146979,1,0,0:0:0:0:
448,192,146979,1,0,0:0:0:0:
64,192,147179,1,0,0:0:0:0:
192,192,147379,1,0,0:0:0:0:
320,192,147379,1,0,0:0:0:0:
448,192,147579,1,0,0:0:0:0:
192,192,147579,1,0,0:0:0:0:
320,192,147779,1,0,0:0:0:0:
448,192,147979,1,0,0:0:0:0:
64,192,147979,128,0,148179:0:0:0:0:
192,192,148179,1,0,0:0:0:0:
320,192,148379,128,0,148779:0:0:0:0:
448,192,148379,128,0,148779:0:0:0:0:
192,192,148779,128,0,149179:0:0:0:0:
64,192,148779,128,0,149179:0:0:0:0:
448,192,149179,1,0,0:0:0:0:
320,192,149279,1,0,0:0:0:0:
192,192,149379,1,0,0:0:0:0:
448,192,149479,1,0,0:0:0:0:
320,192,149579,1,0,0:0:0:0:
64,192,149779,1,0,0:0:0:0:
192,192,149779,1,0,0:0:0:0:
320,192,149879,1,0,0:0:0:0:
448,192,149979,1,0,0:0:0:0:
64,192,149979,1,0,0:0:0:0:
192,192,149979,1,0,0:0:0:0:
320,192,150179,1,0,0:0:0:0:
192,192,150379,1,0,0:0:0:0:
448,192,150379,1,0,0:0:0:0:
64,192,150579,1,0,0:0:0:0:
192,192,150679,1,0,0:0:0:0:
320,192,150779,1,0,0:0:0:0:
448,192,150779,1,0,0:0:0:0:
64,192,150979,1,0,0:0:0:0:
192,192,151179,128,0,151379:0:0:0:0:
320,192,151179,1,0,0:0:0:0:
448,192,151379,128,0,151579:0:0:0:0:
64,192,151579,1,0,0:0:0:0:
320,192,151579,1,0,0:0:0:0:
192,192,151679,1,0,0:0:0:0:
320,192,151779,1,0,0:0:0:0:
448,192,151779,1,0,0:0:0:0:
64,192,151879,1,0,0:0:0:0:
192,192,151979,1,0,0:0:0:0:
320,192,151979,1,0,0:0:0:0:
448,192,151979,128,0,152379:0:0:0:0:
64,192,152379,1,0,0:0:0:0:
320,192,152379,1,0,0:0:0:0:
192,192,152479,1,0,0:0:0:0:
320,192,152579,1,0,0:0:0:0:
448,192,152679,1,0,0:0:0:0:
64,192,152679,1,0,0:0:0:0:
320,192,152779,1,0,0:0:0:0:
192,192,152879,1,0,0:0:0:0:
320,192,152979,1,0,0:0:0:0:
448,192,152979,1,0,0:0:0:0:
192,192,153079,1,0,0:0:0:0:
64,192,153179,1,0,0:0:0:0:
320,192,153179,1,0,0:0:0:0:
448,192,153179,1,0,0:0:0:0:
64,192,153379,1,0,0:0:0:0:
192,192,153379,1,0,0:0:0:0:
192,192,153479,1,0,0:0:0:0:
448,192,153479,1,0,0:0:0:0:
320,192,153579,1,0,0:0:0:0:
64,192,153579,1,0,0:0:0:0:
448,192,153779,1,0,0:0:0:0:
64,192,153779,1,0,0:0:0:0:
320,192,153829,1,0,0:0:0:0:
192,192,153879,1,0,0:0:0:0:
64,192,153929,1,0,0:0:0:0:
320,192,153979,1,0,0:0:0:0:
448,192,153979,128,0,154004:0:0:0:0:
192,192,154179,1,0,0:0:0:0:
64,192,154379,1,0,0:0:0:0:
320,192,154379,128,0,154579:0:0:0:0:
448,192,154579,1,0,0:0:0:0:
64,192,154779,1,0,0:0:0:0:
192,192,154779,1,0,0:0:0:0:
320,192,154779,1,0,0:0:0:0:
192,192,154979,1,0,0:0:0:0:
320,192,155179,1,0,0:0:0:0:
448,192,155179,128,0,155379:0:0:0:0:
192,192,155379,1,0,0:0:0:0:
64,192,155579,1,0,0:0:0:0:
320,192,155579,1,0,0:0:0:0:
192,192,155779,1,0,0:0:0:0:
64,192,155979,1,0,0:0:0:0:
448,192,155979,1,0,0:0:0:0:
320,192,156179,128,0,156379:0:0:0:0:
192,192,156179,1,0,0:0:0:0:
64,192,156379,1,0,0:0:0:0:
192,192,156379,1,0,0:0:0:0:
448,192,156579,1,0,0:0:0:0:
64,192,156779,1,0,0:0:0:0:
320,192,156779,1,0,0:0:0:0:
192,192,156979,128,0,157179:0:0:0:0:
320,192,157179,1,0,0:0:0:0:
448,192,157179,1,0,0:0:0:0:
192,192,157379,1,0,0:0:0:0:
64,192,157579,128,0,157629:0:0:0:0:
320,192,157779,1,0,0:0:0:0:
64,192,157979,1,0,0:0:0:0:
192,192,157979,1,0,0:0:0:0:
320,192,157979,1,0,0:0:0:0:
448,192,158179,1,0,0:0:0:0:
192,192,158379,1,0,0:0:0:0:
320,192,158379,1,0,0:0:0:0:
64,192,158579,1,0,0:0:0:0:
192,192,158779,1,0,0:0:0:0:
448,192,158779,1,0,0:0:0:0:
320,192,158979,1,0,0:0:0:0:
64,192,159179,1,0,0:0:0:0:
448,192,159179,1,0,0:0:0:0:
192,192,159379,1,0,0:0:0:0:
448,192,159379,1,0,0:0:0:0:
64,192,159579,1,0,0:0:0:0:
192,192,159579,1,0,0:0:0:0:
320,192,159579,1,0,0:0:0:0:
448,192,159779,1,0,0:0:0:0:
64,192,159979,1,0,0:0:0:0:
320,192,159979,1,0,0:0:0:0:
192,192,160179,1,0,0:0:0:0:
448,192,160379,1,0,0:0:0:0:
64,192,160379,1,0,0:0:0:0:
320,192,160579,1,0,0:0:0:0:
64,192,160779,1,0,0:0:0:0:
192,192,160779,128,0,160979:0:0:0:0:
448,192,160979,1,0,0:0:0:0:
64,192,161179,1,0,0:0:0:0:
192,192,161179,1,0,0:0:0:0:
320,192,161179,1,0,0:0:0:0:
448,192,161379,1,0,0:0:0:0:
320,192,161579,1,0,0:0:0:0:
448,192,161579,128,0,161779:0:0:0:0:
192,192,161779,1,0,0:0:0:0:
64,192,161979,1,0,0:0:0:0:
320,192,161979,1,0,0:0:0:0:
192,192,162179,1,0,0:0:0:0:
64,192,162379,1,0,0:0:0:0:
448,192,162379,1,0,0:0:0:0:
320,192,162579,128,0,162779:0:0:0:0:
64,192,162779,1,0,0:0:0:0:
192,192,162779,1,0,0:0:0:0:
448,192,162979,1,0,0:0:0:0:
64,192,163179,1,0,0:0:0:0:
320,192,163179,1,0,0:0:0:0:
192,192,163379,1,0,0:0:0:0:
320,192,163579,1,0,0:0:0:0:
448,192,163579,1,0,0:0:0:0:
192,192,163779,1,0,0:0:0:0:
64,192,163979,128,0,164029:0:0:0:0:
448,192,164179,1,0,0:0:0:0:
64,192,164379,1,0,0:0:0:0:
192,192,164379,1,0,0:0:0:0:
320,192,164379,1,0,0:0:0:0:
448,192,164579,1,0,0:0:0:0:
192,192,164779,1,0,0:0:0:0:
320,192,164779,1,0,0:0:0:0:
64,192,164979,1,0,0:0:0:0:
192,192,165179,1,0,0:0:0:0:
448,192,165179,128,0,165579:0:0:0:0:
320,192,165379,1,0,0:0:0:0:
192,192,165579,1,0,0:0:0:0:
64,192,165579,1,0,0:0:0:0:
320,192,165679,1,0,0:0:0:0:
448,192,165779,1,0,0:0:0:0:
64,192,165779,1,0,0:0:0:0:
192,192,165879,1,0,0:0:0:0:
320,192,165979,1,0,0:0:0:0:
448,192,165979,1,0,0:0:0:0:
64,192,165979,1,0,0:0:0:0:
320,192,166179,128,0,166279:0:0:0:0:
64,192,166179,1,0,0:0:0:0:
448,192,166279,128,0,166379:0:0:0:0:
192,192,166279,1,0,0:0:0:0:
320,192,166379,1,0,0:0:0:0:
320,192,166579,128,0,166779:0:0:0:0:
192,192,166579,128,0,166779:0:0:0:0:
64,192,166779,1,0,0:0:0:0:
448,192,166779,128,0,167979:0:0:0:0:
64,192,167979,128,0,169979:0:0:0:0:
192,192,169979,128,0,171179:0:0:0:0:
320,192,171179,128,0,173179:0:0:0:0:
448,192,173179,128,0,174379:0:0:0:0:
192,192,174379,128,0,176379:0:0:0:0:
64,192,176379,128,0,177579:0:0:0:0:
448,192,176379,1,0,0:0:0:0:
320,192,176579,1,0,0:0:0:0:
192,192,176779,1,0,0:0:0:0:
448,192,176779,1,0,0:0:0:0:
320,192,176979,1,0,0:0:0:0:
192,192,177179,1,0,0:0:0:0:
448,192,177179,1,0,0:0:0:0:
320,192,177379,1,0,0:0:0:0:
192,192,177579,1,0,0:0:0:0:
448,192,177579,1,0,0:0:0:0:
320,192,177779,1,0,0:0:0:0:
64,192,177979,128,0,179179:0:0:0:0:
448,192,177979,128,0,179179:0:0:0:0:
