osu file format v14

[General]
AudioFilename: audio.mp3
AudioLeadIn: 0
PreviewTime: 362
Countdown: 0
SampleSet: Soft
StackLeniency: 0.4
Mode: 0
LetterboxInBreaks: 0
WidescreenStoryboard: 0

[Editor]
Bookmarks: 3562,49405
DistanceSpacing: 1.5
BeatDivisor: 4
GridSize: 4
TimelineZoom: 1.600006

[Metadata]
Title:Wa ta shi wa * No.1!
TitleUnicode:わ・た・し・は☆No. 1!
Artist:San Diego (CV: Itou Asuka)
ArtistUnicode:サンディエゴ (CV: 伊藤あすか)
Creator:Shurelia
Version:Noz's Hard!
Source:アズールレーン
Tags:azur lane sandymeme sandy ship waifus ongaku hinsvar nozhomi [r] Ron 私 わたし watashi 桜村岬 かみじょうゆうや kamijou yuuya number
BeatmapID:1830578
BeatmapSetID:869783

[Difficulty]
HPDrainRate:4.5
CircleSize:4
OverallDifficulty:6
ApproachRate:8
SliderMultiplier:1.3
SliderTickRate:1

[Events]
//Background and Video events
0,0,"sandymeme.jpg",0,0
Video,868,"goddess.mp4"
//Break Periods
//Storyboard Layer 0 (Background)
//Storyboard Layer 1 (Fail)
//Storyboard Layer 2 (Pass)
//Storyboard Layer 3 (Foreground)
//Storyboard Sound Samples

[TimingPoints]
868,337.078651685393,4,2,1,60,1,0
1120,-100,4,2,1,5,0,0
1205,-100,4,2,1,60,0,0
1457,-100,4,2,1,5,0,0
1542,-100,4,2,1,60,0,0
1794,-100,4,2,1,5,0,0
1879,-100,4,2,1,60,0,0
2132,-100,4,2,1,5,0,0
2216,-100,4,2,1,60,0,0
2469,-100,4,2,1,5,0,0
2553,-100,4,2,1,60,0,0
2806,-100,4,2,1,5,0,0
2890,-100,4,2,1,60,0,0
3143,-100,4,2,1,5,0,0
3227,-100,4,2,2,60,0,0
3564,-100,4,2,1,73,0,1
8620,-100,4,2,1,73,0,0
8957,-100,4,2,1,73,0,1
14351,-100,4,2,1,60,0,0
35924,-100,4,2,1,66,0,0
48059,-100,4,2,1,89,0,0
49070,-76.9230769230769,4,2,2,93,0,0
49407,-83.3333333333333,4,2,1,81,0,1
59856,-83.3333333333333,4,2,1,81,0,0
60193,-83.3333333333333,4,2,2,81,0,1
60362,-83.3333333333333,4,2,1,81,0,1
68241,-83.3333333333333,4,2,1,81,0,0
68283,-100,4,2,1,81,0,0
68367,-100,4,2,1,81,0,0
69632,-100,4,2,1,81,0,0
70643,-100,4,2,1,81,0,0
70980,-100,4,2,1,81,0,0
71064,-100,4,2,1,60,0,0
72328,-100,4,2,1,60,0,0
73339,-71.4285714285714,4,2,1,60,0,0
73592,-71.4285714285714,4,2,1,5,0,0

[Colours]
Combo1 : 207,202,3
Combo2 : 180,251,32
Combo3 : 52,188,254
Combo4 : 215,6,95

[HitObjects]
124,320,868,54,0,P|177:263|172:199,1,130,2|0,0:0|0:0,0:0:0:0:
100,146,1373,1,2,0:0:0:0:
177,214,1542,54,0,P|254:211|296:162,1,130,2|4,0:0|0:0,0:0:0:0:
345,29,2216,2,0,L|339:112,1,65,2|0,0:0|0:0,0:0:0:0:
405,169,2553,2,0,L|411:252,1,65,2|0,0:0|0:0,0:0:0:0:
331,294,2890,2,0,L|325:377,1,65,2|0,0:0|0:0,0:0:0:0:
245,327,3227,2,0,L|206:333,3,32.5,6|0|0|0,0:0|0:0|0:0|0:0,0:0:0:0:
164,347,3564,6,0,L|89:342,1,65,4|0,0:0|0:0,0:0:0:0:
30,274,3901,2,0,P|12:239|12:202,1,65,8|0,0:0|0:0,0:0:0:0:
95,101,4238,2,0,P|85:145|22:198,1,130,2|8,0:0|0:0,0:0:0:0:
121,233,4744,1,2,0:0:0:0:
121,233,4912,6,0,P|159:222|203:230,1,65,0|0,0:0|0:0,0:0:0:0:
276,256,5250,2,0,P|308:257|339:246,1,65,8|0,0:0|0:0,0:0:0:0:
397,168,5587,1,2,0:0:0:0:
492,323,5924,2,0,L|495:246,1,65,8|0,0:0|0:0,0:0:0:0:
451,135,6261,6,0,P|418:161|374:169,1,65,2|0,0:0|0:0,0:0:0:0:
298,159,6598,2,0,P|267:147|243:126,1,65,8|0,0:0|0:0,0:0:0:0:
148,43,6935,2,0,P|193:43|240:113,1,130,2|8,0:0|0:0,0:0:0:0:
238,208,7441,6,0,L|236:278,1,65,2|0,0:0|0:0,0:0:0:0:
171,343,7778,2,0,P|140:356|91:349,2,65,0|8|0,0:0|0:0|0:0,0:0:0:0:
237,273,8283,1,2,0:0:0:0:
311,337,8452,1,2,0:0:0:0:
383,263,8620,2,0,L|455:259,1,65,14|0,0:0|0:0,0:0:0:0:
501,159,8957,6,0,P|474:141|437:136,1,65,6|0,0:0|0:0,0:0:0:0:
352,170,9294,2,0,P|325:188|288:193,1,65,8|0,0:0|0:0,0:0:0:0:
180,139,9632,2,0,P|177:74|244:28,1,130,2|8,0:0|0:0,0:0:0:0:
273,114,10137,1,2,0:0:0:0:
180,139,10306,6,0,L|106:134,1,65,0|0,0:0|0:0,0:0:0:0:
54,213,10643,2,0,L|118:208,1,65,8|0,0:3|0:3,0:0:0:0:
169,293,10980,2,0,L|104:288,1,65,8|0,0:3|0:3,0:0:0:0:
49,370,11317,2,0,L|113:365,1,65,8|8,0:3|0:3,0:0:0:0:
227,360,11654,6,0,P|251:331|251:278,2,65,8|8|8,0:3|0:3|0:0,0:0:0:0:
169,293,12160,1,8,0:3:0:0:
226,215,12328,2,0,B|307:219,2,65,8|8|8,0:3|0:3|0:0,0:0:0:0:
126,199,12834,6,0,P|116:140|153:79,1,130,8|0,0:3|0:0,0:0:0:0:
242,45,13339,2,0,L|327:39,1,65,8|8,0:0|0:3,0:0:0:0:
376,89,13676,1,8,0:3:0:0:
454,48,13845,2,0,L|457:16,4,32.5,8|8|8|8|8,0:3|0:3|0:0|0:3|0:3,0:0:0:0:
376,89,14351,5,6,0:0:0:0:
454,155,14519,1,0,0:0:0:0:
454,155,14688,2,0,P|447:189|423:214,1,65,2|0,0:0|0:0,0:0:0:0:
488,285,15025,1,2,0:0:0:0:
488,285,15193,2,0,P|459:304|424:304,1,65,0|2,0:0|0:0,0:0:0:0:
487,383,15530,6,0,L|346:371,1,130,0|0,0:0|0:0,0:0:0:0:
282,311,16036,2,0,L|210:317,1,65,2|0,0:0|0:0,0:0:0:0:
96,324,16373,1,2,0:0:0:0:
159,228,16542,1,0,0:0:0:0:
217,316,16710,2,0,L|214:382,1,65,2|0,0:0|0:0,0:0:0:0:
96,324,17047,5,0,0:0:0:0:
159,228,17216,1,0,0:0:0:0:
159,228,17300,1,0,0:0:0:0:
159,228,17384,2,0,L|161:163,1,65,2|0,0:0|0:0,0:0:0:0:
106,82,17721,1,2,0:0:0:0:
202,91,17890,2,0,P|245:87|291:73,1,65,0|2,0:0|0:0,0:0:0:0:
347,21,18227,6,0,P|286:24|265:81,1,130,0|0,0:0|0:0,0:0:0:0:
324,162,18733,2,0,L|406:155,1,65,2|0,0:0|0:0,0:0:0:0:
469,213,19070,1,0,0:0:0:0:
481,97,19238,1,0,0:0:0:0:
388,156,19407,2,0,L|391:231,1,65,2|2,0:0|0:0,0:0:0:0:
329,305,19744,6,0,P|276:312|218:262,1,130,2|2,0:0|0:0,0:0:0:0:
199,152,20250,2,0,P|231:194|217:269,1,130,0|0,0:0|0:0,0:0:0:0:
130,304,20755,2,0,L|65:301,1,65,2|0,0:0|0:0,0:0:0:0:
9,213,21092,6,0,P|25:151|80:121,1,130,2|2,0:0|0:0,0:0:0:0:
196,137,21598,2,0,P|134:153|80:121,1,130,0|0,0:0|0:0,0:0:0:0:
116,10,22103,1,2,0:0:0:0:
204,65,22272,1,0,0:0:0:0:
296,9,22441,6,0,P|327:4|359:11,1,65,2|0,0:0|0:0,0:0:0:0:
443,59,22778,2,0,P|469:77|486:104,1,65,2|0,0:0|0:0,0:0:0:0:
489,207,23115,1,2,0:0:0:0:
489,207,23283,2,0,P|470:233|443:250,1,65,0|2,0:0|0:0,0:0:0:0:
345,246,23620,1,0,0:0:0:0:
402,145,23789,5,6,0:0:0:0:
345,246,23957,2,0,L|268:239,1,65,0|0,0:0|0:0,0:0:0:0:
166,178,24294,2,0,L|243:171,1,65,0|0,0:0|0:0,0:0:0:0:
121,244,24632,2,0,L|44:237,1,65,0|8,0:0|0:0,0:0:0:0:
85,347,24969,1,0,0:0:0:0:
203,292,25137,5,4,0:0:0:0:
166,178,25306,1,0,0:0:0:0:
166,178,25390,1,0,0:0:0:0:
166,178,25474,2,0,B|163:90,1,65,10|0,0:0|0:0,0:0:0:0:
264,128,25811,1,2,0:0:0:0:
264,128,25980,2,0,B|261:40,1,65,0|10,0:0|0:0,0:0:0:0:
353,26,26317,6,0,P|371:84|351:165,1,130,0|0,0:0|0:0,0:0:0:0:
280,215,26823,2,0,P|304:198|339:190,1,65,10|0,0:0|0:0,0:0:0:0:
444,219,27160,1,2,0:0:0:0:
376,300,27328,1,0,0:0:0:0:
479,350,27497,2,0,L|474:276,1,65,10|0,0:0|0:0,0:0:0:0:
369,227,27834,5,2,0:0:0:0:
304,305,28002,1,0,0:0:0:0:
304,305,28087,1,0,0:0:0:0:
304,305,28171,2,0,P|264:313|221:301,1,65,10|0,0:0|0:0,0:0:0:0:
154,265,28508,1,2,0:0:0:0:
108,180,28676,2,0,L|111:109,1,65,0|10,0:0|0:0,0:0:0:0:
25,70,29014,6,0,L|19:199,1,130,0|0,0:0|0:0,0:0:0:0:
39,295,29519,2,0,P|68:256|97:240,1,65,10|0,0:0|0:0,0:0:0:0:
183,195,29856,1,2,0:0:0:0:
167,307,30025,1,0,0:0:0:0:
264,264,30193,2,0,L|353:268,1,65,10|0,0:0|0:0,0:0:0:0:
430,318,30530,6,0,P|386:323|328:263,1,130,2|10,0:0|0:0,0:0:0:0:
324,153,31036,2,0,P|350:188|327:268,1,130,0|0,0:0|0:0,0:0:0:0:
243,314,31542,2,0,L|178:311,1,65,10|0,0:0|0:0,0:0:0:0:
88,239,31879,6,0,B|81:207|81:207|95:154,1,65,2|0,0:0|0:0,0:0:0:0:
146,81,32216,2,0,P|143:143|90:176,1,130,10|0,0:0|0:0,0:0:0:0:
28,64,32721,1,0,0:0:0:0:
146,81,32890,1,10,0:0:0:0:
22,138,33059,1,0,0:0:0:0:
164,161,33227,6,0,L|229:155,1,65,2|0,0:0|0:0,0:0:0:0:
310,102,33564,2,0,L|375:108,1,65,10|0,0:0|0:0,0:0:0:0:
407,205,33901,1,2,0:0:0:0:
407,205,34070,2,0,L|342:199,1,65,0|10,0:0|0:0,0:0:0:0:
310,102,34407,1,0,0:0:0:0:
269,219,34575,5,2,0:0:0:0:
213,125,34744,2,0,L|207:64,2,32.5,8|8|2,0:3|0:3|0:0,0:0:0:0:
173,214,35081,2,0,L|176:246,2,32.5,8|8|2,0:3|0:3|0:0,0:0:0:0:
105,144,35418,2,0,L|99:83,2,32.5,8|8|2,0:3|0:3|0:0,0:0:0:0:
76,239,35755,1,8,0:3:0:0:
179,140,35924,6,0,L|325:144,1,130,6|0,0:0|0:0,0:0:0:0:
418,152,36429,1,0,0:0:0:0:
418,152,36598,2,0,P|389:177|376:209,1,65,10|0,0:0|0:0,0:0:0:0:
471,227,36935,2,0,P|468:265|481:297,1,65,2|0,0:0|0:0,0:0:0:0:
403,353,37272,6,0,P|351:318|283:327,1,130,2|0,0:0|0:0,0:0:0:0:
206,379,37778,1,2,0:0:0:0:
206,379,37946,1,8,0:0:0:0:
201,275,38115,2,0,L|198:210,2,65,0|2|0,0:0|0:0|0:0,0:0:0:0:
110,333,38620,6,0,P|86:273|101:211,1,130,2|0,0:0|0:0,0:0:0:0:
167,136,39126,1,2,0:0:0:0:
167,136,39294,1,8,0:0:0:0:
345,244,39632,1,2,0:0:0:0:
289,29,39969,6,0,L|293:116,1,65,4|2,0:0|0:0,0:0:0:0:
342,179,40306,2,0,L|344:243,1,65,2|2,0:0|0:0,0:0:0:0:
316,280,40559,1,0,0:0:0:0:
316,280,40643,2,0,L|320:344,1,65,2|2,0:0|0:0,0:0:0:0:
223,347,40980,2,0,L|218:282,1,65,2|2,0:0|0:0,0:0:0:0:
144,222,41317,5,4,0:0:0:0:
35,45,41654,2,0,P|62:61|94:65,1,65,10|0,0:0|0:0,0:0:0:0:
178,35,41991,1,2,0:0:0:0:
238,112,42160,1,0,0:0:0:0:
293,32,42328,2,0,P|326:24|375:29,1,65,10|0,0:0|0:0,0:0:0:0:
443,102,42665,5,6,0:0:0:0:
443,102,42834,2,0,L|443:178,1,65,0|10,0:0|0:0,0:0:0:0:
449,258,43171,2,0,P|407:230|323:247,1,130,6|0,0:0|0:0,0:0:0:0:
260,316,43676,2,0,L|172:314,1,65,10|2,0:0|0:0,0:0:0:0:
96,299,44014,6,0,B|68:313|68:313|21:306,2,65,2|0|10,0:0|0:0|0:0,0:0:0:0:
153,220,44519,2,0,L|150:134,1,65,6|0,0:0|0:0,0:0:0:0:
142,42,44856,1,2,0:0:0:0:
77,122,45025,1,10,0:0:0:0:
203,104,45193,6,0,B|231:95|231:95|273:102,1,65,4|0,0:0|0:0,0:0:0:0:
343,160,45530,1,8,0:3:0:0:
383,72,45699,2,0,P|396:62|415:54,3,32.5,0|0|8|8,0:0|0:0|0:3|0:3,0:0:0:0:
431,123,46036,2,0,P|447:125|466:132,3,32.5,8|8|8|8,0:3|0:3|0:3|0:3,0:0:0:0:
429,193,46373,2,0,P|438:206|446:225,3,32.5,8|8|8|8,0:0|0:3|0:3|0:3,0:0:0:0:
379,242,46710,6,0,B|271:186|172:247|172:247|214:137|122:70,1,390,8|8,0:3|0:0,0:0:0:0:
55,46,47890,1,8,0:3:0:0:
4,130,48059,6,0,P|33:145|79:140,1,65,2|0,0:1|0:0,0:0:0:0:
87,240,48396,2,0,P|118:230|147:194,1,65,2|0,0:1|0:0,0:0:0:0:
223,261,48733,2,0,P|238:232|233:186,1,65,2|0,0:1|0:0,0:0:0:0:
180,51,49070,6,0,L|184:136,1,84.4999961318971,6|0,0:0|0:0,0:0:0:0:
226,338,49407,6,0,L|223:261,1,77.999997619629,12|0,0:0|0:0,0:0:0:0:
223,261,49660,1,0,0:0:0:0:
223,261,49744,1,2,0:0:0:0:
339,308,49912,1,0,0:0:0:0:
442,264,50081,2,0,P|452:301|443:341,1,77.999997619629,0|0,0:1|0:0,0:0:0:0:
339,308,50418,1,2,0:0:0:0:
347,208,50587,6,0,P|371:174|405:156,1,77.999997619629,0|2,0:0|0:0,0:0:0:0:
290,125,50924,2,0,P|265:91|231:73,1,77.999997619629,0|2,0:0|0:0,0:0:0:0:
367,75,51261,2,0,P|391:41|425:23,1,77.999997619629,0|0,0:0|0:0,0:0:0:0:
306,9,51598,1,2,0:0:0:0:
234,74,51766,2,0,L|141:68,1,77.999997619629,2|0,0:0|0:0,0:0:0:0:
27,103,52103,6,0,P|49:141|89:158,1,77.999997619629,2|0,0:0|0:0,0:0:0:0:
40,267,52441,2,0,P|83:278|122:262,1,77.999997619629,6|0,0:0|0:0,0:0:0:0:
153,379,52778,2,0,P|191:356|208:316,1,77.999997619629,2|0,0:0|0:0,0:0:0:0:
219,302,53030,1,0,0:0:0:0:
219,302,53115,2,0,L|213:188,1,77.999997619629,6|0,0:0|0:0,0:0:0:0:
147,111,53452,6,0,P|144:173|241:220,1,155.999995239258,2|6,0:0|0:0,0:0:0:0:
311,162,53957,1,0,0:0:0:0:
374,261,54126,2,0,B|385:300|385:300|374:335,1,77.999997619629,2|0,0:0|0:0,0:0:0:0:
462,258,54463,2,0,B|451:219|451:219|462:184,1,77.999997619629,6|0,0:0|0:0,0:0:0:0:
390,73,54800,6,0,P|400:112|390:147,1,77.999997619629,4|0,0:1|0:0,0:0:0:0:
305,228,55137,1,2,0:0:0:0:
224,156,55306,1,0,0:0:0:0:
224,156,55390,1,8,0:3:0:0:
224,156,55474,2,0,P|181:146|132:156,1,77.999997619629,2|0,0:0|0:0,0:0:0:0:
44,222,55811,1,2,0:0:0:0:
144,316,55980,6,0,L|140:225,1,77.999997619629,0|2,0:0|0:0,0:0:0:0:
224,156,56317,2,0,L|227:233,1,77.999997619629,0|2,0:0|0:0,0:0:0:0:
320,304,56654,2,0,L|316:213,1,77.999997619629,0|2,0:0|0:0,0:0:0:0:
382,128,56991,1,0,0:0:0:0:
463,212,57160,2,0,P|417:234|374:232,1,77.999997619629,2|0,0:0|0:0,0:0:0:0:
304,134,57497,6,0,L|399:126,1,77.999997619629,2|0,0:0|0:0,0:0:0:0:
253,42,57834,2,0,L|330:48,1,77.999997619629,6|0,0:0|0:0,0:0:0:0:
459,134,58171,2,0,L|364:126,1,77.999997619629,6|0,0:0|0:0,0:0:0:0:
510,42,58508,2,0,L|432:48,1,77.999997619629,6|0,0:0|0:0,0:0:0:0:
304,134,58845,5,6,0:0:0:0:
232,41,59014,2,0,L|234:-3,2,38.9999988098145,2|2|2,0:0|0:0|0:0,0:0:0:0:
142,144,59351,1,2,0:0:0:0:
142,144,59435,1,2,0:0:0:0:
142,144,59519,2,0,P|70:156|21:95,1,155.999995239258,2|2,0:0|0:0,0:0:0:0:
135,22,60025,1,2,0:0:0:0:
135,22,60109,1,2,0:0:0:0:
135,22,60193,6,0,P|166:43|178:100,1,77.999997619629,14|0,0:0|0:0,0:0:0:0:
204,192,60530,1,2,0:0:0:0:
286,109,60699,1,2,0:0:0:0:
339,213,60867,2,0,L|337:306,1,77.999997619629,2|0,0:0|0:0,0:0:0:0:
250,370,61205,1,2,0:0:0:0:
167,287,61373,6,0,L|85:280,1,77.999997619629,0|2,0:0|0:0,0:0:0:0:
43,172,61710,2,0,L|120:178,1,77.999997619629,0|2,0:0|0:0,0:0:0:0:
230,220,62047,2,0,L|307:213,1,77.999997619629,0|2,0:0|0:0,0:0:0:0:
398,139,62384,1,0,0:0:0:0:
458,238,62553,2,0,P|468:275|462:313,1,77.999997619629,2|0,0:0|0:0,0:0:0:0:
353,356,62890,6,0,L|269:347,1,77.999997619629,2|0,0:0|0:0,0:0:0:0:
184,271,63227,2,0,L|106:279,1,77.999997619629,6|0,0:0|0:0,0:0:0:0:
198,356,63564,2,0,L|275:347,1,77.999997619629,2|0,0:0|0:0,0:0:0:0:
293,319,63817,1,0,0:0:0:0:
293,319,63901,2,0,B|300:279|300:279|291:240,1,77.999997619629,6|0,0:0|0:0,0:0:0:0:
215,128,64238,2,0,P|226:202|291:242,1,155.999995239258,2|4,0:0|0:0,0:0:0:0:
340,136,64744,1,0,0:0:0:0:
215,128,64912,2,0,P|177:129|125:122,1,77.999997619629,2|0,0:0|0:0,0:0:0:0:
243,50,65250,2,0,P|281:49|332:55,1,77.999997619629,4|0,0:0|0:0,0:0:0:0:
414,155,65587,6,0,L|413:259,1,77.999997619629,6|0,0:0|0:0,0:0:0:0:
337,322,65924,2,0,L|336:244,1,77.999997619629,2|0,0:0|0:0,0:0:0:0:
226,284,66261,2,0,P|206:285|187:282,3,38.9999988098145,8|8|8|8,0:3|0:3|0:3|0:3,0:0:0:0:
149,341,66598,2,0,P|134:328|122:312,3,38.9999988098145,8|8|8|8,0:3|0:3|0:3|0:3,0:0:0:0:
53,329,66935,2,0,P|51:309|54:290,3,38.9999988098145,8|8|8|8,0:3|0:3|0:3|0:3,0:0:0:0:
105,241,67272,2,0,P|106:221|103:202,3,38.9999988098145,8|8|8|8,0:3|0:3|0:3|0:3,0:0:0:0:
162,163,67609,2,0,P|149:148|133:136,3,38.9999988098145,8|8|8|8,0:3|0:3|0:3|0:3,0:0:0:0:
151,67,67946,2,0,P|131:65|112:68,3,38.9999988098145,8|8|8|0,0:3|0:3|0:3|0:0,0:0:0:0:
44,104,68283,6,0,P|50:167|103:201,1,130,2|0,0:0|0:0,0:0:0:0:
198,179,68789,1,2,0:0:0:0:
289,144,68957,2,0,P|341:178|347:240,1,130,2|2,0:0|0:0,0:0:0:0:
185,350,69632,2,0,L|189:282,1,65,2|0,0:0|0:0,0:0:0:0:
118,217,69969,2,0,L|114:149,1,65,2|0,0:0|0:0,0:0:0:0:
172,73,70306,1,2,0:0:0:0:
364,101,70643,2,0,P|332:143|294:148,1,65,4|0,0:0|0:0,0:0:0:0:
231,219,70980,6,0,P|290:192|348:218,1,130,2|0,0:0|0:0,0:0:0:0:
416,283,71485,1,2,0:0:0:0:
346,351,71654,2,0,P|287:378|229:352,1,130,2|2,0:0|0:0,0:0:0:0:
105,203,72328,2,0,L|108:128,1,65,2|0,0:0|0:0,0:0:0:0:
195,178,72665,2,0,L|270:181,1,65,2|0,0:0|0:0,0:0:0:0:
227,272,73002,1,2,0:0:0:0:
39,100,73339,6,0,P|105:62|107:138,1,181.999994445801,6|0,0:0|0:0,0:0:0:0:
