osu file format v14

[General]
AudioFilename: audio.mp3
AudioLeadIn: 0
PreviewTime: 170980
Countdown: 0
SampleSet: Soft
StackLeniency: 0.4
Mode: 0
LetterboxInBreaks: 0
WidescreenStoryboard: 1

[Editor]
Bookmarks: 71373
DistanceSpacing: 1.45
BeatDivisor: 4
GridSize: 4
TimelineZoom: 2.100001

[Metadata]
Title:Wa ta shi wa * No.1!
TitleUnicode:わ・た・し・は☆No. 1!
Artist:San Diego (CV: Itou Asuka)
ArtistUnicode:サンディエゴ (CV: 伊藤あすか)
Creator:Shurelia
Version:yf's Insane!
Source:アズールレーン
Tags:azur lane sandymeme sandy ship waifus 私 わたし watashi 桜村岬 かみじょうゆうや kamijou yuuya number nitrous hinsvar Kirylln yf_bmp so0p
BeatmapID:2335401
BeatmapSetID:1079211

[Difficulty]
HPDrainRate:6.6
CircleSize:3.6
OverallDifficulty:7.7
ApproachRate:9
SliderMultiplier:1.7
SliderTickRate:1

[Events]
//Background and Video events
0,0,"yfbg.jpg",0,0
//Break Periods
2,71573,81559
2,138989,148975
//Storyboard Layer 0 (Background)
//Storyboard Layer 1 (Fail)
//Storyboard Layer 2 (Pass)
//Storyboard Layer 3 (Foreground)
//Storyboard Layer 4 (Overlay)
//Storyboard Sound Samples

[TimingPoints]
1261,337.078651685393,4,2,10,60,1,0
1261,-66.6666666666667,4,2,10,60,0,0
1935,-66.6666666666667,4,2,10,60,0,0
2272,-100,4,2,10,60,0,0
2609,-66.6666666666667,4,2,10,60,0,0
2693,-66.6666666666667,4,2,10,20,0,0
2946,-66.6666666666667,4,2,10,60,0,0
3030,-66.6666666666667,4,2,10,20,0,0
3283,-133.333333333333,4,2,10,60,0,0
3620,-66.6666666666667,4,2,10,60,0,0
3957,-76.9230769230769,4,2,10,75,0,1
6317,-76.9230769230769,4,2,10,75,0,1
6654,-76.9230769230769,4,2,10,75,0,1
7834,-66.6666666666667,4,2,10,75,0,1
8171,-66.6666666666667,4,2,10,75,0,1
8339,-50,4,2,10,75,0,1
8676,-66.6666666666667,4,2,10,75,0,1
9013,-50,4,2,10,75,0,1
9350,-76.9230769230769,4,2,10,75,0,1
12047,-66.6666666666667,4,2,10,75,0,1
13227,-57.1428571428571,4,2,10,75,0,1
13564,-80,4,2,10,75,0,1
13732,-57.1428571428571,4,2,10,75,0,1
13901,-80,4,2,10,75,0,1
14069,-66.6666666666667,4,2,10,75,0,1
14744,-100,4,2,10,60,0,0
15081,-100,4,2,10,60,0,0
22834,-76.9230769230769,4,2,10,60,0,0
24856,-133.333333333333,4,2,10,60,0,0
25530,-100,4,2,10,60,0,0
33620,-76.9230769230769,4,2,10,60,0,0
36317,-125,4,2,10,65,0,0
36822,-125,4,2,10,65,0,0
41710,-100,4,2,10,65,0,0
43058,-83.3333333333333,4,2,10,65,0,0
43564,-100,4,2,10,65,0,0
46429,-76.9230769230769,4,2,10,65,0,0
47103,-100,4,2,10,65,0,0
48452,-80,4,2,10,65,0,0
48789,-66.6666666666667,4,2,10,65,0,0
49126,-57.1428571428571,4,2,10,65,0,0
49463,-50,4,2,10,65,0,0
49800,-66.6666666666667,4,2,10,80,0,1
50137,-76.9230769230769,4,2,10,80,0,1
52496,-50,4,2,10,80,0,1
52665,-76.9230769230769,4,2,10,80,0,1
53845,-100,4,2,10,80,0,1
54182,-62.5,4,2,10,80,0,1
54519,-66.6666666666667,4,2,10,80,0,1
54856,-45.4545454545455,4,2,10,80,0,1
55193,-100,4,2,10,80,0,1
55530,-100,4,2,10,80,0,1
55867,-76.9230769230769,4,2,10,80,0,1
57890,-100,4,2,10,80,0,1
58227,-76.9230769230769,4,2,10,80,0,1
58564,-100,4,2,10,80,0,1
58901,-66.6666666666667,4,2,10,80,0,1
59238,-100,4,2,10,80,0,1
60502,-100,4,2,10,80,0,0
60586,-100,4,2,10,80,0,1
60923,-76.9230769230769,4,2,10,80,0,1
64631,-100,4,2,10,80,0,1
64968,-86.9565217391304,4,2,10,80,0,1
65643,-60.6060606060606,4,2,10,80,0,1
65980,-76.9230769230769,4,2,10,80,0,1
66654,-100,4,2,10,80,0,1
67665,-80,4,2,10,80,0,1
68002,-66.6666666666667,4,2,10,80,0,1
68676,-66.6666666666667,4,2,10,80,0,0
69687,-100,4,2,10,80,0,0
70025,-76.9230769230769,4,2,10,80,0,0
70699,-100,4,2,10,80,0,0
71036,-66.6666666666667,4,2,10,80,0,0
82496,-100,4,2,10,60,0,0
88395,-133.333333333333,4,2,10,60,0,0
88901,-100,4,2,10,60,0,0
89744,-133.333333333333,4,2,10,60,0,0
90249,-76.9230769230769,4,2,10,60,0,0
92946,-100,4,2,10,60,0,0
99182,-133.333333333333,4,2,10,60,0,0
99687,-100,4,2,10,60,0,0
101036,-76.9230769230769,4,2,10,60,0,0
103732,-125,4,2,10,65,0,0
104238,-125,4,2,10,65,0,0
109126,-100,4,2,10,65,0,0
110474,-83.3333333333333,4,2,10,65,0,0
110980,-100,4,2,10,65,0,0
113845,-76.9230769230769,4,2,10,65,0,0
114519,-100,4,2,10,65,0,0
115867,-80,4,2,10,65,0,0
116204,-66.6666666666667,4,2,10,65,0,0
116541,-57.1428571428571,4,2,10,65,0,0
116878,-50,4,2,10,65,0,0
117216,-66.6666666666667,4,2,10,80,0,1
117553,-76.9230769230769,4,2,10,80,0,1
118395,-76.9230769230769,4,2,10,80,0,1
118732,-76.9230769230769,4,2,10,80,0,1
119069,-76.9230769230769,4,2,10,80,0,1
119238,-76.9230769230769,4,2,10,80,0,1
121260,-100,4,2,10,80,0,1
121598,-62.5,4,2,10,80,0,1
121935,-80,4,2,10,80,0,1
122272,-45.4545454545455,4,2,10,80,0,1
122609,-100,4,2,10,80,0,1
123283,-76.9230769230769,4,2,10,80,0,1
125305,-100,4,2,10,80,0,1
125643,-76.9230769230769,4,2,10,80,0,1
125980,-100,4,2,10,80,0,1
126317,-66.6666666666667,4,2,10,80,0,1
126822,-100,4,2,10,80,0,1
127918,-50,4,2,10,80,0,0
128002,-50,4,2,10,80,0,1
128339,-76.9230769230769,4,2,10,80,0,1
132047,-100,4,2,10,80,0,1
132384,-62.5,4,2,10,80,0,1
132721,-80,4,2,10,80,0,1
133058,-45.4545454545455,4,2,10,80,0,1
133395,-76.9230769230769,4,2,10,80,0,1
134069,-100,4,2,10,80,0,1
135081,-76.9230769230769,4,2,10,80,0,1
135418,-66.6666666666667,4,2,10,80,0,1
136092,-66.6666666666667,4,2,10,60,0,0
137103,-100,4,2,10,60,0,0
137440,-76.9230769230769,4,2,10,60,0,0
138114,-100,4,2,10,60,0,0
138452,-66.6666666666667,4,2,10,60,0,0
149575,-100,4,2,10,65,0,0
153620,-200,4,2,10,65,0,0
154294,-133.333333333333,4,2,10,65,0,0
156654,-133.333333333333,4,2,10,65,0,0
158339,-200,4,2,10,65,0,0
159013,-133.333333333333,4,2,10,65,0,0
162384,-100,4,2,10,65,0,0
167777,-133.333333333333,4,2,10,65,0,0
170643,-100,4,2,10,65,0,0
170811,-80,4,2,10,65,0,0
171148,-100,4,2,10,65,0,0
176541,-100,4,2,10,30,0,0
178058,-80,4,2,10,30,0,0
178395,-66.6666666666667,4,2,10,30,0,0
178732,-158.730158730159,4,2,10,30,0,0
179238,-100,4,2,10,30,0,0
180586,-100,4,2,10,65,0,0
181598,-66.6666666666667,4,2,10,65,0,0
181935,-100,4,2,10,65,0,0
182272,-76.9230769230769,4,2,10,80,0,1
182609,-76.9230769230769,4,2,10,80,0,1
185980,-100,4,2,10,80,0,1
186317,-62.5,4,2,10,80,0,1
186654,-76.9230769230769,4,2,10,80,0,1
186991,-45.4545454545455,4,2,10,80,0,1
187328,-100,4,2,10,80,0,1
187665,-100,4,2,10,80,0,1
188002,-76.9230769230769,4,2,10,80,0,1
190025,-100,4,2,10,80,0,1
190362,-76.9230769230769,4,2,10,80,0,1
190699,-100,4,2,10,80,0,1
191036,-66.6666666666667,4,2,10,80,0,1
191373,-100,4,2,10,80,0,1
192637,-100,4,2,10,80,0,0
192721,-76.9230769230769,4,2,10,80,0,1
193058,-76.9230769230769,4,2,10,80,0,1
196766,-100,4,2,10,80,0,1
197103,-62.5,4,2,10,80,0,1
197440,-76.9230769230769,4,2,10,80,0,1
197777,-45.4545454545455,4,2,10,80,0,1
198114,-76.9230769230769,4,2,10,80,0,1
198452,-76.9230769230769,4,2,10,80,0,1
198789,-100,4,2,10,80,0,1
199800,-80,4,2,10,80,0,1
200137,-66.6666666666667,4,2,10,80,0,1
200811,-66.6666666666667,4,2,10,60,0,0
201822,-100,4,2,10,60,0,0
202159,-76.9230769230769,4,2,10,60,0,0
202834,-100,4,2,10,60,0,0
203171,-66.6666666666667,4,2,10,60,0,0
204519,-100,4,2,10,60,0,0
204856,-76.9230769230769,4,2,10,60,0,0
205530,-100,4,2,10,60,0,0
205867,-66.6666666666667,4,2,10,60,0,0
206120,-66.6666666666667,4,2,10,5,0,0

[Colours]
Combo1 : 160,66,255
Combo2 : 255,51,51
Combo3 : 79,158,255
Combo4 : 192,192,192

[HitObjects]
315,60,1261,6,0,P|302:70|295:84,1,31.8750012159348,4|0,1:2|0:0,0:0:0:0:
296,84,1598,1,0,0:0:0:0:
419,30,1766,6,0,P|403:25|388:26,1,31.8750012159348,4|0,1:2|0:0,0:0:0:0:
475,94,1935,2,0,P|415:181|311:166,1,223.125008511544,4|0,1:2|0:0,0:0:0:0:
303,162,2272,6,0,P|311:250|311:306,1,127.5,8|0,1:1|0:0,0:0:0:0:
368,344,2609,6,0,B|347:367|347:367|315:366,1,63.7500024318696,4|0,1:2|0:0,0:0:0:0:
144,40,2946,2,0,B|164:16|164:16|196:17,1,63.7500024318696,4|0,1:2|0:0,0:0:0:0:
20,372,3283,2,0,L|0:278,1,95.6250036478044,4|0,1:2|0:0,0:0:0:0:
8,264,3620,6,0,P|39:265|70:258,1,63.7500024318696,4|0,1:2|0:0,0:0:0:0:
116,140,3789,1,0,3:0:0:0:
120,136,3873,1,0,3:0:0:0:
136,156,3957,6,0,P|91:182|0:164,1,110.499994941712,4|2,1:2|0:2,0:0:0:0:
28,36,4210,1,0,0:0:0:0:
28,36,4294,6,0,P|51:22|78:22,1,55.2499974708558,8|0,0:2|0:0,0:0:0:0:
220,116,4463,1,2,3:2:0:0:
224,112,4547,1,2,0:0:0:0:
200,108,4631,2,0,P|190:82|192:40,1,55.2499974708558,0|0,1:2|0:0,0:0:0:0:
320,32,4800,2,0,P|329:57|328:100,1,55.2499974708558,2|0,0:2|0:0,0:0:0:0:
208,232,4968,5,8,0:2:0:0:
204,216,5053,1,0,0:0:0:0:
200,200,5137,6,0,L|220:272,1,55.2499974708558,2|0,0:0|0:0,0:0:0:0:
294,358,5305,6,0,P|293:303|320:256,1,110.499994941712,2|2,1:2|0:2,0:0:0:0:
453,313,5558,1,0,0:0:0:0:
453,313,5643,6,0,P|454:340|440:364,1,55.2499974708558,10|0,0:2|0:0,0:0:0:0:
348,180,5811,1,2,0:2:0:0:
352,176,5895,1,0,0:0:0:0:
328,172,5980,2,0,P|319:147|320:104,1,55.2499974708558,2|0,1:2|0:0,0:0:0:0:
448,96,6148,2,0,P|458:122|456:164,1,55.2499974708558,2|0,0:2|0:0,0:0:0:0:
475,234,6317,6,0,B|392:205|402:287|320:255,1,165.749992412568,10|0,0:0|0:0,0:0:0:0:
70,177,6654,6,0,P|69:232|96:280,1,110.499994941712,2|2,1:2|0:2,0:0:0:0:
216,172,6907,1,0,0:0:0:0:
216,172,6991,6,0,P|230:195|230:222,1,55.2499974708558,10|0,0:2|0:0,0:0:0:0:
228,340,7159,5,2,2:2:0:0:
244,344,7244,1,0,3:0:0:0:
260,348,7328,6,0,L|188:328,1,55.2499974708558,2|0,1:2|0:0,0:0:0:0:
87,333,7496,2,0,P|95:309|95:277,1,55.2499974708558,2|0,0:2|0:0,0:0:0:0:
64,188,7665,5,10,0:0:0:0:
64,188,7749,1,2,0:2:0:0:
64,188,7834,6,0,P|86:115|126:219,1,255.000009727478,2|0,0:0|0:0,0:0:0:0:
92,264,8255,1,2,0:0:0:0:
64,188,8339,6,0,P|86:115|126:219,1,255.000009727478,12|0,0:0|0:0,0:0:0:0:
24,308,8676,2,0,P|55:334|142:329,1,127.500004863739,2|2,1:2|0:0,0:0:0:0:
92,264,8929,1,0,1:0:0:0:
64,188,9013,6,0,P|86:115|126:219,1,255.000009727478,6|0,1:2|0:0,0:0:0:0:
196,276,9350,6,0,P|222:277|264:256,1,55.2499974708558,4|0,1:2|0:0,0:0:0:0:
328,252,9519,2,0,P|354:253|396:232,1,55.2499974708558,2|0,0:0|0:0,0:0:0:0:
276,188,9687,6,0,L|284:244,1,55.2499974708558,8|0,0:0|0:0,0:0:0:0:
296,360,9856,1,2,0:2:0:0:
292,364,9940,1,2,0:0:0:0:
304,360,10025,5,2,1:2:0:0:
376,248,10193,1,2,0:0:0:0:
452,140,10362,1,8,0:0:0:0:
436,144,10446,1,2,0:0:0:0:
420,148,10530,6,0,L|492:128,1,55.2499974708558,2|0,0:0|0:0,0:0:0:0:
360,96,10699,6,0,P|333:97|292:76,1,55.2499974708558,2|0,1:2|0:0,0:0:0:0:
228,72,10867,2,0,P|201:73|160:52,1,55.2499974708558,2|0,3:2|0:0,0:0:0:0:
280,8,11036,6,0,L|272:64,1,55.2499974708558,10|0,0:2|0:0,0:0:0:0:
247,176,11204,1,0,0:0:0:0:
252,180,11289,1,0,3:0:0:0:
240,176,11373,2,0,P|238:203|229:229,1,55.2499974708558,2|0,1:2|0:0,0:0:0:0:
164,328,11541,2,0,P|154:302|152:274,1,55.2499974708558,2|0,3:2|0:0,0:0:0:0:
88,124,11710,1,8,0:2:0:0:
60,160,11794,1,0,3:3:0:0:
64,204,11878,2,0,P|76:224|92:240,3,27.6249987354279,0|0|0|0,3:3|3:0|3:3|3:0,0:0:0:0:
144,264,12047,6,0,P|169:282|201:281,1,63.7500024318696,2|0,1:2|3:3,0:0:0:0:
184,80,12216,5,2,3:2:0:0:
184,80,12300,1,0,3:3:0:0:
184,80,12384,2,0,P|166:106|167:138,1,63.7500024318696,8|0,3:2|3:3,0:0:0:0:
368,120,12553,5,2,3:2:0:0:
368,120,12637,2,0,P|342:103|310:104,1,63.7500024318696,0|2,3:3|1:2,0:0:0:0:
328,304,12805,5,2,3:2:0:0:
328,304,12890,1,2,3:2:0:0:
328,304,12974,1,0,3:2:0:0:
328,304,13058,2,0,P|345:279|344:247,1,63.7500024318696,8|0,3:2|3:3,0:0:0:0:
240,144,13227,6,0,P|248:185|252:240,1,74.3750007092953,2|0,3:2|3:3,0:0:0:0:
236,352,13395,5,0,1:3:0:0:
236,352,13480,1,0,3:3:0:0:
236,352,13564,2,0,P|240:315|248:280,1,53.125,2|0,3:2|3:3,0:0:0:0:
80,272,13732,6,0,P|38:280|-16:284,1,74.3750007092953,14|0,3:2|3:3,0:0:0:0:
124,204,13901,6,0,P|150:208|176:211,1,53.125,2|0,3:2|3:3,0:0:0:0:
32,136,14069,6,0,P|40:188|53:230,1,63.7500024318696,2|0,1:2|3:3,0:0:0:0:
80,272,14238,2,0,P|127:295|169:308,1,63.7500024318696,2|0,3:2|3:3,0:0:0:0:
216,280,14407,1,8,3:2:0:0:
216,280,14491,2,0,P|259:250|292:221,2,63.7500024318696,2|0|0,3:2|3:3|3:3,0:0:0:0:
307,169,14744,5,4,1:2:0:0:
328,304,14912,1,2,0:0:0:0:
508,280,15081,2,0,P|492:248|408:224,1,127.5,0|0,1:0|0:0,0:0:0:0:
404,228,15418,2,0,P|404:196|396:140,1,85,0|2,1:0|0:0,0:0:0:0:
280,8,15755,2,0,P|280:40|272:96,1,85,0|2,1:0|0:0,0:0:0:0:
124,100,16092,5,0,1:0:0:0:
12,208,16260,2,0,P|53:197|91:180,1,85,2|0,0:0|1:0,0:0:0:0:
120,56,16598,1,2,0:0:0:0:
248,180,16766,1,0,1:0:0:0:
124,100,16935,1,2,0:0:0:0:
12,208,17103,1,0,1:0:0:0:
120,56,17272,1,2,0:0:0:0:
136,244,17440,5,0,1:0:0:0:
20,376,17609,1,2,0:0:0:0:
20,376,17693,1,2,0:0:0:0:
20,376,17777,2,0,P|36:344|120:320,1,127.5,0|0,1:0|0:0,0:0:0:0:
124,324,18114,2,0,P|124:292|132:236,1,85,0|2,1:0|0:0,0:0:0:0:
280,280,18452,2,0,P|264:252|229:207,1,85,0|2,1:0|0:0,0:0:0:0:
388,284,18789,5,0,1:0:0:0:
500,176,18957,2,0,P|459:187|421:204,1,85,2|0,0:0|1:0,0:0:0:0:
392,328,19294,1,2,0:0:0:0:
264,204,19463,1,0,1:0:0:0:
388,284,19631,2,0,P|397:261|416:244,1,42.5,2|0,0:0|1:0,0:0:0:0:
500,176,19800,1,0,1:0:0:0:
392,328,19968,1,0,1:0:0:0:
376,132,20137,6,0,P|376:80|272:12,1,170,0|0,1:0|1:0,0:0:0:0:
204,36,20643,2,0,P|184:73|188:124,4,85,0|0|0|0|0,0:0|1:0|0:0|1:0|0:0,0:0:0:0:
140,204,21485,6,0,P|102:223|60:222,1,85,0|0,1:0|0:0,0:0:0:0:
0,159,21822,1,0,1:0:0:0:
24,72,21991,2,0,P|61:52|112:56,3,85,0|0|0|0,0:0|1:0|0:0|1:0,0:0:0:0:
168,120,22665,1,2,0:0:0:0:
180,172,22749,1,2,0:0:0:0:
192,224,22834,6,0,P|252:244|336:184,1,165.749992412568,0|0,1:0|0:0,0:0:0:0:
256,69,23171,2,0,P|312:97|329:199,1,165.749992412568,0|0,1:0|0:0,0:0:0:0:
272,268,23508,1,0,1:0:0:0:
344,104,23676,2,0,P|380:83|460:100,1,110.499994941712,0|0,0:0|1:0,0:0:0:0:
252,72,24013,1,0,0:0:0:0:
336,196,24182,5,0,1:0:0:0:
268,272,24350,1,2,0:0:0:0:
180,268,24519,1,2,0:0:0:0:
116,308,24687,1,0,0:0:0:0:
112,360,24856,6,0,B|111:339|111:339|102:314|102:314|108:290|108:290|102:266|102:266|108:236,1,127.500004863739,2|8,0:2|0:0,0:0:0:0:
48,64,25362,1,2,0:0:0:0:
24,216,25530,5,4,1:2:0:0:
168,136,25699,1,2,0:0:0:0:
168,136,25783,1,2,0:0:0:0:
168,135,25867,2,0,P|124:131|88:155,1,85,8|0,1:2|0:0,0:0:0:0:
48,320,26204,1,0,1:0:0:0:
140,272,26373,1,2,0:0:0:0:
168,135,26541,2,0,P|160:154|156:187,1,42.5,8|0,1:2|0:0,0:0:0:0:
296,208,26710,6,0,P|301:146|284:96,1,85,2|0,0:0|1:0,0:0:0:0:
212,304,27047,1,2,0:0:0:0:
320,352,27216,6,0,P|361:359|403:352,1,85,8|2,1:2|0:0,0:0:0:0:
504,296,27553,1,0,1:0:0:0:
403,351,27721,6,0,P|361:359|320:352,1,85,2|8,0:0|1:2,0:0:0:0:
476,212,28058,1,2,0:0:0:0:
360,268,28227,5,0,1:0:0:0:
332,132,28395,1,2,0:0:0:0:
332,132,28480,1,2,0:0:0:0:
332,131,28564,2,0,P|375:127|411:151,1,85,8|2,1:2|0:0,0:0:0:0:
452,316,28901,1,0,1:0:0:0:
360,268,29069,1,2,0:0:0:0:
332,131,29238,2,0,P|340:150|344:183,1,42.5,8|0,1:2|0:0,0:0:0:0:
204,204,29407,6,0,P|199:142|216:92,1,85,2|0,0:0|1:0,0:0:0:0:
300,304,29744,1,2,0:0:0:0:
192,352,29912,6,0,P|151:359|109:352,1,85,8|2,1:2|0:0,0:0:0:0:
8,296,30249,1,0,1:0:0:0:
108,351,30418,2,0,P|149:357|190:351,1,42.5,2|0,0:0|1:0,0:0:0:0:
192,352,30586,1,8,1:2:0:0:
152,268,30755,1,0,1:0:0:0:
272,168,30923,6,0,P|282:122|280:81,1,85,0|0,1:0|0:0,0:0:0:0:
148,164,31260,1,8,1:2:0:0:
24,144,31429,6,0,P|22:96|31:56,4,85,0|0|0|8|0,0:0|1:2|0:0|1:2|0:0,0:0:0:0:
332,240,32272,6,0,P|342:286|340:327,1,85,0|0,1:0|0:0,0:0:0:0:
208,244,32609,1,8,1:2:0:0:
84,264,32777,6,0,P|82:311|91:351,3,85,0|0|0|8,0:0|1:2|0:0|1:2,0:0:0:0:
208,244,33452,1,2,0:0:0:0:
220,192,33536,1,2,0:0:0:0:
232,140,33620,6,0,P|292:120|376:180,1,165.749992412568,0|0,1:0|0:0,0:0:0:0:
448,49,33957,2,0,P|392:77|375:179,1,165.749992412568,8|0,1:2|3:0,0:0:0:0:
456,140,34294,1,0,1:0:0:0:
380,264,34463,2,0,P|338:256|288:192,1,110.499994941712,0|8,0:0|1:2,0:0:0:0:
308,36,34800,1,0,0:0:0:0:
136,12,34968,5,0,1:0:0:0:
156,112,35137,5,0,1:0:0:0:
120,88,35221,1,0,1:0:0:0:
80,96,35305,1,0,1:0:0:0:
132,200,35474,5,0,1:0:0:0:
106,166,35558,1,0,1:0:0:0:
69,184,35643,1,0,1:0:0:0:
96,296,35811,5,0,1:0:0:0:
86,256,35895,1,0,1:0:0:0:
56,286,35980,1,0,1:0:0:0:
56,360,36148,5,0,1:0:0:0:
208,308,36317,6,0,B|252:326|260:254|344:286,1,136,4|0,1:2|0:0,0:0:0:0:
412,356,36822,1,0,1:0:0:0:
416,252,36991,2,0,P|395:183|404:132,1,102,8|0,0:0|0:0,0:0:0:0:
408,144,37328,1,0,1:0:0:0:
116,72,37665,6,0,B|160:53|168:125|252:93,1,136,2|0,1:2|0:0,0:0:0:0:
320,24,38171,1,0,1:0:0:0:
324,128,38339,2,0,P|312:172|312:224,1,68,8|0,0:2|0:0,0:0:0:0:
408,144,38676,1,0,1:0:0:0:
240,240,39013,6,0,P|190:283|124:279,1,136,2|0,1:2|0:0,0:0:0:0:
152,164,39519,1,0,1:0:0:0:
236,244,39687,2,0,P|260:272|316:272,1,68,8|0,0:2|0:0,0:0:0:0:
400,252,40025,1,0,1:0:0:0:
240,20,40362,5,4,1:2:0:0:
216,156,40530,1,2,0:0:0:0:
344,88,40699,5,6,1:2:0:0:
228,156,40867,1,2,0:0:0:0:
240,160,40952,1,2,1:2:0:0:
248,168,41036,5,4,1:2:0:0:
196,272,41204,5,2,1:2:0:0:
88,252,41373,5,4,1:2:0:0:
76,144,41541,5,2,1:2:0:0:
176,92,41710,6,0,P|157:144|148:204,1,85,4|0,1:2|0:0,0:0:0:0:
192,280,42047,1,8,1:2:0:0:
428,296,42300,1,0,3:0:0:0:
428,296,42384,1,0,1:0:0:0:
312,220,42553,1,0,0:0:0:0:
304,356,42721,1,8,1:2:0:0:
200,288,42890,1,0,0:0:0:0:
416,296,43058,6,0,P|314:288|212:287,1,203.999993774414,4|8,1:2|0:0,0:0:0:0:
404,204,43564,6,0,P|313:210|220:196,1,170,4|0,1:2|1:0,0:0:0:0:
324,32,44069,2,0,L|325:8,1,21.25,4|0,1:2|0:0,0:0:0:0:
128,60,44407,5,4,1:2:0:0:
144,228,44575,1,2,0:0:0:0:
144,144,44744,1,8,1:2:0:0:
124,312,44912,2,0,P|168:319|211:322,1,85,6|0,1:2|0:0,0:0:0:0:
336,204,45249,1,2,1:2:0:0:
368,308,45418,1,8,0:0:0:0:
360,96,45586,2,0,P|362:88|372:76,3,21.25,4|0|0|0,3:2|3:3|3:3|3:3,0:0:0:0:
384,72,45755,6,0,P|404:78|425:75,3,42.5,0|0|2|0,3:3|3:3|3:2|3:3,0:0:0:0:
312,4,46092,5,2,3:2:0:0:
292,24,46176,1,0,3:3:0:0:
280,52,46260,1,0,3:3:0:0:
280,84,46345,1,0,3:3:0:0:
296,107,46429,6,0,P|281:131|263:152,1,55.2499974708558,2|0,3:2|3:0,0:0:0:0:
173,71,46598,2,0,P|173:99|178:126,1,55.2499974708558,0|0,3:3|3:0,0:0:0:0:
144,208,46766,6,0,P|110:197|87:185,1,55.2499974708558,2|0,3:2|3:0,0:0:0:0:
244,240,46935,2,0,P|276:252|301:258,1,55.2499974708558,0|0,3:3|3:0,0:0:0:0:
464,228,47103,5,4,1:2:0:0:
448,164,47187,1,2,3:2:0:0:
384,180,47272,2,0,L|304:200,1,42.5,0|2,3:3|3:2,0:0:0:0:
400,244,47440,5,0,3:3:0:0:
464,228,47525,1,2,3:2:0:0:
448,164,47609,2,0,L|428:84,1,42.5,0|2,3:3|3:2,0:0:0:0:
342,190,47777,6,0,L|384:180,1,42.5,0|2,3:3|3:2,0:0:0:0:
505,217,47946,2,0,L|464:228,1,42.5,0|2,3:3|3:2,0:0:0:0:
410,285,48114,2,0,L|399:243,1,42.5,0|2,3:3|3:2,0:0:0:0:
437,122,48283,2,0,L|448:164,1,42.5,0|0,3:3|3:3,0:0:0:0:
336,324,48452,6,0,P|252:296|232:232,1,159.375,2|0,3:2|0:0,0:0:0:0:
239,222,48789,2,0,P|251:282|143:298,1,191.250007295609,2|0,3:2|0:0,0:0:0:0:
156,292,49126,2,0,P|97:361|74:273,1,223.125002127886,2|0,0:0|0:0,0:0:0:0:
84,264,49463,6,0,L|384:320,1,255,12|0,3:1|0:0,0:0:0:0:
408,296,49800,6,0,B|404:233|444:241|437:174,1,127.500004863739,4|0,1:2|3:0,0:0:0:0:
384,120,50053,1,2,0:0:0:0:
384,120,50137,2,0,P|364:108|324:120,1,55.2499974708558,0|0,1:1|0:0,0:0:0:0:
488,56,50305,2,0,P|467:67|458:107,1,55.2499974708558,2|0,3:2|0:0,0:0:0:0:
512,152,50474,5,0,1:2:0:0:
356,192,50643,1,0,3:0:0:0:
356,24,50811,1,0,1:1:0:0:
200,148,50980,6,0,P|197:92|209:39,1,110.499994941712,2|0,3:2|1:2,0:0:0:0:
312,236,51317,2,0,P|314:291|302:344,1,110.499994941712,2|0,3:2|1:2,0:0:0:0:
103,238,51654,2,0,P|156:250|212:248,1,110.499994941712,2|0,3:2|1:2,0:0:0:0:
204,48,51991,1,2,3:2:0:0:
408,126,52159,2,0,P|354:138|299:135,1,110.499994941712,2|0,1:2|3:0,0:0:0:0:
120,112,52496,5,2,1:2:0:0:
64,24,52665,2,0,P|49:53|52:84,1,55.2499974708558,0|0,0:2|3:3,0:0:0:0:
107,242,52834,2,0,P|70:210|52:140,1,110.499994941712,2|2,1:2|2:2,0:0:0:0:
56,72,53086,1,0,3:0:0:0:
56,156,53171,6,0,P|31:167|3:167,1,55.2499974708558,2|0,1:2|0:0,0:0:0:0:
120,120,53339,2,0,P|145:111|165:91,1,55.2499974708558,0|0,3:3|3:0,0:0:0:0:
64,24,53508,2,0,P|49:53|52:84,1,55.2499974708558,0|0,1:1|0:0,0:0:0:0:
51,152,53676,2,0,P|59:178|78:197,1,55.2499974708558,0|0,3:0|3:0,0:0:0:0:
136,252,53845,6,0,L|192:252,1,42.5,2|0,1:2|0:0,0:0:0:0:
260,252,54013,2,0,L|316:252,1,42.5,0|0,3:3|0:0,0:0:0:0:
382,252,54182,6,0,L|166:252,1,204,12|0,1:2|0:0,0:0:0:0:
112,120,54519,6,0,L|177:120,1,63.7500024318696,0|0,1:1|0:0,0:0:0:0:
257,120,54687,2,0,L|322:120,1,63.7500024318696,0|0,3:3|0:0,0:0:0:0:
400,120,54856,6,0,L|147:120,1,187.000005706787,12|0,1:2|0:0,0:0:0:0:
8,164,55193,5,4,1:2:0:0:
48,32,55362,2,0,P|57:56|57:95,1,42.5,2|2,3:2|0:0,0:0:0:0:
120,196,55530,1,0,1:1:0:0:
0,256,55699,2,0,P|24:246|63:246,1,42.5,0|0,3:0|3:0,0:0:0:0:
155,303,55867,6,0,P|201:333|252:318,1,110.499994941712,2|0,1:2|3:0,0:0:0:0:
344,168,56204,1,0,1:1:0:0:
200,236,56373,6,0,P|197:292|209:345,1,110.499994941712,2|0,3:2|1:2,0:0:0:0:
312,148,56710,2,0,P|314:93|302:40,1,110.499994941712,2|0,3:2|1:1,0:0:0:0:
103,146,57047,2,0,P|156:134|212:136,1,110.499994941712,2|0,3:2|1:2,0:0:0:0:
204,336,57384,1,2,3:2:0:0:
408,258,57553,2,0,P|354:246|299:249,1,110.499994941712,2|0,1:2|0:0,0:0:0:0:
96,344,57890,6,0,P|97:316|92:284,1,42.5,0|2,1:2|3:2,0:0:0:0:
104,292,58058,2,0,P|105:264|100:232,1,42.5,2|2,2:0|3:2,0:0:0:0:
100,148,58227,6,0,P|45:130|33:234,1,165.749992412568,12|0,0:0|0:0,0:0:0:0:
188,248,58564,6,0,P|189:226|188:205,1,42.5,4|2,1:1|3:2,0:0:0:0:
180,153,58732,2,0,P|181:174|179:195,1,42.5,2|2,0:0|3:2,0:0:0:0:
188,333,58901,6,0,P|243:351|260:240,1,191.250007295609,12|0,1:2|0:0,0:0:0:0:
148,80,59238,5,4,1:1:0:0:
276,64,59407,5,0,3:2:0:0:
292,128,59491,1,0,3:2:0:0:
356,112,59575,6,0,L|436:92,1,42.5,0|0,3:1|0:0,0:0:0:0:
340,48,59744,1,0,3:2:0:0:
276,64,59828,1,0,3:2:0:0:
292,128,59912,6,0,L|312:208,1,42.5,0|2,1:2|0:0,0:0:0:0:
340,48,60081,2,0,L|320:-32,1,42.5,0|2,3:2|3:2,0:0:0:0:
356,112,60249,2,0,L|436:92,1,42.5,0|2,3:1|3:2,0:0:0:0:
276,64,60418,2,0,L|196:84,1,42.5,0|2,3:2|3:2,0:0:0:0:
380,264,60586,5,4,1:2:0:0:
380,264,60671,1,2,0:2:0:0:
380,264,60755,1,0,3:0:0:0:
380,264,60839,1,2,0:2:0:0:
380,264,60923,2,0,P|360:276|320:264,1,55.2499974708558,0|0,1:0|0:0,0:0:0:0:
484,328,61092,2,0,P|463:317|454:277,1,55.2499974708558,0|0,3:0|0:0,0:0:0:0:
508,232,61260,5,0,1:2:0:0:
352,192,61429,1,0,3:0:0:0:
352,360,61598,1,0,1:0:0:0:
204,344,61766,6,0,P|192:290|196:236,1,110.499994941712,2|0,3:2|1:2,0:0:0:0:
297,39,62103,2,0,P|309:92|308:148,1,110.499994941712,2|0,3:2|1:0,0:0:0:0:
288,252,62356,1,2,0:0:0:0:
295,248,62440,6,0,P|322:247|349:253,1,55.2499974708558,2|0,3:2|0:0,0:0:0:0:
200,236,62609,2,0,P|173:227|146:226,1,55.2499974708558,2|0,1:2|0:0,0:0:0:0:
312,152,62777,2,0,P|338:157|363:170,1,55.2499974708558,2|0,3:2|0:0,0:0:0:0:
207,135,62946,2,0,P|152:133|99:145,1,110.499994941712,2|0,1:2|3:0,0:0:0:0:
116,272,63283,5,2,1:2:0:0:
60,360,63452,2,0,P|45:331|48:300,1,55.2499974708558,0|0,3:0|2:0,0:0:0:0:
103,142,63620,2,0,P|66:174|48:244,1,110.499994941712,2|0,1:2|3:0,0:0:0:0:
52,312,63873,1,0,3:0:0:0:
52,228,63957,6,0,P|27:217|-1:217,1,55.2499974708558,2|0,1:2|2:0,0:0:0:0:
116,264,64126,2,0,P|141:273|161:293,1,55.2499974708558,0|0,3:0|3:0,0:0:0:0:
60,360,64294,2,0,P|45:331|48:300,1,55.2499974708558,0|2,1:0|0:2,0:0:0:0:
47,232,64463,2,0,P|55:206|74:187,1,55.2499974708558,0|2,3:0|0:2,0:0:0:0:
132,128,64631,6,0,L|170:110,1,42.5,2|2,1:2|0:0,0:0:0:0:
244,84,64800,2,0,L|286:84,1,42.5,0|2,3:0|0:0,0:0:0:0:
380,128,64968,6,0,B|292:84|292:84|243:84,1,146.62500279665,12|0,1:2|0:0,0:0:0:0:
136,288,65305,6,0,L|160:240,1,48.8750009322167,4|0,1:1|0:0,0:0:0:0:
232,180,65474,2,0,L|281:180,1,48.8750009322167,0|0,3:0|0:0,0:0:0:0:
376,288,65643,6,0,B|324:180|324:180|228:180,1,210.375002006292,12|0,1:2|0:0,0:0:0:0:
203,337,65980,6,0,B|255:353|255:353|308:337,1,110.499994941712,6|0,1:1|3:0,0:0:0:0:
408,196,66317,1,2,1:1:0:0:
472,368,66485,2,0,B|460:344|460:344|461:315,1,55.2499974708558,0|0,3:0|0:0,0:0:0:0:
488,188,66654,6,0,L|496:144,1,42.5,2|0,1:1|3:3,0:0:0:0:
428,196,66822,2,0,L|480:192,1,42.5,2|0,3:1|3:3,0:0:0:0:
372,76,66991,6,0,L|380:120,1,42.5,0|0,1:3|3:3,0:0:0:0:
312,68,67159,2,0,L|364:72,1,42.5,2|0,3:1|3:3,0:0:0:0:
228,184,67328,5,0,1:3:0:0:
247,178,67412,1,0,3:3:0:0:
228,184,67496,2,0,P|234:140|235:118,1,42.5,2|0,3:1|3:3,0:0:0:0:
160,12,67665,5,0,1:3:0:0:
182,19,67749,1,0,3:3:0:0:
160,12,67834,2,0,P|167:63|168:89,1,53.125,2|0,3:1|3:3,0:0:0:0:
96,148,68002,5,0,1:3:0:0:
72,152,68086,1,0,3:3:0:0:
48,156,68171,2,0,L|116:144,1,63.7500024318696,2|0,3:1|3:3,0:0:0:0:
295,145,68339,6,0,P|249:147|209:123,1,63.7500024318696,0|0,1:3|3:3,0:0:0:0:
308,252,68508,2,0,P|348:276|372:300,1,63.7500024318696,0|0,3:3|3:3,0:0:0:0:
196,324,68676,6,0,P|209:314|216:300,1,31.8750012159348,4|0,1:2|0:0,0:0:0:0:
216,300,69013,1,2,0:1:0:0:
93,354,69182,6,0,P|109:359|124:358,1,31.8750012159348,4|0,1:2|0:0,0:0:0:0:
37,290,69350,2,0,P|97:203|201:218,1,223.125008511544,2|0,1:1|0:1,0:0:0:0:
209,222,69687,6,0,P|201:134|201:78,1,127.5,4|0,1:2|0:0,0:0:0:0:
132,60,70025,6,0,B|168:20|168:20|224:20,1,110.499994941712,2|0,1:1|0:0,0:0:0:0:
380,324,70362,2,0,B|344:364|344:364|287:364,1,110.499994941712,2|0,1:1|0:0,0:0:0:0:
275,134,70699,6,0,B|271:172|271:172|240:211|240:211|236:249,1,127.5,2|0,1:2|0:0,0:0:0:0:
176,384,71036,6,2,B|210:277|107:315|137:208,1,191.250007295609,12|0,0:1|0:0,0:0:0:0:
84,128,71373,5,4,1:2:0:0:
156,156,82159,5,4,1:2:0:0:
21,177,82328,1,2,0:0:0:0:
45,357,82496,2,0,P|77:341|101:257,1,127.5,0|0,1:0|0:0,0:0:0:0:
97,253,82834,2,0,P|129:253|185:245,1,85,0|2,1:0|0:0,0:0:0:0:
317,129,83171,2,0,P|285:129|229:121,1,85,0|2,1:0|0:0,0:0:0:0:
388,284,83508,5,0,1:0:0:0:
500,176,83676,2,0,P|459:187|421:204,1,85,2|0,0:0|1:0,0:0:0:0:
392,328,84013,1,2,0:0:0:0:
264,204,84182,1,0,1:0:0:0:
388,284,84350,1,2,0:0:0:0:
500,176,84519,1,0,1:0:0:0:
392,328,84687,1,2,0:0:0:0:
376,140,84856,5,0,1:0:0:0:
288,16,85025,1,2,0:0:0:0:
492,8,85193,2,0,P|476:40|392:64,1,127.5,0|0,1:0|0:0,0:0:0:0:
388,60,85530,2,0,P|388:92|380:148,1,85,0|2,1:0|0:0,0:0:0:0:
232,104,85867,2,0,P|248:132|283:177,1,85,0|2,1:0|0:0,0:0:0:0:
60,120,86204,5,0,1:0:0:0:
168,8,86373,2,0,P|157:49|140:87,1,85,2|0,0:0|1:0,0:0:0:0:
16,116,86710,1,2,0:0:0:0:
140,244,86878,1,0,1:0:0:0:
60,120,87047,2,0,P|83:111|100:92,1,42.5,2|0,0:0|1:0,0:0:0:0:
168,8,87216,1,0,1:0:0:0:
16,116,87384,1,0,1:0:0:0:
212,132,87553,6,0,P|262:151|308:192,1,85,0|0,1:0|0:0,0:0:0:0:
336,248,87890,1,0,1:0:0:0:
140,264,88058,6,0,P|175:240|215:226,1,85,0|0,0:0|1:0,0:0:0:0:
212,308,88395,2,0,P|225:279|243:253,1,63.7500024318696,0|0,0:0|1:0,0:0:0:0:
292,320,88732,1,0,0:0:0:0:
332,88,88901,6,0,P|308:123|294:163,1,85,0|0,1:0|0:0,0:0:0:0:
410,40,89238,1,0,1:0:0:0:
389,160,89407,6,0,P|402:200|426:235,1,85,0|0,0:0|1:0,0:0:0:0:
416,132,89744,2,0,P|441:150|470:163,1,63.7500024318696,0|0,0:0|1:0,0:0:0:0:
448,104,90081,2,0,P|464:105|484:104,1,31.8750012159348,2|2,0:0|0:0,0:0:0:0:
293,134,90249,6,0,P|258:186|294:283,1,165.749992412568,0|0,1:0|0:0,0:0:0:0:
426,235,90586,2,0,P|384:281|281:271,1,165.749992412568,0|0,1:0|0:0,0:0:0:0:
229,199,90923,1,0,1:0:0:0:
364,280,91092,2,0,P|374:320|337:393,1,110.499994941712,2|0,0:0|1:0,0:0:0:0:
424,231,91429,1,2,0:0:0:0:
282,280,91598,5,0,1:0:0:0:
226,194,91766,5,2,0:0:0:0:
253,111,91935,5,2,0:0:0:0:
231,38,92103,5,0,0:0:0:0:
182,21,92272,5,2,0:2:0:0:
140,28,92440,5,0,0:0:0:0:
120,52,92609,5,8,1:2:0:0:
116,76,92777,5,2,0:0:0:0:
156,148,92946,5,4,1:2:0:0:
332,132,93114,1,2,0:0:0:0:
332,132,93199,1,2,0:0:0:0:
333,132,93283,2,0,P|337:88|313:52,1,85,8|0,1:2|0:0,0:0:0:0:
252,216,93620,1,0,1:0:0:0:
300,308,93789,1,2,0:0:0:0:
452,312,93957,2,0,P|433:304|400:300,1,42.5,8|0,1:2|0:0,0:0:0:0:
304,384,94126,6,0,P|309:322|292:272,1,85,2|0,0:0|1:0,0:0:0:0:
200,340,94463,1,2,0:0:0:0:
108,232,94631,5,8,1:2:0:0:
108,148,94800,1,2,0:0:0:0:
200,44,94968,1,0,1:0:0:0:
108,148,95137,5,2,0:0:0:0:
108,232,95305,1,8,1:2:0:0:
200,332,95474,1,2,0:0:0:0:
20,312,95643,5,0,1:0:0:0:
192,192,95811,1,2,0:0:0:0:
192,192,95895,1,2,0:0:0:0:
192,191,95980,2,0,P|235:187|271:211,1,85,8|2,1:2|0:0,0:0:0:0:
400,384,96317,1,0,1:0:0:0:
308,336,96485,1,2,0:0:0:0:
304,184,96654,2,0,P|312:203|316:236,1,42.5,8|0,1:2|0:0,0:0:0:0:
208,384,96822,6,0,P|203:322|220:272,1,85,2|0,0:0|1:0,0:0:0:0:
312,340,97159,1,2,0:0:0:0:
404,232,97328,5,8,1:2:0:0:
403,148,97496,1,2,0:0:0:0:
312,44,97665,1,0,1:0:0:0:
404,148,97834,2,0,P|411:186|404:225,1,42.5,2|0,0:0|1:0,0:0:0:0:
404,232,98002,1,8,1:2:0:0:
312,340,98171,1,0,1:0:0:0:
120,332,98339,6,0,L|112:232,1,85,0|0,1:0|0:0,0:0:0:0:
103,111,98676,1,8,1:2:0:0:
54,292,98845,6,0,L|154:284,1,85,0|0,0:0|1:2,0:0:0:0:
178,282,99182,6,0,L|115:287,1,63.7500024318696,0|8,0:0|1:2,0:0:0:0:
123,364,99519,1,0,0:0:0:0:
392,332,99687,6,0,L|400:232,1,85,0|0,1:0|0:0,0:0:0:0:
409,111,100025,1,8,1:2:0:0:
458,292,100193,6,0,L|358:284,1,85,0|0,0:0|1:2,0:0:0:0:
334,282,100530,6,0,L|396:287,1,42.5,0|0,0:0|0:0,0:0:0:0:
389,364,100699,1,8,1:2:0:0:
402,206,100867,2,0,P|395:185|380:168,1,42.5,2|2,0:0|0:0,0:0:0:0:
300,200,101036,6,0,P|240:220|156:160,1,165.749992412568,0|0,1:0|0:0,0:0:0:0:
84,291,101373,2,0,P|140:263|157:161,1,165.749992412568,8|0,1:2|3:0,0:0:0:0:
76,200,101710,1,0,1:0:0:0:
152,76,101878,2,0,P|194:84|244:148,1,110.499994941712,0|8,0:0|1:2,0:0:0:0:
224,304,102216,1,0,0:0:0:0:
376,372,102384,5,0,1:0:0:0:
356,272,102553,5,0,1:0:0:0:
392,296,102637,1,0,1:0:0:0:
432,288,102721,1,0,1:0:0:0:
379,198,102890,5,0,1:0:0:0:
416,180,102974,1,0,1:0:0:0:
442,214,103058,1,0,1:0:0:0:
420,92,103227,5,0,1:0:0:0:
430,132,103311,1,0,1:0:0:0:
456,104,103395,1,0,1:0:0:0:
460,28,103564,5,0,1:0:0:0:
304,76,103732,6,0,B|260:58|252:130|168:98,1,136,4|0,1:2|0:0,0:0:0:0:
100,28,104238,1,0,1:0:0:0:
176,88,104407,2,0,P|196:64|208:24,1,68,8|0,0:0|0:0,0:0:0:0:
100,128,104744,2,0,P|68:130|29:116,1,68,0|0,1:0|0:0,0:0:0:0:
48,248,105081,6,0,B|92:266|100:194|184:226,1,136,2|0,1:2|0:0,0:0:0:0:
132,328,105586,1,0,1:0:0:0:
188,228,105755,2,0,P|208:256|216:308,1,68,8|0,0:2|0:0,0:0:0:0:
311,281,106092,1,0,1:0:0:0:
276,192,106260,1,0,0:0:0:0:
328,112,106429,6,0,P|378:69|444:73,1,136,2|0,1:2|0:0,0:0:0:0:
408,160,106935,1,0,1:0:0:0:
404,256,107103,2,0,P|428:284|484:284,1,68,8|0,0:2|0:0,0:0:0:0:
312,284,107440,1,0,1:0:0:0:
312,284,107609,1,0,0:0:0:0:
176,344,107777,5,4,1:2:0:0:
204,180,107946,1,2,0:0:0:0:
51,262,108114,5,6,1:2:0:0:
190,180,108283,1,2,0:0:0:0:
176,175,108367,1,2,1:2:0:0:
166,166,108452,5,4,1:2:0:0:
358,65,108620,5,2,1:2:0:0:
228,41,108789,5,4,1:2:0:0:
372,195,108957,5,2,1:2:0:0:
252,257,109126,6,0,P|304:328|364:340,1,127.5,4|0,1:2|0:0,0:0:0:0:
356,332,109463,1,8,1:2:0:0:
448,79,109716,1,0,3:0:0:0:
448,79,109800,1,0,1:0:0:0:
372,195,109968,1,0,0:0:0:0:
508,203,110137,1,8,1:2:0:0:
440,307,110305,1,0,0:0:0:0:
448,91,110474,6,0,P|440:193|439:295,1,203.999993774414,4|8,1:2|0:0,0:0:0:0:
279,103,110980,6,0,P|286:188|275:272,1,170,4|0,1:2|1:0,0:0:0:0:
136,304,111485,2,0,L|135:280,1,21.25,4|0,1:2|0:0,0:0:0:0:
132,308,111822,5,4,1:2:0:0:
148,140,111991,1,2,0:0:0:0:
148,224,112159,1,8,1:2:0:0:
128,56,112328,2,0,P|172:49|215:46,1,85,6|0,1:2|0:0,0:0:0:0:
340,164,112665,1,2,1:2:0:0:
372,60,112834,1,8,0:0:0:0:
364,272,113002,2,0,P|366:280|376:292,3,21.25,4|0|0|0,3:2|3:3|3:3|3:3,0:0:0:0:
384,296,113171,6,0,P|405:301|436:292,1,42.5,0|0,3:3|3:3,0:0:0:0:
292,320,113339,1,2,3:2:0:0:
300,336,113423,1,0,3:3:0:0:
316,348,113508,5,2,3:2:0:0:
277,367,113592,1,0,3:3:0:0:
233,360,113676,1,0,3:3:0:0:
196,337,113760,1,0,3:3:0:0:
177,296,113845,6,0,P|178:262|184:236,1,55.2499974708558,2|0,3:2|3:0,0:0:0:0:
300,260,114013,2,0,P|281:231|263:212,1,55.2499974708558,0|0,3:3|3:0,0:0:0:0:
148,160,114182,6,0,P|114:171|91:183,1,55.2499974708558,2|0,3:2|3:0,0:0:0:0:
248,128,114350,2,0,P|280:116|305:110,1,55.2499974708558,0|0,3:3|3:0,0:0:0:0:
468,140,114519,5,4,1:2:0:0:
452,204,114603,1,2,3:2:0:0:
388,188,114687,2,0,L|308:168,1,42.5,0|2,3:3|3:2,0:0:0:0:
404,124,114856,5,0,3:3:0:0:
468,140,114940,1,2,3:2:0:0:
452,204,115025,2,0,L|432:284,1,42.5,0|2,3:3|3:2,0:0:0:0:
346,178,115193,6,0,L|388:188,1,42.5,0|2,3:3|3:2,0:0:0:0:
509,151,115362,2,0,L|468:140,1,42.5,0|2,3:3|3:2,0:0:0:0:
414,83,115530,2,0,L|403:125,1,42.5,0|2,3:3|3:2,0:0:0:0:
441,246,115699,2,0,L|452:204,1,42.5,0|0,3:3|3:3,0:0:0:0:
360,24,115867,6,0,P|280:56|296:124,1,159.375,2|0,3:2|0:0,0:0:0:0:
280,120,116204,2,0,P|284:33|198:28,1,191.250007295609,2|0,3:2|0:0,0:0:0:0:
196,36,116541,5,2,0:0:0:0:
204,48,116626,1,0,3:0:0:0:
188,84,116710,5,2,0:0:0:0:
196,96,116794,1,0,3:0:0:0:
200,132,116878,6,0,P|260:152|288:8,1,255,12|0,3:1|0:0,0:0:0:0:
196,36,117216,6,0,B|133:40|141:0|74:7,1,127.500004863739,4|2,1:2|3:2,0:0:0:0:
135,107,117468,1,0,0:0:0:0:
135,107,117553,2,0,P|107:105|87:87,1,55.2499974708558,0|0,1:1|0:0,0:0:0:0:
10,178,117721,2,0,P|22:154|16:128,1,55.2499974708558,2|0,3:2|0:0,0:0:0:0:
40,252,117890,5,0,1:2:0:0:
176,176,118058,1,0,3:0:0:0:
176,332,118227,1,0,1:1:0:0:
388,308,118395,6,0,B|334:291|357:257|307:237,1,110.499994941712,2|0,3:2|1:2,0:0:0:0:
290,19,118732,2,0,B|302:74|261:71|269:124,1,110.499994941712,2|0,3:2|1:2,0:0:0:0:
89,248,119069,2,0,B|130:210|148:247|190:214,1,110.499994941712,2|0,3:2|1:2,0:0:0:0:
269,124,119407,2,0,P|260:152|260:184,1,55.2499974708558,2|0,3:2|0:0,0:0:0:0:
307,237,119575,2,0,B|357:257|334:291|388:308,1,110.499994941712,2|0,1:2|3:0,0:0:0:0:
512,144,119912,5,2,1:2:0:0:
416,232,120081,2,0,P|401:203|404:172,1,55.2499974708558,0|0,0:2|3:3,0:0:0:0:
404,103,120249,2,0,P|419:50|459:13,1,110.499994941712,2|2,1:2|2:2,0:0:0:0:
512,68,120502,1,0,3:0:0:0:
432,56,120586,6,0,P|417:76|415:108,1,55.2499974708558,2|0,1:2|0:0,0:0:0:0:
412,180,120755,2,0,P|412:207|426:231,1,55.2499974708558,0|0,3:3|3:0,0:0:0:0:
508,152,120923,1,0,1:1:0:0:
452,304,121092,2,0,B|427:312|427:312|398:305,1,55.2499974708558,0|0,3:0|3:0,0:0:0:0:
312,208,121260,6,0,P|308:178|300:160,1,42.5,2|0,1:2|0:0,0:0:0:0:
200,208,121429,2,0,P|203:178|212:160,1,42.5,0|0,3:3|0:0,0:0:0:0:
256,292,121598,6,0,L|256:88,1,204,12|0,1:2|0:0,0:0:0:0:
164,186,121935,6,0,P|153:162|152:136,1,53.125,0|0,1:1|0:0,0:0:0:0:
346,186,122103,2,0,P|357:162|360:136,1,53.125,0|0,3:3|0:0,0:0:0:0:
256,96,122272,6,0,L|256:283,1,187.000005706787,12|0,1:2|0:0,0:0:0:0:
368,272,122609,5,4,1:2:0:0:
464,352,122777,2,0,P|455:328|455:289,1,42.5,2|2,0:0|0:0,0:0:0:0:
392,188,122946,1,0,1:1:0:0:
512,128,123114,2,0,P|488:138|449:138,1,42.5,0|0,3:0|3:0,0:0:0:0:
357,81,123283,6,0,P|311:51|260:66,1,110.499994941712,2|0,1:2|0:0,0:0:0:0:
168,216,123620,1,0,1:1:0:0:
307,237,123789,6,0,B|357:257|334:291|388:308,1,110.499994941712,2|0,3:2|1:2,0:0:0:0:
269,124,124126,2,0,B|261:71|302:74|290:19,1,110.499994941712,2|0,3:2|1:1,0:0:0:0:
190,214,124463,2,0,B|148:247|130:210|89:248,1,110.499994941712,2|0,3:2|1:2,0:0:0:0:
259,177,124800,2,0,P|260:150|269:124,1,55.2499974708558,2|0,3:2|0:0,0:0:0:0:
388,308,124968,2,0,B|334:291|357:257|307:237,1,110.499994941712,2|0,1:2|0:0,0:0:0:0:
196,116,125305,6,0,P|168:117|136:112,1,42.5,0|2,1:2|3:2,0:0:0:0:
144,124,125474,2,0,P|116:125|84:120,1,42.5,2|2,2:0|3:2,0:0:0:0:
0,120,125643,6,0,P|-18:65|86:53,1,165.749992412568,12|0,0:0|0:0,0:0:0:0:
100,208,125980,6,0,P|78:209|57:208,1,42.5,4|0,1:1|0:0,0:0:0:0:
5,200,126148,2,0,P|26:201|47:199,1,42.5,2|2,0:0|3:2,0:0:0:0:
184,208,126317,6,0,P|166:263|277:280,1,191.250007295609,12|0,1:2|0:0,0:0:0:0:
364,304,126654,5,4,1:1:0:0:
420,92,126822,5,0,3:2:0:0:
356,108,126907,1,0,3:2:0:0:
372,172,126991,6,0,L|392:252,1,42.5,0|0,3:1|0:0,0:0:0:0:
436,156,127159,1,0,3:2:0:0:
420,92,127244,1,0,3:2:0:0:
356,108,127328,6,0,L|276:128,1,42.5,0|2,1:2|0:0,0:0:0:0:
436,156,127496,2,0,L|516:136,1,42.5,0|2,3:2|3:2,0:0:0:0:
372,172,127665,2,0,L|392:252,1,42.5,0|2,3:1|3:2,0:0:0:0:
420,92,127834,2,0,L|400:12,1,42.5,0|2,3:2|3:2,0:0:0:0:
218,75,128002,5,4,1:2:0:0:
218,75,128086,1,2,0:2:0:0:
218,75,128171,1,0,3:0:0:0:
218,75,128255,1,2,0:2:0:0:
218,75,128339,2,0,P|191:70|168:83,1,55.2499974708558,0|0,1:0|0:0,0:0:0:0:
64,11,128508,2,0,P|85:22|94:62,1,55.2499974708558,2|0,3:2|0:0,0:0:0:0:
40,176,128676,5,0,1:2:0:0:
182,239,128845,1,0,3:0:0:0:
168,84,129013,1,0,1:0:0:0:
388,76,129182,6,0,B|334:93|357:127|307:147,1,110.499994941712,2|0,3:2|1:2,0:0:0:0:
290,365,129519,2,0,B|302:310|261:313|269:260,1,110.499994941712,2|0,3:2|1:0,0:0:0:0:
256,192,129772,1,2,0:0:0:0:
190,170,129856,6,0,B|169:153|160:171|139:153,1,55.2499974708558,2|0,3:2|0:0,0:0:0:0:
308,147,130025,2,0,B|332:137|321:120|348:112,1,55.2499974708558,2|0,1:2|0:0,0:0:0:0:
269,260,130193,2,0,B|265:285|285:284|279:312,1,55.2499974708558,2|0,3:2|0:0,0:0:0:0:
190,170,130362,6,0,B|148:137|130:173|88:135,1,110.499994941712,2|0,1:2|3:0,0:0:0:0:
0,228,130699,5,2,1:2:0:0:
96,140,130867,2,0,P|111:169|108:200,1,55.2499974708558,0|0,3:0|2:0,0:0:0:0:
108,269,131036,2,0,P|93:322|53:359,1,110.499994941712,2|0,1:2|3:0,0:0:0:0:
0,304,131289,1,0,3:0:0:0:
80,316,131373,6,0,P|95:296|97:264,1,55.2499974708558,2|0,1:2|2:0,0:0:0:0:
100,192,131541,2,0,P|100:165|86:141,1,55.2499974708558,0|0,3:0|3:0,0:0:0:0:
4,220,131710,1,0,1:0:0:0:
60,68,131878,2,0,B|85:60|85:60|114:67,1,55.2499974708558,0|2,3:0|0:2,0:0:0:0:
208,151,132047,6,0,P|201:170|201:192,1,42.5,2|2,1:2|0:0,0:0:0:0:
304,151,132216,2,0,P|312:170|312:192,1,42.5,0|2,3:0|0:0,0:0:0:0:
256,288,132384,6,0,L|256:84,1,204,12|0,1:2|0:0,0:0:0:0:
168,96,132721,6,0,P|168:122|179:146,1,53.125,4|0,1:1|0:0,0:0:0:0:
344,96,132890,2,0,P|343:122|332:146,1,53.125,0|0,3:0|0:0,0:0:0:0:
256,92,133058,6,0,L|256:279,1,187.000005706787,12|0,1:2|0:0,0:0:0:0:
484,244,133395,6,0,B|500:192|500:192|484:139,1,110.499994941712,6|0,1:1|3:0,0:0:0:0:
332,146,133732,1,2,1:1:0:0:
428,28,133901,2,0,B|404:40|404:40|375:39,1,55.2499974708558,0|0,3:0|0:0,0:0:0:0:
248,12,134069,6,0,L|204:4,1,42.5,2|0,1:1|3:3,0:0:0:0:
256,72,134238,2,0,L|252:20,1,42.5,2|0,3:1|3:3,0:0:0:0:
136,128,134407,6,0,L|180:120,1,42.5,0|0,1:3|3:3,0:0:0:0:
128,188,134575,2,0,L|132:136,1,42.5,2|0,3:1|3:3,0:0:0:0:
20,200,134744,5,0,1:3:0:0:
1,206,134828,1,0,3:3:0:0:
20,200,134912,2,0,P|14:244|13:266,1,42.5,2|0,3:1|3:3,0:0:0:0:
88,372,135081,5,0,1:3:0:0:
66,365,135165,1,0,3:3:0:0:
88,372,135249,2,0,P|81:321|80:295,1,55.2499974708558,2|0,3:1|3:3,0:0:0:0:
184,272,135418,5,0,1:3:0:0:
208,268,135502,1,0,3:3:0:0:
232,264,135586,2,0,L|164:276,1,63.7500024318696,2|0,3:1|3:3,0:0:0:0:
280,348,135755,6,0,P|310:356|342:351,1,63.7500024318696,0|0,1:3|3:3,0:0:0:0:
420,296,135923,2,0,P|428:265|423:233,1,63.7500024318696,0|0,3:3|3:3,0:0:0:0:
388,132,136092,6,0,P|378:145|364:152,1,31.8750012159348,4|0,1:2|0:0,0:0:0:0:
364,152,136429,1,2,0:1:0:0:
418,29,136598,6,0,P|423:45|422:60,1,31.8750012159348,4|0,1:2|0:0,0:0:0:0:
340,4,136766,2,0,P|254:41|275:144,1,223.125008511544,2|0,1:1|0:1,0:0:0:0:
286,145,137103,6,0,P|198:137|142:137,1,127.5,4|0,1:2|0:0,0:0:0:0:
124,68,137440,6,0,B|84:104|84:104|84:160,1,110.499994941712,2|0,1:1|0:0,0:0:0:0:
388,316,137777,2,0,B|428:280|428:280|428:223,1,110.499994941712,2|0,1:1|0:0,0:0:0:0:
198,211,138114,6,0,B|236:207|236:207|275:176|275:176|313:172,1,127.5,2|0,1:2|0:0,0:0:0:0:
464,140,138452,6,2,B|355:165|402:66|293:86,1,191.250007295609,8|0,1:0|0:0,0:0:0:0:
212,112,138789,5,4,1:2:0:0:
20,148,149575,5,4,1:2:0:0:
28,232,149744,1,2,0:0:0:0:
135,84,149912,2,0,P|136:41|155:4,1,85,8|2,0:0|0:0,0:0:0:0:
256,192,150249,1,0,1:0:0:0:
256,192,150418,1,2,0:0:0:0:
112,240,150586,1,8,0:0:0:0:
256,288,150755,1,2,0:0:0:0:
116,357,150923,1,0,1:0:0:0:
112,344,151008,1,2,0:0:0:0:
128,360,151092,1,0,0:0:0:0:
112,332,151176,1,2,0:0:0:0:
140,360,151260,5,8,0:0:0:0:
256,288,151429,1,2,0:0:0:0:
396,357,151598,1,0,1:0:0:0:
384,360,151683,1,0,0:0:0:0:
400,344,151767,1,2,0:0:0:0:
372,360,151850,1,2,0:0:0:0:
400,332,151935,5,8,0:0:0:0:
256,288,152103,1,2,0:0:0:0:
372,224,152272,5,0,1:0:0:0:
380,140,152440,1,2,0:0:0:0:
132,140,152609,1,8,0:0:0:0:
140,224,152777,1,2,0:0:0:0:
256,128,152946,2,0,B|242:90|265:90|254:44,1,85,0|2,1:0|0:0,0:0:0:0:
80,48,153283,1,8,0:0:0:0:
64,192,153452,1,2,0:0:0:0:
224,208,153620,6,0,L|252:216,2,21.25,0|2|0,1:0|0:0|0:0,0:0:0:0:
192,280,153873,1,2,0:0:0:0:
154,293,153958,1,8,0:0:0:0:
186,290,154041,1,2,0:0:0:0:
165,298,154126,1,0,0:0:0:0:
177,300,154210,1,2,0:0:0:0:
236,352,154294,5,0,1:0:0:0:
324,344,154463,1,2,0:0:0:0:
412,336,154631,1,8,0:0:0:0:
500,328,154800,1,2,0:0:0:0:
492,148,154968,5,4,1:2:0:0:
484,232,155137,1,2,0:0:0:0:
376,84,155305,2,0,P|376:60|356:16,1,63.7500024318696,8|2,0:0|0:0,0:0:0:0:
256,192,155643,1,0,1:0:0:0:
256,192,155811,1,2,0:0:0:0:
416,184,155980,2,0,L|376:200,2,31.8750012159348,8|2|0,0:0|0:0|0:0,0:0:0:0:
404,325,156317,1,0,1:0:0:0:
408,312,156402,1,2,0:0:0:0:
392,328,156486,1,0,0:0:0:0:
408,300,156570,1,2,0:0:0:0:
380,328,156654,5,8,0:0:0:0:
256,372,156822,1,2,0:0:0:0:
132,328,156991,1,0,1:0:0:0:
256,288,157159,1,2,0:0:0:0:
256,156,157328,1,8,0:0:0:0:
256,28,157496,1,2,0:0:0:0:
60,64,157665,5,0,1:0:0:0:
68,148,157834,1,2,0:0:0:0:
192,72,158002,2,0,P|193:99|180:133,1,63.7500024318696,8|2,0:0|0:0,0:0:0:0:
28,268,158339,6,0,L|36:296,2,21.25,0|2|0,1:0|0:0|0:0,0:0:0:0:
100,224,158592,1,2,0:0:0:0:
108,240,158677,1,8,0:0:0:0:
116,232,158761,1,0,0:0:0:0:
112,256,158845,1,2,0:0:0:0:
132,232,158929,1,2,0:0:0:0:
184,296,159013,5,4,1:2:0:0:
492,356,159350,1,12,0:2:0:0:
384,60,159687,1,4,1:2:0:0:
372,156,159856,1,0,1:0:0:0:
360,252,160025,1,12,0:2:0:0:
348,348,160193,1,0,1:0:0:0:
188,320,160362,6,0,P|184:304|188:256,1,63.7500024318696,4|2,1:2|0:0,0:0:0:0:
272,120,160699,1,8,0:0:0:0:
259,82,160784,1,2,0:0:0:0:
262,114,160867,1,2,0:0:0:0:
254,93,160952,1,0,0:0:0:0:
252,105,161036,5,0,1:0:0:0:
224,124,161120,1,0,0:0:0:0:
192,128,161204,1,2,0:0:0:0:
160,120,161289,1,2,0:0:0:0:
136,100,161373,1,8,0:0:0:0:
208,0,161541,1,2,0:0:0:0:
132,104,161710,5,0,1:0:0:0:
162,118,161794,1,0,0:0:0:0:
181,144,161878,1,2,0:0:0:0:
190,176,161963,1,2,0:0:0:0:
185,206,162047,1,8,0:0:0:0:
104,296,162216,2,0,P|84:300|68:292,1,31.8750012159348,2|2,0:0|0:0,0:0:0:0:
8,248,162384,6,0,P|-2:230|8:160,1,85,0|2,1:0|0:0,0:0:0:0:
124,24,162721,1,8,0:0:0:0:
292,96,162890,1,0,0:0:0:0:
272,136,162974,1,2,0:0:0:0:
273,182,163058,5,0,1:2:0:0:
392,260,163227,1,2,0:0:0:0:
312,111,163395,1,8,0:0:0:0:
299,73,163480,1,2,0:0:0:0:
302,105,163563,1,2,0:0:0:0:
294,84,163648,1,0,0:0:0:0:
292,96,163732,5,0,1:0:0:0:
272,136,163817,1,2,0:0:0:0:
273,182,163901,1,0,0:2:0:0:
392,260,164069,1,8,0:0:0:0:
496,160,164238,1,2,0:0:0:0:
364,12,164407,5,0,1:0:0:0:
364,12,164575,1,2,0:0:0:0:
400,164,164744,6,0,P|402:139|450:69,1,85,8|2,0:0|0:0,0:0:0:0:
256,124,165081,1,0,1:0:0:0:
256,208,165249,1,2,0:0:0:0:
256,292,165418,1,8,0:0:0:0:
256,376,165586,1,2,0:0:0:0:
32,332,165755,5,4,1:2:0:0:
116,344,165923,1,2,0:0:0:0:
120,176,166092,1,8,0:0:0:0:
120,176,166176,1,2,0:0:0:0:
120,176,166260,1,0,0:0:0:0:
8,48,166429,1,0,1:0:0:0:
16,80,166513,1,2,0:0:0:0:
24,112,166598,1,0,0:0:0:0:
204,96,166766,2,0,P|206:68|188:8,1,85,8|2,0:0|0:0,0:0:0:0:
256,196,167103,5,0,1:0:0:0:
256,280,167272,1,2,0:0:0:0:
256,364,167440,1,8,0:0:0:0:
396,140,167609,1,0,0:0:0:0:
388,186,167693,1,2,0:0:0:0:
388,232,167777,6,0,L|356:223,2,31.8750012159348,0|2|0,1:0|0:0|0:0,0:0:0:0:
420,308,168030,1,2,0:0:0:0:
407,346,168115,1,8,0:0:0:0:
410,314,168198,1,2,0:0:0:0:
402,335,168283,1,0,0:0:0:0:
400,323,168367,1,2,0:0:0:0:
320,308,168452,5,4,1:2:0:0:
236,324,168620,1,2,0:0:0:0:
372,128,168789,1,8,0:0:0:0:
388,212,168957,1,2,0:0:0:0:
192,76,169126,5,0,1:0:0:0:
276,60,169294,1,2,0:0:0:0:
140,256,169463,1,8,0:0:0:0:
124,172,169631,1,2,0:0:0:0:
256,192,169800,5,4,1:2:0:0:
32,280,170137,5,8,3:2:0:0:
128,344,170305,1,2,0:2:0:0:
140,368,170390,1,0,3:3:0:0:
156,340,170474,1,0,3:3:0:0:
168,364,170558,1,0,3:3:0:0:
184,336,170643,2,0,L|244:328,1,42.5,0|0,3:3|0:3,0:0:0:0:
308,316,170811,2,0,B|303:258|303:258|324:220|324:220|317:159,1,159.375,8|0,3:2|0:3,0:0:0:0:
256,112,171148,6,0,P|314:62|408:48,2,170,6|2|2,1:2|0:0|0:0,0:0:0:0:
72,356,172496,2,0,P|60:272|7:207,2,170,2|2|2,0:0|0:0|0:0,0:0:0:0:
224,200,173508,1,2,0:0:0:0:
368,364,173845,6,0,P|371:326|400:264,1,85,2|0,0:0|0:0,0:0:0:0:
344,208,174182,2,0,P|340:170|312:108,1,85,2|0,0:0|0:0,0:0:0:0:
364,52,174519,1,2,0:0:0:0:
364,52,175193,6,0,B|276:76|284:20|197:34,3,170,2|2|2|2,0:0|0:0|0:0|0:0,0:0:0:0:
52,160,176541,6,0,P|44:201|32:242,1,85,2|0,0:1|0:0,0:0:0:0:
52,344,176878,2,0,P|44:301|32:260,1,85,2|0,0:1|0:0,0:0:0:0:
204,220,177216,2,0,P|223:215|280:224,1,42.5,2|0,0:1|0:0,0:0:0:0:
305,224,177384,2,0,P|285:216|226:221,1,42.5,2|0,0:1|0:0,0:0:0:0:
213,378,177553,2,0,P|220:358|261:317,1,42.5,2|0,0:1|0:0,0:0:0:0:
252,325,177721,6,0,P|285:339|333:339,1,85,2|0,0:1|0:0,0:0:0:0:
460,260,178058,6,0,P|476:204|472:144,1,106.25,2|0,0:1|0:3,0:0:0:0:
400,24,178395,6,0,P|339:6|275:8,1,127.500004863739,2|0,0:1|0:3,0:0:0:0:
153,216,178732,6,0,P|152:163|168:112,1,107.099996731567,2|0,0:1|0:3,0:0:0:0:
80,336,179238,6,0,P|48:353|-8:340,1,85,2|0,0:1|0:3,0:0:0:0:
153,216,179575,2,0,P|151:179|161:129,1,85,2|0,0:1|0:3,0:0:0:0:
308,336,179912,2,0,P|267:347|229:331,1,85,2|0,0:1|0:3,0:0:0:0:
153,216,180249,2,0,P|155:179|145:129,1,85,2|0,0:1|0:3,0:0:0:0:
4,28,180586,5,4,1:2:0:0:
156,44,180755,2,0,P|136:52|100:48,1,42.5,0|0,3:0|3:0,0:0:0:0:
0,156,180923,5,2,1:2:0:0:
68,280,181092,2,0,P|76:260|72:224,1,42.5,0|0,3:0|3:0,0:0:0:0:
68,120,181260,2,0,P|76:140|72:176,1,42.5,2|0,1:2|3:0,0:0:0:0:
156,236,181429,2,0,P|177:235|197:228,1,42.5,4|0,3:3|3:0,0:0:0:0:
312,132,181598,6,0,P|260:121|240:252,1,191.250007295609,10|0,0:2|2:2,0:0:0:0:
264,288,181935,6,0,B|327:292|319:252|386:259,1,127.500004863739,0|0,1:2|0:2,0:0:0:0:
508,200,182272,6,0,P|480:202|460:220,1,55.2499974708558,4|0,1:2|0:0,0:0:0:0:
496,332,182440,2,0,P|470:323|456:300,1,55.2499974708558,2|0,3:2|0:0,0:0:0:0:
388,176,182609,2,0,P|392:132|372:56,1,110.499994941712,0|0,1:2|3:0,0:0:0:0:
256,8,182946,1,0,1:1:0:0:
124,176,183114,6,0,P|120:121|134:67,1,110.499994941712,2|0,3:2|1:2,0:0:0:0:
247,255,183452,2,0,B|239:308|280:305|268:360,1,110.499994941712,2|0,3:2|1:2,0:0:0:0:
132,180,183789,2,0,P|69:192|-12:160,1,110.499994941712,2|0,3:2|1:2,0:0:0:0:
260,96,184126,2,0,P|251:124|251:156,1,55.2499974708558,2|0,3:2|0:0,0:0:0:0:
380,180,184294,2,0,P|442:192|524:160,1,110.499994941712,2|0,1:2|3:0,0:0:0:0:
256,12,184631,5,2,1:2:0:0:
380,44,184800,2,0,P|347:42|319:57,1,55.2499974708558,0|0,0:2|3:3,0:0:0:0:
260,96,184968,2,0,P|267:150|302:193,1,110.499994941712,2|2,1:2|2:2,0:0:0:0:
380,180,185221,1,0,3:0:0:0:
448,136,185305,6,0,P|458:105|451:74,1,55.2499974708558,2|0,1:2|0:0,0:0:0:0:
381,50,185474,2,0,P|350:60|319:53,1,55.2499974708558,0|0,3:3|3:0,0:0:0:0:
256,16,185643,1,0,1:1:0:0:
112,216,185811,2,0,B|104:192|104:192|112:164,1,55.2499974708558,0|0,3:0|3:0,0:0:0:0:
312,136,185980,6,0,L|280:168,1,42.5,2|0,1:2|0:0,0:0:0:0:
200,248,186148,2,0,L|232:216,1,42.5,0|0,3:3|0:0,0:0:0:0:
182,118,186317,6,0,L|326:262,1,204,12|0,1:2|0:0,0:0:0:0:
329,255,186654,6,0,L|290:216,1,55.2499974708558,0|0,1:1|0:0,0:0:0:0:
192,118,186822,2,0,L|231:157,1,55.2499974708558,0|0,3:3|0:0,0:0:0:0:
328,119,186991,6,0,L|194:252,1,187.000005706787,12|0,1:2|0:0,0:0:0:0:
0,224,187328,5,4,1:2:0:0:
40,344,187496,2,0,P|49:320|49:281,1,42.5,2|2,0:0|0:0,0:0:0:0:
120,188,187665,1,0,1:1:0:0:
0,128,187834,2,0,P|24:138|63:138,1,42.5,0|0,3:0|3:0,0:0:0:0:
124,192,188002,6,0,P|120:236|140:312,1,110.499994941712,2|0,1:2|0:0,0:0:0:0:
256,360,188339,1,0,1:1:0:0:
388,192,188508,6,0,P|392:247|378:301,1,110.499994941712,2|0,3:2|1:2,0:0:0:0:
265,113,188845,2,0,B|273:60|232:63|244:8,1,110.499994941712,2|0,3:2|1:1,0:0:0:0:
380,188,189182,2,0,P|443:200|524:168,1,110.499994941712,2|0,3:2|1:2,0:0:0:0:
252,272,189519,2,0,P|261:244|261:212,1,55.2499974708558,2|0,3:2|0:0,0:0:0:0:
132,188,189687,2,0,P|69:200|-12:168,1,110.499994941712,2|0,1:2|0:0,0:0:0:0:
100,16,190025,6,0,P|99:44|104:76,1,42.5,0|0,1:2|0:0,0:0:0:0:
92,110,190193,2,0,P|90:88|91:67,1,42.5,2|2,2:0|3:2,0:0:0:0:
200,0,190362,6,0,P|184:80|224:184,1,165.749992412568,12|0,0:0|0:0,0:0:0:0:
412,108,190699,6,0,P|413:86|412:65,1,42.5,4|0,1:1|0:0,0:0:0:0:
404,14,190867,2,0,P|405:35|403:56,1,42.5,2|2,0:0|3:2,0:0:0:0:
328,140,191036,6,0,P|350:61|262:92,1,191.250007295609,12|0,1:2|0:0,0:0:0:0:
280,212,191373,5,4,1:1:0:0:
464,308,191541,5,0,3:2:0:0:
448,244,191626,1,2,3:2:0:0:
384,260,191710,6,0,L|304:280,1,42.5,0|0,3:1|0:0,0:0:0:0:
400,324,191878,1,2,3:2:0:0:
464,308,191963,1,0,3:2:0:0:
448,244,192047,6,0,L|428:164,1,42.5,0|2,1:2|0:0,0:0:0:0:
400,324,192216,2,0,L|420:404,1,42.5,0|2,3:2|3:2,0:0:0:0:
384,260,192384,2,0,L|304:280,1,42.5,0|2,3:1|3:2,0:0:0:0:
464,308,192553,2,0,L|544:288,1,42.5,0|2,3:2|3:2,0:0:0:0:
224,264,192721,5,4,1:2:0:0:
224,264,192805,1,2,0:2:0:0:
224,264,192890,1,0,3:0:0:0:
224,264,192974,1,2,0:2:0:0:
224,264,193058,2,0,P|197:269|174:256,1,55.2499974708558,0|0,1:0|0:0,0:0:0:0:
48,284,193227,2,0,P|71:287|101:259,1,55.2499974708558,2|0,3:2|0:0,0:0:0:0:
134,83,193395,6,0,P|120:137|124:192,1,110.499994941712,0|0,1:2|3:0,0:0:0:0:
256,24,193732,1,0,1:0:0:0:
378,83,193901,6,0,P|392:137|388:192,1,110.499994941712,2|0,3:2|1:2,0:0:0:0:
244,376,194238,2,0,B|232:321|273:324|265:271,1,110.499994941712,2|0,3:2|1:0,0:0:0:0:
332,204,194491,1,2,0:0:0:0:
335,200,194575,6,0,P|372:193|418:211,1,55.2499974708558,2|0,3:2|0:0,0:0:0:0:
260,148,194744,2,0,P|259:121|251:95,1,55.2499974708558,2|0,1:2|0:0,0:0:0:0:
177,200,194912,2,0,P|140:193|94:211,1,55.2499974708558,2|0,3:2|0:0,0:0:0:0:
260,148,195081,2,0,P|249:94|262:40,1,110.499994941712,2|0,1:2|3:0,0:0:0:0:
348,288,195418,5,2,1:2:0:0:
120,344,195586,2,0,P|153:346|181:331,1,55.2499974708558,0|0,0:2|3:3,0:0:0:0:
240,292,195754,2,0,P|233:238|198:195,1,110.499994941712,2|2,1:2|2:2,0:0:0:0:
120,208,196007,1,0,3:0:0:0:
52,252,196091,6,0,P|42:283|49:314,1,55.2499974708558,2|0,1:2|0:0,0:0:0:0:
119,338,196260,2,0,P|150:328|181:335,1,55.2499974708558,0|0,3:3|3:0,0:0:0:0:
244,372,196429,1,0,1:1:0:0:
388,172,196598,2,0,B|396:196|396:196|388:224,1,55.2499974708558,0|2,3:0|0:2,0:0:0:0:
218,221,196766,6,0,L|188:252,1,42.5,2|2,1:2|0:0,0:0:0:0:
269,170,196935,2,0,L|300:140,1,42.5,0|2,3:0|0:0,0:0:0:0:
318,270,197103,6,0,L|174:126,1,204,12|0,1:2|0:0,0:0:0:0:
171,133,197440,6,0,L|210:172,1,55.2499974708558,4|0,1:1|0:0,0:0:0:0:
308,270,197609,2,0,L|269:231,1,55.2499974708558,0|0,3:0|0:0,0:0:0:0:
172,269,197777,6,0,L|306:136,1,187.000005706787,12|0,1:2|0:0,0:0:0:0:
484,140,198114,6,0,B|500:192|500:192|484:245,1,110.499994941712,6|0,1:1|3:0,0:0:0:0:
332,238,198452,1,2,1:1:0:0:
428,356,198620,2,0,B|404:344|404:344|375:345,1,55.2499974708558,0|0,3:0|0:0,0:0:0:0:
248,372,198789,6,0,L|204:380,1,42.5,2|0,1:1|0:0,0:0:0:0:
256,312,198957,2,0,L|252:364,1,42.5,2|0,3:1|3:3,0:0:0:0:
136,256,199126,6,0,L|180:264,1,42.5,0|0,1:3|3:3,0:0:0:0:
128,196,199294,2,0,L|132:248,1,42.5,2|0,3:1|3:3,0:0:0:0:
20,184,199463,5,0,1:3:0:0:
1,178,199547,1,0,3:3:0:0:
20,184,199631,2,0,P|14:140|13:118,1,42.5,2|0,3:1|3:3,0:0:0:0:
88,12,199800,5,0,1:3:0:0:
66,19,199884,1,0,3:3:0:0:
88,12,199968,2,0,P|81:63|80:89,1,53.125,2|0,3:1|3:3,0:0:0:0:
184,112,200137,5,0,1:3:0:0:
208,116,200221,1,0,3:3:0:0:
232,120,200305,2,0,L|164:108,1,63.7500024318696,2|0,3:1|3:3,0:0:0:0:
280,36,200474,6,0,P|310:28|342:33,1,63.7500024318696,0|0,1:3|3:3,0:0:0:0:
420,88,200643,2,0,P|428:119|423:151,1,63.7500024318696,0|0,3:3|3:3,0:0:0:0:
388,252,200811,6,0,P|378:239|364:232,1,31.8750012159348,4|0,1:2|0:0,0:0:0:0:
364,232,201148,1,2,0:1:0:0:
418,355,201317,6,0,P|423:339|422:324,1,31.8750012159348,4|0,1:2|0:0,0:0:0:0:
340,380,201485,2,0,P|254:343|275:240,1,223.125008511544,2|0,1:1|0:1,0:0:0:0:
286,239,201822,6,0,P|198:247|142:247,1,127.5,2|0,1:2|0:0,0:0:0:0:
124,316,202159,6,0,B|84:280|84:280|84:224,1,110.499994941712,2|0,1:1|0:0,0:0:0:0:
388,68,202496,2,0,B|428:104|428:104|428:161,1,110.499994941712,2|0,1:1|0:0,0:0:0:0:
198,173,202834,6,0,B|236:177|236:177|275:208|275:208|313:212,1,127.5,2|0,1:2|0:0,0:0:0:0:
464,244,203171,6,2,B|355:219|402:318|293:298,1,191.250007295609,12|0,1:0|0:0,0:0:0:0:
232,348,203508,6,0,P|225:363|226:378,1,31.8750012159348,4|0,1:2|0:0,0:0:0:0:
226,378,203845,1,2,0:1:0:0:
64,284,204013,6,0,P|59:268|60:253,1,31.8750012159348,4|0,1:2|0:0,0:0:0:0:
145,260,204182,2,0,P|236:238|233:133,1,223.125008511544,2|0,1:1|0:1,0:0:0:0:
224,132,204519,6,0,P|312:140|368:140,1,127.5,2|0,1:2|0:0,0:0:0:0:
388,68,204856,6,0,B|428:104|428:104|428:160,1,110.499994941712,2|0,1:1|0:0,0:0:0:0:
124,316,205193,2,0,B|84:280|84:280|84:223,1,110.499994941712,2|0,1:1|0:0,0:0:0:0:
314,211,205530,6,0,B|276:207|276:207|237:176|237:176|199:172,1,127.5,2|0,1:2|0:0,0:0:0:0:
48,140,205867,6,2,B|157:165|110:66|219:86,1,191.250007295609,12|0,1:0|0:0,0:0:0:0:
