osu file format v14

[General]
AudioFilename: audio.mp3
AudioLeadIn: 0
PreviewTime: 170980
Countdown: 0
SampleSet: Soft
StackLeniency: 0.4
Mode: 0
LetterboxInBreaks: 0
WidescreenStoryboard: 1

[Editor]
Bookmarks: 14744,25530,36317,44407,49800,60586,71373,82159,92946,103732,109126,117216,128002,138789,149575,160362,171148,176541,182272,192721,200811,206204
DistanceSpacing: 1
BeatDivisor: 4
GridSize: 16
TimelineZoom: 2.4

[Metadata]
Title:Wa ta shi wa * No.1!
TitleUnicode:わ・た・し・は☆No. 1!
Artist:San Diego (CV: Itou Asuka)
ArtistUnicode:サンディエゴ (CV: 伊藤あすか)
Creator:Shurelia
Version:kiry's Ex?
Source:アズールレーン
Tags:azur lane sandymeme sandy ship waifus 私 わたし watashi 桜村岬 かみじょうゆうや kamijou yuuya number nitrous hinsvar Kirylln yf_bmp so0p
BeatmapID:2284334
BeatmapSetID:1079211

[Difficulty]
HPDrainRate:5
CircleSize:4
OverallDifficulty:8.3
ApproachRate:9.4
SliderMultiplier:1.75
SliderTickRate:1

[Events]
//Background and Video events
0,0,"sandybg.jpg",0,0
//Break Periods
2,71573,81619
2,139073,146338
2,171348,176001
//Storyboard Layer 0 (Background)
//Storyboard Layer 1 (Fail)
//Storyboard Layer 2 (Pass)
//Storyboard Layer 3 (Foreground)
//Storyboard Layer 4 (Overlay)
//Storyboard Sound Samples

[TimingPoints]
1261,337.078651685393,4,2,10,60,1,0
1261,-62.5,4,2,10,60,0,0
1766,-166.666666666667,4,2,10,60,0,0
1935,-55.5555555555556,4,2,10,60,0,0
2272,-71.4285714285714,4,2,10,60,0,0
2609,-83.3333333333333,4,2,10,60,0,0
3620,-62.5,4,2,10,60,0,0
3957,-62.5,4,2,10,75,0,0
4294,-62.5,4,2,10,75,0,0
5305,-83.3333333333333,4,2,10,75,0,0
5643,-62.5,4,2,10,75,0,0
6317,-200,4,2,10,75,0,0
6654,-62.5,4,2,10,75,0,0
9350,-62.5,4,2,10,75,0,0
9687,-62.5,4,2,10,75,0,0
14744,-125,4,2,10,60,0,0
15081,-125,4,2,10,60,0,0
25530,-100,4,2,10,60,0,0
32272,-71.4285714285714,4,2,10,60,0,0
32609,-250,4,2,10,60,0,0
32946,-62.5,4,2,10,60,0,0
33283,-100,4,2,10,60,0,0
36317,-100,4,2,10,65,0,0
36822,-100,4,2,10,65,0,0
36991,-125,4,2,10,65,0,0
40362,-62.5,4,2,10,65,0,0
49463,-50,4,2,10,65,0,0
49800,-62.5,4,2,10,80,0,1
50137,-62.5,4,2,10,80,0,1
52159,-125,4,2,10,80,0,1
52496,-62.5,4,2,10,80,0,1
54182,-50,4,2,10,80,0,1
55193,-62.5,4,2,10,80,0,1
55530,-62.5,4,2,10,80,0,1
57553,-125,4,2,10,80,0,1
57890,-62.5,4,2,10,80,0,1
58564,-50,4,2,10,80,0,1
58901,-125,4,2,10,80,0,1
59238,-62.5,4,2,10,80,0,1
60586,-62.5,4,2,10,80,0,1
60923,-62.5,4,2,10,80,0,1
62946,-125,4,2,10,80,0,1
63283,-62.5,4,2,10,80,0,1
64968,-50,4,2,10,80,0,1
65980,-50,4,2,10,80,0,1
66317,-50,4,2,10,80,0,1
68676,-62.5,4,2,10,80,0,0
71036,-50,4,2,10,80,0,0
71373,-50,4,2,10,80,0,0
71457,-50,4,2,10,75,0,0
71710,-50,4,2,10,75,0,0
82159,-166.666666666667,4,2,10,80,0,0
82412,-166.666666666667,4,2,10,60,0,0
82496,-166.666666666667,4,2,10,60,0,0
90586,-100,4,2,10,60,0,0
99687,-166.666666666667,4,2,10,60,0,0
100025,-100,4,2,10,60,0,0
100362,-83.3333333333333,4,2,10,60,0,0
101373,-100,4,2,10,60,0,0
103732,-100,4,2,10,65,0,0
104238,-100,4,2,10,65,0,0
107777,-62.5,4,2,10,65,0,0
116878,-50,4,2,10,65,0,0
117216,-62.5,4,2,10,80,0,1
117553,-62.5,4,2,10,80,0,1
119575,-125,4,2,10,80,0,1
119912,-62.5,4,2,10,80,0,1
122609,-62.5,4,2,10,80,0,1
122946,-62.5,4,2,10,80,0,1
124968,-125,4,2,10,80,0,1
125643,-62.5,4,2,10,80,0,1
125980,-50,4,2,10,80,0,1
126317,-125,4,2,10,80,0,1
127328,-62.5,4,2,10,80,0,1
128002,-62.5,4,2,10,80,0,1
128339,-62.5,4,2,10,80,0,1
130362,-125,4,2,10,80,0,1
130699,-62.5,4,2,10,80,0,1
133395,-62.5,4,2,10,80,0,1
133732,-62.5,4,2,10,80,0,1
136092,-62.5,4,2,10,60,0,0
138452,-125,4,2,10,60,0,0
138789,-125,4,2,10,60,0,0
138831,-62.5,4,2,10,60,0,0
138957,-62.5,4,2,10,75,0,0
139126,-62.5,4,2,10,75,0,0
146878,-62.5,4,2,10,75,0,0
149575,-62.5,4,2,10,65,0,0
149912,-62.5,4,2,10,65,0,0
150249,-83.3333333333333,4,2,10,65,0,0
170305,-166.666666666667,4,2,10,65,0,0
171148,-166.666666666667,4,2,10,65,0,0
176541,-83.3333333333333,4,2,10,30,0,0
179154,-83.3333333333333,4,2,10,32,0,0
179238,-83.3333333333333,4,2,10,30,0,0
179322,-83.3333333333333,4,2,10,36,0,0
179407,-83.3333333333333,4,2,10,30,0,0
179491,-83.3333333333333,4,2,10,40,0,0
179575,-83.3333333333333,4,2,10,30,0,0
179659,-83.3333333333333,4,2,10,44,0,0
179744,-83.3333333333333,4,2,10,30,0,0
179828,-83.3333333333333,4,2,10,48,0,0
179912,-83.3333333333333,4,2,10,30,0,0
179996,-83.3333333333333,4,2,10,50,0,0
180081,-83.3333333333333,4,2,10,30,0,0
180165,-83.3333333333333,4,2,10,54,0,0
180249,-83.3333333333333,4,2,10,30,0,0
180334,-83.3333333333333,4,2,10,58,0,0
180418,-83.3333333333333,4,2,10,30,0,0
180502,-83.3333333333333,4,2,10,62,0,0
180586,-62.5,4,2,10,65,0,0
182272,-62.5,4,2,10,80,0,1
182609,-62.5,4,2,10,80,0,1
184294,-125,4,2,10,80,0,1
184631,-62.5,4,2,10,80,0,1
187328,-62.5,4,2,10,80,0,1
187665,-62.5,4,2,10,80,0,1
190699,-50,4,2,10,80,0,1
191036,-125,4,2,10,80,0,1
192047,-62.5,4,2,10,80,0,1
192721,-62.5,4,2,10,80,0,1
193058,-62.5,4,2,10,80,0,1
195081,-125,4,2,10,80,0,1
195418,-62.5,4,2,10,80,0,1
198114,-62.5,4,2,10,80,0,1
198452,-62.5,4,2,10,80,0,1
200811,-62.5,4,2,10,60,0,0
201317,-62.5,4,2,10,60,0,0
204013,-166.666666666667,4,2,10,60,0,0
204182,-55.5555555555556,4,2,10,60,0,0
204519,-71.4285714285714,4,2,10,60,0,0
204856,-83.3333333333333,4,2,10,60,0,0
205867,-50,4,2,10,60,0,0
206119,-50,4,2,10,5,0,0
206204,-50,4,2,10,60,0,0

[Colours]
Combo1 : 160,66,255
Combo2 : 255,51,51
Combo3 : 79,158,255
Combo4 : 192,192,192

[HitObjects]
64,96,1261,6,0,B|42:88|42:61|42:61|108:35|177:86|207:146|179:218,1,280,4|0,1:2|0:0,0:0:0:0:
208,304,1766,2,0,L|184:340,1,26.2499991989136,0|0,0:0|0:0,0:0:0:0:
422,339,1935,2,0,B|439:354|463:340|463:340|452:270|374:236|307:240|282:314,1,236.249992790222,4|0,1:2|0:0,0:0:0:0:
315,267,2272,2,0,B|297:273|297:295|297:295|350:315|405:275|429:226|388:179,1,183.749994392395,8|0,1:1|0:0,0:0:0:0:
384,24,2609,6,0,P|386:83|414:145,1,104.999996795654,4|0,1:2|0:0,0:0:0:0:
315,129,2946,2,0,P|282:88|264:40,1,104.999996795654,4|0,1:2|0:0,0:0:0:0:
156,96,3283,2,0,P|195:139|256:169,1,104.999996795654,4|0,1:2|0:0,0:0:0:0:
95,199,3620,2,0,P|125:218|158:229,1,70,4|0,1:2|0:0,0:0:0:0:
56,304,3789,2,0,P|114:312|180:295,1,70,0|0,3:0|3:0,0:0:0:0:
406,226,3957,5,4,1:2:0:0:
304,352,4126,2,0,P|358:329|406:282,1,70,2|0,0:2|0:0,0:0:0:0:
347,74,4294,2,0,P|339:131|356:198,1,70,8|0,0:2|0:0,0:0:0:0:
365,63,4463,2,0,P|357:120|374:187,1,70,2|2,3:2|0:0,0:0:0:0:
383,52,4631,2,0,P|375:109|392:176,1,70,0|0,1:2|0:0,0:0:0:0:
401,40,4800,2,0,P|393:75|393:110,1,70,2|0,0:2|0:0,0:0:0:0:
462,266,4968,6,0,P|436:242|405:225,1,70,8|0,0:2|0:0,0:0:0:0:
158,229,5137,1,2,0:0:0:0:
158,229,5305,2,0,P|120:180|108:114,1,104.999996795654,2|2,0:0|0:2,0:0:0:0:
446,314,5643,6,0,P|435:280|417:250,1,70,10|0,0:2|0:0,0:0:0:0:
316,304,5811,2,0,P|290:280|259:263,1,70,2|0,0:2|0:0,0:0:0:0:
198,360,5980,2,0,P|163:352|128:352,1,70,2|0,1:2|0:0,0:0:0:0:
125,342,6148,2,0,P|160:342|195:350,1,70,2|0,0:2|0:0,0:0:0:0:
468,250,6317,6,0,P|468:284|460:319,1,65.625,10|0,0:0|0:0,0:0:0:0:
475,319,6654,6,0,P|482:284|482:250,1,70,2|0,1:2|0:0,0:0:0:0:
424,92,6822,1,2,0:2:0:0:
256,128,6991,2,0,P|281:104|311:86,1,70,10|0,0:2|0:0,0:0:0:0:
488,24,7159,1,2,2:2:0:0:
208,152,7328,6,0,P|242:144|276:144,1,70,2|0,1:2|0:0,0:0:0:0:
136,136,7496,2,0,P|169:146|199:163,1,70,2|0,0:2|0:0,0:0:0:0:
80,88,7665,2,0,P|103:113|121:143,1,70,10|0,0:0|0:0,0:0:0:0:
104,264,7834,1,2,0:0:0:0:
104,264,8002,2,0,P|111:298|111:332,1,70,2|0,0:0|0:0,0:0:0:0:
32,368,8171,1,0,0:0:0:0:
320,304,8339,6,0,P|344:279|364:250,1,70,12|0,0:0|0:0,0:0:0:0:
240,320,8508,1,0,0:0:0:0:
480,240,8676,2,0,P|489:206|491:171,1,70,2|0,1:2|0:0,0:0:0:0:
400,112,8845,2,0,P|391:78|375:46,1,70,2|0,0:0|1:0,0:0:0:0:
236,56,9013,2,0,P|265:75|289:100,1,70,6|0,1:2|0:0,0:0:0:0:
52,150,9182,2,0,P|85:142|120:143,1,70,0|0,1:2|0:0,0:0:0:0:
408,352,9350,5,4,1:2:0:0:
320,304,9519,2,0,P|294:280|263:264,1,70,2|0,0:0|0:0,0:0:0:0:
412,335,9687,1,8,0:0:0:0:
224,300,9856,2,0,P|258:299|293:306,1,70,2|2,0:2|0:0,0:0:0:0:
32,304,10025,6,0,P|56:327|76:357,1,70,2|0,1:2|0:0,0:0:0:0:
62,279,10193,2,0,P|71:311|74:347,1,70,2|0,0:0|0:0,0:0:0:0:
100,272,10362,2,0,P|92:305|76:337,1,70,8|0,0:0|0:0,0:0:0:0:
108,74,10530,2,0,P|117:106|120:142,1,70,2|0,0:0|0:0,0:0:0:0:
336,192,10699,5,2,0:0:0:0:
336,192,10867,2,0,P|326:159|323:123,1,70,2|0,3:2|0:0,0:0:0:0:
512,192,11036,2,0,P|482:175|455:152,1,70,10|0,0:2|0:0,0:0:0:0:
376,239,11204,2,0,P|358:210|346:176,1,70,0|0,0:0|3:0,0:0:0:0:
236,276,11373,2,0,P|234:242|242:206,1,70,2|0,1:2|0:0,0:0:0:0:
104,288,11541,2,0,P|120:258|143:231,1,70,2|0,3:2|0:0,0:0:0:0:
224,80,11710,6,0,P|232:62|235:29,7,35,8|0|0|0|0|0|0|0,0:2|0:0|3:3|0:0|3:3|3:0|3:3|0:0,0:0:0:0:
232,24,12047,5,2,1:2:0:0:
202,50,12131,1,0,3:3:0:0:
165,66,12216,1,2,3:2:0:0:
128,67,12300,1,0,3:3:0:0:
156,37,12384,5,8,3:2:0:0:
202,16,12468,1,0,3:3:0:0:
260,10,12553,1,2,3:2:0:0:
315,19,12637,1,0,3:3:0:0:
335,32,12721,5,2,1:2:0:0:
351,40,12805,1,2,3:2:0:0:
370,43,12890,1,2,3:2:0:0:
393,42,12974,1,0,3:2:0:0:
368,24,13058,5,8,3:2:0:0:
339,50,13143,1,0,3:3:0:0:
328,95,13227,1,2,3:2:0:0:
336,125,13311,1,0,3:3:0:0:
354,141,13395,5,0,1:3:0:0:
388,181,13480,1,0,3:3:0:0:
395,238,13564,1,2,3:2:0:0:
373,292,13648,1,0,3:3:0:0:
364,268,13732,1,14,3:2:0:0:
365,242,13817,1,0,3:3:0:0:
372,210,13901,1,2,3:2:0:0:
400,183,13985,1,0,3:3:0:0:
426,237,14069,5,2,1:2:0:0:
427,306,14154,1,0,3:3:0:0:
405,369,14238,1,2,3:2:0:0:
398,360,14322,1,0,3:3:0:0:
398,352,14407,1,8,3:2:0:0:
429,331,14491,1,2,3:2:0:0:
479,298,14575,1,0,3:3:0:0:
506,234,14659,1,0,3:3:0:0:
509,157,14744,5,4,1:2:0:0:
467,56,14912,1,2,0:0:0:0:
474,55,14996,1,0,0:0:0:0:
480,51,15081,1,0,1:0:0:0:
368,40,15249,1,0,0:0:0:0:
256,88,15418,5,0,1:0:0:0:
228,101,15586,1,2,0:0:0:0:
202,101,15755,1,0,1:0:0:0:
179,91,15923,1,2,0:0:0:0:
214,22,16092,1,0,1:0:0:0:
243,119,16260,5,2,0:0:0:0:
229,125,16428,1,0,1:0:0:0:
216,125,16597,1,2,0:0:0:0:
204,120,16765,1,0,1:0:0:0:
216,192,16935,1,2,0:0:0:0:
218,362,17103,1,0,1:0:0:0:
218,362,17272,1,2,0:0:0:0:
218,362,17440,1,0,1:0:0:0:
320,320,17609,5,2,0:0:0:0:
334,313,17693,1,2,0:0:0:0:
348,311,17777,1,0,1:0:0:0:
472,296,17946,1,0,0:0:0:0:
346,290,18114,5,0,1:0:0:0:
332,292,18283,1,2,0:0:0:0:
318,299,18452,1,0,1:0:0:0:
307,310,18620,1,2,0:0:0:0:
480,32,18957,5,2,0:0:0:0:
456,35,19126,1,0,1:0:0:0:
432,47,19295,1,2,0:0:0:0:
413,66,19463,1,0,1:0:0:0:
336,112,19631,1,2,0:0:0:0:
325,111,19716,1,0,1:0:0:0:
315,106,19800,1,0,1:0:0:0:
220,84,19968,1,0,1:0:0:0:
96,192,20137,5,0,1:0:0:0:
88,187,20305,1,0,0:0:0:0:
56,276,20474,5,0,1:0:0:0:
51,267,20642,1,0,0:0:0:0:
169,342,20811,2,0,P|100:351|32:368,2,140,0|0|0,1:0|1:0|1:0,1:0:0:0:
352,360,21654,5,0,0:0:0:0:
360,354,21822,1,0,1:0:0:0:
423,289,21991,5,0,0:0:0:0:
427,280,22159,1,0,1:0:0:0:
449,192,22328,5,0,0:0:0:0:
448,182,22496,1,0,1:0:0:0:
418,87,22665,5,2,0:0:0:0:
425,96,22834,2,0,P|371:80|266:66,1,140,0|0,1:0|1:0,0:0:0:0:
64,133,23508,2,0,P|21:133|-28:124,1,70,0|0,1:0|0:0,0:0:0:0:
152,104,23845,1,0,1:0:0:0:
150,88,24013,1,0,0:0:0:0:
245,161,24182,6,0,P|250:143|257:131,1,17.5,0|0,1:0|0:0,0:0:0:0:
352,192,24350,2,0,P|370:187|383:187,1,17.5,2|0,0:0|0:0,0:0:0:0:
396,268,24519,2,0,P|411:277|421:287,1,17.5,2|0,0:0|0:0,0:0:0:0:
387,331,24687,2,0,P|395:347|399:360,1,17.5,0|0,0:0|0:0,0:0:0:0:
344,272,24856,2,0,P|361:277|374:284,1,17.5,2|0,0:2|0:0,0:0:0:0:
282,206,25025,2,0,P|295:193|307:186,1,17.5,0|0,0:0|0:0,0:0:0:0:
160,192,25193,2,0,P|165:174|172:162,1,17.5,8|0,0:0|0:0,0:0:0:0:
32,256,25362,2,0,P|16:246|6:236,1,17.5,2|0,0:0|0:0,0:0:0:0:
0,32,25530,5,4,1:2:0:0:
128,64,25699,1,2,0:0:0:0:
155,66,25783,1,2,0:0:0:0:
184,56,25867,1,8,1:2:0:0:
288,16,26036,1,0,0:0:0:0:
496,23,26204,5,0,1:0:0:0:
392,47,26373,1,2,0:0:0:0:
321,112,26541,1,8,1:2:0:0:
294,194,26710,1,2,0:0:0:0:
261,248,26878,6,0,P|203:282|152:287,1,87.5,0|2,1:0|0:0,0:0:0:0:
0,288,27216,1,8,1:2:0:0:
12,293,27384,1,2,0:0:0:0:
183,286,27553,5,0,1:0:0:0:
114,239,27721,1,2,0:0:0:0:
82,132,27890,1,8,1:2:0:0:
106,11,28058,1,2,0:0:0:0:
120,28,28227,1,0,1:0:0:0:
240,80,28395,5,2,0:0:0:0:
267,80,28480,1,2,0:0:0:0:
294,69,28564,1,8,1:2:0:0:
364,8,28732,1,2,0:0:0:0:
472,32,28901,1,0,1:0:0:0:
455,52,29069,1,2,0:0:0:0:
439,90,29238,1,8,1:2:0:0:
438,140,29407,1,2,0:0:0:0:
461,189,29575,6,0,P|483:235|490:285,1,87.5,0|2,1:0|0:0,0:0:0:0:
256,264,29912,1,8,1:2:0:0:
336,304,30081,1,2,0:0:0:0:
368,360,30249,1,0,1:0:0:0:
288,288,30418,1,2,0:0:0:0:
168,272,30586,1,8,1:2:0:0:
64,296,30755,1,0,1:0:0:0:
144,176,30923,6,0,P|167:129|177:75,2,87.5,0|0|8,1:0|0:0|1:2,0:0:0:0:
64,296,31429,1,0,0:0:0:0:
48,152,31598,2,0,P|51:99|69:48,3,87.5,0|0|8|0,1:2|0:0|1:2|0:0,0:0:0:0:
312,72,32272,6,0,P|384:48|512:56,1,183.749994392395,0|0,1:0|0:0,0:0:0:0:
490,50,32609,2,0,P|433:63|429:66,1,52.5,8|0,1:2|0:0,0:0:0:0:
312,72,32946,2,0,P|388:133|435:43,1,210,0|0,1:0|0:0,0:0:0:0:
439,59,33283,6,0,P|409:117|394:193,1,131.25,8|2,1:2|0:0,0:0:0:0:
307,260,33620,2,0,P|288:306|278:353,1,87.5,0|0,1:0|0:0,0:0:0:0:
160,192,33957,2,0,P|120:222|88:258,1,87.5,8|0,1:2|0:0,0:0:0:0:
88,272,34210,1,0,3:0:0:0:
88,296,34294,1,0,1:0:0:0:
28,154,34463,2,0,P|38:112|56:72,1,87.5,0|8,0:0|1:2,0:0:0:0:
136,16,34800,1,0,0:0:0:0:
320,96,34968,6,0,P|330:92|352:75,1,21.875,0|0,1:0|0:0,0:0:0:0:
439,59,35137,5,0,1:0:0:0:
450,40,35221,1,0,1:0:0:0:
455,22,35305,1,0,1:0:0:0:
480,168,35474,5,0,1:0:0:0:
500,158,35558,1,0,1:0:0:0:
511,144,35643,2,0,P|513:133|509:105,1,21.875,0|0,1:0|0:0,0:0:0:0:
352,192,35811,2,0,P|345:200|334:226,1,21.875,0|0,1:0|0:0,0:0:0:0:
322,227,35895,2,0,P|318:237|317:265,1,21.875,0|0,1:0|0:0,0:0:0:0:
316,270,35980,1,0,1:0:0:0:
336,376,36148,1,0,1:0:0:0:
128,192,36317,5,4,1:2:0:0:
122,177,36654,1,0,0:0:0:0:
136,80,36822,1,0,1:0:0:0:
96,304,36991,2,0,P|94:241|50:172,1,140,8|0,0:0|1:0,0:0:0:0:
384,192,37665,5,2,1:2:0:0:
390,177,38002,1,0,0:0:0:0:
376,80,38170,1,0,1:0:0:0:
416,304,38339,2,0,P|418:241|462:172,1,140,8|0,0:2|1:0,0:0:0:0:
512,96,38845,1,0,0:0:0:0:
359,58,39013,6,0,P|310:48|277:36,1,70,2|0,1:2|0:0,0:0:0:0:
293,60,39350,2,0,P|255:26|232:0,1,70,0|0,0:0|1:0,0:0:0:0:
245,153,39687,2,0,P|278:115|305:92,1,70,8|0,0:2|0:0,0:0:0:0:
276,94,40024,2,0,P|324:78|358:71,1,70,0|0,1:0|0:0,0:0:0:0:
248,220,40362,6,0,P|257:170|269:137,1,70,4|0,1:2|0:0,0:0:0:0:
16,204,40530,2,0,P|41:228|64:255,1,70,2|0,0:0|0:0,0:0:0:0:
400,384,40699,6,0,P|409:350|415:315,1,70,6|0,1:2|0:0,0:0:0:0:
336,296,40867,2,0,P|326:329|320:364,1,70,2|2,0:0|1:2,0:0:0:0:
229,230,41036,6,0,P|238:180|250:147,1,70,4|0,1:2|0:0,0:0:0:0:
85,255,41204,2,0,P|62:227|37:203,1,70,2|0,1:2|0:0,0:0:0:0:
426,300,41373,6,0,P|420:335|410:369,1,70,4|0,1:2|0:0,0:0:0:0:
347,280,41541,2,0,P|337:314|331:349,1,70,2|0,1:2|0:0,0:0:0:0:
512,192,41710,5,4,1:2:0:0:
400,0,42047,5,8,1:2:0:0:
320,64,42216,1,0,0:0:0:0:
300,66,42300,1,0,3:0:0:0:
282,61,42384,1,0,1:0:0:0:
160,32,42553,1,0,0:0:0:0:
32,80,42721,1,8,1:2:0:0:
0,160,42890,1,0,0:0:0:0:
80,352,43058,6,0,P|117:270|185:219,1,140,4|0,1:2|0:0,0:0:0:0:
256,208,43395,1,8,0:0:0:0:
432,64,43564,2,0,P|394:145|213:104,1,280,4|0,1:2|1:0,0:0:0:0:
316,54,44069,1,4,1:2:0:0:
316,54,44238,1,0,0:0:0:0:
512,192,44407,6,0,P|498:224|492:264,1,70,4|0,1:2|0:0,0:0:0:0:
384,368,44575,2,0,P|398:336|404:296,1,70,2|0,0:0|0:0,0:0:0:0:
500,193,44744,2,0,P|486:225|480:265,1,70,8|0,1:2|0:0,0:0:0:0:
256,368,44912,1,6,1:2:0:0:
108,82,45249,6,0,P|114:47|128:16,1,70,2|0,1:2|0:0,0:0:0:0:
32,160,45418,2,0,P|26:194|12:226,1,70,8|0,0:0|0:0,0:0:0:0:
131,84,45586,6,0,P|156:74|182:71,3,35,4|0|0|0,3:2|3:3|3:3|0:0,0:0:0:0:
185,76,45755,1,0,3:3:0:0:
208,88,45839,1,0,3:3:0:0:
218,110,45923,1,2,3:2:0:0:
218,133,46008,1,0,3:3:0:0:
210,153,46092,5,2,3:2:0:0:
197,144,46176,1,0,3:3:0:0:
199,128,46260,1,0,3:3:0:0:
210,114,46345,1,0,3:3:0:0:
234,109,46429,5,2,3:2:0:0:
269,109,46513,1,0,3:0:0:0:
309,128,46598,1,0,3:3:0:0:
330,160,46682,1,0,3:0:0:0:
363,194,46766,5,2,3:2:0:0:
417,216,46850,1,0,3:0:0:0:
488,205,46935,1,0,3:3:0:0:
420,183,47019,1,0,3:0:0:0:
352,208,47103,6,0,P|320:225|280:235,1,70,4|2,1:2|3:2,0:0:0:0:
0,272,47272,2,0,P|32:255|72:245,1,70,0|0,3:3|0:0,0:0:0:0:
350,240,47440,2,0,P|318:257|278:267,1,70,0|2,3:3|3:2,0:0:0:0:
17,292,47609,2,0,P|49:275|89:265,1,70,0|0,3:3|0:0,0:0:0:0:
79,64,47777,6,0,P|96:96|106:136,1,70,0|2,3:3|3:2,0:0:0:0:
64,246,47946,1,0,3:3:0:0:
47,215,48030,1,2,3:2:0:0:
38,181,48114,2,0,P|70:164|110:154,1,70,0|2,3:3|3:2,0:0:0:0:
320,22,48283,2,0,P|289:38|256:48,1,70,0|0,3:3|3:3,0:0:0:0:
180,24,48452,1,2,3:2:0:0:
400,144,49463,6,0,P|434:79|327:115,1,262.5,12|0,3:1|0:0,0:0:0:0:
320,368,49800,6,0,P|306:338|261:290,1,70,4|0,1:2|0:0,0:0:0:0:
232,225,49968,1,0,3:0:0:0:
203,205,50052,1,2,0:0:0:0:
170,192,50136,1,0,1:1:0:0:
148,99,50305,2,0,P|121:80|58:61,1,70,2|0,3:2|0:0,0:0:0:0:
0,64,50474,1,0,1:2:0:0:
0,64,50643,1,0,3:0:0:0:
48,192,50811,5,0,1:1:0:0:
232,225,50980,2,0,P|263:216|318:180,1,70,2|0,3:2|0:0,0:0:0:0:
336,128,51148,1,0,1:2:0:0:
329,299,51317,2,0,P|320:330|324:396,2,70,2|0|0,3:2|0:0|1:2,0:0:0:0:
169,308,51654,1,2,3:2:0:0:
199,327,51738,1,0,0:0:0:0:
224,352,51822,1,0,1:2:0:0:
209,216,51991,6,0,P|240:207|295:171,1,70,2|0,3:2|0:0,0:0:0:0:
432,128,52159,2,0,P|455:104|485:45,1,70,2|0,1:2|3:0,0:0:0:0:
176,32,52496,5,2,1:2:0:0:
160,22,52665,1,0,0:2:0:0:
272,32,52834,1,2,1:2:0:0:
80,80,53002,1,2,2:2:0:0:
273,190,53171,5,2,1:2:0:0:
248,165,53255,1,0,0:0:0:0:
218,146,53339,2,0,P|184:137|149:135,1,70,0|0,3:3|3:0,0:0:0:0:
0,192,53508,1,0,1:1:0:0:
80,336,53676,2,0,P|113:344|148:346,1,70,0|0,3:0|3:0,0:0:0:0:
298,290,53845,5,2,1:2:0:0:
298,290,54013,1,0,3:3:0:0:
416,128,54182,2,0,P|390:174|385:238,1,87.5,12|0,1:2|0:0,0:0:0:0:
400,352,54350,1,0,0:0:0:0:
512,160,54519,6,0,P|502:202|479:239,1,87.5,0|0,1:1|0:0,0:0:0:0:
288,176,54687,2,0,P|297:133|320:96,1,87.5,0|0,3:3|0:0,0:0:0:0:
464,0,54856,1,12,1:2:0:0:
160,208,55193,6,0,P|126:193|83:153,1,70,4|0,1:2|0:0,0:0:0:0:
64,96,55362,1,2,3:2:0:0:
32,336,55530,2,0,P|60:314|117:297,1,70,0|0,1:1|0:0,0:0:0:0:
176,308,55699,1,0,3:0:0:0:
0,162,55867,2,0,P|4:198|-9:255,1,70,2|0,1:2|0:0,0:0:0:0:
32,337,56036,1,0,3:0:0:0:
176,308,56204,5,0,1:1:0:0:
344,249,56373,2,0,P|310:263|267:303,1,70,2|0,3:2|0:0,0:0:0:0:
256,368,56541,1,0,1:2:0:0:
448,208,56710,2,0,P|452:171|438:114,1,70,2|0,3:2|0:0,0:0:0:0:
388,72,56878,1,0,1:1:0:0:
432,304,57047,5,2,3:2:0:0:
459,325,57131,1,0,0:0:0:0:
491,338,57215,1,0,1:2:0:0:
448,208,57384,1,2,3:2:0:0:
272,160,57553,1,2,1:2:0:0:
64,256,57890,5,0,1:2:0:0:
32,272,57974,1,2,3:2:0:0:
16,304,58058,1,2,2:0:0:0:
144,208,58227,2,0,P|176:129|177:-26,1,210,12|0,0:0|0:0,0:0:0:0:
164,19,58564,6,0,P|176:140|267:260,1,262.5,4|0,1:1|0:0,0:0:0:0:
243,262,58901,6,0,P|179:225|146:221,1,105,12|0,1:2|0:0,0:0:0:0:
160,256,59238,5,4,1:1:0:0:
175,269,59322,1,0,0:0:0:0:
193,281,59406,1,0,3:2:0:0:
212,289,59490,1,0,3:2:0:0:
232,294,59575,1,0,3:1:0:0:
253,296,59659,1,0,0:0:0:0:
243,262,59744,1,0,3:2:0:0:
203,225,59828,1,0,3:2:0:0:
149,221,59912,6,0,P|115:239|56:246,1,70,0|0,1:2|0:0,0:0:0:0:
48,144,60081,2,0,P|82:126|141:119,1,70,0|2,3:2|3:2,0:0:0:0:
416,176,60249,2,0,P|382:194|323:201,1,70,0|2,3:1|3:2,0:0:0:0:
288,32,60418,2,0,P|322:14|381:7,1,70,0|2,3:2|3:2,0:0:0:0:
512,208,60586,5,4,1:2:0:0:
477,207,60670,1,2,0:2:0:0:
443,197,60754,1,0,3:0:0:0:
368,16,60923,2,0,P|404:27|451:64,1,70,0|0,1:0|0:0,0:0:0:0:
458,275,61092,5,0,3:0:0:0:
476,245,61176,1,0,0:0:0:0:
502,220,61260,1,0,1:2:0:0:
496,112,61429,1,0,3:0:0:0:
432,368,61598,1,0,1:0:0:0:
439,269,61766,6,0,P|431:235|415:205,1,70,2|0,3:2|0:0,0:0:0:0:
304,160,61935,1,0,1:2:0:0:
272,352,62103,2,0,P|305:361|340:362,2,70,2|0|0,3:2|0:0|1:0,0:0:0:0:
292,179,62440,5,2,3:2:0:0:
266,203,62524,1,0,0:0:0:0:
248,232,62608,1,2,1:2:0:0:
207,255,62693,1,0,0:0:0:0:
154,264,62777,1,2,3:2:0:0:
102,249,62862,1,0,0:0:0:0:
74,201,62946,2,0,P|109:207|149:227,1,70,2|0,1:2|3:0,0:0:0:0:
112,48,63283,5,2,1:2:0:0:
90,56,63452,1,0,3:0:0:0:
208,80,63620,1,2,1:2:0:0:
0,64,63789,1,0,3:0:0:0:
287,38,63957,2,0,P|247:47|196:74,1,70,2|0,1:2|0:0,0:0:0:0:
187,170,64126,5,0,3:0:0:0:
160,193,64210,1,0,3:0:0:0:
139,221,64294,1,0,1:0:0:0:
212,380,64463,5,0,3:0:0:0:
217,346,64547,1,2,0:2:0:0:
228,313,64631,1,2,1:2:0:0:
336,240,64800,1,0,3:0:0:0:
496,240,64968,2,0,P|453:229|408:192,1,87.5,12|0,1:2|0:0,0:0:0:0:
384,112,65137,1,0,0:0:0:0:
384,0,65305,5,4,1:1:0:0:
384,0,65474,1,0,3:0:0:0:
208,80,65643,2,0,P|239:48|293:27,1,87.5,12|0,1:2|0:0,0:0:0:0:
480,56,65811,1,0,0:0:0:0:
256,192,65980,6,0,P|154:193|99:115,1,175,6|0,1:1|0:0,0:0:0:0:
59,31,66317,2,0,P|161:30|216:108,1,175,2|0,1:1|3:0,0:0:0:0:
272,288,66654,1,2,1:1:0:0:
289,300,66738,1,0,3:3:0:0:
309,305,66822,1,2,3:1:0:0:
329,306,66907,1,0,3:3:0:0:
314,285,66991,5,0,1:3:0:0:
282,271,67075,1,0,3:3:0:0:
239,278,67159,1,2,3:1:0:0:
193,305,67244,1,0,3:3:0:0:
180,333,67328,5,0,1:3:0:0:
138,364,67412,1,0,3:3:0:0:
74,365,67496,1,2,3:1:0:0:
21,336,67581,1,0,3:3:0:0:
39,328,67665,5,0,1:3:0:0:
55,329,67749,1,0,3:3:0:0:
72,336,67834,1,2,3:1:0:0:
95,345,67918,1,0,3:3:0:0:
135,338,68002,5,0,1:3:0:0:
172,298,68086,1,0,3:3:0:0:
177,240,68171,1,2,3:1:0:0:
163,196,68255,1,0,3:3:0:0:
138,188,68339,5,0,1:3:0:0:
105,180,68423,1,0,3:3:0:0:
69,151,68508,1,0,3:3:0:0:
50,88,68592,1,0,3:3:0:0:
84,18,68676,1,4,1:2:0:0:
16,192,69182,6,0,L|128:208,1,70,0|0,0:0|0:0,0:0:0:0:
256,288,69350,1,2,1:1:0:0:
313,308,69687,2,0,L|201:292,1,70,4|0,1:2|0:0,0:0:0:0:
120,36,70025,6,0,L|60:12,1,35,2|0,1:1|0:0,0:0:0:0:
256,80,70362,6,0,L|216:29,1,35,2|0,1:1|0:0,0:0:0:0:
351,186,70699,6,0,L|341:122,1,35,2|0,1:2|0:0,0:0:0:0:
502,302,71036,6,2,P|391:282|233:301,1,262.5,12|0,0:1|0:0,0:0:0:0:
243,298,71373,1,4,1:2:0:0:
352,128,82159,5,4,1:2:0:0:
336,32,82328,1,2,0:0:0:0:
337,133,82496,5,0,1:0:0:0:
321,37,82665,1,0,0:0:0:0:
281,93,82834,1,0,1:0:0:0:
377,77,83003,1,2,0:0:0:0:
269,85,83171,1,0,1:0:0:0:
365,69,83340,1,2,0:0:0:0:
173,101,83508,1,0,1:0:0:0:
96,148,83676,6,0,L|32:160,2,52.4999983978272,2|0|2,0:0|1:0|0:0,0:0:0:0:
288,320,84182,1,0,1:0:0:0:
256,224,84350,1,2,0:0:0:0:
160,256,84519,1,0,1:0:0:0:
192,352,84687,1,2,0:0:0:0:
224,288,84856,1,0,1:0:0:0:
364,220,85025,6,0,L|412:204,2,26.2499991989136,2|0|0,0:0|0:0|1:0,0:0:0:0:
320,128,85362,1,0,0:0:0:0:
480,80,85530,1,0,1:0:0:0:
508,138,85699,1,2,0:0:0:0:
404,92,85867,1,0,1:0:0:0:
462,64,86036,1,2,0:0:0:0:
346,120,86204,1,0,1:0:0:0:
176,96,86373,5,2,0:0:0:0:
256,64,86541,2,0,L|228:13,1,52.4999983978272,0|2,1:0|0:0,0:0:0:0:
163,89,86878,1,0,1:0:0:0:
48,140,87047,1,2,0:0:0:0:
64,112,87131,1,0,1:0:0:0:
80,84,87216,1,0,1:0:0:0:
160,224,87384,1,0,1:0:0:0:
224,352,87553,6,0,P|269:331|291:277,2,104.999996795654,0|0|0,1:0|1:0|1:0,0:0:0:0:
112,368,88395,1,0,0:0:0:0:
112,368,88564,2,0,P|89:348|73:321,1,52.4999983978272,0|0,1:0|0:0,0:0:0:0:
290,282,88901,6,0,P|245:303|223:357,2,104.999996795654,0|0|0,1:0|1:0|1:0,0:0:0:0:
400,288,89744,1,0,0:0:0:0:
400,288,89912,1,0,1:0:0:0:
464,208,90081,1,2,0:0:0:0:
432,112,90249,6,0,P|418:77|413:53,1,52.4999983978272,0|0,1:0|0:0,0:0:0:0:
304,64,90586,2,0,P|322:100|336:180,1,87.5,0|0,1:0|0:0,0:0:0:0:
290,282,90923,1,0,1:0:0:0:
240,192,91092,1,2,0:0:0:0:
151,223,91260,1,0,1:0:0:0:
241,173,91429,1,2,0:0:0:0:
32,256,91598,6,0,L|0:237,1,21.875,0|0,1:0|0:0,0:0:0:0:
44,184,91766,2,0,L|20:155,1,21.875,2|0,0:0|0:0,0:0:0:0:
106,96,91935,2,0,L|99:59,1,21.875,2|0,0:0|0:0,0:0:0:0:
258,48,92103,2,0,L|279:17,1,21.875,0|0,0:0|0:0,0:0:0:0:
208,56,92272,2,0,L|218:20,1,21.875,2|0,0:2|0:0,0:0:0:0:
132,118,92440,2,0,L|116:84,1,21.875,0|0,0:0|0:0,0:0:0:0:
130,262,92609,2,0,L|93:258,1,21.875,8|0,1:2|0:0,0:0:0:0:
182,315,92777,2,0,L|148:331,1,21.875,2|0,0:0|0:0,0:0:0:0:
384,272,92946,5,4,1:2:0:0:
480,120,93114,1,2,0:0:0:0:
458,127,93199,1,2,0:0:0:0:
447,146,93283,1,8,1:2:0:0:
384,272,93452,1,0,0:0:0:0:
304,320,93620,5,0,1:0:0:0:
368,256,93789,1,2,0:0:0:0:
352,168,93957,1,8,1:2:0:0:
272,128,94126,1,2,0:0:0:0:
192,168,94294,1,0,1:0:0:0:
120,288,94463,5,2,0:0:0:0:
120,288,94631,2,0,P|59:312|33:311,1,87.5,8|2,1:2|0:0,0:0:0:0:
24,128,94968,1,0,1:0:0:0:
24,128,95137,2,0,P|85:104|111:105,1,87.5,2|8,0:0|1:2,0:0:0:0:
192,168,95474,1,2,0:0:0:0:
352,72,95643,5,0,1:0:0:0:
464,56,95811,1,2,0:0:0:0:
488,44,95895,1,2,0:0:0:0:
502,19,95980,1,8,1:2:0:0:
400,0,96148,1,2,0:0:0:0:
264,96,96317,5,0,1:0:0:0:
192,168,96485,1,2,0:0:0:0:
93,194,96654,1,8,1:2:0:0:
8,232,96822,1,2,0:0:0:0:
8,320,96991,1,0,1:0:0:0:
184,352,97159,5,2,0:0:0:0:
280,328,97328,2,0,P|321:287|329:251,1,87.5,8|2,1:2|0:0,0:0:0:0:
416,176,97665,1,0,1:0:0:0:
450,252,97833,1,2,0:0:0:0:
488,352,98002,1,8,1:2:0:0:
404,344,98170,1,0,1:0:0:0:
328,259,98339,6,0,P|313:300|280:328,1,87.5,0|0,1:0|0:0,0:0:0:0:
159,214,98676,1,8,1:2:0:0:
232,168,98845,1,0,0:0:0:0:
159,214,99013,2,0,P|152:257|167:297,3,87.5,0|0|8|0,1:2|0:0|1:2|0:0,0:0:0:0:
271,102,99687,6,0,P|244:131|231:167,1,78.7499975967408,0|0,1:0|0:0,0:0:0:0:
231,167,100025,2,0,P|250:155|294:138,1,43.75,8|0,1:2|0:0,0:0:0:0:
352,144,100193,1,0,0:0:0:0:
480,192,100362,2,0,P|400:138|432:24,2,209.999993591309,0|0|0,1:0|1:0|1:0,0:0:0:0:
504,272,101204,1,0,0:0:0:0:
472,352,101373,5,8,1:2:0:0:
336,336,101541,1,0,0:0:0:0:
323,322,101626,1,0,3:0:0:0:
308,317,101710,1,0,1:0:0:0:
200,336,101878,1,0,0:0:0:0:
120,384,102047,1,8,1:2:0:0:
40,376,102216,1,0,0:0:0:0:
51,257,102384,6,0,P|58:269|65:289,1,21.875,0|0,1:0|0:0,0:0:0:0:
176,160,102553,5,0,1:0:0:0:
176,181,102637,1,0,1:0:0:0:
173,203,102721,1,0,1:0:0:0:
352,120,102890,5,0,1:0:0:0:
341,139,102974,1,0,1:0:0:0:
328,157,103058,2,0,P|315:163|294:168,1,21.875,0|0,1:0|0:0,0:0:0:0:
391,31,103227,2,0,P|403:23|423:16,1,21.875,0|0,1:0|0:0,0:0:0:0:
436,27,103311,2,0,P|449:24|470:24,1,21.875,0|0,1:0|0:0,0:0:0:0:
483,30,103395,1,0,1:0:0:0:
512,128,103564,1,0,1:0:0:0:
480,288,103732,5,4,1:2:0:0:
465,294,104069,5,0,0:0:0:0:
352,336,104238,1,0,1:0:0:0:
176,336,104407,2,0,L|0:320,1,175,8|0,0:0|1:0,0:0:0:0:
363,320,105081,1,2,1:2:0:0:
352,336,105418,5,0,0:0:0:0:
310,223,105587,1,0,1:0:0:0:
336,48,105755,2,0,L|512:64,1,175,8|0,0:2|1:0,0:0:0:0:
432,32,106260,1,0,0:0:0:0:
192,96,106429,6,0,L|94:88,1,87.5,2|0,1:2|0:0,0:0:0:0:
0,90,106766,2,0,L|97:97,1,87.5,0|0,0:0|1:0,0:0:0:0:
208,192,107103,2,0,L|110:184,1,87.5,8|0,0:2|0:0,0:0:0:0:
103,192,107440,2,0,L|16:186,1,87.5,0|0,1:0|0:0,0:0:0:0:
256,336,107777,6,0,L|343:342,1,70,4|0,1:2|0:0,0:0:0:0:
400,192,107946,2,0,L|406:104,1,70,2|0,0:0|0:0,0:0:0:0:
208,192,108114,2,0,L|121:186,1,70,6|0,1:2|0:0,0:0:0:0:
80,256,108283,2,0,L|74:343,1,70,2|2,0:0|1:2,0:0:0:0:
241,344,108452,6,0,L|328:350,1,70,4|0,1:2|0:0,0:0:0:0:
385,200,108621,2,0,L|391:112,1,70,0|0,0:0|0:0,0:0:0:0:
215,207,108789,2,0,L|128:201,1,70,4|0,1:2|0:0,0:0:0:0:
87,271,108958,2,0,L|81:358,1,70,2|0,1:2|0:0,0:0:0:0:
325,340,109126,5,4,1:2:0:0:
336,32,109463,5,8,1:2:0:0:
240,64,109631,1,0,0:0:0:0:
225,65,109716,1,0,3:0:0:0:
213,59,109800,1,0,1:0:0:0:
128,16,109968,1,0,0:0:0:0:
32,48,110137,1,8,1:2:0:0:
16,144,110305,1,0,0:0:0:0:
87,271,110474,6,0,P|162:266|241:221,1,140,4|0,1:2|0:0,0:0:0:0:
272,160,110811,1,8,0:0:0:0:
448,80,110980,2,0,P|349:90|377:257,1,280,4|0,1:2|1:0,0:0:0:0:
422,181,111485,1,4,1:2:0:0:
422,181,111654,1,0,0:0:0:0:
219,238,111822,6,0,P|208:272|210:324,1,70,4|0,1:2|0:0,0:0:0:0:
336,309,111991,2,0,P|347:275|345:223,1,70,2|0,0:0|0:0,0:0:0:0:
206,223,112159,2,0,P|195:257|197:309,1,70,8|0,1:2|0:0,0:0:0:0:
352,320,112328,1,6,1:2:0:0:
112,128,112665,6,0,P|77:126|43:115,1,70,2|0,1:2|0:0,0:0:0:0:
187,35,112834,2,0,P|222:37|256:48,1,70,8|0,0:0|0:0,0:0:0:0:
104,113,113002,2,0,P|81:95|69:79,3,35,4|0|0|0,3:2|3:3|3:3|0:0,0:0:0:0:
70,73,113171,1,0,3:3:0:0:
65,56,113255,1,0,3:3:0:0:
68,35,113339,1,2,3:2:0:0:
74,20,113423,1,0,3:3:0:0:
91,29,113508,5,2,3:2:0:0:
106,52,113592,1,0,3:3:0:0:
115,84,113676,1,0,3:3:0:0:
113,118,113760,1,0,3:3:0:0:
80,147,113845,5,2,3:2:0:0:
130,127,113929,1,0,3:0:0:0:
190,131,114013,1,0,3:3:0:0:
242,158,114098,1,0,3:0:0:0:
262,185,114182,5,2,3:2:0:0:
285,196,114266,1,0,3:0:0:0:
339,208,114350,1,0,3:3:0:0:
413,202,114435,1,0,3:0:0:0:
487,179,114519,6,0,P|506:146|513:84,1,70,4|2,1:2|3:2,0:0:0:0:
368,16,114687,2,0,P|349:49|342:111,1,70,0|2,3:3|3:2,0:0:0:0:
404,247,114856,2,0,P|436:227|474:177,1,70,0|2,3:3|3:2,0:0:0:0:
342,100,115025,2,0,P|310:120|272:170,1,70,0|0,3:3|0:0,0:0:0:0:
277,297,115193,5,0,3:3:0:0:
298,325,115277,1,2,3:2:0:0:
321,335,115362,2,0,P|358:344|420:335,1,70,0|0,3:3|0:0,0:0:0:0:
192,224,115530,2,0,P|155:215|93:224,1,70,0|2,3:3|3:2,0:0:0:0:
0,368,115699,2,0,P|37:377|99:368,1,70,0|0,3:3|3:3,0:0:0:0:
144,336,115867,1,2,3:2:0:0:
432,48,116878,6,0,P|313:51|403:117,1,262.5,12|0,3:1|0:0,0:0:0:0:
512,320,117216,6,0,P|481:306|440:273,1,70,4|0,1:2|0:0,0:0:0:0:
288,304,117384,1,2,3:2:0:0:
267,275,117468,1,0,0:0:0:0:
253,243,117552,1,0,1:1:0:0:
102,178,117721,2,0,P|98:144|106:92,1,70,2|0,3:2|0:0,0:0:0:0:
128,16,117890,1,0,1:2:0:0:
128,16,118058,1,0,3:0:0:0:
215,151,118227,5,0,1:1:0:0:
112,288,118395,2,0,P|80:274|39:241,1,70,2|0,3:2|0:0,0:0:0:0:
13,178,118564,1,0,1:2:0:0:
215,151,118732,2,0,P|242:130|291:111,2,70,2|0|0,3:2|0:0|1:2,0:0:0:0:
288,304,119069,1,2,3:2:0:0:
292,338,119153,1,0,0:0:0:0:
288,373,119237,1,0,1:2:0:0:
208,171,119407,6,0,P|235:150|284:131,1,70,2|0,3:2|0:0,0:0:0:0:
432,192,119575,2,0,P|465:188|518:196,1,70,2|0,1:2|3:0,0:0:0:0:
416,32,119912,5,2,1:2:0:0:
422,48,120081,1,0,0:2:0:0:
512,0,120249,1,2,1:2:0:0:
320,48,120418,1,2,2:2:0:0:
501,191,120586,5,2,1:2:0:0:
478,163,120670,1,0,0:0:0:0:
451,142,120755,2,0,P|416:138|381:142,1,70,0|0,3:3|3:0,0:0:0:0:
256,192,120923,1,0,1:1:0:0:
80,256,121092,2,0,P|114:259|149:255,1,70,0|0,3:0|3:0,0:0:0:0:
275,206,121260,1,2,1:2:0:0:
275,206,121429,1,0,3:3:0:0:
80,48,121598,6,0,P|112:61|140:81,1,70,12|0,1:2|0:0,0:0:0:0:
176,160,121766,1,0,0:0:0:0:
28,132,121935,2,0,P|56:151|88:165,1,70,0|0,1:1|0:0,0:0:0:0:
256,48,122103,2,0,P|227:28|195:14,1,70,0|0,3:3|0:0,0:0:0:0:
0,16,122272,1,12,1:2:0:0:
464,192,122609,6,0,P|477:164|491:113,1,70,4|0,1:2|0:0,0:0:0:0:
480,32,122777,1,2,0:0:0:0:
275,206,122946,2,0,P|292:231|329:268,1,70,0|0,1:1|0:0,0:0:0:0:
405,299,123114,1,0,3:0:0:0:
400,48,123283,2,0,P|369:50|318:64,1,70,2|0,1:2|0:0,0:0:0:0:
254,114,123451,1,0,0:0:0:0:
134,231,123620,5,0,1:1:0:0:
70,295,123789,2,0,P|35:303|1:306,1,70,2|0,3:2|0:0,0:0:0:0:
0,192,123957,1,0,1:2:0:0:
192,304,124126,2,0,P|217:328|245:348,1,70,2|0,3:2|0:0,0:0:0:0:
320,304,124294,1,0,1:1:0:0:
221,171,124463,1,2,3:2:0:0:
194,176,124547,1,0,0:0:0:0:
176,192,124631,1,0,1:2:0:0:
352,192,124800,6,0,P|385:182|416:168,1,70,2|0,3:2|0:0,0:0:0:0:
496,32,124968,1,2,1:2:0:0:
176,16,125305,5,0,1:2:0:0:
137,48,125389,1,0,0:0:0:0:
123,91,125473,1,2,2:0:0:0:
96,352,125643,2,0,P|95:250|21:150,1,210,12|0,0:0|0:0,0:0:0:0:
36,181,125980,6,0,P|132:231|300:216,1,262.5,4|0,1:1|0:0,0:0:0:0:
271,208,126317,6,0,P|232:267|221:312,1,105,12|0,1:2|0:0,0:0:0:0:
234,314,126654,5,4,1:1:0:0:
256,287,126738,1,0,0:0:0:0:
272,256,126822,1,0,3:2:0:0:
282,222,126906,1,0,3:2:0:0:
272,185,126991,5,0,3:1:0:0:
233,153,127075,1,0,0:0:0:0:
214,100,127159,1,0,3:2:0:0:
235,37,127244,1,0,3:2:0:0:
310,17,127328,6,0,P|344:23|392:37,1,70,0|0,1:2|0:0,0:0:0:0:
512,128,127496,2,0,P|478:122|430:108,1,70,0|2,3:2|3:2,0:0:0:0:
272,185,127665,2,0,P|306:191|354:205,1,70,0|2,3:1|3:2,0:0:0:0:
474,296,127834,2,0,P|440:290|392:276,1,70,0|2,3:2|3:2,0:0:0:0:
240,271,128002,5,4,1:2:0:0:
240,241,128086,1,2,0:2:0:0:
251,216,128170,1,0,3:0:0:0:
384,288,128339,2,0,P|378:322|364:370,1,70,0|0,1:0|0:0,0:0:0:0:
185,281,128508,5,2,3:2:0:0:
215,281,128592,1,0,0:0:0:0:
239,292,128676,1,0,1:2:0:0:
272,384,128845,1,0,3:0:0:0:
320,144,129013,5,0,1:0:0:0:
240,192,129182,2,0,P|205:185|171:176,1,70,2|0,3:2|0:0,0:0:0:0:
96,112,129351,1,0,1:2:0:0:
192,64,129519,2,0,P|214:37|239:12,2,70,2|0|0,3:2|0:0|1:0,0:0:0:0:
48,192,129856,5,2,3:2:0:0:
64,223,129940,1,0,0:0:0:0:
68,258,130024,1,2,1:2:0:0:
61,283,130109,1,0,0:0:0:0:
85,283,130193,1,2,3:2:0:0:
129,298,130277,1,0,0:0:0:0:
161,329,130362,6,0,P|190:344|240:351,1,70,2|0,1:2|3:0,0:0:0:0:
448,304,130699,5,2,1:2:0:0:
430,313,130867,1,0,3:0:0:0:
512,224,131036,1,2,1:2:0:0:
352,352,131204,1,0,3:0:0:0:
512,208,131373,6,0,P|420:208|389:224,1,70,2|0,1:2|0:0,0:0:0:0:
288,256,131541,1,0,3:0:0:0:
311,230,131625,1,0,3:0:0:0:
327,199,131709,1,0,1:0:0:0:
352,48,131878,1,0,3:0:0:0:
362,81,131962,1,0,0:0:0:0:
381,110,132046,1,2,1:2:0:0:
480,32,132216,5,0,3:0:0:0:
240,48,132384,2,0,P|202:56|154:80,1,70,12|0,1:2|0:0,0:0:0:0:
112,160,132553,1,0,0:0:0:0:
128,272,132721,5,4,1:1:0:0:
128,272,132890,1,0,3:0:0:0:
0,368,133058,2,0,P|38:360|86:336,1,70,12|0,1:2|0:0,0:0:0:0:
208,208,133227,1,0,0:0:0:0:
432,160,133395,6,0,P|347:168|335:305,1,210,6|0,1:1|0:0,0:0:0:0:
363,360,133732,2,0,P|448:352|460:215,1,210,2|0,1:1|0:0,0:0:0:0:
466,234,134069,5,2,1:1:0:0:
450,221,134154,1,0,3:3:0:0:
437,199,134238,1,2,3:1:0:0:
432,160,134322,1,0,3:3:0:0:
451,146,134407,5,0,1:3:0:0:
468,151,134491,1,0,3:3:0:0:
474,167,134575,1,2,3:1:0:0:
489,176,134659,1,0,3:3:0:0:
495,134,134744,1,0,1:3:0:0:
453,98,134828,1,0,3:3:0:0:
415,87,134912,1,2,3:1:0:0:
367,90,134996,1,0,3:3:0:0:
317,115,135081,5,0,1:3:0:0:
284,165,135165,1,0,3:3:0:0:
236,194,135249,1,2,3:1:0:0:
205,191,135334,1,0,3:3:0:0:
196,178,135418,5,0,1:3:0:0:
228,174,135502,1,0,3:3:0:0:
266,179,135586,1,2,3:1:0:0:
312,210,135671,1,0,3:3:0:0:
339,263,135755,5,0,1:3:0:0:
398,285,135839,1,0,3:3:0:0:
457,281,135923,1,0,3:3:0:0:
400,252,136008,1,0,3:3:0:0:
330,249,136092,1,4,1:2:0:0:
0,320,136598,6,0,L|80:304,1,70,0|0,0:0|0:0,0:0:0:0:
208,192,136766,1,2,1:1:0:0:
283,160,137103,2,0,L|203:176,1,70,4|0,1:2|0:0,0:0:0:0:
48,64,137440,6,0,L|29:15,1,35,2|0,1:1|0:0,0:0:0:0:
214,173,137777,6,0,L|222:121,1,35,2|0,1:1|0:0,0:0:0:0:
304,272,138114,6,0,L|336:231,1,35,2|0,1:2|0:0,0:0:0:0:
304,272,138452,6,2,L|336:231,1,35,8|0,1:0|0:0,0:0:0:0:
219,138,138620,2,0,L|214:173,1,35,0|0,0:0|0:0,0:0:0:0:
48,64,138789,2,0,L|29:15,1,35,4|0,1:2|0:0,0:0:0:0:
256,192,146878,12,0,149491,3:3:0:0:
384,112,149575,5,4,1:2:0:0:
352,32,149744,1,2,0:0:0:0:
272,160,149912,5,8,0:0:0:0:
269,73,150081,1,2,0:0:0:0:
64,128,150249,6,0,P|121:136|188:173,1,104.999996795654,0|2,1:0|0:0,0:0:0:0:
240,272,150586,1,8,0:0:0:0:
147,160,150755,2,0,P|98:139|47:132,1,104.999996795654,2|0,0:0|1:0,0:0:0:0:
240,288,151092,2,0,P|288:308|339:315,1,104.999996795654,0|8,0:0|0:0,0:0:0:0:
100,348,151429,5,2,0:0:0:0:
51,327,151513,1,0,0:0:0:0:
0,320,151597,1,0,1:0:0:0:
12,331,151682,1,2,0:0:0:0:
29,343,151766,1,0,0:0:0:0:
56,353,151850,1,2,0:0:0:0:
94,362,151935,5,8,0:0:0:0:
196,364,152103,1,2,0:0:0:0:
428,280,152272,6,0,P|347:294|316:311,1,104.999996795654,0|2,1:0|0:0,0:0:0:0:
384,128,152609,2,0,P|320:180|302:210,1,104.999996795654,8|2,0:0|0:0,0:0:0:0:
269,18,152946,2,0,P|240:95|239:130,1,104.999996795654,0|2,1:0|0:0,0:0:0:0:
112,192,153283,1,8,0:0:0:0:
112,0,153452,1,2,0:0:0:0:
116,52,153536,1,0,0:0:0:0:
135,100,153620,1,0,1:0:0:0:
149,78,153704,1,2,0:0:0:0:
148,41,153789,1,0,0:0:0:0:
112,192,153957,5,8,0:0:0:0:
124,215,154041,1,2,0:0:0:0:
145,227,154126,1,0,0:0:0:0:
355,187,154294,5,0,1:0:0:0:
329,185,154378,1,0,0:0:0:0:
308,198,154463,1,2,0:0:0:0:
251,353,154631,5,8,0:0:0:0:
251,353,154800,1,2,0:0:0:0:
474,302,154968,6,0,P|407:286|350:290,1,104.999996795654,4|2,1:2|0:0,0:0:0:0:
246,364,155305,2,0,P|313:380|370:376,1,104.999996795654,8|2,0:0|0:0,0:0:0:0:
308,198,155643,5,0,1:0:0:0:
292,205,155811,1,2,0:0:0:0:
224,80,155980,5,8,0:0:0:0:
202,119,156064,1,0,0:0:0:0:
199,161,156148,1,0,0:0:0:0:
64,48,156317,6,0,P|67:74|80:127,2,52.4999983978272,0|2|0,1:2|0:0|0:0,0:0:0:0:
48,192,156654,1,8,0:0:0:0:
0,352,156822,5,2,0:0:0:0:
192,291,156991,2,0,P|133:300|86:327,1,104.999996795654,0|2,1:0|0:0,0:0:0:0:
336,352,157328,2,0,P|395:343|442:316,1,104.999996795654,8|2,0:0|0:0,0:0:0:0:
416,80,157665,6,0,P|357:89|310:116,1,104.999996795654,0|2,1:0|0:0,0:0:0:0:
400,224,158002,2,0,P|459:215|506:188,1,104.999996795654,8|2,0:0|0:0,0:0:0:0:
256,32,158339,1,0,1:0:0:0:
214,63,158423,1,2,0:0:0:0:
185,107,158507,1,0,0:0:0:0:
64,64,158676,1,8,0:0:0:0:
43,112,158760,1,2,0:0:0:0:
40,164,158844,1,0,0:0:0:0:
96,336,159013,5,4,1:2:0:0:
160,256,159182,1,0,0:0:0:0:
352,256,159350,5,12,0:2:0:0:
257,294,159519,1,0,0:0:0:0:
368,352,159687,5,4,1:2:0:0:
470,367,159856,1,0,1:0:0:0:
339,239,160025,5,12,0:2:0:0:
354,137,160194,1,0,1:0:0:0:
512,0,160362,6,0,P|445:12|393:40,1,104.999996795654,4|2,1:2|0:0,0:0:0:0:
272,64,160699,2,0,P|223:84|171:91,1,104.999996795654,8|0,0:0|0:0,0:0:0:0:
0,192,161036,1,0,1:0:0:0:
48,171,161120,1,0,0:0:0:0:
100,164,161204,1,0,0:0:0:0:
224,192,161373,5,8,0:0:0:0:
339,239,161541,1,2,0:0:0:0:
339,239,161710,2,0,P|387:218|439:211,1,104.999996795654,0|0,1:2|0:0,0:0:0:0:
256,304,162047,2,0,P|207:324|155:331,1,104.999996795654,8|2,0:0|0:0,0:0:0:0:
0,288,162384,5,0,1:0:0:0:
48,171,162553,1,2,0:0:0:0:
123,238,162721,1,8,0:0:0:0:
155,331,162890,1,0,0:0:0:0:
176,322,162974,1,2,0:0:0:0:
200,314,163058,2,0,P|251:306|303:313,1,104.999996795654,0|2,1:2|0:0,0:0:0:0:
512,192,163395,5,8,0:0:0:0:
460,199,163479,1,2,0:0:0:0:
408,192,163563,1,0,0:0:0:0:
389,177,163648,1,2,0:0:0:0:
383,154,163732,5,0,1:0:0:0:
380,114,163817,1,2,0:0:0:0:
351,85,163901,1,0,0:0:0:0:
305,77,163985,1,0,0:0:0:0:
252,106,164069,5,8,0:0:0:0:
144,144,164238,1,2,0:0:0:0:
0,32,164407,2,0,P|69:36|112:53,1,104.999996795654,0|2,1:0|0:0,0:0:0:0:
224,272,164744,2,0,P|155:268|112:251,1,104.999996795654,8|2,0:0|0:0,0:0:0:0:
304,224,165081,5,0,1:0:0:0:
384,240,165249,1,2,0:0:0:0:
397,373,165418,5,8,0:0:0:0:
336,320,165586,1,2,0:0:0:0:
256,144,165755,6,0,P|260:75|277:32,1,104.999996795654,4|2,1:2|0:0,0:0:0:0:
352,16,166092,1,8,0:0:0:0:
432,32,166260,1,0,0:0:0:0:
441,241,166429,5,0,1:0:0:0:
395,266,166513,1,0,0:0:0:0:
344,278,166597,1,0,0:0:0:0:
282,221,166766,1,8,0:0:0:0:
256,144,166934,1,0,0:0:0:0:
80,64,167103,6,0,P|137:101|166:138,1,104.999996795654,0|2,1:0|0:0,0:0:0:0:
176,224,167440,1,8,0:0:0:0:
144,304,167609,1,0,0:0:0:0:
0,112,167777,5,0,1:0:0:0:
52,112,167861,1,0,0:0:0:0:
102,128,167945,1,0,0:0:0:0:
256,288,168114,5,8,0:0:0:0:
305,303,168198,1,0,0:0:0:0:
358,304,168283,1,0,0:0:0:0:
343,290,168367,1,0,0:0:0:0:
336,273,168452,5,4,1:2:0:0:
368,176,168620,1,2,0:0:0:0:
480,144,168789,1,8,0:0:0:0:
480,144,168957,1,2,0:0:0:0:
320,96,169126,5,0,1:0:0:0:
192,160,169294,1,2,0:0:0:0:
16,192,169463,1,8,0:0:0:0:
48,160,169631,1,2,0:0:0:0:
240,96,169800,1,4,1:2:0:0:
384,96,169968,5,10,0:3:0:0:
394,92,170053,1,10,0:3:0:0:
402,85,170137,1,10,3:2:0:0:
320,0,170305,6,0,P|314:17|311:48,1,26.2499991989136,10|10,0:2|3:3,0:0:0:0:
240,96,170474,2,0,P|243:113|256:142,1,26.2499991989136,10|0,3:3|0:0,0:0:0:0:
218,219,170643,2,0,P|229:232|255:250,1,26.2499991989136,8|8,3:3|0:3,0:0:0:0:
272,320,170811,1,8,3:2:0:0:
272,320,170980,1,10,0:3:0:0:
48,272,171148,5,6,1:2:0:0:
475,98,176541,6,0,P|405:112|355:129,1,104.999996795654,2|0,0:1|0:0,0:0:0:0:
192,16,176878,2,0,P|245:63|280:102,1,104.999996795654,2|0,0:1|0:0,0:0:0:0:
312,272,177216,1,2,0:1:0:0:
288,192,177384,1,2,0:1:0:0:
208,208,177553,1,2,0:1:0:0:
232,288,177721,1,2,0:1:0:0:
512,288,178058,6,0,P|459:304|406:332,1,104.999996795654,2|0,0:1|0:3,0:0:0:0:
232,288,178395,5,2,0:1:0:0:
218,292,178480,1,0,0:0:0:0:
203,291,178564,1,0,0:3:0:0:
177,283,178648,1,0,0:0:0:0:
141,264,178732,1,2,0:1:0:0:
119,223,178817,1,0,3:3:0:0:
134,227,178901,5,0,3:3:0:0:
150,224,178985,1,0,3:3:0:0:
175,201,179069,1,0,3:3:0:0:
189,168,179154,1,0,3:3:0:0:
178,121,179238,5,2,0:1:0:0:
141,105,179322,1,0,3:3:0:0:
100,114,179407,1,0,3:3:0:0:
74,143,179491,1,0,3:3:0:0:
106,144,179575,1,2,0:1:0:0:
150,157,179659,1,0,3:3:0:0:
182,173,179744,1,0,3:3:0:0:
208,198,179828,1,0,3:3:0:0:
236,205,179912,5,2,0:1:0:0:
282,198,179996,1,0,3:3:0:0:
325,167,180081,1,0,3:3:0:0:
350,119,180165,1,0,3:3:0:0:
343,90,180249,5,2,0:1:0:0:
333,103,180334,1,0,3:3:0:0:
321,133,180418,1,0,3:3:0:0:
328,183,180502,1,0,3:3:0:0:
343,231,180586,6,0,P|358:260|391:301,1,70,4|0,1:2|0:0,0:0:0:0:
440,360,180755,1,0,3:0:0:0:
457,371,180839,1,0,3:0:0:0:
475,381,180923,1,2,1:2:0:0:
256,288,181092,5,0,3:0:0:0:
220,295,181176,1,0,3:0:0:0:
195,319,181260,1,2,1:2:0:0:
321,133,181429,5,4,3:3:0:0:
325,85,181513,1,0,3:0:0:0:
346,42,181597,1,10,0:2:0:0:
448,0,181766,1,0,1:0:0:0:
512,64,181935,5,0,1:2:0:0:
416,352,182272,6,0,P|385:338|338:293,1,70,4|0,1:2|0:0,0:0:0:0:
320,224,182440,1,2,3:2:0:0:
187,164,182609,2,0,P|159:142|128:128,2,70,0|0|0,1:2|0:0|3:0,0:0:0:0:
208,264,182946,5,0,1:1:0:0:
288,128,183114,2,0,P|285:93|290:58,1,70,2|0,3:2|0:0,0:0:0:0:
352,0,183283,1,0,1:2:0:0:
200,0,183452,2,0,P|171:19|138:32,2,70,2|0|0,3:2|0:0|1:2,0:0:0:0:
416,128,183789,1,2,3:2:0:0:
443,106,183873,1,0,0:0:0:0:
477,95,183957,1,0,1:2:0:0:
472,248,184126,6,0,P|437:245|395:231,1,70,2|0,3:2|0:0,0:0:0:0:
256,256,184294,2,0,P|227:235|197:202,1,70,2|0,1:2|3:0,0:0:0:0:
56,168,184631,5,2,1:2:0:0:
48,152,184800,1,0,0:2:0:0:
16,256,184968,1,2,1:2:0:0:
56,64,185137,1,2,2:2:0:0:
256,256,185305,5,2,1:2:0:0:
227,236,185389,1,0,0:0:0:0:
203,210,185474,2,0,P|188:178|179:134,1,70,0|0,3:3|3:0,0:0:0:0:
192,32,185643,1,0,1:1:0:0:
384,32,185811,2,0,P|398:63|407:107,1,70,0|0,3:0|3:0,0:0:0:0:
395,210,185980,1,2,1:2:0:0:
395,210,186148,1,0,3:3:0:0:
256,352,186317,6,0,P|221:349|178:334,1,70,12|0,1:2|0:0,0:0:0:0:
96,288,186485,1,0,0:0:0:0:
295,249,186654,2,0,P|261:238|226:235,1,70,0|0,1:1|0:0,0:0:0:0:
19,289,186822,2,0,P|52:299|87:302,1,70,0|0,3:3|0:0,0:0:0:0:
160,160,186991,1,12,1:2:0:0:
512,64,187328,6,0,P|479:54|444:51,1,70,4|0,1:2|0:0,0:0:0:0:
360,72,187496,1,2,0:0:0:0:
416,288,187665,2,0,P|441:264|461:235,1,70,0|0,1:1|0:0,0:0:0:0:
485,152,187833,1,0,3:0:0:0:
256,88,188002,2,0,P|263:121|278:153,1,70,2|0,1:2|0:0,0:0:0:0:
339,215,188170,1,0,0:0:0:0:
352,384,188339,5,0,1:1:0:0:
288,320,188508,2,0,P|255:310|219:307,1,70,2|0,3:2|0:0,0:0:0:0:
128,320,188676,1,0,1:2:0:0:
0,224,188845,2,0,P|33:233|68:237,1,70,2|0,3:2|0:0,0:0:0:0:
160,224,189013,1,0,1:1:0:0:
96,128,189182,5,2,3:2:0:0:
70,116,189266,1,0,0:0:0:0:
41,115,189350,1,0,1:2:0:0:
256,128,189519,2,0,P|289:137|324:141,1,70,2|0,3:2|0:0,0:0:0:0:
416,128,189687,1,2,1:2:0:0:
512,320,190025,5,0,1:2:0:0:
483,343,190109,1,0,0:0:0:0:
466,372,190193,1,2,2:0:0:0:
224,256,190362,2,0,P|325:273|383:360,1,210,12|0,0:0|0:0,0:0:0:0:
367,347,190699,6,0,P|329:258|350:84,1,262.5,4|0,1:1|0:0,0:0:0:0:
325,91,191036,6,0,P|302:136|252:180,1,105,12|0,1:2|0:0,0:0:0:0:
250,147,191373,5,4,1:1:0:0:
264,115,191457,1,0,0:0:0:0:
285,87,191541,1,0,3:2:0:0:
312,64,191625,1,2,3:2:0:0:
271,45,191710,1,0,3:1:0:0:
218,58,191794,1,0,0:0:0:0:
174,91,191878,1,2,3:2:0:0:
120,107,191963,1,0,3:2:0:0:
56,101,192047,6,0,P|21:90|-15:69,1,70,0|0,1:2|0:0,0:0:0:0:
32,224,192216,2,0,P|66:234|103:255,1,70,0|2,3:2|3:2,0:0:0:0:
256,160,192384,2,0,P|231:133|210:97,1,70,0|2,3:1|3:2,0:0:0:0:
224,320,192553,2,0,P|248:346|269:382,1,70,0|2,3:2|3:2,0:0:0:0:
265,136,192721,5,4,1:2:0:0:
256,109,192805,1,2,0:2:0:0:
255,81,192889,1,0,3:0:0:0:
392,24,193058,2,0,P|416:50|437:86,1,70,0|0,1:0|0:0,0:0:0:0:
416,224,193227,1,2,3:2:0:0:
388,218,193311,1,0,0:0:0:0:
363,204,193395,1,0,1:2:0:0:
352,112,193564,5,0,3:0:0:0:
512,192,193732,1,0,1:0:0:0:
480,320,193901,2,0,P|444:328|402:328,1,70,2|0,3:2|0:0,0:0:0:0:
320,320,194069,1,0,1:2:0:0:
128,352,194238,2,0,P|93:341|56:320,2,70,2|0|0,3:2|0:0|1:0,0:0:0:0:
255,293,194575,5,2,3:2:0:0:
290,297,194659,1,0,0:0:0:0:
319,319,194743,1,2,1:2:0:0:
275,326,194828,1,0,0:0:0:0:
229,308,194912,1,2,3:2:0:0:
191,263,194996,1,0,0:0:0:0:
185,200,195081,6,0,P|200:143|220:112,1,70,2|0,1:2|3:0,0:0:0:0:
384,32,195418,5,2,1:2:0:0:
401,42,195586,1,0,3:0:0:0:
288,64,195755,1,2,1:2:0:0:
512,32,195923,1,0,3:0:0:0:
304,80,196092,6,0,P|339:87|400:111,1,70,2|0,1:2|0:0,0:0:0:0:
448,192,196260,1,0,3:0:0:0:
476,212,196344,1,0,3:0:0:0:
497,241,196428,1,0,1:0:0:0:
320,256,196598,1,0,3:0:0:0:
323,221,196682,1,2,0:2:0:0:
337,188,196766,1,2,1:2:0:0:
416,336,196935,5,0,3:0:0:0:
224,320,197103,2,0,P|185:304|145:275,1,70,12|0,1:2|0:0,0:0:0:0:
112,208,197272,1,0,0:0:0:0:
96,64,197440,1,4,1:1:0:0:
96,64,197609,1,0,3:0:0:0:
256,0,197777,2,0,P|295:16|335:45,1,70,12|0,1:2|0:0,0:0:0:0:
371,97,197946,1,0,0:0:0:0:
364,238,198114,6,0,P|354:159|470:122,1,210,6|0,1:1|0:0,0:0:0:0:
496,208,198452,2,0,P|506:287|390:324,1,210,2|0,1:1|0:0,0:0:0:0:
391,326,198789,1,2,1:1:0:0:
373,327,198873,1,0,0:0:0:0:
358,338,198957,1,2,3:1:0:0:
352,355,199041,1,0,3:3:0:0:
320,369,199126,5,0,1:3:0:0:
286,366,199210,1,0,3:3:0:0:
250,345,199294,1,2,3:1:0:0:
231,304,199378,1,0,3:3:0:0:
233,268,199463,5,0,1:3:0:0:
218,249,199547,1,0,3:3:0:0:
199,243,199631,1,2,3:1:0:0:
185,249,199716,1,0,3:3:0:0:
172,269,199800,5,0,1:3:0:0:
138,295,199884,1,0,3:3:0:0:
85,297,199968,1,2,3:1:0:0:
35,274,200053,1,0,3:3:0:0:
54,269,200137,5,0,1:3:0:0:
66,260,200221,1,0,3:3:0:0:
94,234,200305,1,2,3:1:0:0:
126,191,200390,1,0,3:3:0:0:
143,134,200474,1,0,1:3:0:0:
147,65,200558,1,0,3:3:0:0:
115,2,200643,1,0,3:3:0:0:
89,66,200727,1,0,3:3:0:0:
101,132,200811,5,4,1:2:0:0:
512,80,201317,2,0,L|432:96,1,70,0|0,0:0|0:0,0:0:0:0:
256,192,201485,1,2,1:1:0:0:
112,272,201822,2,0,L|192:256,1,70,2|0,1:2|0:0,0:0:0:0:
443,93,202159,6,0,L|455:49,1,35,2|0,1:1|0:0,0:0:0:0:
384,224,202496,6,0,L|372:179,1,35,2|0,1:1|0:0,0:0:0:0:
400,368,202834,6,0,L|367:335,1,35,2|0,1:2|0:0,0:0:0:0:
256,0,203171,5,12,1:0:0:0:
48,80,203508,6,0,B|26:72|26:45|26:45|92:19|161:70|191:130|163:202,1,280,4|2,1:2|0:1,0:0:0:0:
200,284,204013,2,0,L|176:308,1,26.2499991989136,0|0,0:0|0:0,0:0:0:0:
420,340,204182,2,0,B|437:355|461:341|461:341|450:271|372:237|305:241|256:301,1,236.249992790222,2|0,1:1|0:0,0:0:0:0:
312,260,204519,2,0,B|295:266|295:286|295:286|345:306|398:267|421:221|400:166,1,183.749994392395,2|0,1:2|0:0,0:0:0:0:
345,29,204856,6,0,P|346:98|359:146,1,104.999996795654,2|0,1:1|0:0,0:0:0:0:
208,144,205193,2,0,P|173:104|148:58,1,104.999996795654,2|0,1:1|0:0,0:0:0:0:
0,176,205530,2,0,P|44:203|94:219,1,104.999996795654,2|0,1:2|0:0,0:0:0:0:
400,288,205867,6,2,P|290:292|113:367,1,262.5,12|0,1:0|0:0,0:0:0:0:
