osu file format v14

[General]
AudioFilename: audio.mp3
AudioLeadIn: 0
PreviewTime: 362
Countdown: 0
SampleSet: Normal
StackLeniency: 0.6
Mode: 1
LetterboxInBreaks: 0
WidescreenStoryboard: 1

[Editor]
Bookmarks: 25135,35922
DistanceSpacing: 1
BeatDivisor: 4
GridSize: 32
TimelineZoom: 2.300006

[Metadata]
Title:Wa ta shi wa * No.1!
TitleUnicode:わ・た・し・は☆No. 1!
Artist:San Diego (CV: Itou Asuka)
ArtistUnicode:サンディエゴ (CV: 伊藤あすか)
Creator:Shurelia
Version:Ron's Oni!
Source:アズールレーン
Tags:azur lane sandymeme sandy ship waifus ongaku hinsvar nozhomi [r] Ron 私 わたし watashi 桜村岬 かみじょうゆうや kamijou yuuya number
BeatmapID:1836251
BeatmapSetID:869783

[Difficulty]
HPDrainRate:5
CircleSize:3.5
OverallDifficulty:5
ApproachRate:5.1
SliderMultiplier:1.4
SliderTickRate:1

[Events]
//Background and Video events
0,0,"sandymeme.jpg",0,0
//Break Periods
//Storyboard Layer 0 (Background)
//Storyboard Layer 1 (Fail)
//Storyboard Layer 2 (Pass)
//Storyboard Layer 3 (Foreground)
//Storyboard Sound Samples

[TimingPoints]
868,337.078651685393,4,1,0,80,1,0
3564,-100,4,1,0,90,0,1
14351,-100,4,1,0,80,0,0
49407,-100,4,1,0,90,0,1
68283,-100,4,1,0,80,0,0

[Colours]
Combo1 : 207,202,3
Combo2 : 180,251,32
Combo3 : 52,188,254
Combo4 : 215,6,95

[HitObjects]
256,192,868,5,4,0:0:0:0:
256,192,1373,1,12,0:0:0:0:
256,192,1542,1,12,0:0:0:0:
256,192,1879,1,4,0:0:0:0:
256,192,2216,1,12,0:0:0:0:
256,192,2553,1,12,0:0:0:0:
256,192,2890,1,4,0:0:0:0:
256,192,3227,1,12,0:0:0:0:
256,192,3396,1,0,0:0:0:0:
256,192,3564,1,4,0:0:0:0:
256,192,3733,1,0,0:0:0:0:
256,192,3901,1,8,0:0:0:0:
256,192,4070,1,0,0:0:0:0:
256,192,4154,1,0,0:0:0:0:
256,192,4238,1,8,0:0:0:0:
256,192,4407,1,0,0:0:0:0:
256,192,4575,1,8,0:0:0:0:
256,192,4744,1,0,0:0:0:0:
256,192,5081,1,0,0:0:0:0:
256,192,5250,1,8,0:0:0:0:
256,192,5418,1,0,0:0:0:0:
256,192,5502,1,0,0:0:0:0:
256,192,5587,1,8,0:0:0:0:
256,192,5755,1,0,0:0:0:0:
256,192,5924,1,8,0:0:0:0:
256,192,6008,1,8,0:0:0:0:
256,192,6092,1,8,0:0:0:0:
256,192,6261,1,0,0:0:0:0:
256,192,6429,1,0,0:0:0:0:
256,192,6598,1,8,0:0:0:0:
256,192,6766,1,0,0:0:0:0:
256,192,6851,1,0,0:0:0:0:
256,192,6935,1,8,0:0:0:0:
256,192,7103,1,0,0:0:0:0:
256,192,7272,1,8,0:0:0:0:
256,192,7441,1,0,0:0:0:0:
256,192,7778,1,0,0:0:0:0:
256,192,7946,1,12,0:0:0:0:
256,192,8115,1,0,0:0:0:0:
256,192,8283,1,0,0:0:0:0:
256,192,8367,1,8,0:0:0:0:
256,192,8452,1,0,0:0:0:0:
256,192,8620,1,12,0:0:0:0:
256,192,8789,1,0,0:0:0:0:
256,192,8957,1,4,0:0:0:0:
256,192,9126,1,0,0:0:0:0:
256,192,9294,1,8,0:0:0:0:
256,192,9463,1,0,0:0:0:0:
256,192,9547,1,0,0:0:0:0:
256,192,9631,1,8,0:0:0:0:
256,192,9800,1,0,0:0:0:0:
256,192,9968,1,8,0:0:0:0:
256,192,10137,1,0,0:0:0:0:
256,192,10474,1,0,0:0:0:0:
256,192,10643,1,8,0:0:0:0:
256,192,10811,1,0,0:0:0:0:
256,192,10895,1,0,0:0:0:0:
256,192,10980,1,8,0:0:0:0:
256,192,11148,1,0,0:0:0:0:
256,192,11317,1,8,0:0:0:0:
256,192,11401,1,8,0:0:0:0:
256,192,11485,1,8,0:0:0:0:
256,192,11570,1,8,0:0:0:0:
256,192,11654,1,0,0:0:0:0:
256,192,11822,1,0,0:0:0:0:
256,192,11907,1,0,0:0:0:0:
256,192,11991,1,8,0:0:0:0:
256,192,12159,1,0,0:0:0:0:
256,192,12328,1,8,0:0:0:0:
256,192,12412,1,8,0:0:0:0:
256,192,12497,1,0,0:0:0:0:
256,192,12581,1,0,0:0:0:0:
256,192,12665,1,8,0:0:0:0:
256,192,12834,1,0,0:0:0:0:
256,192,13171,1,0,0:0:0:0:
256,192,13339,1,8,0:0:0:0:
256,192,13508,1,0,0:0:0:0:
256,192,13592,1,0,0:0:0:0:
256,192,13676,1,8,0:0:0:0:
256,192,13845,1,0,0:0:0:0:
256,192,14014,1,8,0:0:0:0:
256,192,14098,1,8,0:0:0:0:
256,192,14182,1,8,0:0:0:0:
256,192,14351,1,12,0:0:0:0:
256,192,14519,1,0,0:0:0:0:
256,192,14688,1,8,0:0:0:0:
256,192,15025,1,0,0:0:0:0:
256,192,15193,1,8,0:0:0:0:
256,192,15362,1,8,0:0:0:0:
256,192,15530,1,0,0:0:0:0:
256,192,15867,1,0,0:0:0:0:
256,192,16036,1,8,0:0:0:0:
256,192,16205,1,8,0:0:0:0:
256,192,16373,1,0,0:0:0:0:
256,192,16542,1,0,0:0:0:0:
256,192,16710,1,8,0:0:0:0:
256,192,16879,1,0,0:0:0:0:
256,192,17216,1,0,0:0:0:0:
256,192,17300,1,0,0:0:0:0:
256,192,17384,1,8,0:0:0:0:
256,192,17553,1,0,0:0:0:0:
256,192,17721,1,0,0:0:0:0:
256,192,17890,1,8,0:0:0:0:
256,192,18059,1,8,0:0:0:0:
256,192,18227,1,0,0:0:0:0:
256,192,18564,1,0,0:0:0:0:
256,192,18733,1,8,0:0:0:0:
256,192,18901,1,8,0:0:0:0:
256,192,19070,1,0,0:0:0:0:
256,192,19238,1,0,0:0:0:0:
256,192,19323,1,0,0:0:0:0:
256,192,19407,1,8,0:0:0:0:
256,192,19575,1,8,0:0:0:0:
256,192,19744,1,0,0:0:0:0:
256,192,20081,1,8,0:0:0:0:
256,192,20250,1,0,0:0:0:0:
256,192,20418,1,0,0:0:0:0:
256,192,20587,1,0,0:0:0:0:
256,192,20755,1,8,0:0:0:0:
256,192,21092,1,0,0:0:0:0:
256,192,21429,1,8,0:0:0:0:
256,192,21598,1,0,0:0:0:0:
256,192,21766,1,0,0:0:0:0:
256,192,21935,1,0,0:0:0:0:
256,192,22103,1,8,0:0:0:0:
256,192,22272,1,8,0:0:0:0:
256,192,22441,1,0,0:0:0:0:
256,192,22778,1,8,0:0:0:0:
256,192,22946,1,0,0:0:0:0:
256,192,23115,1,0,0:0:0:0:
256,192,23283,1,8,0:0:0:0:
256,192,23620,1,8,0:0:0:0:
256,192,23789,1,0,0:0:0:0:
256,192,24800,1,0,0:0:0:0:
256,192,25137,1,12,0:0:0:0:
256,192,25305,1,0,0:0:0:0:
256,192,25390,1,0,0:0:0:0:
256,192,25474,1,8,0:0:0:0:
256,192,25643,1,8,0:0:0:0:
256,192,25811,1,0,0:0:0:0:
256,192,25979,1,8,0:0:0:0:
256,192,26148,1,8,0:0:0:0:
256,192,26316,1,0,0:0:0:0:
256,192,26653,1,0,0:0:0:0:
256,192,26822,1,8,0:0:0:0:
256,192,26991,1,8,0:0:0:0:
256,192,27159,1,0,0:0:0:0:
256,192,27328,1,0,0:0:0:0:
256,192,27496,1,8,0:0:0:0:
256,192,27665,1,0,0:0:0:0:
256,192,28002,1,0,0:0:0:0:
256,192,28086,1,0,0:0:0:0:
256,192,28170,1,8,0:0:0:0:
256,192,28339,1,0,0:0:0:0:
256,192,28507,1,0,0:0:0:0:
256,192,28676,1,8,0:0:0:0:
256,192,28845,1,8,0:0:0:0:
256,192,29013,1,0,0:0:0:0:
256,192,29350,1,0,0:0:0:0:
256,192,29519,1,8,0:0:0:0:
256,192,29687,1,8,0:0:0:0:
256,192,29856,1,0,0:0:0:0:
256,192,30024,1,0,0:0:0:0:
256,192,30193,1,8,0:0:0:0:
256,192,30361,1,8,0:0:0:0:
256,192,30530,1,0,0:0:0:0:
256,192,30867,1,8,0:0:0:0:
256,192,31036,1,0,0:0:0:0:
256,192,31205,1,0,0:0:0:0:
256,192,31373,1,0,0:0:0:0:
256,192,31541,1,8,0:0:0:0:
256,192,31878,1,0,0:0:0:0:
256,192,32047,1,0,0:0:0:0:
256,192,32215,1,8,0:0:0:0:
256,192,32384,1,8,0:0:0:0:
256,192,32552,1,0,0:0:0:0:
256,192,32889,1,8,0:0:0:0:
256,192,33058,1,8,0:0:0:0:
256,192,33227,1,0,0:0:0:0:
256,192,33564,1,8,0:0:0:0:
256,192,33732,1,0,0:0:0:0:
256,192,33817,1,8,0:0:0:0:
256,192,33901,1,0,0:0:0:0:
256,192,34069,1,8,0:0:0:0:
256,192,34238,1,0,0:0:0:0:
256,192,34406,1,8,0:0:0:0:
256,192,34575,1,0,0:0:0:0:
256,192,34743,1,0,0:0:0:0:
256,192,34828,1,0,0:0:0:0:
256,192,34911,1,8,0:0:0:0:
256,192,35081,1,8,0:0:0:0:
256,192,35165,1,0,0:0:0:0:
256,192,35249,1,8,0:0:0:0:
256,192,35417,1,8,0:0:0:0:
256,192,35501,1,8,0:0:0:0:
256,192,35586,1,0,0:0:0:0:
256,192,35754,1,0,0:0:0:0:
256,192,35923,1,12,0:0:0:0:
256,192,36261,1,8,0:0:0:0:
256,192,36429,1,0,0:0:0:0:
256,192,36598,1,8,0:0:0:0:
256,192,36766,1,0,0:0:0:0:
256,192,36935,1,0,0:0:0:0:
256,192,37103,1,0,0:0:0:0:
256,192,37272,1,8,0:0:0:0:
256,192,37525,1,8,0:0:0:0:
256,192,37778,1,0,0:0:0:0:
256,192,37946,1,8,0:0:0:0:
256,192,38115,1,8,0:0:0:0:
256,192,38283,1,0,0:0:0:0:
256,192,38452,1,0,0:0:0:0:
256,192,38620,1,8,0:0:0:0:
256,192,38957,1,8,0:0:0:0:
256,192,39126,1,0,0:0:0:0:
256,192,39294,1,8,0:0:0:0:
256,192,39463,1,0,0:0:0:0:
256,192,39632,1,0,0:0:0:0:
256,192,39800,1,0,0:0:0:0:
256,192,39969,1,8,0:0:0:0:
256,192,40137,1,0,0:0:0:0:
256,192,40306,1,8,0:0:0:0:
256,192,40474,1,8,0:0:0:0:
256,192,40559,1,8,0:0:0:0:
256,192,40643,1,0,0:0:0:0:
256,192,40811,1,0,0:0:0:0:
256,192,40980,1,8,0:0:0:0:
256,192,41148,1,0,0:0:0:0:
256,192,41317,1,12,0:0:0:0:
256,192,41654,1,8,0:0:0:0:
256,192,41823,1,0,0:0:0:0:
256,192,41907,1,0,0:0:0:0:
256,192,41991,1,8,0:0:0:0:
256,192,42160,1,8,0:0:0:0:
256,192,42328,1,0,0:0:0:0:
256,192,42497,1,8,0:0:0:0:
256,192,42665,1,4,0:0:0:0:
256,192,42834,1,8,0:0:0:0:
256,192,42918,1,8,0:0:0:0:
256,192,43002,1,8,0:0:0:0:
256,192,43171,1,4,0:0:0:0:
256,192,43508,1,0,0:0:0:0:
256,192,43676,1,12,0:0:0:0:
256,192,44014,1,4,0:0:0:0:
256,192,44182,1,8,0:0:0:0:
256,192,44266,1,8,0:0:0:0:
256,192,44351,1,8,0:0:0:0:
256,192,44519,1,4,0:0:0:0:
256,192,44856,1,8,0:0:0:0:
256,192,45025,1,0,0:0:0:0:
256,192,45193,1,12,0:0:0:0:
256,192,45362,1,0,0:0:0:0:
256,192,45446,1,8,0:0:0:0:
256,192,45530,1,0,0:0:0:0:
256,192,45699,1,8,0:0:0:0:
256,192,45867,1,0,0:0:0:0:
256,192,46036,1,8,0:0:0:0:
256,192,46205,1,0,0:0:0:0:
256,192,46289,1,0,0:0:0:0:
256,192,46373,1,8,0:0:0:0:
256,192,46542,1,8,0:0:0:0:
256,192,46710,1,4,0:0:0:0:
256,192,46879,1,0,0:0:0:0:
256,192,47047,1,8,0:0:0:0:
256,192,47132,1,8,0:0:0:0:
256,192,47216,1,8,0:0:0:0:
256,192,47300,1,8,0:0:0:0:
256,192,47384,1,0,0:0:0:0:
256,192,47469,1,0,0:0:0:0:
256,192,47553,1,0,0:0:0:0:
256,192,47637,1,0,0:0:0:0:
256,192,47721,1,8,0:0:0:0:
256,192,48059,1,4,0:0:0:0:
256,192,48901,1,0,0:0:0:0:
256,192,49070,1,12,0:0:0:0:
256,192,49407,1,4,0:0:0:0:
256,192,49575,1,0,0:0:0:0:
256,192,49660,1,0,0:0:0:0:
256,192,49744,1,8,0:0:0:0:
256,192,49912,1,8,0:0:0:0:
256,192,49997,1,8,0:0:0:0:
256,192,50081,1,0,0:0:0:0:
256,192,50250,1,8,0:0:0:0:
256,192,50418,1,0,0:0:0:0:
256,192,50587,1,8,0:0:0:0:
256,192,50924,1,0,0:0:0:0:
256,192,51092,1,8,0:0:0:0:
256,192,51261,1,8,0:0:0:0:
256,192,51345,1,8,0:0:0:0:
256,192,51429,1,0,0:0:0:0:
256,192,51514,1,8,0:0:0:0:
256,192,51598,1,0,0:0:0:0:
256,192,51766,1,8,0:0:0:0:
256,192,51935,1,0,0:0:0:0:
256,192,52103,1,8,0:0:0:0:
256,192,52272,1,0,0:0:0:0:
256,192,52356,1,0,0:0:0:0:
256,192,52441,1,8,0:0:0:0:
256,192,52609,1,0,0:0:0:0:
256,192,52778,1,8,0:0:0:0:
256,192,52946,1,8,0:0:0:0:
256,192,53030,1,0,0:0:0:0:
256,192,53115,1,8,0:0:0:0:
256,192,53283,1,8,0:0:0:0:
256,192,53452,1,0,0:0:0:0:
256,192,53620,1,0,0:0:0:0:
256,192,53705,1,0,0:0:0:0:
256,192,53789,1,8,0:0:0:0:
256,192,53957,1,8,0:0:0:0:
256,192,54126,1,0,0:0:0:0:
256,192,54463,1,12,0:0:0:0:
256,192,54800,1,4,0:0:0:0:
256,192,54969,1,8,0:0:0:0:
256,192,55053,1,8,0:0:0:0:
256,192,55137,1,0,0:0:0:0:
256,192,55306,1,0,0:0:0:0:
256,192,55390,1,0,0:0:0:0:
256,192,55474,1,8,0:0:0:0:
256,192,55643,1,0,0:0:0:0:
256,192,55811,1,8,0:0:0:0:
256,192,55980,1,0,0:0:0:0:
256,192,56317,1,0,0:0:0:0:
256,192,56485,1,8,0:0:0:0:
256,192,56654,1,0,0:0:0:0:
256,192,56738,1,8,0:0:0:0:
256,192,56823,1,0,0:0:0:0:
256,192,56991,1,0,0:0:0:0:
256,192,57160,1,8,0:0:0:0:
256,192,57328,1,8,0:0:0:0:
256,192,57412,1,8,0:0:0:0:
256,192,57497,1,0,0:0:0:0:
256,192,57665,1,0,0:0:0:0:
256,192,57834,1,12,0:0:0:0:
256,192,58002,1,0,0:0:0:0:
256,192,58171,1,12,0:0:0:0:
256,192,58508,1,0,0:0:0:0:
256,192,58845,1,12,0:0:0:0:
256,192,59014,1,0,0:0:0:0:
256,192,59098,1,0,0:0:0:0:
256,192,59182,1,0,0:0:0:0:
256,192,59351,1,0,0:0:0:0:
256,192,59435,1,0,0:0:0:0:
256,192,59519,1,8,0:0:0:0:
256,192,59688,1,8,0:0:0:0:
256,192,59856,1,0,0:0:0:0:
256,192,60025,1,0,0:0:0:0:
256,192,60193,1,12,0:0:0:0:
256,192,60362,1,0,0:0:0:0:
256,192,60446,1,8,0:0:0:0:
256,192,60530,1,0,0:0:0:0:
256,192,60699,1,0,0:0:0:0:
256,192,60783,1,0,0:0:0:0:
256,192,60867,1,8,0:0:0:0:
256,192,61036,1,0,0:0:0:0:
256,192,61205,1,8,0:0:0:0:
256,192,61373,1,0,0:0:0:0:
256,192,61710,1,0,0:0:0:0:
256,192,61879,1,8,0:0:0:0:
256,192,62047,1,0,0:0:0:0:
256,192,62132,1,0,0:0:0:0:
256,192,62216,1,8,0:0:0:0:
256,192,62300,1,8,0:0:0:0:
256,192,62384,1,0,0:0:0:0:
256,192,62553,1,8,0:0:0:0:
256,192,62721,1,8,0:0:0:0:
256,192,62890,1,0,0:0:0:0:
256,192,63059,1,8,0:0:0:0:
256,192,63143,1,0,0:0:0:0:
256,192,63227,1,8,0:0:0:0:
256,192,63396,1,8,0:0:0:0:
256,192,63564,1,0,0:0:0:0:
256,192,63733,1,8,0:0:0:0:
256,192,63817,1,8,0:0:0:0:
256,192,63901,1,0,0:0:0:0:
256,192,64070,1,8,0:0:0:0:
256,192,64238,1,0,0:0:0:0:
256,192,64407,1,8,0:0:0:0:
256,192,64491,1,0,0:0:0:0:
256,192,64575,1,8,0:0:0:0:
256,192,64744,1,8,0:0:0:0:
256,192,64912,1,0,0:0:0:0:
256,192,65250,1,12,0:0:0:0:
256,192,65587,1,4,0:0:0:0:
256,192,65755,1,0,0:0:0:0:
256,192,65924,1,8,0:0:0:0:
256,192,66092,1,0,0:0:0:0:
256,192,66261,1,8,0:0:0:0:
256,192,66429,1,0,0:0:0:0:
256,192,66514,1,0,0:0:0:0:
256,192,66598,1,0,0:0:0:0:
256,192,66766,1,8,0:0:0:0:
256,192,66935,1,0,0:0:0:0:
256,192,67019,1,8,0:0:0:0:
256,192,67103,1,0,0:0:0:0:
256,192,67188,1,0,0:0:0:0:
256,192,67272,1,8,0:0:0:0:
256,192,67441,1,0,0:0:0:0:
256,192,67609,1,8,0:0:0:0:
256,192,67778,1,0,0:0:0:0:
256,192,67946,1,8,0:0:0:0:
256,192,68030,1,8,0:0:0:0:
256,192,68115,1,8,0:0:0:0:
256,192,68283,1,4,0:0:0:0:
256,192,68788,1,12,0:0:0:0:
256,192,68957,1,12,0:0:0:0:
256,192,69294,1,4,0:0:0:0:
256,192,69631,1,12,0:0:0:0:
256,192,69968,1,12,0:0:0:0:
256,192,70305,1,4,0:0:0:0:
256,192,70642,1,12,0:0:0:0:
256,192,70979,1,4,0:0:0:0:
256,192,71485,1,12,0:0:0:0:
256,192,71654,1,12,0:0:0:0:
256,192,71991,1,4,0:0:0:0:
256,192,72328,1,12,0:0:0:0:
256,192,72665,1,12,0:0:0:0:
256,192,73002,1,4,0:0:0:0:
256,192,73339,1,12,0:0:0:0:
