osu file format v14

[General]
AudioFilename: audio.mp3
AudioLeadIn: 0
PreviewTime: 362
Countdown: 0
SampleSet: Normal
StackLeniency: 0.6
Mode: 1
LetterboxInBreaks: 0
WidescreenStoryboard: 0

[Editor]
Bookmarks: 25135,35922
DistanceSpacing: 1
BeatDivisor: 4
GridSize: 32
TimelineZoom: 1.900006

[Metadata]
Title:Wa ta shi wa * No.1!
TitleUnicode:わ・た・し・は☆No. 1!
Artist:San Diego (CV: Itou Asuka)
ArtistUnicode:サンディエゴ (CV: 伊藤あすか)
Creator:Shurelia
Version:Ron's Muzukashii!
Source:アズールレーン
Tags:azur lane sandymeme sandy ship waifus ongaku hinsvar nozhomi [r] Ron 私 わたし watashi 桜村岬 かみじょうゆうや kamijou yuuya number
BeatmapID:1836250
BeatmapSetID:869783

[Difficulty]
HPDrainRate:6
CircleSize:3.5
OverallDifficulty:4
ApproachRate:5.1
SliderMultiplier:1.4
SliderTickRate:1

[Events]
//Background and Video events
0,0,"sandymeme.jpg",0,0
//Break Periods
//Storyboard Layer 0 (Background)
//Storyboard Layer 1 (Fail)
//Storyboard Layer 2 (Pass)
//Storyboard Layer 3 (Foreground)
//Storyboard Sound Samples

[TimingPoints]
868,337.078651685393,4,1,0,80,1,0
3564,-100,4,1,0,90,0,1
14351,-100,4,1,0,80,0,0
49407,-100,4,1,0,90,0,1
68283,-100,4,1,0,80,0,0

[Colours]
Combo1 : 207,202,3
Combo2 : 180,251,32
Combo3 : 52,188,254
Combo4 : 215,6,95

[HitObjects]
256,192,868,5,4,0:0:0:0:
256,192,1373,1,12,0:0:0:0:
256,192,1542,1,12,0:0:0:0:
256,192,1879,1,4,0:0:0:0:
256,192,2216,1,12,0:0:0:0:
256,192,2553,1,12,0:0:0:0:
256,192,2890,1,4,0:0:0:0:
256,192,3227,1,12,0:0:0:0:
256,192,3564,1,4,0:0:0:0:
256,192,3733,1,0,0:0:0:0:
256,192,3901,1,8,0:0:0:0:
256,192,4070,1,0,0:0:0:0:
256,192,4238,1,8,0:0:0:0:
256,192,4575,1,8,0:0:0:0:
256,192,4744,1,0,0:0:0:0:
256,192,5081,1,0,0:0:0:0:
256,192,5250,1,8,0:0:0:0:
256,192,5418,1,0,0:0:0:0:
256,192,5502,1,0,0:0:0:0:
256,192,5587,1,0,0:0:0:0:
256,192,5755,1,0,0:0:0:0:
256,192,5924,1,8,0:0:0:0:
256,192,6261,1,0,0:0:0:0:
256,192,6429,1,0,0:0:0:0:
256,192,6598,1,8,0:0:0:0:
256,192,6935,1,8,0:0:0:0:
256,192,7103,1,0,0:0:0:0:
256,192,7272,1,8,0:0:0:0:
256,192,7441,1,0,0:0:0:0:
256,192,7778,1,0,0:0:0:0:
256,192,7946,1,12,0:0:0:0:
256,192,8620,1,12,0:0:0:0:
256,192,8957,1,4,0:0:0:0:
256,192,9126,1,0,0:0:0:0:
256,192,9294,1,8,0:0:0:0:
256,192,9463,1,0,0:0:0:0:
256,192,9631,1,8,0:0:0:0:
256,192,9968,1,8,0:0:0:0:
256,192,10137,1,0,0:0:0:0:
256,192,10474,1,0,0:0:0:0:
256,192,10643,1,8,0:0:0:0:
256,192,10811,1,0,0:0:0:0:
256,192,10896,1,0,0:0:0:0:
256,192,10980,1,0,0:0:0:0:
256,192,11148,1,0,0:0:0:0:
256,192,11317,1,8,0:0:0:0:
256,192,11654,1,0,0:0:0:0:
256,192,11991,1,8,0:0:0:0:
256,192,12160,1,0,0:0:0:0:
256,192,12328,1,0,0:0:0:0:
256,192,12412,1,0,0:0:0:0:
256,192,12497,1,0,0:0:0:0:
256,192,12665,1,8,0:0:0:0:
256,192,12834,1,0,0:0:0:0:
256,192,13171,1,0,0:0:0:0:
256,192,13339,1,8,0:0:0:0:
256,192,13676,1,8,0:0:0:0:
256,192,13845,1,0,0:0:0:0:
256,192,14014,1,8,0:0:0:0:
256,192,14098,1,8,0:0:0:0:
256,192,14182,1,8,0:0:0:0:
256,192,14351,1,12,0:0:0:0:
256,192,14519,1,0,0:0:0:0:
256,192,14688,1,8,0:0:0:0:
256,192,15025,1,0,0:0:0:0:
256,192,15362,1,8,0:0:0:0:
256,192,15867,1,0,0:0:0:0:
256,192,16036,1,8,0:0:0:0:
256,192,16373,1,8,0:0:0:0:
256,192,16542,1,0,0:0:0:0:
256,192,16710,1,8,0:0:0:0:
256,192,16879,1,0,0:0:0:0:
256,192,17216,1,0,0:0:0:0:
256,192,17384,1,8,0:0:0:0:
256,192,17721,1,0,0:0:0:0:
256,192,18059,1,8,0:0:0:0:
256,192,18564,1,0,0:0:0:0:
256,192,18733,1,8,0:0:0:0:
256,192,18901,1,8,0:0:0:0:
256,192,19070,1,0,0:0:0:0:
256,192,19323,1,0,0:0:0:0:
256,192,19407,1,8,0:0:0:0:
256,192,19575,1,8,0:0:0:0:
256,192,19744,1,0,0:0:0:0:
256,192,20081,1,8,0:0:0:0:
256,192,20250,1,0,0:0:0:0:
256,192,20418,1,0,0:0:0:0:
256,192,20755,1,8,0:0:0:0:
256,192,21092,1,0,0:0:0:0:
256,192,21429,1,8,0:0:0:0:
256,192,21598,1,0,0:0:0:0:
256,192,21766,1,0,0:0:0:0:
256,192,22103,1,8,0:0:0:0:
256,192,22272,1,8,0:0:0:0:
256,192,22441,1,0,0:0:0:0:
256,192,22778,1,8,0:0:0:0:
256,192,23115,1,0,0:0:0:0:
256,192,23283,1,8,0:0:0:0:
256,192,23620,1,8,0:0:0:0:
256,192,23789,1,0,0:0:0:0:
256,192,24800,1,0,0:0:0:0:
256,192,25137,1,12,0:0:0:0:
256,192,25306,1,0,0:0:0:0:
256,192,25475,1,8,0:0:0:0:
256,192,25812,1,0,0:0:0:0:
256,192,26149,1,8,0:0:0:0:
256,192,26654,1,0,0:0:0:0:
256,192,26823,1,8,0:0:0:0:
256,192,27160,1,8,0:0:0:0:
256,192,27328,1,0,0:0:0:0:
256,192,27497,1,8,0:0:0:0:
256,192,27665,1,0,0:0:0:0:
256,192,28003,1,0,0:0:0:0:
256,192,28171,1,8,0:0:0:0:
256,192,28508,1,0,0:0:0:0:
256,192,28846,1,8,0:0:0:0:
256,192,29351,1,0,0:0:0:0:
256,192,29520,1,8,0:0:0:0:
256,192,29857,1,8,0:0:0:0:
256,192,30025,1,0,0:0:0:0:
256,192,30194,1,8,0:0:0:0:
256,192,30362,1,8,0:0:0:0:
256,192,30531,1,0,0:0:0:0:
256,192,30868,1,8,0:0:0:0:
256,192,31036,1,0,0:0:0:0:
256,192,31205,1,0,0:0:0:0:
256,192,31542,1,8,0:0:0:0:
256,192,31879,1,0,0:0:0:0:
256,192,32047,1,0,0:0:0:0:
256,192,32216,1,8,0:0:0:0:
256,192,32553,1,0,0:0:0:0:
256,192,32890,1,8,0:0:0:0:
256,192,33059,1,8,0:0:0:0:
256,192,33228,1,0,0:0:0:0:
256,192,33565,1,8,0:0:0:0:
256,192,33902,1,0,0:0:0:0:
256,192,34070,1,8,0:0:0:0:
256,192,34407,1,8,0:0:0:0:
256,192,34576,1,0,0:0:0:0:
256,192,34744,1,0,0:0:0:0:
256,192,34912,1,8,0:0:0:0:
256,192,35250,1,8,0:0:0:0:
256,192,35418,1,0,0:0:0:0:
256,192,35502,1,0,0:0:0:0:
256,192,35587,1,0,0:0:0:0:
256,192,35755,1,0,0:0:0:0:
256,192,35924,1,12,0:0:0:0:
256,192,36429,1,0,0:0:0:0:
256,192,36598,1,8,0:0:0:0:
256,192,36935,1,0,0:0:0:0:
256,192,37272,1,8,0:0:0:0:
256,192,37525,1,8,0:0:0:0:
256,192,37778,1,0,0:0:0:0:
256,192,37946,1,8,0:0:0:0:
256,192,38283,1,0,0:0:0:0:
256,192,38620,1,8,0:0:0:0:
256,192,39126,1,0,0:0:0:0:
256,192,39294,1,8,0:0:0:0:
256,192,39632,1,0,0:0:0:0:
256,192,39969,1,8,0:0:0:0:
256,192,40137,1,0,0:0:0:0:
256,192,40306,1,8,0:0:0:0:
256,192,40474,1,8,0:0:0:0:
256,192,40643,1,0,0:0:0:0:
256,192,40811,1,0,0:0:0:0:
256,192,40980,1,8,0:0:0:0:
256,192,41148,1,0,0:0:0:0:
256,192,41317,1,12,0:0:0:0:
256,192,41654,1,8,0:0:0:0:
256,192,41907,1,0,0:0:0:0:
256,192,41991,1,8,0:0:0:0:
256,192,42160,1,8,0:0:0:0:
256,192,42328,1,0,0:0:0:0:
256,192,42497,1,8,0:0:0:0:
256,192,42665,1,4,0:0:0:0:
256,192,42834,1,8,0:0:0:0:
256,192,43002,1,8,0:0:0:0:
256,192,43171,1,4,0:0:0:0:
256,192,43676,1,12,0:0:0:0:
256,192,44014,1,4,0:0:0:0:
256,192,44182,1,8,0:0:0:0:
256,192,44351,1,8,0:0:0:0:
256,192,44519,1,4,0:0:0:0:
256,192,44856,1,8,0:0:0:0:
256,192,45025,1,0,0:0:0:0:
256,192,45193,1,12,0:0:0:0:
256,192,45530,1,0,0:0:0:0:
256,192,45699,1,8,0:0:0:0:
256,192,46036,1,0,0:0:0:0:
256,192,46373,1,8,0:0:0:0:
256,192,46710,1,4,0:0:0:0:
256,192,46879,1,0,0:0:0:0:
256,192,47047,1,8,0:0:0:0:
256,192,47132,1,8,0:0:0:0:
256,192,47216,1,8,0:0:0:0:
256,192,47384,1,0,0:0:0:0:
256,192,47469,1,0,0:0:0:0:
256,192,47553,1,0,0:0:0:0:
256,192,47721,1,8,0:0:0:0:
256,192,48059,1,4,0:0:0:0:
256,192,48901,1,0,0:0:0:0:
256,192,49070,1,12,0:0:0:0:
256,192,49407,1,4,0:0:0:0:
256,192,49660,1,0,0:0:0:0:
256,192,49744,1,8,0:0:0:0:
256,192,49912,1,8,0:0:0:0:
256,192,50081,1,0,0:0:0:0:
256,192,50418,1,0,0:0:0:0:
256,192,50587,1,8,0:0:0:0:
256,192,50924,1,0,0:0:0:0:
256,192,51261,1,8,0:0:0:0:
256,192,51429,1,0,0:0:0:0:
256,192,51598,1,8,0:0:0:0:
256,192,51682,1,8,0:0:0:0:
256,192,51766,1,8,0:0:0:0:
256,192,51935,1,0,0:0:0:0:
256,192,52103,1,8,0:0:0:0:
256,192,52441,1,0,0:0:0:0:
256,192,52778,1,8,0:0:0:0:
256,192,52946,1,0,0:0:0:0:
256,192,53115,1,8,0:0:0:0:
256,192,53452,1,0,0:0:0:0:
256,192,53957,1,8,0:0:0:0:
256,192,54126,1,0,0:0:0:0:
256,192,54463,1,12,0:0:0:0:
256,192,54800,1,4,0:0:0:0:
256,192,54969,1,8,0:0:0:0:
256,192,55053,1,8,0:0:0:0:
256,192,55137,1,8,0:0:0:0:
256,192,55306,1,0,0:0:0:0:
256,192,55474,1,8,0:0:0:0:
256,192,55811,1,8,0:0:0:0:
256,192,55980,1,0,0:0:0:0:
256,192,56317,1,0,0:0:0:0:
256,192,56485,1,8,0:0:0:0:
256,192,56654,1,0,0:0:0:0:
256,192,56991,1,0,0:0:0:0:
256,192,57160,1,8,0:0:0:0:
256,192,57497,1,0,0:0:0:0:
256,192,57665,1,0,0:0:0:0:
256,192,57834,1,12,0:0:0:0:
256,192,58002,1,0,0:0:0:0:
256,192,58171,1,12,0:0:0:0:
256,192,58508,1,0,0:0:0:0:
256,192,58845,1,12,0:0:0:0:
256,192,59351,1,0,0:0:0:0:
256,192,59519,1,8,0:0:0:0:
256,192,59688,1,8,0:0:0:0:
256,192,59856,1,0,0:0:0:0:
256,192,60193,1,12,0:0:0:0:
256,192,60362,1,0,0:0:0:0:
256,192,60446,1,0,0:0:0:0:
256,192,60530,1,0,0:0:0:0:
256,192,60699,1,0,0:0:0:0:
256,192,60867,1,8,0:0:0:0:
256,192,61205,1,8,0:0:0:0:
256,192,61373,1,0,0:0:0:0:
256,192,61710,1,0,0:0:0:0:
256,192,61879,1,8,0:0:0:0:
256,192,62047,1,0,0:0:0:0:
256,192,62132,1,0,0:0:0:0:
256,192,62216,1,0,0:0:0:0:
256,192,62384,1,0,0:0:0:0:
256,192,62553,1,8,0:0:0:0:
256,192,62890,1,0,0:0:0:0:
256,192,63227,1,8,0:0:0:0:
256,192,63564,1,0,0:0:0:0:
256,192,63733,1,8,0:0:0:0:
256,192,63901,1,0,0:0:0:0:
256,192,64238,1,8,0:0:0:0:
256,192,64744,1,8,0:0:0:0:
256,192,64912,1,0,0:0:0:0:
256,192,65081,1,0,0:0:0:0:
256,192,65250,1,12,0:0:0:0:
256,192,65587,1,4,0:0:0:0:
256,192,65924,1,8,0:0:0:0:
256,192,66261,1,0,0:0:0:0:
256,192,66429,1,0,0:0:0:0:
256,192,66514,1,0,0:0:0:0:
256,192,66598,1,0,0:0:0:0:
256,192,66766,1,8,0:0:0:0:
256,192,67103,1,0,0:0:0:0:
256,192,67272,1,8,0:0:0:0:
256,192,67441,1,0,0:0:0:0:
256,192,67778,1,0,0:0:0:0:
256,192,67946,1,8,0:0:0:0:
256,192,68030,1,8,0:0:0:0:
256,192,68115,1,8,0:0:0:0:
256,192,68283,1,4,0:0:0:0:
256,192,68788,1,12,0:0:0:0:
256,192,68957,1,12,0:0:0:0:
256,192,69294,1,4,0:0:0:0:
256,192,69631,1,12,0:0:0:0:
256,192,69968,1,12,0:0:0:0:
256,192,70305,1,4,0:0:0:0:
256,192,70642,1,12,0:0:0:0:
256,192,70979,1,4,0:0:0:0:
256,192,71485,1,12,0:0:0:0:
256,192,71654,1,12,0:0:0:0:
256,192,71991,1,4,0:0:0:0:
256,192,72328,1,12,0:0:0:0:
256,192,72665,1,12,0:0:0:0:
256,192,73002,1,4,0:0:0:0:
256,192,73339,1,12,0:0:0:0:
