osu file format v14

[General]
AudioFilename: audio.mp3
AudioLeadIn: 0
PreviewTime: 170980
Countdown: 0
SampleSet: Soft
StackLeniency: 0.7
Mode: 0
LetterboxInBreaks: 0
WidescreenStoryboard: 1

[Editor]
Bookmarks: 138789,149575,171148,181935
DistanceSpacing: 1.4
BeatDivisor: 4
GridSize: 4
TimelineZoom: 2.4

[Metadata]
Title:Wa ta shi wa * No.1!
TitleUnicode:わ・た・し・は☆No. 1!
Artist:San Diego (CV: Itou Asuka)
ArtistUnicode:サンディエゴ (CV: 伊藤あすか)
Creator:Shurelia
Version:Nitrous' Hard!
Source:アズールレーン
Tags:azur lane sandymeme sandy ship waifus 私 わたし watashi 桜村岬 かみじょうゆうや kamijou yuuya number nitrous hinsvar Kirylln yf_bmp so0p
BeatmapID:2285790
BeatmapSetID:1079211

[Difficulty]
HPDrainRate:5
CircleSize:3.4
OverallDifficulty:7
ApproachRate:8
SliderMultiplier:1.4
SliderTickRate:1

[Events]
//Background and Video events
0,0,"sandybg.jpg",0,0
//Break Periods
2,138989,148825
2,171348,177140
//Storyboard Layer 0 (Background)
//Storyboard Layer 1 (Fail)
//Storyboard Layer 2 (Pass)
//Storyboard Layer 3 (Foreground)
//Storyboard Layer 4 (Overlay)
//Storyboard Sound Samples

[TimingPoints]
1261,337.078651685393,4,2,10,60,1,0
1766,-100,4,2,1,60,0,0
1935,-100,4,2,10,60,0,0
3957,-100,4,2,10,75,0,1
4294,-100,4,2,10,75,0,1
9350,-100,4,2,10,75,0,1
9687,-100,4,2,10,75,0,1
14744,-100,4,2,10,60,0,0
15081,-100,4,2,10,60,0,0
32946,-100,4,2,1,60,0,0
33114,-100,4,2,10,60,0,0
36317,-100,4,2,10,65,0,0
36822,-100,4,2,1,65,0,0
36991,-100,4,2,10,65,0,0
49800,-100,4,2,10,80,0,1
50137,-100,4,2,10,80,0,1
55193,-100,4,2,10,80,0,1
55530,-100,4,2,10,80,0,1
60249,-100,4,2,10,80,0,0
60586,-100,4,2,10,80,0,1
60923,-100,4,2,10,80,0,1
65980,-100,4,2,10,80,0,1
66317,-100,4,2,10,80,0,1
68676,-100,4,2,10,80,0,0
69182,-100,4,2,1,80,0,0
69350,-100,4,2,10,80,0,0
71373,-100,4,2,10,80,0,1
71541,-100,4,2,10,75,0,1
71710,-100,4,2,10,75,0,1
82159,-100,4,2,10,80,0,0
82496,-100,4,2,10,60,0,0
84855,-100,4,2,1,60,0,0
85025,-100,4,2,10,60,0,0
103732,-100,4,2,10,65,0,0
104238,-100,4,2,10,65,0,0
117216,-100,4,2,10,80,0,1
117553,-100,4,2,10,80,0,1
122609,-100,4,2,10,80,0,1
122946,-100,4,2,10,80,0,1
127665,-100,4,2,10,80,0,0
128002,-100,4,2,10,80,0,1
128339,-100,4,2,10,80,0,1
133395,-100,4,2,10,80,0,1
133732,-100,4,2,10,80,0,1
136092,-100,4,2,10,60,0,0
136598,-100,4,2,1,60,0,0
136766,-100,4,2,10,60,0,0
138789,-100,4,2,10,60,0,0
139126,-100,4,2,1,75,0,0
149575,-100,4,2,10,65,0,0
149912,-100,4,2,1,65,0,0
150080,-100,4,2,10,65,0,0
170558,-100,4,2,10,65,0,0
170642,-100,4,2,10,65,0,0
171148,-100,4,2,10,65,0,0
176541,-100,4,2,1,30,0,0
178227,-100,4,2,10,30,0,0
179154,-100,4,2,1,32,0,0
179238,-100,4,2,1,34,0,0
179491,-100,4,2,1,40,0,0
179575,-100,4,2,1,42,0,0
179828,-100,4,2,1,48,0,0
179912,-100,4,2,1,50,0,0
180165,-100,4,2,1,54,0,0
180249,-100,4,2,1,56,0,0
180502,-100,4,2,1,62,0,0
180586,-100,4,2,10,65,0,0
182272,-100,4,2,10,80,0,1
182609,-100,4,2,10,80,0,1
187328,-100,4,2,10,80,0,1
187665,-100,4,2,10,80,0,1
192384,-100,4,2,10,80,0,0
192721,-100,4,2,10,80,0,1
193058,-100,4,2,10,80,0,1
198114,-100,4,2,10,80,0,1
198452,-100,4,2,10,80,0,1
200811,-100,4,2,10,60,0,0
201317,-100,4,2,1,60,0,0
201485,-100,4,2,10,60,0,0
204013,-100,4,2,1,60,0,0
204182,-100,4,2,10,60,0,0

[Colours]
Combo1 : 160,66,255
Combo2 : 255,51,51
Combo3 : 79,158,255
Combo4 : 192,192,192

[HitObjects]
186,186,1261,6,0,B|259:222|247:161|337:201,1,140,4|0,1:2|0:0,0:0:0:0:
383,269,1766,1,0,1:0:0:0:
307,336,1935,2,0,P|287:300|283:262,1,70,4|0,1:2|0:0,0:0:0:0:
330,185,2272,2,0,P|347:155|354:120,1,70,8|0,1:1|0:0,0:0:0:0:
312,32,2609,6,0,L|245:61,1,70,4|0,1:2|0:0,0:0:0:0:
312,125,2946,2,0,L|312:204,1,70,4|0,1:2|0:0,0:0:0:0:
312,293,3283,2,0,L|312:372,1,70,4|0,1:2|0:0,0:0:0:0:
404,330,3620,2,0,L|404:369,2,35,4|0|0,1:2|0:0|3:0,0:0:0:0:
459,248,3957,5,4,1:2:0:0:
459,248,4126,1,2,0:2:0:0:
388,180,4294,2,0,P|351:199|309:205,1,70,8|2,0:2|3:2,0:0:0:0:
324,222,4547,1,2,0:0:0:0:
320,239,4631,2,0,P|283:220|241:214,1,70,0|2,1:2|0:2,0:0:0:0:
168,259,4968,1,8,0:2:0:0:
77,296,5137,6,0,B|48:235|101:218|73:146,1,140,2|2,0:0|0:2,0:0:0:0:
68,61,5643,2,0,P|112:66|141:84,1,70,10|2,0:2|0:2,0:0:0:0:
146,91,5895,1,0,0:0:0:0:
152,108,5980,2,0,P|196:103|225:85,1,70,2|2,1:2|0:2,0:0:0:0:
285,19,6317,1,10,0:0:0:0:
288,214,6654,5,2,1:2:0:0:
288,214,6822,1,2,0:2:0:0:
377,173,6991,2,0,P|384:211|377:254,1,70,10|2,0:2|2:2,0:0:0:0:
372,258,7244,1,0,3:0:0:0:
369,275,7328,2,0,P|362:313|369:356,1,70,2|2,1:2|0:2,0:0:0:0:
458,311,7665,1,10,0:0:0:0:
372,258,7834,6,0,B|325:246|325:246|278:258|278:258|223:246,1,140,2|0,0:0|0:0,0:0:0:0:
159,309,8339,2,0,P|140:268|139:232,1,70,12|0,0:0|0:0,0:0:0:0:
193,162,8676,1,2,1:2:0:0:
193,162,8845,1,2,0:0:0:0:
254,86,9013,2,0,P|273:45|274:9,1,70,6|0,1:2|1:2,0:0:0:0:
176,21,9350,5,4,1:2:0:0:
176,21,9519,1,2,0:0:0:0:
114,96,9687,2,0,P|125:143|118:180,1,70,8|2,0:0|0:2,0:0:0:0:
113,180,9940,1,2,0:0:0:0:
105,196,10025,2,0,P|94:243|101:280,1,70,2|2,1:2|0:0,0:0:0:0:
160,338,10362,1,8,0:0:0:0:
233,273,10530,6,0,B|284:261|284:261|323:272|323:272|378:261,1,140,2|2,0:0|3:2,0:0:0:0:
456,308,11036,2,0,P|465:272|462:233,1,70,10|0,0:2|0:0,0:0:0:0:
386,178,11373,1,2,1:2:0:0:
386,178,11541,1,2,3:2:0:0:
322,102,11710,2,0,P|312:66|316:27,1,70,8|0,0:2|3:3,0:0:0:0:
408,62,12047,6,0,L|447:83,2,35,2|0|2,1:2|3:3|3:2,0:0:0:0:
323,12,12384,2,0,L|246:24,1,70,8|2,3:2|3:2,0:0:0:0:
173,79,12721,2,0,L|128:69,2,35,2|2|2,1:2|3:2|3:2,0:0:0:0:
262,120,13058,1,8,3:2:0:0:
282,216,13227,6,0,P|246:166|166:157,1,140,2|2,3:2|3:2,0:0:0:0:
129,242,13732,2,0,L|208:235,1,70,14|2,3:2|3:2,0:0:0:0:
268,305,14069,1,2,1:2:0:0:
360,273,14238,1,2,3:2:0:0:
360,273,14322,1,0,3:3:0:0:
360,273,14407,2,0,L|405:275,3,35,8|2|0|0,3:2|3:2|3:3|3:3,0:0:0:0:
444,274,14744,5,4,1:2:0:0:
507,199,14912,1,2,0:0:0:0:
410,182,15081,2,0,L|419:109,1,70,0|0,1:0|0:0,0:0:0:0:
322,91,15418,2,0,L|313:21,2,70,0|2|0,1:0|0:0|1:0,0:0:0:0:
258,165,15923,6,0,P|206:122|111:135,1,140,2|2,0:0|0:0,0:0:0:0:
78,201,16429,2,0,L|90:277,1,70,0|2,1:0|0:0,0:0:0:0:
187,273,16766,2,0,L|175:197,1,70,0|2,1:0|0:0,0:0:0:0:
124,119,17103,1,0,1:0:0:0:
194,50,17272,6,0,P|244:49|305:123,1,140,2|2,0:0|0:0,0:0:0:0:
307,128,17693,1,2,0:0:0:0:
307,145,17777,2,0,P|342:137|384:141,1,70,0|0,1:0|0:0,0:0:0:0:
388,236,18114,2,0,P|353:244|311:240,1,70,0|2,1:0|0:0,0:0:0:0:
229,200,18452,1,0,1:0:0:0:
144,248,18620,6,0,B|116:163|158:188|136:96,1,140,2|2,0:0|0:0,0:0:0:0:
200,33,19126,2,0,P|232:58|276:61,1,70,0|2,1:0|0:0,0:0:0:0:
319,141,19463,2,0,P|351:116|395:113,1,70,0|2,1:0|0:0,0:0:0:0:
397,115,19716,1,0,1:0:0:0:
412,124,19800,1,0,1:0:0:0:
387,218,19968,1,0,1:0:0:0:
308,276,20137,6,0,L|166:239,1,140,0|0,1:0|1:0,0:0:0:0:
166,142,20643,2,0,L|308:179,1,140
386,225,21148,2,0,L|398:300,1,70,0|0,1:0|0:0,0:0:0:0:
492,315,21485,6,0,L|468:165,1,140,0|0,1:0|1:0,0:0:0:0:
374,155,21991,2,0,L|398:305,1,140
326,361,22496,1,0,1:0:0:0:
294,267,22665,1,2,0:0:0:0:
294,267,22834,6,0,P|259:287|218:290,1,70,0|0,1:0|0:0,0:0:0:0:
161,361,23171,2,0,P|126:341|85:338,1,70,0|0,1:0|0:0,0:0:0:0:
2,362,23508,1,0,1:0:0:0:
29,268,23676,2,0,P|41:234|38:195,1,70,0|0,0:0|1:0,0:0:0:0:
99,122,24013,1,0,0:0:0:0:
185,169,24182,6,0,L|95:150,1,70,0|2,1:0|0:0,0:0:0:0:
181,81,24519,2,0,L|229:19,1,70,2|0,0:0|0:0,0:0:0:0:
259,117,24856,2,0,L|265:190,1,70,2|0,0:2|0:0,0:0:0:0:
355,223,25193,2,0,L|349:153,1,70,8|2,0:0|0:0,0:0:0:0:
337,55,25530,5,4,1:2:0:0:
251,103,25699,1,2,0:0:0:0:
251,103,25783,1,2,0:0:0:0:
251,103,25867,2,0,P|214:103|173:80,1,70,8|0,1:2|0:0,0:0:0:0:
177,187,26204,2,0,P|114:157|43:181,1,140,0|8,1:0|1:2,0:0:0:0:
37,273,26710,6,0,P|100:303|171:279,1,140,2|2,0:0|0:0,0:0:0:0:
256,250,27216,1,8,1:2:0:0:
256,250,27384,1,2,0:0:0:0:
348,282,27553,2,0,L|339:354,1,70,0|2,1:0|0:0,0:0:0:0:
435,373,27890,1,8,1:2:0:0:
494,295,28058,6,0,L|478:149,1,140,2|2,0:0|0:0,0:0:0:0:
466,143,28480,1,2,0:0:0:0:
452,132,28564,2,0,P|413:134|376:123,1,70,8|2,1:2|0:0,0:0:0:0:
299,177,28901,2,0,P|260:175|223:186,1,70,0|2,1:0|0:0,0:0:0:0:
155,245,29238,1,8,1:2:0:0:
72,298,29407,6,0,P|122:283|191:354,1,140,2|2,0:0|0:0,0:0:0:0:
276,371,29912,2,0,P|308:354|352:349,1,70,8|2,1:2|0:0,0:0:0:0:
438,359,30249,2,0,P|476:357|509:344,1,70,0|2,1:0|0:0,0:0:0:0:
454,262,30586,1,8,1:2:0:0:
454,262,30755,1,0,1:0:0:0:
364,302,30923,6,0,B|334:246|383:217|359:142,1,140,0|8,1:0|1:2,0:0:0:0:
369,66,31429,2,0,P|433:46|426:113,1,140
354,148,31935,2,0,L|277:136,1,70,8|0,1:2|0:0,0:0:0:0:
194,99,32272,6,0,P|156:97|124:109,1,70,0|0,1:0|0:0,0:0:0:0:
138,206,32609,2,0,P|176:208|207:195,1,70,8|0,1:2|0:0,0:0:0:0:
284,137,32946,1,0,1:0:0:0:
284,137,33114,1,0,0:0:0:0:
357,202,33283,1,8,1:2:0:0:
357,202,33452,1,2,0:0:0:0:
265,235,33620,6,0,L|178:227,1,70,0|0,1:0|0:0,0:0:0:0:
193,326,33957,2,0,L|262:319,1,70,8|0,1:2|0:0,0:0:0:0:
277,329,34210,1,0,3:0:0:0:
291,339,34294,1,0,1:0:0:0:
387,358,34463,2,0,L|463:350,1,70,0|8,0:0|1:2,0:0:0:0:
496,261,34800,1,0,0:0:0:0:
417,202,34968,6,0,L|406:277,1,70,0|0,1:0|1:0,0:0:0:0:
406,271,35221,1,0,1:0:0:0:
406,271,35305,1,0,1:0:0:0:
316,312,35474,2,0,L|327:357,2,35,0|0|0,1:0|1:0|1:0,0:0:0:0:
237,253,35811,1,0,1:0:0:0:
237,253,35895,1,0,1:0:0:0:
237,253,35980,1,0,1:0:0:0:
176,329,36148,1,0,1:0:0:0:
97,269,36317,5,4,1:2:0:0:
97,269,36654,2,0,L|115:127,1,140,0|8,0:0|0:0,0:0:0:0:
204,92,37159,2,0,L|193:14,2,70,0|0|0,0:0|1:0|0:0,0:0:0:0:
287,143,37665,6,0,P|375:138|431:245,1,210,2|0,1:2|1:0,0:0:0:0:
336,228,38339,1,8,0:2:0:0:
242,256,38508,1,0,0:0:0:0:
242,256,38676,2,0,L|169:238,1,70,0|0,1:0|0:0,0:0:0:0:
141,146,39013,6,0,L|0:166,2,140,2|0|8,1:2|0:0|0:2,0:0:0:0:
234,177,39856,1,0,0:0:0:0:
269,85,40025,2,0,L|346:106,1,70,0|0,1:0|0:0,0:0:0:0:
294,192,40362,6,0,L|201:205,1,70,4|2,1:2|0:0,0:0:0:0:
128,222,40699,1,6,1:2:0:0:
33,245,40867,1,2,0:0:0:0:
33,245,40952,1,2,1:2:0:0:
33,245,41036,2,0,L|24:170,1,70,4|2,1:2|1:2,0:0:0:0:
118,204,41373,2,0,L|127:279,1,70,4|2,1:2|1:2,0:0:0:0:
202,335,41710,6,0,P|245:339|281:355,1,70,4|0,1:2|0:0,0:0:0:0:
366,332,42047,2,0,P|409:328|445:312,1,70,8|0,1:2|0:0,0:0:0:0:
446,306,42300,1,0,3:0:0:0:
445,289,42384,1,0,1:0:0:0:
444,190,42553,1,0,0:0:0:0:
442,92,42721,1,8,1:2:0:0:
442,92,42890,1,0,0:0:0:0:
360,146,43058,5,4,1:2:0:0:
360,146,43227,2,0,L|283:135,1,70,0|8,0:0|0:0,0:0:0:0:
300,233,43564,2,0,L|454:255,1,140,4|0,1:2|1:0,0:0:0:0:
448,155,44069,2,0,L|459:78,1,70,4|0,1:2|0:0,0:0:0:0:
359,76,44407,5,4,1:2:0:0:
261,67,44575,1,2,0:0:0:0:
163,58,44744,1,8,1:2:0:0:
65,48,44912,2,0,L|207:64,1,140,6|2,1:2|1:2,0:0:0:0:
302,69,45418,1,8,0:0:0:0:
395,39,45586,6,0,P|429:106|381:109,1,140,4|2,3:2|3:2,0:0:0:0:
302,69,46092,2,0,P|268:53|223:60,1,70,2|0,3:2|3:3,0:0:0:0:
180,135,46429,2,0,P|248:167|338:153,1,140,2|2,3:2|3:2,0:0:0:0:
389,103,46935,1,0,3:3:0:0:
389,103,47019,1,0,3:0:0:0:
389,103,47103,5,4,1:2:0:0:
256,192,47187,12,2,48452,3:2:0:0:
389,103,49800,6,0,P|358:81|311:77,1,70,4|0,1:2|3:0,0:0:0:0:
326,93,50053,1,2,0:0:0:0:
326,110,50137,1,0,1:1:0:0:
326,207,50305,1,2,3:2:0:0:
326,305,50474,2,0,P|248:325|178:294,1,140,0|0,1:2|1:1,0:0:0:0:
193,208,50980,6,0,P|271:188|341:219,1,140,2|2,3:2|3:2,0:0:0:0:
405,262,51485,1,0,1:2:0:0:
487,315,51654,2,0,B|520:254|465:227|494:171,1,140,2|2,3:2|3:2,0:0:0:0:
396,150,52159,2,0,P|360:165|314:156,1,70,2|0,1:2|3:0,0:0:0:0:
284,74,52497,6,0,P|349:46|433:63,1,140,2|2,1:2|1:2,0:0:0:0:
503,99,53002,1,2,2:2:0:0:
416,144,53171,2,0,P|404:176|413:214,1,70,2|0,1:2|3:3,0:0:0:0:
428,212,53423,1,0,3:0:0:0:
446,212,53508,1,0,1:1:0:0:
438,309,53676,1,0,3:0:0:0:
420,309,53761,1,0,3:0:0:0:
402,308,53845,6,0,L|251:296,1,140,2|12,1:2|1:2,0:0:0:0:
169,326,54350,1,0,0:0:0:0:
95,259,54519,2,0,L|17:274,1,70,0|0,1:1|3:3,0:0:0:0:
26,370,54856,2,0,L|94:383,1,70,12|0,1:2|0:0,0:0:0:0:
169,326,55193,5,4,1:2:0:0:
266,326,55362,1,2,3:2:0:0:
266,326,55446,1,0,3:0:0:0:
266,326,55530,1,0,1:1:0:0:
364,320,55699,1,0,3:0:0:0:
364,320,55783,1,0,3:0:0:0:
364,320,55867,2,0,B|396:259|341:239|368:171,1,140,2|0,1:2|1:1,0:0:0:0:
426,108,56373,6,0,P|462:106|500:117,1,70,2|0,3:2|1:2,0:0:0:0:
510,211,56710,2,0,P|474:213|436:202,1,70,2|0,3:2|1:1,0:0:0:0:
351,164,57047,1,2,3:2:0:0:
351,164,57131,1,0,0:0:0:0:
351,164,57216,2,0,L|274:173,1,70,0|2,1:2|3:2,0:0:0:0:
274,270,57553,2,0,L|351:279,1,70,2|0,1:2|0:0,0:0:0:0:
426,224,57890,6,0,L|438:143,1,70,0|2,1:2|2:0,0:0:0:0:
365,86,58227,2,0,L|353:167,1,70,12|0,0:0|0:0,0:0:0:0:
258,135,58564,2,0,L|177:123,1,70,4|2,1:1|0:0,0:0:0:0:
117,192,58901,2,0,L|198:204,1,70,12|0,1:2|0:0,0:0:0:0:
281,227,59238,5,4,1:1:0:0:
378,242,59407,2,0,L|425:249,2,35,0|0|0,3:2|3:2|3:1,0:0:0:0:
281,227,59744,1,0,3:2:0:0:
285,210,59828,1,0,3:2:0:0:
289,193,59912,1,0,1:2:0:0:
310,96,60081,1,0,3:2:0:0:
314,79,60165,1,2,3:2:0:0:
318,62,60249,2,0,L|406:81,1,70,0|0,3:1|3:2,0:0:0:0:
482,95,60586,6,0,L|462:180,1,70,4|0,1:2|3:0,0:0:0:0:
462,181,60839,1,2,0:2:0:0:
458,198,60923,1,0,1:0:0:0:
420,288,61092,1,0,3:0:0:0:
487,217,61260,2,0,P|417:191|352:218,1,140,0|0,1:2|1:0,0:0:0:0:
355,310,61766,6,0,P|425:336|490:309,1,140,2|2,3:2|3:2,0:0:0:0:
487,217,62272,1,0,1:0:0:0:
490,119,62440,2,0,B|422:80|410:140|342:108,1,140,2|2,3:2|3:2,0:0:0:0:
265,70,62946,2,0,P|232:57|187:61,1,70,2|0,1:2|3:0,0:0:0:0:
142,138,63283,6,0,P|208:164|298:156,2,140,2|2|2,1:2|1:2|1:2,0:0:0:0:
60,83,64126,2,0,L|25:56,2,35,0|0|0,3:0|3:0|1:0,0:0:0:0:
142,138,64463,1,0,3:0:0:0:
142,138,64547,1,2,0:2:0:0:
142,138,64631,5,2,1:2:0:0:
239,127,64800,1,0,3:0:0:0:
336,120,64968,2,0,L|171:134,1,140,12|4,1:2|1:1,0:0:0:0:
201,229,65474,1,0,3:0:0:0:
298,221,65643,2,0,L|380:214,1,70,12|0,1:2|0:0,0:0:0:0:
447,272,65980,6,0,P|465:197|423:135,1,140,6|2,1:1|1:1,0:0:0:0:
373,70,66485,1,0,3:0:0:0:
284,113,66654,2,0,L|275:195,1,70,2|2,1:1|3:1,0:0:0:0:
276,201,66907,1,0,3:3:0:0:
275,218,66991,1,0,1:3:0:0:
364,249,67159,6,0,L|368:206,2,35,2|0|0,3:1|3:3|1:3,0:0:0:0:
455,283,67496,2,0,L|459:240,2,35,2|0|0,3:1|3:3|1:3,0:0:0:0:
379,346,67834,1,2,3:1:0:0:
366,358,67918,1,0,3:3:0:0:
353,369,68002,1,0,1:3:0:0:
271,313,68171,2,0,L|228:338,2,35,2|0|0,3:1|3:3|1:3,0:0:0:0:
199,247,68508,1,0,3:3:0:0:
187,234,68592,1,0,3:3:0:0:
176,221,68676,6,0,B|242:251|250:192|331:223,1,140,4|2,1:2|0:1,0:0:0:0:
403,203,69182,1,0,1:0:0:0:
494,236,69350,2,0,L|418:210,1,70,2|0,1:1|0:0,0:0:0:0:
433,115,69687,2,0,L|509:89,1,70,4|0,1:2|0:0,0:0:0:0:
430,21,70025,6,0,L|354:47,1,70,2|0,1:1|0:0,0:0:0:0:
433,115,70362,2,0,L|433:202,1,70,2|0,1:1|0:0,0:0:0:0:
435,283,70699,2,0,L|435:370,1,70,2|0,1:2|0:0,0:0:0:0:
336,354,71036,2,2,L|336:319,2,35,12|0|0,0:1|0:0|0:0,0:0:0:0:
239,334,71373,5,4,1:2:0:0:
239,334,71541,1,2,0:2:0:0:
145,364,71710,2,0,P|137:327|155:284,1,70,8|2,0:2|3:2,0:0:0:0:
157,283,71963,1,2,0:0:0:0:
163,267,72047,2,0,P|171:233|163:199,1,70,0|2,1:2|0:2,0:0:0:0:
110,116,72384,1,8,0:2:0:0:
69,205,72553,6,0,B|134:240|148:179|221:206,1,140,2|2,0:0|0:2,0:0:0:0:
288,251,73058,2,0,P|322:260|362:251,1,70,10|2,0:2|0:2,0:0:0:0:
356,155,73395,2,0,P|322:146|282:155,1,70,2|2,1:2|0:2,0:0:0:0:
204,201,73732,1,10,0:0:0:0:
282,21,74069,5,2,1:2:0:0:
282,21,74238,1,2,0:2:0:0:
344,98,74407,2,0,L|340:182,1,70,10|2,0:2|2:2,0:0:0:0:
328,182,74659,1,0,3:0:0:0:
319,197,74744,2,0,L|323:281,1,70,2|2,1:2|0:2,0:0:0:0:
330,364,75081,1,10,0:0:0:0:
389,286,75249,6,0,P|310:268|257:300,1,140,2|0,0:0|0:0,0:0:0:0:
178,344,75755,2,0,P|143:344|108:332,1,70,12|0,0:0|0:0,0:0:0:0:
164,250,76092,2,0,P|139:225|122:192,1,70,2|2,1:2|0:0,0:0:0:0:
122,177,76345,1,0,1:0:0:0:
122,159,76429,2,0,P|137:127|162:103,1,70,6|0,1:2|1:2,0:0:0:0:
240,44,76766,5,4,1:2:0:0:
240,44,76935,1,2,0:0:0:0:
319,100,77103,2,0,P|362:102|400:88,1,70,8|2,0:0|0:2,0:0:0:0:
403,86,77356,1,2,0:0:0:0:
419,80,77440,1,2,1:2:0:0:
501,25,77609,1,2,0:0:0:0:
508,122,77777,1,8,0:0:0:0:
419,80,77946,6,0,B|362:50|333:104|267:64,1,140,2|2,0:0|3:2,0:0:0:0:
188,44,78452,2,0,P|149:44|116:60,1,70,10|0,0:2|0:0,0:0:0:0:
39,111,78789,1,2,1:2:0:0:
39,111,78957,1,2,3:2:0:0:
115,173,79126,2,0,L|110:224,2,35,8|0|0,0:2|3:3|3:3,0:0:0:0:
208,143,79463,6,0,L|290:133,1,70,2|2,1:2|3:2,0:0:0:0:
358,79,79800,2,0,L|350:33,2,35,8|0|2,3:2|3:3|3:2,0:0:0:0:
366,176,80137,1,2,1:2:0:0:
364,193,80221,1,2,3:2:0:0:
363,210,80305,1,2,3:2:0:0:
349,308,80474,1,8,3:2:0:0:
439,269,80643,6,0,P|398:222|299:224,1,140,2|2,3:2|3:2,0:0:0:0:
237,258,81148,2,0,P|207:283|156:293,1,70,14|2,3:2|3:2,0:0:0:0:
133,204,81485,2,0,P|163:179|214:169,1,70,2|2,1:2|3:2,0:0:0:0:
211,171,81738,1,0,3:3:0:0:
230,173,81822,2,0,L|242:131,3,35,8|2|0|0,3:2|3:2|3:3|3:3,0:0:0:0:
255,92,82159,5,4,1:2:0:0:
255,92,82328,1,2,0:0:0:0:
314,169,82496,2,0,L|295:253,1,70,0|0,1:0|0:0,0:0:0:0:
222,301,82834,2,0,P|192:280|156:277,2,70,0|2|0,1:0|0:0|1:0,0:0:0:0:
316,323,83339,6,0,P|383:348|454:326,1,140,2|2,0:0|0:0,0:0:0:0:
420,236,83845,2,0,P|383:228|351:234,1,70,0|2,1:0|0:0,0:0:0:0:
269,179,84182,2,0,P|261:142|267:110,2,70,0|2|0,1:0|0:0|1:0,0:0:0:0:
263,276,84687,6,0,P|270:313|264:345,1,70,2|0,0:0|1:0,0:0:0:0:
165,342,85025,1,2,0:0:0:0:
165,342,85193,2,0,P|157:305|163:273,1,70,0|0,1:0|0:0,0:0:0:0:
220,193,85530,2,0,P|181:177|145:176,2,70,0|2|0,1:0|0:0|1:0,0:0:0:0:
310,230,86036,6,0,B|340:159|285:158|308:82,1,140,2|2,0:0|0:0,0:0:0:0:
396,60,86541,2,0,P|437:64|468:82,2,70,0|2|0,1:0|0:0|1:0,0:0:0:0:
304,93,87047,1,2,0:0:0:0:
286,90,87131,1,0,1:0:0:0:
269,88,87215,1,0,1:0:0:0:
172,69,87384,1,0,1:0:0:0:
146,163,87553,6,0,P|226:151|268:78,1,140,0|0,1:0|1:0,0:0:0:0:
215,21,88058,2,0,P|135:33|93:106,1,140
48,160,88564,2,0,P|55:199|41:237,1,70,0|0,1:0|0:0,0:0:0:0:
142,248,88901,6,0,P|214:228|277:245,1,140,0|0,1:0|1:0,0:0:0:0:
277,342,89407,2,0,P|205:362|142:345,1,140
58,297,89912,1,0,1:0:0:0:
58,297,90081,1,2,0:0:0:0:
65,199,90249,6,0,L|51:115,1,70,0|0,1:0|0:0,0:0:0:0:
128,66,90586,2,0,L|142:150,1,70,0|0,1:0|0:0,0:0:0:0:
162,230,90923,2,0,L|246:216,2,70,0|2|0,1:0|0:0|1:0,0:0:0:0:
65,249,91429,1,2,0:0:0:0:
90,154,91598,6,0,L|108:80,1,70,0|2,1:0|0:0,0:0:0:0:
184,145,91935,2,0,L|166:219,1,70,2|0,0:0|0:0,0:0:0:0:
75,247,92272,2,0,L|-9:224,1,70,2|0,0:2|0:0,0:0:0:0:
29,324,92609,2,0,L|113:347,1,70,8|2,1:2|0:0,0:0:0:0:
193,326,92946,6,0,P|198:291|189:246,1,70,4|2,1:2|0:0,0:0:0:0:
181,243,93199,1,2,0:0:0:0:
168,231,93283,2,0,P|162:195|171:151,1,70,8|0,1:2|0:0,0:0:0:0:
239,96,93620,2,0,P|245:62|238:14,2,70,0|2|8,1:0|0:0|1:2,0:0:0:0:
180,175,94126,6,0,P|245:151|319:185,1,140,2|2,0:0|0:0,0:0:0:0:
382,239,94631,2,0,L|400:311,1,70,8|2,1:2|0:0,0:0:0:0:
479,251,94968,2,0,L|462:183,1,70,0|2,1:0|0:0,0:0:0:0:
373,140,95305,1,8,1:2:0:0:
402,46,95474,6,0,B|340:21|330:77|257:43,1,140,2|2,0:0|0:0,0:0:0:0:
250,38,95895,1,2,0:0:0:0:
234,30,95980,2,0,P|241:65|233:102,1,70,8|2,1:2|0:0,0:0:0:0:
167,169,96317,2,0,P|119:149|34:163,1,140,0|8,1:0|1:2,0:0:0:0:
26,260,96822,6,0,P|74:280|159:266,1,140,2|2,0:0|0:0,0:0:0:0:
249,229,97328,1,8,1:2:0:0:
249,229,97496,1,2,0:0:0:0:
200,143,97665,2,0,P|195:109|202:70,1,70,0|2,1:0|0:0,0:0:0:0:
298,74,98002,2,0,P|303:108|296:147,1,70,8|0,1:2|1:0,0:0:0:0:
257,232,98339,6,0,P|294:190|376:179,1,140,0|8,1:0|1:2,0:0:0:0:
419,265,98845,2,0,P|382:307|300:318,1,140
204,311,99350,2,0,P|172:301|123:304,1,70,8|0,1:2|0:0,0:0:0:0:
142,203,99687,6,0,P|207:205|268:166,1,140,0|8,1:0|1:2,0:0:0:0:
240,71,100193,2,0,P|175:69|114:108,1,140
47,180,100699,1,8,1:2:0:0:
47,180,100867,1,2,0:0:0:0:
142,203,101036,6,0,L|129:55,1,140,0|8,1:0|1:2,0:0:0:0:
220,27,101541,1,0,0:0:0:0:
219,44,101626,1,0,3:0:0:0:
219,62,101710,2,0,L|225:133,2,70,0|0|8,1:0|0:0|1:2,0:0:0:0:
315,79,102216,1,0,0:0:0:0:
315,79,102384,6,0,L|321:160,1,70,0|0,1:0|1:0,0:0:0:0:
332,163,102637,1,0,1:0:0:0:
342,178,102721,2,0,L|339:253,1,70,0|0,1:0|1:0,0:0:0:0:
334,265,102974,1,0,1:0:0:0:
330,282,103058,1,0,1:0:0:0:
239,320,103227,1,0,1:0:0:0:
235,302,103311,1,0,1:0:0:0:
232,285,103395,1,0,1:0:0:0:
211,188,103564,1,0,1:0:0:0:
194,91,103732,5,4,1:2:0:0:
194,91,104069,2,0,L|39:61,1,140,0|8,0:0|0:0,0:0:0:0:
82,159,104575,2,0,L|13:145,2,70,0|0|0,0:0|1:0|0:0,0:0:0:0:
176,184,105081,6,0,L|206:27,1,140,2|0,1:2|0:0,0:0:0:0:
299,50,105586,1,0,1:0:0:0:
299,50,105755,1,8,0:2:0:0:
330,141,105923,1,0,0:0:0:0:
330,141,106092,2,0,L|320:222,1,70,0|0,1:0|0:0,0:0:0:0:
375,294,106429,6,0,P|336:245|243:236,1,140,2|0,1:2|0:0,0:0:0:0:
210,313,106935,1,0,1:0:0:0:
210,313,107103,2,0,P|249:362|342:371,1,140,8|0,0:2|1:0,0:0:0:0:
420,379,107609,1,0,0:0:0:0:
470,295,107777,6,0,L|463:224,1,70,4|2,1:2|0:0,0:0:0:0:
372,187,108114,2,0,L|379:258,1,70,6|2,1:2|0:0,0:0:0:0:
381,275,108367,1,2,1:2:0:0:
384,293,108452,2,0,P|356:284|312:289,1,70,4|2,1:2|1:2,0:0:0:0:
222,317,108789,2,0,P|187:321|154:311,1,70,4|2,1:2|1:2,0:0:0:0:
85,240,109126,6,0,L|92:162,1,70,4|0,1:2|0:0,0:0:0:0:
178,125,109463,2,0,L|171:203,1,70,8|0,1:2|0:0,0:0:0:0:
170,213,109716,1,0,3:0:0:0:
169,231,109800,6,0,P|200:228|251:243,2,70,0|0|8,1:0|0:0|1:2,0:0:0:0:
79,269,110305,1,0,0:0:0:0:
94,172,110474,2,0,P|99:138|79:95,2,70,4|0|8,1:2|0:0|0:0,0:0:0:0:
56,262,110980,2,0,P|93:224|189:225,1,140,4|0,1:2|1:0,0:0:0:0:
262,263,111485,2,0,P|296:267|338:253,1,70,4|0,1:2|0:0,0:0:0:0:
277,174,111822,5,4,1:2:0:0:
249,268,111991,1,2,0:0:0:0:
213,359,112159,1,8,1:2:0:0:
170,270,112328,2,0,P|231:264|299:311,1,140,6|2,1:2|1:2,0:0:0:0:
365,373,112834,1,8,0:0:0:0:
388,278,113002,6,0,B|389:231|389:231|364:196|364:196|367:136,1,140,4|2,3:2|3:2,0:0:0:0:
444,86,113508,2,0,P|402:55|300:75,2,140,2|2|2,3:2|3:2|3:2,0:0:0:0:
509,158,114350,1,0,3:3:0:0:
509,158,114435,1,0,3:0:0:0:
509,158,114519,5,4,1:2:0:0:
256,192,114603,12,2,115867,3:2:0:0:
276,337,117216,6,0,L|285:257,1,70,4|2,1:2|3:2,0:0:0:0:
270,255,117468,1,0,0:0:0:0:
257,243,117553,2,0,L|266:163,1,70,0|2,1:1|3:2,0:0:0:0:
210,91,117890,2,0,P|278:77|340:111,1,140,0|0,1:2|1:1,0:0:0:0:
322,205,118395,6,0,P|254:219|192:185,1,140,2|2,3:2|3:2,0:0:0:0:
120,121,118901,1,0,1:2:0:0:
60,198,119069,2,0,B|34:261|91:263|59:341,1,140,2|2,3:2|3:2,0:0:0:0:
155,302,119575,2,0,P|188:298|229:307,1,70,2|0,1:2|3:0,0:0:0:0:
319,327,119912,6,0,P|384:303|460:328,2,140,2|2|2,1:2|1:2|1:2,0:0:0:0:
220,331,120755,1,0,3:3:0:0:
202,331,120839,1,0,3:0:0:0:
185,330,120923,1,0,1:1:0:0:
184,231,121092,1,0,3:0:0:0:
202,231,121176,1,0,3:0:0:0:
219,232,121260,6,0,B|243:166|198:162|218:79,1,140,2|12,1:2|1:2,0:0:0:0:
282,23,121766,1,0,0:0:0:0:
355,88,121935,2,0,P|388:80|428:81,1,70,0|0,1:1|3:3,0:0:0:0:
437,177,122272,2,0,P|404:185|364:184,1,70,12|0,1:2|0:0,0:0:0:0:
277,146,122609,6,0,P|244:138|204:139,1,70,4|2,1:2|0:0,0:0:0:0:
197,151,122862,1,2,0:0:0:0:
186,164,122946,2,0,P|148:169|109:158,1,70,0|0,1:1|3:0,0:0:0:0:
39,101,123283,2,0,P|41:64|33:26,2,70,2|0|0,1:2|0:0|1:1,0:0:0:0:
18,197,123789,6,0,P|6:267|34:349,1,140,2|2,3:2|3:2,0:0:0:0:
121,326,124294,1,0,1:1:0:0:
121,326,124463,2,0,P|133:256|105:174,1,140,2|2,3:2|3:2,0:0:0:0:
58,110,124968,2,0,P|53:72|57:35,1,70,2|0,1:2|0:0,0:0:0:0:
153,28,125305,6,0,P|184:39|226:41,1,70,0|2,1:2|2:0,0:0:0:0:
248,136,125643,2,0,P|217:125|175:123,1,70,12|0,0:0|0:0,0:0:0:0:
160,218,125980,2,0,L|174:299,1,70,4|2,1:1|0:0,0:0:0:0:
83,329,126317,2,0,L|69:248,1,70,12|0,1:2|0:0,0:0:0:0:
75,161,126654,6,0,L|-1:150,1,70,4|0,1:1|3:2,0:0:0:0:
8,133,126907,1,0,3:2:0:0:
11,116,126991,1,0,3:1:0:0:
95,66,127159,2,0,L|85:28,2,35,0|0|0,3:2|3:2|1:2,0:0:0:0:
181,112,127496,2,0,L|187:77,2,35,0|2|0,3:2|3:2|3:1,0:0:0:0:
108,179,127834,1,0,3:2:0:0:
111,196,127919,1,2,3:2:0:0:
114,213,128002,6,0,L|207:206,1,70,4|0,1:2|3:0,0:0:0:0:
187,226,128255,1,2,0:2:0:0:
191,243,128339,2,0,L|284:236,1,70,0|2,1:0|3:2,0:0:0:0:
348,192,128676,2,0,P|311:153|208:154,1,140,0|0,1:2|1:0,0:0:0:0:
188,234,129182,6,0,P|225:273|328:272,1,140,2|2,3:2|3:2,0:0:0:0:
398,317,129687,1,0,1:0:0:0:
471,251,129856,2,0,B|493:180|446:186|472:104,1,140,2|2,3:2|3:2,0:0:0:0:
455,16,130362,2,0,P|420:22|376:15,1,70,2|0,1:2|3:0,0:0:0:0:
324,94,130699,6,0,P|261:66|184:84,2,140,2|2|2,1:2|1:2|1:2,0:0:0:0:
419,114,131541,2,0,L|462:102,2,35,0|0|0,3:0|3:0|1:0,0:0:0:0:
351,185,131878,1,0,3:0:0:0:
351,185,131963,1,2,0:2:0:0:
351,185,132047,6,0,P|347:218|359:266,1,70,2|0,1:2|3:0,0:0:0:0:
428,317,132384,2,0,P|346:299|298:333,1,140,12|4,1:2|1:1,0:0:0:0:
213,368,132890,1,0,3:0:0:0:
166,282,133058,2,0,L|176:211,1,70,12|0,1:2|0:0,0:0:0:0:
258,159,133395,6,0,P|208:120|119:131,1,140,6|2,1:1|1:1,0:0:0:0:
42,158,133901,1,0,3:0:0:0:
27,254,134069,2,0,L|38:327,1,70,2|2,1:1|3:1,0:0:0:0:
51,335,134322,1,0,3:3:0:0:
65,346,134407,1,0,1:3:0:0:
155,308,134575,1,2,3:1:0:0:
162,291,134659,1,0,3:3:0:0:
170,275,134744,5,0,1:3:0:0:
260,237,134912,2,0,L|250:202,2,35,2|0|0,3:1|3:3|1:3,0:0:0:0:
345,188,135249,2,0,L|355:153,2,35,2|0|0,3:1|3:3|1:3,0:0:0:0:
434,228,135586,1,2,3:1:0:0:
442,244,135671,1,0,3:3:0:0:
449,261,135755,1,0,1:3:0:0:
360,301,135923,1,0,3:3:0:0:
352,317,136008,1,0,3:3:0:0:
345,334,136092,6,0,B|274:301|266:364|186:326,1,140,4|2,1:2|0:1,0:0:0:0:
122,286,136598,1,0,1:0:0:0:
195,221,136766,2,0,P|228:227|275:218,1,70,2|0,1:1|0:0,0:0:0:0:
263,123,137103,2,0,P|228:118|194:124,1,70,4|0,1:2|0:0,0:0:0:0:
191,32,137440,6,0,L|113:58,1,70,2|0,1:1|0:0,0:0:0:0:
194,123,137777,2,0,L|194:201,1,70,2|0,1:1|0:0,0:0:0:0:
194,291,138114,2,0,L|194:369,1,70,2|0,1:2|0:0,0:0:0:0:
95,350,138452,2,2,L|53:349,2,35,8|0|0,1:0|0:0|0:0,0:0:0:0:
97,251,138789,5,4,1:2:0:0:
438,134,149575,6,0,B|330:182|341:93|222:140,1,210,4|2,1:2|0:0,0:0:0:0:
140,162,150249,2,0,P|70:170|3:132,1,140,0|8,1:0|0:0,0:0:0:0:
31,43,150755,6,0,P|101:35|168:73,1,140,2|0,0:0|0:0,0:0:0:0:
234,130,151260,1,8,0:0:0:0:
318,180,151429,2,0,L|466:161,1,140,2|0,0:0|0:0,0:0:0:0:
465,260,151935,1,8,0:0:0:0:
465,260,152103,1,2,0:0:0:0:
366,255,152272,6,0,P|386:202|475:162,2,140,0|8|0,1:0|0:0|1:0,0:0:0:0:
371,352,153114,1,2,0:0:0:0:
371,352,153283,1,8,0:0:0:0:
272,354,153452,6,0,P|188:348|142:295,1,140,2|0,0:0|0:0,0:0:0:0:
157,214,153957,2,0,P|163:179|157:142,1,70,8|0,0:0|0:0,0:0:0:0:
67,184,154294,2,0,P|61:219|67:256,1,70,0|2,1:0|0:0,0:0:0:0:
135,322,154631,1,8,0:0:0:0:
135,322,154800,1,2,0:0:0:0:
226,286,154968,6,0,P|288:274|359:315,2,140,4|8|0,1:2|0:0|1:0,0:0:0:0:
278,369,155811,1,2,0:0:0:0:
367,327,155980,2,0,L|378:246,1,70,8|0,0:0|0:0,0:0:0:0:
439,181,156317,6,0,B|338:127|322:221|223:162,1,210,0|2,1:2|0:0,0:0:0:0:
161,106,156991,2,0,L|87:115,1,70,0|2,1:0|0:0,0:0:0:0:
91,212,157328,2,0,L|165:221,1,70,8|2,0:0|0:0,0:0:0:0:
238,161,157665,6,0,P|256:99|226:29,2,140,0|8|0,1:0|0:0|1:0,0:0:0:0:
178,239,158508,1,0,0:0:0:0:
237,316,158676,2,0,L|313:308,1,70,8|0,0:0|0:0,0:0:0:0:
404,296,159013,6,0,P|414:227|384:158,1,140,4|12,1:2|0:2,0:0:0:0:
297,201,159519,1,0,0:0:0:0:
297,201,159687,2,0,P|295:235|307:275,1,70,4|0,1:2|1:0,0:0:0:0:
390,317,160025,2,0,P|427:320|477:297,1,70,12|0,0:2|1:0,0:0:0:0:
414,225,160362,6,0,L|184:249,1,210,4|0,1:2|0:0,0:0:0:0:
115,287,161036,2,0,B|88:218|134:220|111:143,1,140,0|8,1:0|0:0,0:0:0:0:
163,66,161541,6,0,P|101:54|35:96,1,140,2|0,0:0|0:0,0:0:0:0:
59,187,162047,1,8,0:0:0:0:
59,187,162216,2,0,P|121:199|187:157,1,140,2|2,0:0|0:0,0:0:0:0:
257,96,162721,1,8,0:0:0:0:
257,96,162890,1,0,0:0:0:0:
328,162,163058,6,0,P|385:198|453:187,2,140,0|8|0,1:2|0:0|1:0,0:0:0:0:
257,96,163901,1,0,0:0:0:0:
183,160,164069,1,8,0:0:0:0:
182,160,164238,6,0,L|109:143,1,70,2|0,0:0|1:0,0:0:0:0:
136,239,164575,2,0,L|354:291,1,210,2|0,0:0|1:0,0:0:0:0:
434,314,165249,1,2,0:0:0:0:
456,218,165418,2,0,L|445:140,1,70,8|2,0:0|0:0,0:0:0:0:
507,71,165755,6,0,B|404:19|403:108|289:53,1,210,4|0,1:2|0:0,0:0:0:0:
219,109,166429,2,0,P|171:84|75:93,1,140,0|8,1:0|0:0,0:0:0:0:
69,184,166935,1,0,0:0:0:0:
69,184,167103,6,0,P|117:209|213:200,1,140,0|8,1:0|0:0,0:0:0:0:
280,147,167609,1,0,0:0:0:0:
366,193,167777,2,0,B|400:122|353:124|376:55,1,140,0|8,1:0|0:0,0:0:0:0:
465,17,168283,1,0,0:0:0:0:
498,109,168452,6,0,P|487:175|355:208,1,210,4|2,1:2|0:0,0:0:0:0:
279,162,169126,2,0,P|246:149|202:149,1,70,0|2,1:0|0:0,0:0:0:0:
225,244,169463,1,8,0:0:0:0:
225,244,169631,1,2,0:0:0:0:
315,283,169800,6,0,L|319:53,1,210,4|10,1:2|0:2,0:0:0:0:
334,64,170390,1,10,3:3:0:0:
350,56,170474,2,0,L|352:16,2,35,10|2|8,3:3|0:3|3:3,0:0:0:0:
446,75,170811,2,0,L|445:154,1,70,8|10,3:2|0:3,0:0:0:0:
444,243,171148,5,6,1:2:0:0:
256,192,177890,12,4,180586,1:2:0:0:
321,62,181935,6,0,L|335:130,1,70,0|0,1:2|0:0,0:0:0:0:
331,149,182187,1,0,0:0:0:0:
327,166,182272,2,0,L|320:244,1,70,4|2,1:2|3:2,0:0:0:0:
237,288,182609,2,0,P|291:330|366:324,1,140,0|0,1:2|1:1,0:0:0:0:
389,233,183114,6,0,P|335:191|260:197,1,140,2|2,3:2|3:2,0:0:0:0:
170,214,183620,1,0,1:2:0:0:
108,290,183789,2,0,L|100:150,1,140,2|2,3:2|3:2,0:0:0:0:
96,52,184294,2,0,L|15:31,1,70,2|0,1:2|3:0,0:0:0:0:
34,132,184631,6,0,L|186:171,1,140,2|2,1:2|1:2,0:0:0:0:
263,195,185137,1,2,2:2:0:0:
355,227,185305,2,0,P|360:185|351:151,1,70,2|0,1:2|3:3,0:0:0:0:
340,149,185558,1,0,3:0:0:0:
325,139,185643,2,0,P|318:104|324:70,1,70,0|0,1:1|3:0,0:0:0:0:
333,55,185895,1,0,3:0:0:0:
343,40,185980,6,0,L|418:46,1,70,2|0,1:2|3:3,0:0:0:0:
363,130,186317,2,0,L|200:117,1,140,12|0,1:2|1:1,0:0:0:0:
126,111,186822,1,0,3:3:0:0:
29,93,186991,2,0,L|37:7,1,70,12|0,1:2|0:0,0:0:0:0:
112,84,187328,6,0,L|104:170,1,70,4|2,1:2|0:0,0:0:0:0:
114,169,187581,1,2,0:0:0:0:
122,184,187665,2,0,L|114:270,1,70,0|0,1:1|3:0,0:0:0:0:
106,270,187918,1,0,3:0:0:0:
96,286,188002,2,0,P|60:291|26:279,2,70,2|0|0,1:2|0:0|1:1,0:0:0:0:
188,319,188508,6,0,P|250:302|326:331,1,140,2|2,3:2|3:2,0:0:0:0:
408,367,189013,1,0,1:1:0:0:
484,304,189182,2,0,B|504:227|448:237|466:159,1,140,2|2,3:2|3:2,0:0:0:0:
499,78,189687,2,0,P|506:43|498:6,1,70,2|0,1:2|0:0,0:0:0:0:
408,48,190025,6,0,L|336:71,1,70,0|2,1:2|2:0,0:0:0:0:
415,133,190362,2,0,L|487:110,1,70,12|0,0:0|0:0,0:0:0:0:
473,209,190699,2,0,L|494:275,1,70,4|2,1:1|0:0,0:0:0:0:
429,349,191036,2,0,L|407:282,1,70,12|0,1:2|0:0,0:0:0:0:
326,227,191373,6,0,L|244:217,1,70,4|0,1:1|3:2,0:0:0:0:
250,235,191626,1,2,3:2:0:0:
243,251,191710,2,0,L|161:241,1,70,0|2,3:1|3:2,0:0:0:0:
165,258,191963,1,0,3:2:0:0:
156,273,192047,2,0,B|218:156|95:194|151:60,1,210,2|0,1:2|0:0,0:0:0:0:
235,115,192721,5,4,1:2:0:0:
235,115,192805,1,2,0:2:0:0:
235,115,192890,2,0,L|241:65,2,35,0|2|0,3:0|0:2|1:0,0:0:0:0:
278,203,193227,1,2,3:2:0:0:
278,203,193311,1,0,0:0:0:0:
278,203,193395,2,0,P|334:169|426:189,1,140,0|0,1:2|1:0,0:0:0:0:
424,272,193901,6,0,P|368:306|276:286,1,140,2|2,3:2|3:2,0:0:0:0:
202,271,194407,1,0,1:0:0:0:
134,341,194575,2,0,L|156:202,1,140,2|2,3:2|3:2,0:0:0:0:
73,149,195081,2,0,L|62:79,1,70,2|0,1:2|3:0,0:0:0:0:
137,15,195418,6,0,P|217:47|230:100,1,140,2|2,1:2|1:2,0:0:0:0:
202,186,195923,1,0,3:0:0:0:
202,186,196092,2,0,L|119:167,1,70,2|0,1:2|3:0,0:0:0:0:
132,189,196345,1,0,3:0:0:0:
130,206,196429,1,0,1:0:0:0:
124,304,196598,1,0,3:0:0:0:
126,321,196682,1,2,0:2:0:0:
128,338,196766,6,0,L|206:328,1,70,2|0,1:2|3:0,0:0:0:0:
295,329,197103,2,0,L|364:337,1,70,12|0,1:2|0:0,0:0:0:0:
461,349,197440,1,4,1:1:0:0:
461,349,197609,1,0,3:0:0:0:
457,251,197777,2,0,L|448:178,1,70,12|0,1:2|0:0,0:0:0:0:
429,85,198114,6,0,P|366:128|350:196,1,140,6|2,1:1|1:1,0:0:0:0:
349,284,198620,1,0,3:0:0:0:
251,276,198789,2,0,L|241:318,3,35,2|0|2|0,1:1|0:0|3:1|3:3,0:0:0:0:
169,223,199126,2,0,L|159:265,3,35,0|0|2|0,1:3|3:3|3:1|3:3,0:0:0:0:
258,183,199463,6,0,L|248:141,3,35,0|0|2|0,1:3|3:3|3:1|3:3,0:0:0:0:
343,123,199800,2,0,L|333:81,3,35,0|0|2|0,1:3|3:3|3:1|3:3,0:0:0:0:
353,223,200137,2,0,L|395:213,3,35,0|0|2|0,1:3|3:3|3:1|3:3,0:0:0:0:
431,295,200474,2,0,L|473:285,3,35,0|0|0|0,1:3|3:3|3:3|3:3,0:0:0:0:
336,316,200811,6,0,P|265:328|200:298,1,140,4|2,1:2|0:1,0:0:0:0:
220,204,201317,1,0,1:0:0:0:
220,204,201485,2,0,P|291:192|356:222,1,140,2|2,1:1|1:2,0:0:0:0:
352,22,202159,6,0,L|284:48,1,70,2|0,1:1|0:0,0:0:0:0:
356,116,202496,2,0,L|354:191,1,70,2|0,1:1|0:0,0:0:0:0:
349,284,202834,2,0,L|347:359,1,70,2|0,1:2|0:0,0:0:0:0:
248,350,203171,1,12,1:0:0:0:
248,154,203508,6,0,B|321:134|313:186|402:163,1,140,4|2,1:2|0:1,0:0:0:0:
451,237,204013,1,0,1:0:0:0:
488,146,204182,2,0,L|482:72,1,70,2|0,1:1|0:0,0:0:0:0:
397,25,204519,2,0,L|403:99,1,70,2|0,1:2|0:0,0:0:0:0:
316,46,204856,6,0,L|245:74,1,70,2|0,1:1|0:0,0:0:0:0:
327,133,205193,2,0,L|333:207,1,70,2|0,1:1|0:0,0:0:0:0:
343,300,205530,2,0,L|349:374,1,70,2|0,1:2|0:0,0:0:0:0:
446,359,205867,1,12,1:0:0:0:
