osu file format v14

[General]
AudioFilename: audio.mp3
AudioLeadIn: 0
PreviewTime: 170980
Countdown: 0
SampleSet: Soft
StackLeniency: 0.7
Mode: 0
LetterboxInBreaks: 0
WidescreenStoryboard: 1

[Editor]
Bookmarks: 138789,149575,171148,181935
DistanceSpacing: 1
BeatDivisor: 4
GridSize: 32
TimelineZoom: 1.2

[Metadata]
Title:Wa ta shi wa * No.1!
TitleUnicode:わ・た・し・は☆No. 1!
Artist:San Diego (CV: Itou Asuka)
ArtistUnicode:サンディエゴ (CV: 伊藤あすか)
Creator:Shurelia
Version:Hinsvar's Normal!
Source:アズールレーン
Tags:azur lane sandymeme sandy ship waifus 私 わたし watashi 桜村岬 かみじょうゆうや kamijou yuuya number nitrous hinsvar Kirylln yf_bmp so0p
BeatmapID:2258008
BeatmapSetID:1079211

[Difficulty]
HPDrainRate:4
CircleSize:3.2
OverallDifficulty:4.5
ApproachRate:5.3
SliderMultiplier:1.12
SliderTickRate:1

[Events]
//Background and Video events
0,0,"sandybg.jpg",0,0
//Break Periods
2,71573,78263
2,138989,148375
2,171348,175341
//Storyboard Layer 0 (Background)
//Storyboard Layer 1 (Fail)
//Storyboard Layer 2 (Pass)
//Storyboard Layer 3 (Foreground)
//Storyboard Layer 4 (Overlay)
//Storyboard Sound Samples

[TimingPoints]
1261,337.078651685393,4,2,10,60,1,0
3957,-100,4,2,10,75,0,1
4294,-100,4,2,10,75,0,1
9350,-100,4,2,10,75,0,1
9687,-100,4,2,10,75,0,1
14744,-100,4,2,10,60,0,0
15081,-100,4,2,10,60,0,0
36317,-100,4,2,10,65,0,0
36822,-100,4,2,1,65,0,0
36991,-100,4,2,10,65,0,0
49800,-100,4,2,10,80,0,1
50137,-100,4,2,10,80,0,1
55193,-100,4,2,10,80,0,1
55530,-100,4,2,10,80,0,1
60249,-100,4,2,10,80,0,0
60586,-100,4,2,10,80,0,1
60923,-100,4,2,10,80,0,1
65980,-100,4,2,10,80,0,1
66317,-100,4,2,10,80,0,1
68676,-100,4,2,10,80,0,0
71373,-100,4,2,10,80,0,0
71710,-100,4,2,1,75,0,0
79463,-100,4,2,10,75,0,0
82159,-100,4,2,10,80,0,0
82496,-100,4,2,10,60,0,0
103732,-100,4,2,10,65,0,0
104238,-100,4,2,1,65,0,0
104407,-100,4,2,10,65,0,0
117216,-100,4,2,10,80,0,1
117553,-100,4,2,10,80,0,1
122609,-100,4,2,10,80,0,1
122946,-100,4,2,10,80,0,1
127665,-100,4,2,10,80,0,0
128002,-100,4,2,10,80,0,1
128339,-100,4,2,10,80,0,1
133395,-100,4,2,10,80,0,1
133732,-100,4,2,10,80,0,1
136092,-100,4,2,10,60,0,0
138789,-100,4,2,10,60,0,0
139126,-100,4,2,1,75,0,0
149575,-100,4,2,10,65,0,0
149912,-100,4,2,10,65,0,0
171148,-100,4,2,10,65,0,0
176541,-100,4,2,10,30,0,0
179154,-100,4,2,1,32,0,0
179238,-100,4,2,10,30,0,0
179491,-100,4,2,1,40,0,0
179575,-100,4,2,10,30,0,0
179659,-100,4,2,1,44,0,0
179744,-100,4,2,1,46,0,0
179828,-100,4,2,1,48,0,0
179912,-100,4,2,10,30,0,0
180165,-100,4,2,1,54,0,0
180249,-100,4,2,10,30,0,0
180334,-100,4,2,1,58,0,0
180418,-100,4,2,1,60,0,0
180502,-100,4,2,1,62,0,0
180586,-100,4,2,10,65,0,0
182272,-100,4,2,10,80,0,1
182609,-100,4,2,10,80,0,1
187328,-100,4,2,10,80,0,1
187665,-100,4,2,10,80,0,1
192384,-100,4,2,10,80,0,0
192721,-100,4,2,10,80,0,1
193058,-100,4,2,10,80,0,1
198114,-100,4,2,10,80,0,1
198452,-100,4,2,10,80,0,1
200811,-100,4,2,10,60,0,0
201317,-100,4,2,10,60,0,0

[Colours]
Combo1 : 160,66,255
Combo2 : 255,51,51
Combo3 : 79,158,255
Combo4 : 192,192,192

[HitObjects]
102,86,1261,6,0,P|59:113|43:172,1,112,4|0,1:2|0:0,0:0:0:0:
59,227,1766,1,0,0:0:0:0:
59,227,1935,1,4,1:2:0:0:
127,315,2272,1,8,1:1:0:0:
224,259,2609,2,0,P|276:240|342:240,2,112,4|4|4,1:2|1:2|1:2,0:0:0:0:
152,173,3620,1,4,1:2:0:0:
260,143,3957,6,0,P|278:97|281:24,1,112,4|8,1:2|0:2,0:0:0:0:
234,18,4463,1,2,3:2:0:0:
234,18,4631,2,0,P|194:43|127:54,1,112,0|8,1:2|0:2,0:0:0:0:
88,17,5137,2,0,P|39:77|50:169,1,168,2|10,0:0|0:2,0:0:0:0:
133,234,5980,2,0,P|161:217|176:192,2,56,2|2|10,1:2|0:2|0:0,0:0:0:0:
82,334,6654,6,0,P|128:364|191:373,1,112,2|10,1:2|0:2,0:0:0:0:
241,362,7159,1,2,2:2:0:0:
241,362,7328,2,0,L|230:300,2,56,2|2|10,1:2|0:2|0:0,0:0:0:0:
293,342,7834,2,0,P|341:317|409:303,1,112,2|0,0:0|0:0,0:0:0:0:
448,326,8339,1,12,0:0:0:0:
498,226,8676,1,2,1:2:0:0:
404,165,9013,1,6,1:2:0:0:
444,60,9350,6,0,B|401:20|401:20|338:14,1,112,4|8,1:2|0:0,0:0:0:0:
304,49,9856,1,2,0:2:0:0:
304,49,10025,2,0,L|232:61,2,56,2|2|8,1:2|0:0|0:0,0:0:0:0:
329,98,10530,2,0,P|325:186|288:273,1,168,2|10,0:0|0:2,0:0:0:0:
248,361,11373,1,2,1:2:0:0:
137,342,11710,1,8,0:2:0:0:
84,243,12047,6,0,P|55:242|15:256,2,56,2|2|8,1:2|3:2|3:2,0:0:0:0:
137,144,12721,2,0,P|126:114|120:84,2,56,2|2|8,1:2|3:2|3:2,0:0:0:0:
180,179,13227,2,0,P|203:132|216:63,1,112,2|2,3:2|3:2,0:0:0:0:
201,19,13732,1,14,3:2:0:0:
312,5,14069,2,0,P|340:10|374:23,2,56,2|2|8,1:2|3:2|3:2,0:0:0:0:
323,116,14744,6,0,P|341:174|382:206,1,112,4|0,1:2|1:0,0:0:0:0:
378,316,15418,2,0,B|330:340|330:340|264:353,1,112,0|0,1:0|1:0,0:0:0:0:
229,315,15923,1,2,0:0:0:0:
133,373,16260,2,0,B|111:323|111:323|58:301,1,112,2|2,0:0|0:0,0:0:0:0:
11,270,16766,2,0,P|49:225|49:160,1,112,0|0,1:0|1:0,0:0:0:0:
15,132,17272,1,2,0:0:0:0:
104,65,17609,6,0,P|162:74|213:116,1,112,2|0,0:0|0:0,0:0:0:0:
230,154,18114,1,0,1:0:0:0:
173,252,18452,1,0,1:0:0:0:
173,252,18620,1,2,0:0:0:0:
237,343,18957,2,0,B|294:362|294:362|352:347,1,112,2|2,0:0|0:0,0:0:0:0:
396,328,19463,1,0,1:0:0:0:
457,232,19800,1,0,1:0:0:0:
471,121,20137,6,0,P|453:68|399:35,1,112,0|0,1:0|1:0,0:0:0:0:
364,71,20643,1,0,0:0:0:0:
364,71,20811,2,0,P|324:117|259:117,1,112,0|0,0:0|1:0,0:0:0:0:
179,180,21485,2,0,B|147:225|147:225|135:299,1,112,0|0,1:0|1:0,0:0:0:0:
93,315,21991,2,0,P|51:275|35:213,1,112
37,118,22665,1,2,0:0:0:0:
37,118,22834,6,0,P|92:116|133:68,1,112,0|0,1:0|1:0,0:0:0:0:
244,67,23508,1,0,1:0:0:0:
244,67,23676,2,0,P|264:123|268:178,1,112
241,225,24182,5,0,1:0:0:0:
241,225,25193,1,8,0:0:0:0:
342,282,25530,6,0,P|378:242|406:180,1,112,4|8,1:2|1:2,0:0:0:0:
349,92,26204,2,0,P|318:78|295:73,2,56,0|2|8,1:0|0:0|1:2,0:0:0:0:
394,59,26710,1,2,0:0:0:0:
492,109,27047,2,0,P|505:163|507:219,1,112,2|2,0:0|0:0,0:0:0:0:
479,268,27553,2,0,B|425:276|425:276|378:337,1,112,0|8,1:0|1:2,0:0:0:0:
375,376,28058,1,2,0:0:0:0:
271,332,28395,6,0,P|247:332|208:345,2,56,2|8|2,0:0|1:2|0:0,0:0:0:0:
241,284,28901,2,0,B|220:234|220:234|238:173,1,112,0|8,1:0|1:2,0:0:0:0:
258,127,29407,1,2,0:0:0:0:
181,44,29744,2,0,P|131:31|71:28,1,112,2|2,0:0|0:0,0:0:0:0:
29,65,30249,1,0,1:0:0:0:
95,155,30586,2,0,P|102:187|105:216,1,56,8|0,1:2|1:0,0:0:0:0:
68,252,30923,6,0,B|128:248|128:248|187:299,1,112,0|8,1:0|1:2,0:0:0:0:
167,341,31429,1,0,0:0:0:0:
167,341,31598,1,0,1:2:0:0:
275,367,31935,1,8,1:2:0:0:
273,255,32272,2,0,P|300:245|338:241,1,56,0|0,1:0|0:0,0:0:0:0:
386,251,32609,1,8,1:2:0:0:
386,251,32777,2,0,P|362:201|382:140,1,112
425,53,33452,1,2,0:0:0:0:
425,53,33620,6,0,L|307:22,2,112,0|8|0,1:0|1:2|1:0,0:0:0:0:
470,85,34463,1,0,0:0:0:0:
493,135,34631,1,8,1:2:0:0:
474,245,34968,2,0,P|444:294|389:327,1,112,0|0,1:0|1:0,0:0:0:0:
349,298,35474,2,0,L|338:238,2,56,0|0|0,1:0|1:0|1:0,0:0:0:0:
297,320,35980,1,0,1:0:0:0:
201,378,36317,6,0,P|166:339|94:311,1,112,4|0,1:2|0:0,0:0:0:0:
30,238,36991,1,8,0:0:0:0:
105,154,37328,1,0,1:0:0:0:
204,102,37665,2,0,P|246:87|297:76,2,84,2|0|0,1:2|0:0|1:0,0:0:0:0:
172,55,38339,1,8,0:2:0:0:
67,12,38676,1,0,1:0:0:0:
2,103,39013,6,0,P|3:164|25:219,1,112,2|0,1:2|0:0,0:0:0:0:
112,275,39687,2,0,B|159:242|159:242|221:247,1,112,8|0,0:2|1:0,0:0:0:0:
303,313,40362,2,0,L|324:375,2,56,4|2|6,1:2|0:0|1:2,0:0:0:0:
353,213,41036,2,0,L|331:146,2,56,4|2|4,1:2|1:2|1:2,0:0:0:0:
459,179,41710,5,4,1:2:0:0:
435,71,42047,2,0,B|390:25|390:25|332:32,1,112,8|0,1:2|1:0,0:0:0:0:
291,54,42553,2,0,L|227:39,1,56,0|8,0:0|1:2,0:0:0:0:
177,136,43058,2,0,B|129:133|129:133|72:103|72:103|15:110,2,168,4|4|4,1:2|1:2|1:2,0:0:0:0:
288,134,44407,6,0,P|311:121|342:113,2,56,4|2|8,1:2|0:0|1:2,0:0:0:0:
313,183,44912,2,0,P|301:236|265:284,1,112,6|2,1:2|1:2,0:0:0:0:
232,326,45418,1,8,0:0:0:0:
232,326,45586,2,0,P|207:270|159:237,1,112,4|2,3:2|3:2,0:0:0:0:
115,262,46092,1,2,3:2:0:0:
29,189,46429,1,2,3:2:0:0:
74,86,46766,1,2,3:2:0:0:
183,71,47103,6,0,L|193:11,2,56,4|0|0,1:2|3:3|3:3,0:0:0:0:
259,152,47777,2,0,L|315:121,2,56,0|0|0,3:3|3:3|3:3,0:0:0:0:
234,202,48283,1,0,3:3:0:0:
234,202,48452,5,2,3:2:0:0:
332,255,48789,1,2,3:2:0:0:
434,209,49126,1,2,0:0:0:0:
465,101,49463,1,12,3:1:0:0:
383,24,49800,6,0,B|338:55|338:55|320:120,1,112,4|0,1:2|1:1,0:0:0:0:
263,205,50474,2,0,P|292:252|306:310,1,112,0|0,1:2|1:1,0:0:0:0:
270,350,50980,2,0,P|229:321|165:317,1,112,2|2,3:2|3:2,0:0:0:0:
119,342,51485,1,0,1:2:0:0:
119,342,51654,2,0,B|80:285|80:285|108:186,1,168,2|2,3:2|1:2,0:0:0:0:
106,77,52496,6,0,P|61:44|-8:45,2,112,2|2|2,1:2|1:2|1:2,0:0:0:0:
201,17,53508,1,0,1:1:0:0:
285,90,53845,2,0,B|315:139|315:139|322:201,1,112,2|12,1:2|1:2,0:0:0:0:
332,252,54350,1,0,0:0:0:0:
332,252,54519,2,0,B|359:201|359:201|409:164,1,112,0|12,1:1|1:2,0:0:0:0:
476,84,55193,6,0,P|488:60|495:26,2,56,4|2|0,1:2|3:2|1:1,0:0:0:0:
435,54,55699,1,0,0:0:0:0:
435,54,55867,2,0,P|379:35|318:27,1,112,2|0,1:2|1:1,0:0:0:0:
281,61,56373,2,0,B|217:84|217:84|176:43,1,112,2|2,3:2|3:2,0:0:0:0:
79,16,57047,2,0,B|48:44|48:44|39:113,1,112,2|2,3:2|3:2,0:0:0:0:
64,163,57553,1,2,1:2:0:0:
121,259,57890,6,0,L|182:241,1,56,0|2,1:2|2:0,0:0:0:0:
221,212,58227,1,12,0:0:0:0:
325,251,58564,2,0,L|383:266,2,56,4|2|12,1:1|0:0|1:2,0:0:0:0:
289,356,59238,2,0,P|243:377|175:381,1,112,4|0,1:1|3:1,0:0:0:0:
139,356,59744,1,0,3:2:0:0:
139,356,59912,2,0,P|165:309|156:250,1,112,0|0,1:2|3:1,0:0:0:0:
69,183,60586,6,0,P|90:173|124:145,1,56,4|0,1:2|0:0,0:0:0:0:
125,97,60923,2,0,P|156:95|190:108,1,56,0|0,1:0|3:0,0:0:0:0:
231,123,61260,2,0,B|268:82|268:82|290:19,1,112,0|0,1:2|1:0,0:0:0:0:
339,10,61766,1,2,3:2:0:0:
440,57,62103,1,2,3:2:0:0:
474,167,62440,2,0,P|437:204|411:258,1,112,2|2,3:2|3:2,0:0:0:0:
428,310,62946,1,2,1:2:0:0:
331,367,63283,6,0,L|273:383,2,56,2|0|2,1:2|3:0|1:2,0:0:0:0:
274,268,63957,2,0,B|230:231|230:231|166:248,1,112,2|0,1:2|1:0,0:0:0:0:
82,188,64631,2,0,P|67:138|69:78,1,112,2|12,1:2|1:2,0:0:0:0:
103,34,65137,1,0,0:0:0:0:
103,34,65305,2,0,P|153:19|213:21,1,112,4|12,1:1|1:2,0:0:0:0:
304,84,65980,6,0,B|363:66|363:66|393:18,2,112,6|2|2,1:1|1:1|1:1,0:0:0:0:
271,129,66822,2,0,L|255:190,1,56,2|0,3:1|1:3,0:0:0:0:
297,222,67159,1,2,3:1:0:0:
340,325,67496,1,2,3:1:0:0:
236,368,67834,2,0,P|182:358|119:325,2,112,2|2|0,3:1|3:1|3:3,0:0:0:0:
252,314,68676,5,4,1:2:0:0:
358,363,69013,1,2,0:1:0:0:
358,363,69182,2,0,L|426:344,1,56,0|2,0:0|1:1,0:0:0:0:
474,254,69687,1,4,1:2:0:0:
392,177,70025,6,0,P|373:128|385:63,1,112,2|2,1:1|1:1,0:0:0:0:
291,3,70699,1,2,1:2:0:0:
200,68,71036,1,12,0:1:0:0:
93,34,71373,5,4,1:2:0:0:
388,138,79463,6,0,B|377:85|377:85|408:25,2,112,2|8|2,1:2|3:2|1:2,0:0:0:0:
466,225,80474,1,8,3:2:0:0:
466,225,80643,2,0,P|463:288|426:328,1,112,2|2,3:2|3:2,0:0:0:0:
386,292,81148,1,14,3:2:0:0:
304,368,81485,1,2,1:2:0:0:
196,337,81822,1,8,3:2:0:0:
129,246,82159,6,0,P|107:196|134:135,1,112,4|0,1:2|1:0,0:0:0:0:
213,75,82834,2,0,P|221:54|224:18,2,56,0|2|0,1:0|0:0|1:0,0:0:0:0:
261,103,83339,2,0,P|315:82|378:75,1,112,2|2,0:0|0:0,0:0:0:0:
414,107,83845,1,0,1:0:0:0:
347,197,84182,2,0,B|330:252|330:252|350:306,1,112,0|0,1:0|1:0,0:0:0:0:
397,332,84687,1,2,0:0:0:0:
499,263,85025,5,2,0:0:0:0:
499,263,85193,2,0,P|493:208|477:146,1,112,0|0,1:0|1:0,0:0:0:0:
487,92,85699,2,0,P|459:72|433:42,1,56,2|0,0:0|1:0,0:0:0:0:
438,0,86036,1,2,0:0:0:0:
336,46,86373,1,2,0:0:0:0:
336,46,86541,2,0,P|277:64|213:71,1,112,0|0,1:0|1:0,0:0:0:0:
106,41,87216,2,0,P|92:62|82:92,1,56,0|0,1:0|1:0,0:0:0:0:
104,148,87553,6,0,P|129:201|145:263,1,112,0|0,1:0|1:0,0:0:0:0:
133,310,88058,1,0,0:0:0:0:
133,310,88227,2,0,P|178:277|234:254,1,112,0|0,0:0|1:0,0:0:0:0:
273,152,88901,2,0,B|318:188|318:188|381:204,1,112,0|0,1:0|1:0,0:0:0:0:
417,169,89407,1,0,0:0:0:0:
417,169,89575,1,0,0:0:0:0:
499,244,89912,1,0,1:0:0:0:
445,342,90249,6,0,P|399:372|333:370,1,112,0|0,1:0|1:0,0:0:0:0:
328,262,90923,2,0,P|337:234|344:201,2,56,0|2|0,1:0|0:0|1:0,0:0:0:0:
220,298,91598,5,0,1:0:0:0:
220,298,92609,1,8,1:2:0:0:
146,213,92946,6,0,P|101:189|41:168,1,112,4|8,1:2|1:2,0:0:0:0:
0,65,93620,2,0,B|42:26|42:26|104:40,1,112,0|8,1:0|1:2,0:0:0:0:
137,75,94126,1,2,0:0:0:0:
248,65,94463,2,0,L|260:11,2,56,2|8|2,0:0|1:2|0:0,0:0:0:0:
282,109,94968,2,0,B|302:158|302:158|288:217,1,112,0|8,1:0|1:2,0:0:0:0:
267,267,95474,1,2,0:0:0:0:
359,330,95811,6,0,P|368:354|364:387,2,56,2|8|2,3:0|3:2|3:0,3:0:0:0:
382,278,96317,2,0,P|412:235|468:199,1,112,0|8,1:0|1:2,0:0:0:0:
470,147,96822,1,2,0:0:0:0:
410,52,97159,2,0,P|373:16|294:18,1,112,2|2,0:0|0:0,0:0:0:0:
283,56,97665,1,0,1:0:0:0:
174,83,98002,1,8,1:2:0:0:
77,25,98339,6,0,P|39:62|27:130,1,112,0|8,1:0|1:2,0:0:0:0:
46,177,98845,1,0,0:0:0:0:
46,177,99013,1,0,1:2:0:0:
127,254,99350,1,8,1:2:0:0:
171,150,99687,2,0,P|196:157|231:174,1,56,0|0,1:0|0:0,0:0:0:0:
247,226,100025,1,8,1:2:0:0:
247,226,100193,2,0,P|286:255|352:257,1,112
457,225,100867,1,2,0:0:0:0:
457,225,101036,6,0,P|452:168|474:112,1,112,0|8,1:0|1:2,0:0:0:0:
404,26,101710,1,0,1:0:0:0:
332,112,102047,1,8,1:2:0:0:
253,31,102384,2,0,B|207:5|207:5|143:23,1,112,0|0,1:0|1:0,0:0:0:0:
109,59,102890,1,0,1:0:0:0:
109,59,103058,2,0,L|45:47,2,56,0|0|0,1:0|1:0|1:0,0:0:0:0:
52,155,103732,6,0,P|21:200|23:255,1,112,4|0,1:2|0:0,0:0:0:0:
81,351,104407,1,8,0:0:0:0:
149,262,104744,2,0,P|184:261|211:271,1,56,0|0,1:0|0:0,0:0:0:0:
224,319,105081,2,0,B|270:351|270:351|339:328,1,112,2|0,1:2|0:0,0:0:0:0:
370,303,105586,1,0,1:0:0:0:
442,217,105923,2,0,L|501:205,2,56,0|0|0,0:0|1:0|0:0,0:0:0:0:
404,175,106429,6,0,P|380:122|373:62,1,112,2|0,1:2|0:0,0:0:0:0:
268,28,107103,2,0,P|246:79|210:122,1,112,8|0,0:2|1:0,0:0:0:0:
99,140,107777,2,0,L|86:202,1,56,4|2,1:2|0:0,0:0:0:0:
112,245,108114,1,6,1:2:0:0:
220,272,108452,2,0,L|278:257,2,56,4|2|4,1:2|1:2|1:2,0:0:0:0:
197,322,108957,1,2,1:2:0:0:
197,322,109126,6,0,P|243:355|308:368,1,112,4|8,1:2|1:2,0:0:0:0:
401,330,109800,2,0,L|385:270,2,56,0|0|8,1:0|0:0|1:2,0:0:0:0:
456,356,110305,1,0,0:0:0:0:
456,356,110474,2,0,B|502:286|502:286|488:183,2,168,4|4|4,1:2|1:2|1:2,0:0:0:0:
349,312,111822,6,0,L|282:322,2,56,4|2|8,1:2|0:0|1:2,0:0:0:0:
371,260,112328,2,0,P|314:231|267:184,1,112,6|2,1:2|1:2,0:0:0:0:
275,142,112834,1,8,0:0:0:0:
275,142,113002,2,0,B|298:89|298:89|298:23,1,112,4|2,3:2|3:2,0:0:0:0:
250,5,113508,1,2,3:2:0:0:
164,77,113845,1,2,3:2:0:0:
64,24,114182,1,2,3:2:0:0:
9,121,114519,6,0,L|-3:186,2,56,4|0|0,1:2|3:3|3:3,0:0:0:0:
107,173,115193,2,0,L|119:238,2,56,0|0|0,3:3|3:3|3:3,0:0:0:0:
143,130,115699,1,0,3:3:0:0:
143,130,115867,5,2,3:2:0:0:
230,199,116204,1,2,3:2:0:0:
281,99,116541,1,2,0:0:0:0:
382,52,116878,1,12,3:1:0:0:
475,114,117216,6,0,B|500:161|500:161|486:227,1,112,4|0,1:2|1:1,0:0:0:0:
420,307,117890,2,0,P|370:286|306:275,1,112,0|0,1:2|1:1,0:0:0:0:
280,320,118395,2,0,P|240:363|171:357,1,112,2|2,3:2|3:2,0:0:0:0:
149,334,118901,1,0,1:2:0:0:
149,334,119069,2,0,B|189:261|189:261|174:161,1,168,2|2,3:2|1:2,0:0:0:0:
78,122,119912,6,0,P|52:81|64:13,1,112,2|2,1:2|1:2,0:0:0:0:
170,36,120586,2,0,P|199:24|219:10,2,56,2|0|0,1:2|3:3|1:1,0:0:0:0:
232,128,121260,2,0,B|290:149|290:149|346:125,1,112,2|12,1:2|1:2,0:0:0:0:
364,183,121766,1,0,0:0:0:0:
364,183,121935,2,0,B|316:222|316:222|309:283,1,112,0|12,1:1|1:2,0:0:0:0:
273,366,122609,6,0,P|244:363|216:344,1,56,4|0,1:2|0:0,0:0:0:0:
197,298,122946,2,0,P|164:298|136:309,1,56,0|0,1:1|3:0,0:0:0:0:
97,338,123283,2,0,P|52:307|31:250,1,112,2|0,1:2|1:1,0:0:0:0:
52,202,123789,1,2,3:2:0:0:
130,122,124126,1,2,3:2:0:0:
228,173,124463,2,0,P|252:129|259:57,1,112,2|2,3:2|3:2,0:0:0:0:
229,21,124968,1,2,1:2:0:0:
340,28,125305,6,0,L|402:20,1,56,0|2,1:2|2:0,0:0:0:0:
445,46,125643,1,12,0:0:0:0:
384,140,125980,2,0,P|371:168|365:197,2,56,4|2|12,1:1|0:0|1:2,0:0:0:0:
484,191,126654,2,0,P|503:244|510:312,1,112,4|0,1:1|3:1,0:0:0:0:
476,343,127159,1,0,3:2:0:0:
476,343,127328,2,0,P|430:313|366:301,1,112,0|0,1:2|3:1,0:0:0:0:
279,360,128002,6,0,L|212:371,2,56,4|0|0,1:2|3:0|1:0,0:0:0:0:
256,308,128508,1,2,3:2:0:0:
256,308,128676,2,0,P|232:258|224:189,1,112,0|0,1:2|1:0,0:0:0:0:
179,167,129182,2,0,P|231:157|289:117,1,112,2|2,3:2|3:2,0:0:0:0:
361,48,129856,2,0,B|426:62|426:62|459:113,1,112,2|2,3:2|3:2,0:0:0:0:
421,148,130362,1,2,1:2:0:0:
461,252,130699,6,0,P|455:307|436:360,1,112,2|2,1:2|1:2,0:0:0:0:
339,304,131373,2,0,P|283:271|221:272,1,112,2|0,1:2|1:0,0:0:0:0:
158,348,132047,2,0,L|87:322,1,56,2|0,1:2|3:0,0:0:0:0:
53,307,132384,1,12,1:2:0:0:
48,195,132721,2,0,L|31:137,2,56,4|0|12,1:1|3:0|1:2,0:0:0:0:
147,137,133395,6,0,B|177:88|177:88|176:28,2,112,6|2|2,1:1|1:1|1:1,0:0:0:0:
178,183,134238,2,0,L|242:196,1,56,2|0,3:1|1:3,0:0:0:0:
256,245,134575,2,0,P|307:216|370:210,1,112,2|2,3:1|3:1,0:0:0:0:
453,270,135249,1,2,3:1:0:0:
506,171,135586,2,0,P|503:114|474:56,1,112,2|0,3:1|3:3,0:0:0:0:
437,29,136092,5,4,1:2:0:0:
344,89,136429,1,2,0:1:0:0:
344,89,136598,2,0,L|279:79,1,56,0|2,0:0|1:1,0:0:0:0:
194,20,137103,1,4,1:2:0:0:
92,67,137440,5,2,1:1:0:0:
157,157,137777,2,0,P|158:218|143:270,1,112,2|2,1:1|1:2,0:0:0:0:
62,343,138452,1,8,1:0:0:0:
11,243,138789,5,4,1:2:0:0:
436,364,149575,6,0,P|453:320|456:247,1,112,4|8,1:2|0:0,0:0:0:0:
352,216,150249,2,0,P|335:172|332:99,1,112,0|8,1:0|0:0,0:0:0:0:
347,54,150755,1,2,0:0:0:0:
244,7,151092,1,2,0:0:0:0:
132,58,151429,1,2,0:0:0:0:
132,58,151598,2,0,L|72:43,2,56,0|0|8,1:0|0:0|0:0,0:0:0:0:
166,108,152103,1,2,0:0:0:0:
166,108,152272,6,0,B|185:161|185:161|192:231,1,112,0|8,1:0|0:0,0:0:0:0:
284,277,152946,2,0,B|259:327|259:327|215:382,1,112,0|8,1:0|0:0,0:0:0:0:
170,356,153452,1,2,0:0:0:0:
170,356,153620,2,0,L|109:369,2,56,0|0|8,1:0|0:0|0:0,0:0:0:0:
104,265,154294,2,0,B|66:224|66:224|58:151,1,112,0|8,1:0|0:0,0:0:0:0:
85,118,154800,1,2,0:0:0:0:
85,118,154968,6,0,P|136:110|184:72,1,112,4|8,1:2|0:0,0:0:0:0:
275,10,155643,2,0,P|326:18|374:56,1,112,0|8,1:0|0:0,0:0:0:0:
436,146,156317,2,0,L|496:128,2,56,0|0|8,1:2|0:0|0:0,0:0:0:0:
408,195,156822,1,2,0:0:0:0:
408,195,156991,2,0,B|359:157|359:157|301:171,1,112,0|8,1:0|0:0,0:0:0:0:
239,255,157665,6,0,L|183:272,2,56,0|2|8,1:0|0:0|0:0,0:0:0:0:
172,164,158339,1,0,1:0:0:0:
229,68,158676,1,8,0:0:0:0:
340,62,159013,2,0,L|359:-6,2,56,4|0|12,1:2|0:0|0:2,0:0:0:0:
424,136,159687,2,0,B|460:182|460:182|476:252,1,112,4|12,1:2|0:2,0:0:0:0:
482,289,160193,1,0,1:0:0:0:
482,289,160362,6,0,P|427:306|376:355,1,112,4|8,1:2|0:0,0:0:0:0:
285,291,161036,2,0,P|261:242|255:170,1,112,0|8,1:0|0:0,0:0:0:0:
275,134,161541,1,2,0:0:0:0:
216,38,161878,1,2,0:0:0:0:
117,92,162216,1,2,0:0:0:0:
117,92,162384,2,0,L|65:67,2,56,0|2|8,1:0|0:0|0:0,0:0:0:0:
138,151,162890,1,0,0:0:0:0:
138,151,163058,6,0,P|81:166|31:211,1,112,0|8,1:2|0:0,0:0:0:0:
6,305,163732,2,0,P|49:339|103:352,1,112,0|8,1:0|0:0,0:0:0:0:
147,317,164238,1,2,0:0:0:0:
249,363,164575,2,0,P|267:312|271:236,1,112,2|2,0:0|0:0,0:0:0:0:
249,203,165081,2,0,L|207:155,2,56,0|2|8,1:0|0:0|0:0,0:0:0:0:
291,166,165586,1,2,0:0:0:0:
291,166,165755,6,0,P|341:135|403:132,1,112,4|8,1:2|0:0,0:0:0:0:
449,226,166429,2,0,P|421:277|369:311,1,112,0|8,1:0|0:0,0:0:0:0:
282,364,167103,2,0,B|244:318|244:318|181:300,1,112,0|8,1:0|0:0,0:0:0:0:
152,341,167609,1,2,0:0:0:0:
152,341,167777,2,0,L|96:356,2,56,0|0|8,1:0|0:0|0:0,0:0:0:0:
86,250,168452,6,0,P|66:200|77:130,1,112,4|8,1:2|0:0,0:0:0:0:
100,95,168957,1,2,0:0:0:0:
100,95,169126,2,0,L|83:36,1,56,0|2,1:0|0:0,0:0:0:0:
191,9,169631,1,2,0:0:0:0:
191,9,169800,2,0,B|238:38|238:38|300:29,1,112,4|10,1:2|3:2,0:0:0:0:
376,105,170474,2,0,L|356:176,2,56,10|8|8,3:3|3:3|3:2,0:0:0:0:
471,46,171148,5,6,1:2:0:0:
52,65,176541,5,2,0:1:0:0:
3,165,176878,1,2,0:1:0:0:
45,270,177216,1,2,0:1:0:0:
45,270,177384,2,0,L|52:334,2,56,2|2|2,0:1|0:1|0:1,0:0:0:0:
142,214,178058,1,2,0:1:0:0:
227,286,178395,1,2,0:1:0:0:
330,243,178732,1,2,0:1:0:0:
494,327,179238,6,0,B|512:273|512:273|492:209,1,112,2|2,0:1|0:1,0:0:0:0:
408,149,179912,2,0,B|382:98|382:98|323:66,1,112,2|2,0:1|0:1,0:0:0:0:
242,137,180586,6,0,L|225:200,2,56,4|0|2,1:2|3:0|1:2,0:0:0:0:
202,32,181260,2,0,P|176:17|147:7,1,56,2|4,1:2|3:3,0:0:0:0:
96,22,181598,1,10,0:2:0:0:
47,122,181935,1,0,1:2:0:0:
126,200,182272,6,0,P|141:258|137:320,2,112,4|0|0,1:2|1:2|1:1,0:0:0:0:
154,151,183114,1,2,3:2:0:0:
242,220,183452,1,2,3:2:0:0:
341,169,183789,2,0,P|398:152|454:150,1,112,2|2,3:2|3:2,0:0:0:0:
484,193,184294,1,2,1:2:0:0:
404,272,184631,6,0,P|373:304|348:366,1,112,2|2,1:2|1:2,0:0:0:0:
254,305,185305,2,0,P|243:261|252:195,1,112,2|0,1:2|1:1,0:0:0:0:
286,150,185811,1,0,3:0:0:0:
286,150,185980,2,0,L|348:138,1,56,2|0,1:2|3:3,0:0:0:0:
396,132,186317,1,12,1:2:0:0:
336,37,186654,2,0,L|278:19,2,56,0|0|12,1:1|3:3|1:2,0:0:0:0:
445,12,187328,6,0,B|485:52|485:52|501:130,1,112,4|0,1:2|1:1,0:0:0:0:
480,160,187834,1,0,3:0:0:0:
480,160,188002,2,0,P|437:198|426:269,1,112,2|0,1:2|1:1,0:0:0:0:
448,299,188508,1,2,3:2:0:0:
350,364,188845,1,2,3:2:0:0:
259,298,189182,2,0,P|206:278|140:269,1,112,2|2,3:2|3:2,0:0:0:0:
100,292,189687,1,2,1:2:0:0:
18,215,190025,6,0,L|5:148,1,56,0|2,1:2|2:0,0:0:0:0:
29,108,190362,1,12,0:0:0:0:
120,171,190699,2,0,L|181:181,2,56,4|2|12,1:1|0:0|1:2,0:0:0:0:
157,65,191373,2,0,B|208:40|208:40|268:48,1,112,4|0,1:1|3:1,0:0:0:0:
296,97,191878,1,2,3:2:0:0:
296,97,192047,2,0,B|347:122|347:122|407:114,1,112,0|0,1:2|3:1,0:0:0:0:
470,202,192721,6,0,L|504:250,2,56,4|0|0,1:2|3:0|1:0,0:0:0:0:
422,228,193227,1,2,3:2:0:0:
422,228,193395,2,0,P|397:277|386:348,1,112,0|0,1:2|1:0,0:0:0:0:
340,365,193901,1,2,3:2:0:0:
239,314,194238,1,2,3:2:0:0:
206,206,194575,2,0,B|223:151|223:151|266:112,1,112,2|2,3:2|3:2,0:0:0:0:
316,97,195081,1,2,1:2:0:0:
227,18,195418,6,0,P|188:6|106:7,1,112,2|2,1:2|1:2,0:0:0:0:
33,79,196092,2,0,P|21:118|22:200,1,112,2|0,1:2|1:0,0:0:0:0:
55,238,196598,1,0,3:0:0:0:
55,238,196766,2,0,L|122:253,1,56,2|0,1:2|3:0,0:0:0:0:
140,303,197103,1,12,1:2:0:0:
242,256,197440,2,0,L|267:200,2,56,4|0|12,1:1|3:0|1:2,0:0:0:0:
164,175,198114,6,0,P|139:126|134:60,2,112,6|2|2,1:1|1:1|1:1,0:0:0:0:
137,224,198957,2,0,L|72:241,1,56,2|0,3:1|1:3,0:0:0:0:
53,285,199294,2,0,P|105:309|151:350,1,112,2|2,3:1|3:1,0:0:0:0:
254,374,199968,1,2,3:1:0:0:
328,290,200305,1,2,3:1:0:0:
434,337,200643,1,0,3:3:0:0:
434,337,200811,6,0,P|457:292|469:224,1,112,4|2,1:2|0:1,0:0:0:0:
505,189,201317,1,0,0:0:0:0:
505,189,201485,2,0,P|482:144|470:76,1,112,2|2,1:1|1:2,0:0:0:0:
377,20,202159,5,2,1:1:0:0:
284,82,202496,2,0,B|245:44|245:44|169:35,1,112,2|2,1:1|1:2,0:0:0:0:
87,87,203171,1,12,1:0:0:0:
154,176,203508,6,0,P|175:228|173:294,1,112,4|2,1:2|0:1,0:0:0:0:
144,329,204013,1,0,0:0:0:0:
144,329,204182,2,0,P|102:291|39:270,1,112,2|2,1:1|1:2,0:0:0:0:
6,169,204856,5,2,1:1:0:0:
71,78,205193,1,2,1:1:0:0:
164,139,205530,1,2,1:2:0:0:
270,105,205867,5,12,1:0:0:0:
