osu file format v14

[General]
AudioFilename: audio.mp3
AudioLeadIn: 0
PreviewTime: 362
Countdown: 0
SampleSet: Soft
StackLeniency: 0.6
Mode: 0
LetterboxInBreaks: 0
WidescreenStoryboard: 1

[Editor]
DistanceSpacing: 1
BeatDivisor: 2
GridSize: 4
TimelineZoom: 0.9000059

[Metadata]
Title:Wa ta shi wa * No.1!
TitleUnicode:わ・た・し・は☆No. 1!
Artist:San Diego (CV: Itou Asuka)
ArtistUnicode:サンディエゴ (CV: 伊藤あすか)
Creator:Shurelia
Version:Easy!
Source:アズールレーン
Tags:azur lane sandymeme sandy ship waifus ongaku hinsvar nozhomi [r] Ron 私 わたし watashi 桜村岬 かみじょうゆうや kamijou yuuya number
BeatmapID:1830513
BeatmapSetID:869783

[Difficulty]
HPDrainRate:2.3
CircleSize:3
OverallDifficulty:2.1
ApproachRate:3.3
SliderMultiplier:0.599999999999999
SliderTickRate:1

[Events]
//Background and Video events
0,0,"sandymeme.jpg",0,0
Video,868,"goddess.mp4"
//Break Periods
//Storyboard Layer 0 (Background)
//Storyboard Layer 1 (Fail)
//Storyboard Layer 2 (Pass)
//Storyboard Layer 3 (Foreground)
//Storyboard Sound Samples

[TimingPoints]
868,337.078651685393,4,2,1,60,1,0
868,-100,4,2,1,60,0,0
3564,-100,4,2,1,73,0,1
8620,-100,4,2,1,73,0,0
8957,-100,4,2,1,73,0,1
14351,-100,4,2,1,60,0,0
35924,-100,4,2,2,66,0,0
36261,-100,4,2,1,66,0,0
41317,-100,4,2,1,66,0,0
49407,-100,4,2,2,81,0,1
49575,-100,4,2,1,81,0,1
59856,-100,4,2,1,81,0,0
60193,-100,4,2,2,81,0,1
60362,-100,4,2,1,81,0,1
68283,-100,4,2,1,81,0,0

[Colours]
Combo1 : 207,202,3
Combo2 : 180,251,32
Combo3 : 52,188,254
Combo4 : 215,6,95

[HitObjects]
440,286,868,6,0,P|383:304|324:296,1,120,2|2,0:0|0:0,0:0:0:0:
275,261,1879,1,4,0:0:0:0:
221,233,2216,2,0,P|192:225|162:220,2,59.9999999999999,2|2|2,0:0|0:0|0:0,0:0:0:0:
247,179,3227,1,6,0:0:0:0:
280,129,3564,6,0,P|337:145|396:139,1,120,4|2,0:0|0:0,0:0:0:0:
411,81,4575,1,8,0:0:0:0:
390,24,4912,2,0,P|332:7|273:13,1,120,0|2,0:0|0:0,0:0:0:0:
226,51,5924,1,8,0:0:0:0:
183,93,6261,6,0,P|205:148|199:207,1,120,2|2,0:0|0:0,0:0:0:0:
168,258,7272,1,8,0:0:0:0:
188,314,7609,2,0,L|246:325,1,59.9999999999999,0|8,0:0|0:0,0:0:0:0:
306,326,8283,2,0,L|364:314,1,59.9999999999999,2|14,0:0|0:0,0:0:0:0:
424,306,8957,6,0,L|402:178,1,120,6|2,0:0|0:0,0:0:0:0:
387,129,9968,1,8,0:0:0:0:
369,71,10305,2,0,P|311:82|254:64,1,120,0|8,0:0|0:3,0:0:0:0:
199,40,11317,1,8,0:3:0:0:
144,15,11654,6,0,B|159:76|159:76|115:118|115:118|126:174,1,180,8|8,0:3|0:0,0:0:0:0:
147,235,13002,2,0,B|192:266|205:324|205:324|248:280|264:291,1,180,0|8,0:0|0:0,0:0:0:0:
301,338,14351,6,0,P|360:329|418:341,1,120,6|2,0:0|0:0,0:0:0:0:
471,370,15362,1,2,0:0:0:0:
472,310,15699,2,0,B|489:267|454:237|468:192,1,120,2|2,0:0|0:0,0:0:0:0:
491,136,16710,1,2,0:0:0:0:
455,87,17047,6,0,P|403:115|344:115,1,120,2|2,0:0|0:0,0:0:0:0:
289,92,18058,1,2,0:0:0:0:
236,121,18396,2,0,L|249:240,1,120,2|0,0:0|0:0,0:0:0:0:
256,299,19407,1,2,0:0:0:0:
305,332,19744,6,0,P|349:332|393:343,2,89.9999999999999,2|0|2,0:0|0:0|0:0,0:0:0:0:
250,355,21092,2,0,P|205:354|161:343,2,89.9999999999999,2|0|2,0:0|0:0|0:0,0:0:0:0:
256,299,22441,6,0,L|237:181,1,120,2|2,0:0|0:0,0:0:0:0:
224,121,23452,1,2,0:0:0:0:
220,61,23789,2,0,B|192:80|192:80|168:64|168:64|144:80|144:80|120:64|120:64|92:80|92:80|68:65,1,180,6|8,0:0|0:0,0:0:0:0:
40,116,25137,6,0,P|60:172|59:231,1,120,4|2,0:0|0:0,0:0:0:0:
44,290,26148,1,10,0:0:0:0:
26,347,26485,2,0,L|145:338,1,120,0|2,0:0|0:0,0:0:0:0:
180,290,27496,1,10,0:0:0:0:
195,225,27834,6,0,P|174:170|181:111,1,120,2|2,0:0|0:0,0:0:0:0:
215,61,28845,1,10,0:0:0:0:
273,74,29182,2,0,P|328:52|387:59,1,120,2|2,0:0|0:0,0:0:0:0:
435,95,30193,1,10,0:0:0:0:
427,154,30530,6,0,B|380:154|380:154|340:137,2,89.9999999999999,2|0|10,0:0|0:0|0:0,0:0:0:0:
478,185,31879,2,0,B|461:224|461:224|461:271,2,89.9999999999999,2|0|10,0:0|0:0|0:0,0:0:0:0:
477,125,33227,6,0,P|419:133|362:115,1,120,2|2,0:0|0:0,0:0:0:0:
307,91,34238,1,10,0:0:0:0:
259,54,34575,2,0,B|272:84|272:84|256:108|256:108|272:132|272:132|256:156|256:156|272:184|272:184|261:210,1,180,2|2,0:0|0:0,0:0:0:0:
299,255,35924,6,0,P|240:248|183:263,1,120,6|10,0:0|0:0,0:0:0:0:
133,297,36935,1,2,0:0:0:0:
73,292,37272,2,0,L|59:350,2,59.9999999999999,2|0|8,0:0|0:0|0:0,0:0:0:0:
87,233,38283,1,2,0:0:0:0:
108,176,38620,6,0,P|167:177|223:157,1,120,2|8,0:0|0:0,0:0:0:0:
280,138,39631,1,2,0:0:0:0:
333,110,39968,2,0,L|319:51,2,59.9999999999999,4|2|2,0:0|0:0|0:0,0:0:0:0:
381,145,40979,1,2,0:0:0:0:
425,104,41317,6,0,L|431:223,1,120,4|2,0:0|0:0,0:0:0:0:
433,283,42328,1,10,0:0:0:0:
391,325,42665,2,0,P|347:319|303:327,1,89.9999999999999,6|6,0:0|0:0,0:0:0:0:
222,364,43676,5,10,0:0:0:0:
169,334,44014,2,0,P|170:290|156:247,1,89.9999999999999,2|6,0:0|0:0,0:0:0:0:
125,196,44856,1,2,0:0:0:0:
256,192,45193,12,2,48059,0:1:0:0:
57,293,49407,6,0,P|116:289|174:305,1,120,12|0,0:0|0:1,0:0:0:0:
227,332,50418,1,2,0:0:0:0:
283,315,50755,2,0,P|313:312|343:318,1,59.9999999999999,2|2,0:0|0:0,0:0:0:0:
400,300,51429,2,0,P|405:270|403:240,1,59.9999999999999,0|2,0:0|0:0,0:0:0:0:
431,186,52103,6,0,P|460:180|490:179,2,59.9999999999999,2|6|2,0:0|0:0|0:0,0:0:0:0:
402,133,53115,1,6,0:0:0:0:
343,149,53452,2,0,P|314:155|285:153,1,59.9999999999999,2|6,0:0|0:0,0:0:0:0:
233,122,54126,2,0,P|203:115|174:117,1,59.9999999999999,2|6,0:0|0:0,0:0:0:0:
132,73,54800,6,0,L|123:192,1,120,4|2,0:1|0:0,0:0:0:0:
121,252,55811,1,2,0:0:0:0:
146,306,56148,2,0,P|175:311|204:306,1,59.9999999999999,2|2,0:0|0:0,0:0:0:0:
259,280,56823,2,0,P|264:250|259:221,1,59.9999999999999,2|2,0:0|0:0,0:0:0:0:
220,175,57496,6,0,L|227:115,1,59.9999999999999,2|6,0:0|0:0,0:0:0:0:
235,55,58171,1,6,0:0:0:0:
290,31,58508,1,6,0:0:0:0:
313,86,58845,2,0,P|369:102|424:81,1,120,6|2,0:0|0:0,0:0:0:0:
471,43,59856,1,2,0:0:0:0:
485,100,60193,6,0,L|476:219,1,120,14|0,0:0|0:0,0:0:0:0:
473,279,61204,1,2,0:0:0:0:
447,333,61541,2,0,P|418:334|389:327,1,59.9999999999999,2|2,0:0|0:0,0:0:0:0:
335,299,62216,2,0,P|306:291|276:293,1,59.9999999999999,2|2,0:0|0:0,0:0:0:0:
223,322,62889,6,0,L|215:381,2,59.9999999999999,2|6|2,0:0|0:0|0:0,0:0:0:0:
180,279,63901,1,6,0:0:0:0:
121,293,64238,2,0,L|129:233,1,59.9999999999999,2|4,0:0|0:0,0:0:0:0:
162,183,64912,2,0,L|153:123,1,59.9999999999999,2|4,0:0|0:0,0:0:0:0:
113,77,65587,6,0,B|84:77|84:77|55:67,2,59.9999999999999,6|2|8,0:0|0:0|0:3,0:0:0:0:
163,43,66598,1,8,0:3:0:0:
218,65,66935,2,0,B|247:71|247:71|276:62,1,59.9999999999999,8|8,0:3|0:3,0:0:0:0:
329,35,67609,2,0,B|358:26|358:26|387:32,1,59.9999999999999,8|8,0:3|0:3,0:0:0:0:
440,59,68283,6,0,L|420:177,1,120,2|2,0:0|0:0,0:0:0:0:
408,236,69294,1,2,0:0:0:0:
347,236,69632,6,0,L|327:117,1,120,2|2,0:0|0:0,0:0:0:0:
315,59,70643,1,4,0:0:0:0:
255,59,70980,6,0,L|235:177,1,120,2|2,0:0|0:0,0:0:0:0:
223,236,71991,1,2,0:0:0:0:
163,236,72328,6,0,L|143:117,1,120,2|2,0:0|0:0,0:0:0:0:
131,59,73339,1,6,0:0:0:0:
