osu file format v14

[General]
AudioFilename: audio.mp3
AudioLeadIn: 0
PreviewTime: -1
Countdown: 1
SampleSet: Soft
StackLeniency: 0.2
Mode: 0
LetterboxInBreaks: 0
WidescreenStoryboard: 0

[Editor]
Bookmarks: 53280,92410,141022,150551
DistanceSpacing: 1.6
BeatDivisor: 4
GridSize: 4
TimelineZoom: 2.899999

[Metadata]
Title:Dream Band
TitleUnicode:Dream Band
Artist:Samuel Lidstroem
ArtistUnicode:Samuel Lidström
Creator:Paddington
Version:Fountain of Joy
Source:
Tags:dedede kirby king polka gourmet race fountain joy
BeatmapID:1523035
BeatmapSetID:721257

[Difficulty]
HPDrainRate:4
CircleSize:2
OverallDifficulty:8
ApproachRate:9.3
SliderMultiplier:3
SliderTickRate:2

[Events]
//Background and Video events
0,0,"Kirby.Series.full.1052758.jpg",0,0
//Break Periods
//Storyboard Layer 0 (Background)
//Storyboard Layer 1 (Fail)
//Storyboard Layer 2 (Pass)
//Storyboard Layer 3 (Foreground)
//Storyboard Sound Samples

[TimingPoints]
240,320,4,2,0,69,1,0
7440,-100,4,3,0,69,0,0
8560,-100,4,2,0,69,0,0
10160,-100,4,3,0,69,0,0
23280,-133.333333333333,4,2,0,69,0,0
28400,-100,4,3,0,69,0,0
38640,-133.333333333333,4,2,0,69,0,0
43760,-100,4,2,0,69,0,0
54000,-100,4,3,0,69,0,0
55440,-50,4,3,0,69,0,0
55760,-100,4,3,0,69,0,0
58000,-50,4,3,0,69,0,0
58320,-100,4,3,0,69,0,0
64240,-133.333333333333,4,2,0,69,0,0
66800,-133.333333333333,4,2,0,69,0,0
71920,-66.6666666666667,4,3,0,69,0,0
74480,-100,4,2,0,69,0,0
77040,-66.6666666666667,4,3,0,69,0,0
78320,-100,4,3,0,69,0,0
79280,-100,4,2,0,69,0,0
81510,-200,4,1,0,69,0,0
82150,-133.333333333333,4,1,0,69,0,0
91920,-133.333333333333,4,3,0,69,0,0
92440,320,4,3,0,69,1,0
92440,-66.6666666666667,4,3,0,69,0,1
118000,-200,3,2,0,69,0,0
118020,640,3,2,0,69,1,0
133380,612.244897959184,4,2,0,69,1,0
134277,600,3,2,0,69,1,0
134300,-133.333333333333,3,2,0,69,0,0
135147,582.52427184466,3,2,0,69,1,0
135169,-125,3,2,0,69,0,0
136000,571.428571428571,3,2,0,69,1,0
136000,-111.111111111111,3,2,0,69,0,0
136839,510.63829787234,3,2,0,69,1,0
136839,-100,3,2,0,69,0,0
138365,342.857142857143,3,2,0,69,1,0
138370,-100,3,2,0,69,0,0
139741,333.333333333333,3,2,0,69,1,0
140350,300,3,3,0,69,1,0
140951,320,4,3,0,69,1,1
140951,-50,4,3,0,69,0,1
150551,-100,4,3,0,69,0,0

[HitObjects]
377,185,240,6,0,P|333:249|118:268,1,300
296,155,720,2,0,P|232:207|156:188,1,150
216,116,1040,2,0,P|276:68|356:88,1,150
48,140,1520,5,2,0:0:0:0:
132,208,1680,1,2,0:0:0:0:
72,44,1840,1,2,0:0:0:0:
132,208,2000,1,2,0:0:0:0:
120,4,2160,1,2,0:0:0:0:
309,151,2320,6,0,P|341:211|359:139,1,150,0|4,0:0|0:0,0:0:0:0:
460,174,2800,6,0,P|428:257|243:245,1,300,0|8,0:0|0:0,0:0:0:0:
332,184,3280,1,0,0:0:0:0:
230,200,3440,2,0,P|277:277|352:295,1,150,8|0,0:0|0:0,0:0:0:0:
332,184,3760,1,8,0:0:0:0:
248,92,3920,1,0,0:0:0:0:
248,92,4080,6,0,P|194:36|198:126,1,150,8|0,0:0|0:0,0:0:0:0:
158,77,4400,2,0,P|105:160|128:166,1,150,8|0,0:0|0:0,0:0:0:0:
24,40,4720,1,8,0:0:0:0:
164,276,4880,1,2,0:0:0:0:
144,300,4960,1,2,0:0:0:0:
124,324,5040,1,10,0:0:0:0:
32,248,5200,1,0,0:0:0:0:
215,141,5360,6,0,P|257:87|312:127,1,150,8|0,0:0|0:0,0:0:0:0:
313,126,5680,2,0,P|379:133|367:199,1,150,8|0,0:0|0:0,0:0:0:0:
368,200,6000,6,0,P|378:278|319:222,1,150,8|0,0:0|0:0,0:0:0:0:
332,274,6320,6,0,P|264:329|260:249,1,150,8|0,0:0|0:0,0:0:0:0:
241,300,6640,6,0,P|168:300|204:236,1,150,8|0,0:0|0:0,0:0:0:0:
179,244,6960,6,0,P|68:269|142:183,1,300,8|8,0:0|0:0,0:0:0:0:
280,160,7440,1,14,0:0:0:0:
208,52,7600,1,14,0:0:0:0:
88,76,7760,1,10,0:0:0:0:
340,48,7920,6,0,P|372:128|308:324,1,300,10|0,0:0|0:0,0:0:0:0:
460,131,8400,1,0,0:0:0:0:
283,145,8560,2,0,P|282:191|266:229,1,75
263,239,8720,1,2,0:0:0:0:
246,261,8800,1,2,0:0:0:0:
227,280,8880,1,2,0:0:0:0:
120,136,9040,5,0,0:0:0:0:
120,136,9200,6,0,P|80:200|196:360,2,300
168,240,10000,1,0,0:0:0:0:
0,164,10160,1,14,0:0:0:0:
72,52,10320,1,14,0:0:0:0:
224,80,10480,6,0,P|320:92|444:252,1,300,14|0,0:0|0:0,0:0:0:0:
456,88,10960,1,14,0:0:0:0:
312,90,11120,6,0,P|371:166|346:367,1,300,10|0,0:0|0:0,0:0:0:0:
456,88,11600,1,14,0:0:0:0:
249,132,11760,2,0,P|361:224|384:228,1,150,14|0,0:0|0:0,0:0:0:0:
494,181,12080,2,0,P|346:217|307:184,1,150,14|0,0:0|0:0,0:0:0:0:
324,201,12400,6,0,P|316:133|248:131,1,150,14|0,0:0|0:0,0:0:0:0:
249,132,12720,2,0,L|313:68,2,75
124,80,13040,6,0,P|136:168|176:220,1,150,4|8,0:0|0:0,0:0:0:0:
56,168,13280,1,0,0:0:0:0:
83,206,13360,2,0,P|154:259|219:268,1,150,4|8,0:0|0:0,0:0:0:0:
104,312,13600,1,0,0:0:0:0:
144,324,13680,2,0,P|232:312|284:272,1,150,4|8,0:0|0:0,0:0:0:0:
232,384,13920,1,0,0:0:0:0:
270,364,14000,2,0,P|323:293|332:228,1,150,4|8,0:0|0:0,0:0:0:0:
274,47,14320,6,0,P|362:63|406:115,1,150,4|8,0:0|0:0,0:0:0:0:
488,104,14640,2,0,P|460:168|364:186,1,150,4|8,0:0|0:0,0:0:0:0:
324,266,14960,2,0,P|288:205|329:117,1,150,4|8,0:0|0:0,0:0:0:0:
259,89,15200,1,0,0:0:0:0:
240,123,15280,1,4,0:0:0:0:
10,0,15440,1,8,0:0:0:0:
52,76,15600,6,0,B|88:144|88:144|40:220,1,150,4|8,0:0|0:0,0:0:0:0:
139,70,15840,1,0,0:0:0:0:
155,102,15920,2,0,B|191:170|191:170|143:246,1,150,4|8,0:0|0:0,0:0:0:0:
240,93,16160,1,0,0:0:0:0:
255,125,16240,2,0,B|291:193|291:193|243:269,1,150,4|8,0:0|0:0,0:0:0:0:
341,113,16480,1,0,0:0:0:0:
357,145,16560,2,0,B|393:213|393:213|345:289,1,150,4|0,0:0|0:0,0:0:0:0:
130,187,16880,6,0,P|66:251|50:319,1,150,4|8,0:0|0:0,0:0:0:0:
8,184,17200,2,0,P|32:113|87:64,1,150,4|8,0:0|0:0,0:0:0:0:
87,64,17520,1,4,0:0:0:0:
340,112,17680,1,14,0:0:0:0:
152,192,17840,1,6,0:0:0:0:
222,12,18000,1,14,0:0:0:0:
340,112,18160,6,0,P|408:192|308:356,1,300,4|4,0:0|0:0,0:0:0:0:
442,81,18640,1,8,0:0:0:0:
331,349,18800,6,0,P|226:351|161:170,1,300,4|4,0:0|0:0,0:0:0:0:
246,251,19280,1,8,0:0:0:0:
111,56,19440,2,0,L|31:188,1,150,4|8,0:0|0:0,0:0:0:0:
0,242,19760,2,0,L|76:113,1,150,4|8,0:0|0:0,0:0:0:0:
8,36,20080,1,4,0:0:0:0:
128,228,20240,1,8,0:0:0:0:
128,228,20320,1,0,0:0:0:0:
128,228,20400,1,4,0:0:0:0:
104,44,20560,1,8,0:0:0:0:
198,132,20720,6,0,L|308:248,1,150,4|8,0:0|0:0,0:0:0:0:
351,250,21040,2,0,L|248:142,1,150,4|8,0:0|0:0,0:0:0:0:
257,90,21360,2,0,L|361:197,1,150,4|8,0:0|0:0,0:0:0:0:
399,178,21680,2,0,L|294:70,1,150,4|8,0:0|0:0,0:0:0:0:
164,216,22000,2,4,P|260:80|196:268,1,600
61,87,22800,1,8,0:0:0:0:
80,232,22960,2,0,P|144:336|172:352,1,150,4|14,0:0|0:0,0:0:0:0:
204,68,23280,5,4,0:0:0:0:
308,80,23600,1,4,0:0:0:0:
396,136,23920,1,4,0:0:0:0:
428,232,24240,1,4,0:0:0:0:
196,60,24560,5,2,0:0:0:0:
204,68,24640,1,2,0:0:0:0:
204,68,24720,1,2,0:0:0:0:
308,80,24880,1,4,0:0:0:0:
396,136,25200,1,4,0:0:0:0:
428,232,25520,1,4,0:0:0:0:
308,80,25840,5,4,0:0:0:0:
396,136,26160,1,4,0:0:0:0:
396,136,26320,1,4,0:0:0:0:
428,232,26480,1,4,0:0:0:0:
404,332,26800,1,4,0:0:0:0:
296,316,27120,2,2,L|276:260,1,56.2500021457673
152,204,27440,2,2,L|138:258,1,56.2500021457673
21,133,27760,2,2,L|69:81,1,56.2500021457673
60,92,27920,6,0,L|28:72,10,28.1250010728836
146,48,28400,2,4,B|244:56|244:56|415:200,1,300
213,133,28880,1,0,0:0:0:0:
352,41,29040,2,4,B|361:150|361:150|211:279,1,300
213,133,29520,1,0,0:0:0:0:
147,275,29680,2,0,P|129:356|69:383,1,150,4|0,0:0|0:0,0:0:0:0:
63,293,30000,2,0,P|73:214|146:194,1,150,4|0,0:0|0:0,0:0:0:0:
32,92,30320,2,4,P|169:85|292:201,1,300
131,191,30800,1,0,0:0:0:0:
314,27,30960,6,0,L|388:162,1,150,4|0,0:0|0:0,0:0:0:0:
398,182,31200,1,0,0:0:0:0:
416,217,31280,1,4,0:0:0:0:
275,141,31440,1,0,0:0:0:0:
499,201,31600,2,0,P|433:296|357:281,1,150,4|0,0:0|0:0,0:0:0:0:
459,278,31920,2,0,P|343:274|314:202,1,150,4|0,0:0|0:0,0:0:0:0:
337,323,32240,6,0,P|257:238|288:166,1,150,4|0,0:0|0:0,0:0:0:0:
230,288,32560,2,0,P|234:172|306:143,1,150,4|0,0:0|0:0,0:0:0:0:
193,87,32880,2,0,P|279:74|355:161,1,150,4|0,0:0|0:0,0:0:0:0:
379,42,33200,2,0,P|348:123|235:147,1,150,4|0,0:0|0:0,0:0:0:0:
193,87,33520,6,0,P|136:163|132:232,1,150,4|8,0:0|0:0,0:0:0:0:
134,67,33760,1,0,0:0:0:0:
115,100,33840,2,0,P|120:194|162:250,1,150,4|8,0:0|0:0,0:0:0:0:
38,108,34080,1,0,0:0:0:0:
51,149,34160,2,0,P|111:222|177:242,1,150,4|8,0:0|0:0,0:0:0:0:
1,199,34400,1,0,0:0:0:0:
43,228,34480,2,0,P|136:245|199:218,1,150,4|8,0:0|0:0,0:0:0:0:
260,108,34800,6,0,P|348:141|389:196,1,150,4|8,0:0|0:0,0:0:0:0:
298,59,35040,1,0,0:0:0:0:
332,76,35120,2,0,P|378:158|374:227,1,150,4|8,0:0|0:0,0:0:0:0:
401,41,35360,1,0,0:0:0:0:
412,82,35440,2,0,P|401:176|357:229,1,150,4|8,0:0|0:0,0:0:0:0:
482,97,35680,1,0,0:0:0:0:
462,144,35760,2,0,P|393:209|325:221,1,150,4|8,0:0|0:0,0:0:0:0:
222,250,36080,6,0,P|134:216|93:162,1,150,4|8,0:0|0:0,0:0:0:0:
184,298,36320,1,0,0:0:0:0:
150,282,36400,2,0,P|104:199|108:130,1,150,4|8,0:0|0:0,0:0:0:0:
81,316,36640,1,0,0:0:0:0:
70,275,36720,2,0,P|81:181|125:128,1,150,4|8,0:0|0:0,0:0:0:0:
0,260,36960,1,0,0:0:0:0:
20,214,37040,2,0,P|89:148|157:136,1,150,4|8,0:0|0:0,0:0:0:0:
269,224,37360,6,0,P|358:194|424:211,1,150,4|8,0:0|0:0,0:0:0:0:
268,162,37600,1,0,0:0:0:0:
304,153,37680,2,0,P|391:187|431:243,1,150,4|8,0:0|0:0,0:0:0:0:
337,83,37920,1,0,0:0:0:0:
371,108,38000,2,0,P|421:187|420:256,2,150,4|8|4,0:0|0:0|0:0,0:0:0:0:
394,77,38640,5,2,0:0:0:0:
415,117,38720,1,0,0:0:0:0:
429,156,38800,1,8,0:0:0:0:
432,195,38880,1,0,0:0:0:0:
430,230,38960,6,0,P|410:301|383:332,2,112.500004291535,2|8|2,0:0|0:0|0:0,0:0:0:0:
321,36,39440,1,8,0:0:0:0:
225,102,39600,1,2,0:0:0:0:
297,221,39760,1,8,0:0:0:0:
321,36,39920,2,0,P|303:96|325:160,1,112.500004291535,2|8,0:0|0:0,0:0:0:0:
225,102,40240,2,0,P|207:162|229:226,1,112.500004291535,2|8,0:0|0:0,0:0:0:0:
297,221,40560,2,0,P|279:281|301:345,1,112.500004291535,2|8,0:0|0:0,0:0:0:0:
188,276,40880,2,0,P|170:336|192:400,1,112.500004291535,2|8,0:0|0:0,0:0:0:0:
166,134,41200,6,0,P|113:114|123:152,1,112.500004291535,2|8,0:0|0:0,0:0:0:0:
32,148,41440,1,0,0:0:0:0:
39,175,41520,1,2,0:0:0:0:
56,285,41680,2,0,B|125:314|125:314|173:307,1,112.500004291535,8|2,0:0|0:0,0:0:0:0:
166,134,42000,1,8,0:0:0:0:
227,282,42160,2,0,B|197:305|197:305|123:314,1,112.500004291535,2|8,0:0|0:0,0:0:0:0:
123,192,42480,5,2,0:0:0:0:
158,178,42560,1,0,0:0:0:0:
202,181,42640,1,8,0:0:0:0:
233,200,42720,1,0,0:0:0:0:
261,228,42800,1,2,0:0:0:0:
279,256,42880,1,0,0:0:0:0:
317,269,42960,1,8,0:0:0:0:
352,261,43040,1,0,0:0:0:0:
386,254,43120,2,0,B|459:269|460:356|460:356|448:347,2,112.500004291535,2|8|2,0:0|0:0|0:0,0:0:0:0:
361,122,43760,5,2,0:0:0:0:
308,36,43920,1,0,0:0:0:0:
283,67,44000,1,0,0:0:0:0:
270,106,44080,1,2,0:0:0:0:
185,78,44240,1,0,0:0:0:0:
184,124,44320,1,0,0:0:0:0:
191,162,44400,2,0,B|196:202|196:202|228:249,1,75,2|0,0:0|0:0,0:0:0:0:
321,227,44560,5,0,0:0:0:0:
363,211,44640,1,0,0:0:0:0:
407,224,44720,2,0,P|404:305|349:333,1,150,2|0,0:0|0:0,0:0:0:0:
132,139,45040,5,2,0:0:0:0:
43,187,45200,1,0,0:0:0:0:
72,214,45280,1,0,0:0:0:0:
111,229,45360,1,2,0:0:0:0:
78,312,45520,1,0,0:0:0:0:
124,315,45600,1,0,0:0:0:0:
163,310,45680,2,0,B|203:307|203:307|245:288,1,75,2|0,0:0|0:0,0:0:0:0:
229,180,45840,5,0,0:0:0:0:
217,124,45920,1,0,0:0:0:0:
219,65,46000,2,0,P|299:72|335:132,1,150,2|0,0:0|0:0,0:0:0:0:
350,166,46240,1,0,0:0:0:0:
336,214,46320,5,2,0:0:0:0:
469,196,46480,1,0,0:0:0:0:
439,170,46560,1,0,0:0:0:0:
402,155,46640,1,2,0:0:0:0:
434,72,46800,1,0,0:0:0:0:
387,69,46880,1,0,0:0:0:0:
349,74,46960,2,0,B|308:76|308:76|266:95,1,75,2|0,0:0|0:0,0:0:0:0:
283,206,47120,5,0,0:0:0:0:
301,257,47200,1,0,0:0:0:0:
299,317,47280,2,0,P|218:309|182:249,1,150,2|0,0:0|0:0,0:0:0:0:
247,72,47600,5,2,0:0:0:0:
119,28,47760,1,0,0:0:0:0:
129,62,47840,2,0,L|169:137,1,75,0|2,0:0|0:0,0:0:0:0:
118,228,48080,1,0,0:0:0:0:
88,260,48160,2,0,L|41:323,1,75,0|2,0:0|0:0,0:0:0:0:
291,236,48400,2,0,P|263:307|254:312,1,75
310,140,48560,2,0,P|337:64|341:64,1,75,2|0,0:0|0:0,0:0:0:0:
387,211,48720,2,0,P|436:273|432:282,1,75
216,94,48880,6,0,P|159:170|155:239,1,150,2|0,0:0|0:0,0:0:0:0:
102,253,49120,1,0,0:0:0:0:
72,208,49200,2,0,P|74:134|114:72,1,150,2|0,0:0|0:0,0:0:0:0:
98,20,49440,1,0,0:0:0:0:
45,29,49520,2,0,P|-9:105|-12:174,1,150,2|0,0:0|0:0,0:0:0:0:
1,199,49760,1,0,0:0:0:0:
43,228,49840,2,0,P|136:245|199:218,1,150,2|0,0:0|0:0,0:0:0:0:
235,316,50160,5,2,0:0:0:0:
334,336,50320,1,0,0:0:0:0:
329,296,50400,1,0,0:0:0:0:
309,260,50480,1,2,0:0:0:0:
427,191,50640,5,0,0:0:0:0:
394,159,50720,1,0,0:0:0:0:
348,138,50800,1,2,0:0:0:0:
184,228,50960,5,0,0:0:0:0:
167,269,51040,1,0,0:0:0:0:
135,303,51120,1,2,0:0:0:0:
116,59,51440,5,2,0:0:0:0:
47,116,51600,5,0,0:0:0:0:
77,143,51680,1,0,0:0:0:0:
115,154,51760,1,2,0:0:0:0:
138,256,51920,5,0,0:0:0:0:
184,260,52000,1,0,0:0:0:0:
239,246,52080,1,2,0:0:0:0:
276,215,52160,1,0,0:0:0:0:
290,171,52240,1,0,0:0:0:0:
285,128,52320,1,0,0:0:0:0:
300,83,52400,2,0,P|381:90|417:150,1,150,2|0,0:0|0:0,0:0:0:0:
256,192,52720,12,0,53680,0:0:0:0:
129,61,54000,5,4,0:0:0:0:
44,131,54160,1,8,0:0:0:0:
44,131,54240,1,0,0:0:0:0:
44,131,54320,1,4,0:0:0:0:
149,162,54480,2,0,P|119:243|70:234,1,150,8|4,0:0|0:0,0:0:0:0:
158,319,54800,1,8,0:0:0:0:
276,333,54960,2,0,P|311:249|272:193,1,150,4|8,0:0|0:0,0:0:0:0:
158,319,55280,5,4,0:0:0:0:
49,314,55440,2,14,B|53:118|269:148,1,300
144,37,55760,2,0,P|265:59|281:102,1,150,8|4,0:0|0:0,0:0:0:0:
214,224,56080,2,0,P|305:248|367:211,1,150,8|4,0:0|0:0,0:0:0:0:
361,75,56400,5,8,0:0:0:0:
361,75,56480,2,0,P|449:105|453:111,1,75,0|4,0:0|0:0,0:0:0:0:
352,225,56720,1,8,0:0:0:0:
352,225,56800,1,0,0:0:0:0:
352,225,56880,2,0,P|290:282|221:282,1,150,4|8,0:0|0:0,0:0:0:0:
176,151,57200,6,0,P|97:192|74:287,1,150,4|8,0:0|0:0,0:0:0:0:
105,46,57520,2,0,P|20:102|-7:174,1,150,4|8,0:0|0:0,0:0:0:0:
96,150,57840,1,4,0:0:0:0:
59,281,58000,2,14,P|225:254|274:125,1,300
192,87,58320,6,0,P|266:46|348:77,1,150,8|4,0:0|0:0,0:0:0:0:
282,149,58640,1,8,0:0:0:0:
282,149,58720,1,0,0:0:0:0:
282,149,58800,1,4,0:0:0:0:
72,92,58960,5,8,0:0:0:0:
72,92,59040,1,0,0:0:0:0:
72,92,59120,2,0,P|29:169|49:232,1,150,4|8,0:0|0:0,0:0:0:0:
140,185,59360,1,0,0:0:0:0:
137,223,59440,2,0,B|134:325|7:326,1,150,4|8,0:0|0:0,0:0:0:0:
174,341,59680,1,0,0:0:0:0:
221,322,59760,2,0,P|262:244|253:166,1,150,4|8,0:0|0:0,0:0:0:0:
169,97,60080,2,0,P|260:62|345:89,1,150,4|8,0:0|0:0,0:0:0:0:
258,155,60400,5,4,0:0:0:0:
351,53,60560,1,8,0:0:0:0:
381,88,60640,1,0,0:0:0:0:
403,114,60720,2,0,B|465:189|450:261|450:261,1,150,4|8,0:0|0:0,0:0:0:0:
317,260,61040,2,0,P|370:335|463:336,1,150,4|8,0:0|0:0,0:0:0:0:
265,157,61360,2,0,P|186:192|153:292,1,150,4|8,0:0|0:0,0:0:0:0:
174,50,61680,5,4,0:0:0:0:
73,249,61840,1,8,0:0:0:0:
279,201,62000,1,4,0:0:0:0:
113,61,62160,1,8,0:0:0:0:
118,286,62320,5,4,0:0:0:0:
326,156,62480,1,8,0:0:0:0:
66,103,62640,1,4,0:0:0:0:
159,332,62800,1,8,0:0:0:0:
211,46,62960,2,0,P|178:139|191:222,1,150,4|8,0:0|0:0,0:0:0:0:
247,302,63280,2,0,P|295:221|275:155,1,150,4|8,0:0|0:0,0:0:0:0:
210,45,63600,1,14,0:0:0:0:
349,86,64240,5,0,0:0:0:0:
247,82,64560,2,0,P|264:169|297:182,1,112.500004291535
127,178,64880,1,0,0:0:0:0:
143,206,64960,1,0,0:0:0:0:
166,239,65040,1,0,0:0:0:0:
259,242,65200,2,0,B|270:312|198:350|198:350,1,112.500004291535
348,205,65520,6,0,P|295:156|224:148,1,112.500004291535
357,91,65760,1,0,0:0:0:0:
319,72,65840,2,0,P|239:62|193:76,1,112.500004291535
109,55,66080,1,0,0:0:0:0:
97,110,66160,6,0,L|43:74,3,56.2500021457673
34,170,66480,2,0,L|68:193,6,28.1250010728836
65,288,66800,5,2,0:0:0:0:
225,128,66960,1,0,0:0:0:0:
220,345,67120,1,2,0:0:0:0:
355,294,67280,2,0,P|312:248|258:260,1,112.500004291535,0|2,0:0|0:0,0:0:0:0:
389,166,67600,1,0,0:0:0:0:
413,197,67680,1,0,0:0:0:0:
432,231,67760,1,2,0:0:0:0:
436,63,67920,1,0,0:0:0:0:
310,234,68080,5,2,0:0:0:0:
304,77,68240,2,0,P|229:96|198:135,1,112.500004291535,0|2,0:0|0:0,0:0:0:0:
193,16,68560,1,0,0:0:0:0:
310,234,68720,1,2,0:0:0:0:
97,124,68880,1,0,0:0:0:0:
114,157,68960,1,0,0:0:0:0:
136,185,69040,1,2,0:0:0:0:
6,89,69200,1,0,0:0:0:0:
63,255,69360,5,2,0:0:0:0:
218,138,69520,1,0,0:0:0:0:
6,89,69680,1,2,0:0:0:0:
63,255,69840,1,0,0:0:0:0:
218,138,70000,1,2,0:0:0:0:
219,257,70160,5,0,0:0:0:0:
203,283,70240,1,0,0:0:0:0:
181,316,70320,1,2,0:0:0:0:
340,232,70480,1,0,0:0:0:0:
419,169,70640,6,0,P|336:127|294:138,1,112.500004291535,2|0,0:0|0:0,0:0:0:0:
253,274,70960,2,0,P|302:324|363:336,1,112.500004291535,2|0,0:0|0:0,0:0:0:0:
340,232,71280,1,2,0:0:0:0:
230,116,71600,5,2,0:0:0:0:
194,90,71680,1,0,0:0:0:0:
154,85,71760,1,0,0:0:0:0:
111,95,71840,1,0,0:0:0:0:
81,109,71920,2,14,P|23:194|252:267,1,450.000017166138
194,90,72560,2,14,P|276:29|357:255,1,450.000017166138
282,139,73200,2,14,P|235:230|261:352,1,225.000008583069,14|0,0:0|0:0,0:0:0:0:
344,237,73520,2,14,P|176:256|121:190,1,225.000008583069,14|0,0:0|0:0,0:0:0:0:
92,307,73840,2,14,P|58:211|141:140,1,225.000008583069,14|0,0:0|0:0,0:0:0:0:
47,38,74320,5,0,0:0:0:0:
158,111,74480,6,0,P|39:167|-2:219,1,150
45,66,74800,2,0,P|69:158|169:210,1,150
202,223,75120,1,0,0:0:0:0:
184,254,75200,1,0,0:0:0:0:
154,282,75280,1,0,0:0:0:0:
310,189,75440,2,0,P|302:279|258:341,1,150
223,146,75760,6,0,P|290:96|361:108,1,150
414,33,76080,2,0,P|439:113|397:198,1,150
365,263,76400,1,0,0:0:0:0:
343,233,76480,1,0,0:0:0:0:
324,208,76560,1,0,0:0:0:0:
289,196,76640,1,0,0:0:0:0:
256,192,76720,2,0,P|182:194|103:226,1,150
383,278,77040,6,14,P|441:193|212:120,1,450.000017166138
129,278,77680,6,14,P|70:193|300:120,1,450.000017166138
233,195,78320,2,14,P|370:190|401:111,1,225,14|0,0:0|0:0,0:0:0:0:
445,222,78640,2,14,P|379:306|273:293,1,225.000008583069,14|0,0:0|0:0,0:0:0:0:
271,100,78960,2,14,P|166:127|137:230,1,225.000008583069,14|0,0:0|0:0,0:0:0:0:
237,196,79280,1,0,0:0:0:0:
167,23,79440,5,0,0:0:0:0:
127,24,79520,1,0,0:0:0:0:
95,39,79600,2,0,P|37:98|18:173,1,150
156,223,79920,2,0,P|166:301|89:326,1,150
58,225,80240,2,0,P|102:140|181:135,1,150
200,44,80560,2,0,P|266:94|248:189,1,150
177,182,80880,2,0,P|250:259|308:252,1,150
356,179,81200,2,0,P|395:270|352:345,1,150
207,97,81520,2,0,P|134:106|122:256,1,225
353,75,82160,5,2,0:0:0:0:
353,75,82480,1,0,0:0:0:0:
353,75,82800,1,0,0:0:0:0:
353,75,83120,1,0,0:0:0:0:
453,98,83440,5,2,0:0:0:0:
309,170,83760,1,0,0:0:0:0:
444,219,84000,1,0,0:0:0:0:
444,219,84080,1,0,0:0:0:0:
282,269,84240,1,0,0:0:0:0:
378,348,84400,1,0,0:0:0:0:
309,170,84560,1,0,0:0:0:0:
164,206,84720,5,2,0:0:0:0:
164,206,85040,1,0,0:0:0:0:
71,79,85280,1,0,0:0:0:0:
71,79,85360,1,0,0:0:0:0:
40,168,85520,1,0,0:0:0:0:
15,265,85680,1,0,0:0:0:0:
40,168,85840,1,0,0:0:0:0:
226,69,86000,5,2,0:0:0:0:
359,191,86320,1,0,0:0:0:0:
284,134,86560,1,0,0:0:0:0:
284,134,86640,1,0,0:0:0:0:
192,316,86800,1,0,0:0:0:0:
428,297,86960,1,0,0:0:0:0:
284,134,87120,1,0,0:0:0:0:
157,72,87280,5,2,0:0:0:0:
144,104,87360,1,0,0:0:0:0:
127,139,87440,1,0,0:0:0:0:
49,62,87600,1,0,0:0:0:0:
23,209,87760,1,0,0:0:0:0:
137,284,87920,1,2,0:0:0:0:
23,209,88080,1,0,0:0:0:0:
224,164,88240,5,0,0:0:0:0:
376,208,88400,1,0,0:0:0:0:
288,320,88560,1,2,0:0:0:0:
224,164,88880,5,0,0:0:0:0:
293,43,89120,1,0,0:0:0:0:
293,43,89200,1,2,0:0:0:0:
440,52,89360,1,0,0:0:0:0:
475,179,89520,1,0,0:0:0:0:
440,52,89680,1,0,0:0:0:0:
296,216,89840,5,2,0:0:0:0:
296,216,90160,1,0,0:0:0:0:
188,288,90400,1,0,0:0:0:0:
188,288,90480,1,2,0:0:0:0:
8,200,90640,1,0,0:0:0:0:
152,44,90800,1,0,0:0:0:0:
188,288,90960,1,0,0:0:0:0:
8,200,91120,5,2,0:0:0:0:
152,44,91440,1,0,0:0:0:0:
8,200,91760,1,2,0:0:0:0:
249,33,91920,5,8,0:0:0:0:
288,43,92000,1,8,0:0:0:0:
318,59,92080,1,8,0:0:0:0:
335,81,92160,1,8,0:0:0:0:
354,110,92240,1,8,0:0:0:0:
369,138,92320,1,8,0:0:0:0:
384,171,92440,2,14,P|357:291|206:130,1,450.000017166138
279,206,92920,1,0,0:0:0:0:
227,32,93080,6,14,P|103:57|78:339,1,450.000017166138
126,177,93560,1,0,0:0:0:0:
259,137,93720,2,0,P|320:222|279:334,1,225.000008583069,14|8,0:0|0:0,0:0:0:0:
219,233,94040,2,0,P|357:184|366:86,1,225.000008583069,14|8,0:0|0:0,0:0:0:0:
488,131,94360,2,8,P|416:30|258:92,1,225.000008583069,14|8,0:0|0:0,0:0:0:0:
374,128,94600,1,0,0:0:0:0:
360,164,94680,2,8,P|384:285|474:348,1,225.000008583069,14|0,0:0|0:0,0:0:0:0:
229,329,95000,6,8,P|235:189|283:115,1,225.000008583069,14|14,0:0|0:0,0:0:0:0:
99,303,95240,1,0,0:0:0:0:
110,262,95320,2,14,P|188:172|292:115,1,225.000008583069,14|8,0:0|0:0,0:0:0:0:
34,164,95560,1,0,0:0:0:0:
60,142,95640,2,14,P|193:108|312:131,1,225.000008583069,14|8,0:0|0:0,0:0:0:0:
49,21,95880,1,0,0:0:0:0:
81,22,95960,2,14,P|211:65|298:150,1,225.000008583069,14|8,0:0|0:0,0:0:0:0:
245,37,96280,6,14,P|274:173|247:257,1,225.000008583069,14|8,0:0|0:0,0:0:0:0:
377,28,96520,1,0,0:0:0:0:
377,70,96600,2,8,P|324:177|239:259,1,225.000008583069,14|8,0:0|0:0,0:0:0:0:
476,145,96840,1,0,0:0:0:0:
456,173,96920,2,14,P|336:240|215:248,1,225.000008583069,14|8,0:0|0:0,0:0:0:0:
498,287,97160,1,0,0:0:0:0:
467,295,97240,2,14,P|330:286|223:227,1,225.000008583069,14|8,0:0|0:0,0:0:0:0:
162,261,97560,6,14,L|95:366,1,112.500004291535,14|0,0:0|0:0,0:0:0:0:
240,128,97720,2,0,L|267:1,1,112.500004291535,8|0,0:0|0:0,0:0:0:0:
79,208,97880,2,14,L|1:303,1,112.500004291535,14|0,0:0|0:0,0:0:0:0:
140,113,98040,2,0,L|137:-2,1,112.500004291535,8|8,0:0|0:0,0:0:0:0:
309,52,98200,2,14,P|394:150|386:250,1,225.000008583069,14|8,0:0|0:0,0:0:0:0:
306,187,98440,1,0,0:0:0:0:
300,222,98520,2,14,P|357:322|452:308,1,225.000008583069,14|8,0:0|0:0,0:0:0:0:
391,247,98840,6,14,P|228:296|197:260,1,225.000008583069,14|8,0:0|0:0,0:0:0:0:
251,182,99160,2,14,P|146:197|100:296,1,225.000008583069,14|8,0:0|0:0,0:0:0:0:
136,50,99480,2,14,P|118:182|214:278,1,225.000008583069,14|8,0:0|0:0,0:0:0:0:
237,77,99720,1,0,0:0:0:0:
276,56,99800,2,14,P|399:101|418:199,1,225.000008583069,14|8,0:0|0:0,0:0:0:0:
480,68,100120,6,14,P|313:158|310:229,1,225.000008583069,14|8,0:0|0:0,0:0:0:0:
457,284,100440,2,14,P|325:334|239:285,1,225.000008583069,14|8,0:0|0:0,0:0:0:0:
170,339,100680,1,0,0:0:0:0:
133,323,100760,2,14,P|96:177|123:81,1,225.000008583069,14|8,0:0|0:0,0:0:0:0:
21,263,101080,2,14,P|191:176|247:176,1,225.000008583069,14|8,0:0|0:0,0:0:0:0:
278,77,101400,6,14,P|322:148|264:297,1,225.000008583069,14|8,0:0|0:0,0:0:0:0:
194,265,101720,2,14,P|253:364|366:340,1,225.000008583069,14|8,0:0|0:0,0:0:0:0:
455,152,102040,2,14,P|316:140|261:265,1,225.000008583069,14|8,0:0|0:0,0:0:0:0:
176,45,102360,1,14,0:0:0:0:
149,59,102440,1,0,0:0:0:0:
127,80,102520,1,8,0:0:0:0:
113,104,102600,1,0,0:0:0:0:
97,139,102680,6,14,P|78:202|111:358,1,225.000008583069,14|8,0:0|0:0,0:0:0:0:
236,342,102920,1,0,0:0:0:0:
270,315,103000,2,14,P|287:191|199:103,1,225.000008583069,14|8,0:0|0:0,0:0:0:0:
168,243,103240,1,0,0:0:0:0:
195,221,103320,2,14,P|301:179|445:220,1,225.000008583069,14|8,0:0|0:0,0:0:0:0:
274,49,103560,1,0,0:0:0:0:
295,86,103640,2,14,P|339:198|322:313,1,225.000008583069,14|8,0:0|0:0,0:0:0:0:
436,186,103960,6,14,P|269:224|235:295,1,225.000008583069,14|12,0:0|0:0,0:0:0:0:
354,76,104200,1,0,0:0:0:0:
312,76,104280,2,14,P|149:205|134:294,1,225.000008583069,14|8,0:0|0:0,0:0:0:0:
97,70,104520,1,0,0:0:0:0:
114,106,104600,2,14,P|203:191|331:222,1,225.000008583069,14|8,0:0|0:0,0:0:0:0:
148,306,104840,1,0,0:0:0:0:
185,296,104920,2,14,P|285:228|319:131,1,225.000008583069,14|8,0:0|0:0,0:0:0:0:
203,72,105240,6,14,P|312:42|482:139,1,225.000008583069,14|8,0:0|0:0,0:0:0:0:
451,109,105480,1,0,0:0:0:0:
445,164,105560,2,14,P|365:264|266:246,1,225.000008583069,14|8,0:0|0:0,0:0:0:0:
244,210,105800,1,0,0:0:0:0:
192,220,105880,2,14,B|70:236|7:346,1,225.000008583069,14|8,0:0|0:0,0:0:0:0:
6,275,106120,1,0,0:0:0:0:
13,211,106200,2,14,P|56:100|171:73,1,225.000008583069,14|8,0:0|0:0,0:0:0:0:
267,48,106520,6,14,P|279:181|214:248,1,225.000008583069,14|8,0:0|0:0,0:0:0:0:
197,133,106840,1,14,0:0:0:0:
416,147,107160,2,14,P|374:272|273:311,1,225.000008583069,14|8,0:0|0:0,0:0:0:0:
276,202,107400,1,0,0:0:0:0:
235,189,107480,2,14,P|123:219|77:325,1,225.000008583069,14|8,0:0|0:0,0:0:0:0:
191,286,107800,1,14,0:0:0:0:
52,148,107960,1,8,0:0:0:0:
122,88,108120,6,14,P|220:52|342:127,1,225.000008583069,14|8,0:0|0:0,0:0:0:0:
219,175,108440,2,14,P|364:238|438:143,1,225.000008583069,14|8,0:0|0:0,0:0:0:0:
315,146,108760,2,14,P|281:287|160:303,1,225.000008583069,14|8,0:0|0:0,0:0:0:0:
134,103,109080,2,14,P|60:213|50:323,1,225.000008583069,14|8,0:0|0:0,0:0:0:0:
8,113,109400,2,14,P|96:214|217:226,1,225.000008583069,14|8,0:0|0:0,0:0:0:0:
246,65,109720,2,14,P|331:166|309:293,1,225.000008583069,14|8,0:0|0:0,0:0:0:0:
414,77,110040,2,14,B|300:93|209:221|211:223,1,225.000008583069,14|8,0:0|0:0,0:0:0:0:
153,56,110360,2,14,P|80:167|88:263,1,225.000008583069,14|8,0:0|0:0,0:0:0:0:
105,289,110600,1,0,0:0:0:0:
145,272,110680,2,14,P|184:144|269:88,1,225.000008583069,14|8,0:0|0:0,0:0:0:0:
334,28,111000,2,14,P|415:118|344:200,1,225.000008583069,14|8,0:0|0:0,0:0:0:0:
350,290,111320,2,14,P|270:201|313:117,1,225.000008583069,14|8,0:0|0:0,0:0:0:0:
422,186,111640,6,14,P|327:204|199:299,1,225.000008583069,14|8,0:0|0:0,0:0:0:0:
144,326,111960,2,14,P|52:230|65:133,1,225.000008583069,14|8,0:0|0:0,0:0:0:0:
0,44,112280,2,14,P|143:63|193:171,1,225.000008583069,14|8,0:0|0:0,0:0:0:0:
144,198,112600,2,14,P|255:252|338:177,1,225.000008583069,14|8,0:0|0:0,0:0:0:0:
314,53,112920,6,14,P|236:155|245:295,1,225.000008583069,14|8,0:0|0:0,0:0:0:0:
163,163,113160,1,0,0:0:0:0:
144,198,113240,2,14,P|181:319|303:330,1,225.000008583069,14|8,0:0|0:0,0:0:0:0:
308,315,113480,1,0,0:0:0:0:
335,270,113560,2,14,P|286:150|144:166,1,225.000008583069,14|8,0:0|0:0,0:0:0:0:
163,163,113800,1,0,0:0:0:0:
144,198,113880,2,14,P|181:319|303:330,1,225.000008583069,14|8,0:0|0:0,0:0:0:0:
372,317,114200,6,14,P|338:196|241:132,1,225.000008583069,14|8,0:0|0:0,0:0:0:0:
337,60,114440,1,0,0:0:0:0:
285,65,114520,2,14,P|174:107|113:206,1,225.000008583069,14|8,0:0|0:0,0:0:0:0:
32,133,114760,1,0,0:0:0:0:
34,183,114840,2,14,P|87:299|189:295,1,225.000008583069,14|8,0:0|0:0,0:0:0:0:
155,218,115080,1,0,0:0:0:0:
169,185,115160,2,14,P|289:193|355:322,1,225.000008583069,14|8,0:0|0:0,0:0:0:0:
379,85,115480,6,14,P|316:202|239:273,1,225.000008583069,14|8,0:0|0:0,0:0:0:0:
259,114,115800,2,14,B|292:225|461:250,1,225.000008583069,14|8,0:0|0:0,0:0:0:0:
384,333,116120,2,14,P|257:282|132:368,1,225.000008583069,14|8,0:0|0:0,0:0:0:0:
89,325,116440,2,14,P|133:188|67:95,1,225.000008583069,14|8,0:0|0:0,0:0:0:0:
24,197,116760,6,14,P|169:236|244:178,1,225.000008583069,14|8,0:0|0:0,0:0:0:0:
183,90,117080,2,14,P|299:49|313:127,1,225.000008583069,14|8,0:0|0:0,0:0:0:0:
388,169,117400,2,14,P|325:272|342:167,1,225.000008583069,14|8,0:0|0:0,0:0:0:0:
235,202,117720,2,14,P|128:257|244:245,1,225.000008583069,14|8,0:0|0:0,0:0:0:0:
267,89,118020,6,0,P|321:110|345:143,1,75
255,186,118340,1,0,0:0:0:0:
255,186,118660,1,0,0:0:0:0:
160,140,118980,2,0,P|130:194|137:224,1,75
255,186,119300,1,0,0:0:0:0:
255,186,119620,1,0,0:0:0:0:
357,228,119940,6,0,P|312:281|279:289,1,75
255,186,120260,1,0,0:0:0:0:
255,186,120580,1,0,0:0:0:0:
105,161,120900,2,0,B|126:113|169:90|169:91,1,75
255,186,121220,1,0,0:0:0:0:
255,186,121540,1,0,0:0:0:0:
184,313,121860,6,0,L|99:267,1,75
48,343,122180,1,0,0:0:0:0:
48,343,122500,1,0,0:0:0:0:
112,152,122820,2,0,L|180:190,1,75
201,95,123140,1,0,0:0:0:0:
201,95,123460,1,0,0:0:0:0:
201,95,123780,1,0,0:0:0:0:
256,192,123940,12,0,125700,0:0:0:0:
109,155,126660,6,0,L|57:222,1,75
127,278,126980,2,0,P|161:233|174:211,1,75
262,236,127300,2,0,L|239:316,1,75
123,121,127620,5,0,0:0:0:0:
257,137,127940,2,0,L|214:220,1,75
123,121,128260,1,0,0:0:0:0:
116,288,128580,5,0,0:0:0:0:
276,292,128740,2,0,L|201:219,1,75
316,203,129060,2,0,L|393:288,1,75
329,119,129380,1,0,0:0:0:0:
329,119,129540,5,0,0:0:0:0:
239,164,129860,2,0,L|227:81,1,75
329,119,130180,1,0,0:0:0:0:
72,116,130500,5,0,0:0:0:0:
162,68,130660,2,0,L|194:169,1,75
280,137,130980,2,0,L|277:44,1,75
350,262,131300,1,0,0:0:0:0:
350,262,131460,5,0,0:0:0:0:
240,281,131780,2,0,L|258:195,1,75
350,262,132100,1,0,0:0:0:0:
306,67,132420,5,0,0:0:0:0:
387,115,132580,2,0,L|318:188,2,75
159,124,133060,1,0,0:0:0:0:
306,67,133220,1,0,0:0:0:0:
159,124,133380,5,0,0:0:0:0:
60,125,133533,2,0,L|66:211,1,75
108,300,133839,2,0,L|154:219,1,75
159,124,134145,1,0,0:0:0:0:
384,125,134277,5,0,0:0:0:0:
287,115,134427,2,0,L|303:184,1,56.2500021457673
230,231,134727,2,0,L|204:140,1,56.2500021457673
384,125,135027,1,0,0:0:0:0:
160,292,135147,5,0,0:0:0:0:
249,249,135438,2,0,L|177:174,1,60
160,292,135729,1,0,0:0:0:0:
151,88,136000,5,0,0:0:0:0:
93,199,136285,2,0,L|178:168,1,67.4999979400635
151,88,136571,1,0,0:0:0:0:
300,109,136839,5,0,0:0:0:0:
405,123,137094,2,0,L|343:199,1,75
276,218,137349,1,0,0:0:0:0:
276,218,137604,1,0,0:0:0:0:
349,275,137860,2,0,L|425:238,1,75
276,218,138115,1,0,0:0:0:0:
148,216,138365,6,0,L|301:175,1,150
342,318,138707,2,0,L|290:170,1,150
376,52,139050,2,0,L|264:216,1,150
441,166,139393,2,0,L|277:176,1,150
222,69,139741,2,0,L|153:215,1,150
41,155,140074,2,0,L|120:309,1,150
227,308,140350,6,0,L|242:214,1,75
327,235,140500,2,0,L|333:348,1,75
443,217,140650,2,0,L|382:153,1,75
328,68,140800,2,0,L|427:77,1,75
113,94,140951,6,14,P|64:248|174:331,1,300
11,340,141271,2,14,P|181:240|193:135,1,300
248,62,141591,2,14,P|403:111|463:244,1,300
451,29,141911,2,14,P|321:137|312:276,1,300
448,219,142231,6,14,P|333:345|175:295,1,300
117,338,142551,2,14,P|30:201|105:59,1,300
290,66,142871,2,14,P|288:127|217:180,1,150,14|0,0:0|0:0,0:0:0:0:
200,92,143031,2,14,P|139:146|156:237,1,150,14|0,0:0|0:0,0:0:0:0:
174,296,143191,2,14,P|340:238|381:100,1,300
462,291,143511,6,14,P|281:195|164:210,1,300
196,101,143831,2,14,P|134:124|203:303,1,300
18,233,144151,2,14,P|187:182|262:286,1,300
256,259,144471,2,14,P|377:143|382:162,1,300
321,193,144791,6,14,P|344:266|304:331,1,150,14|0,0:0|0:0,0:0:0:0:
256,259,144951,2,14,P|203:213|249:99,1,150,14|0,0:0|0:0,0:0:0:0:
159,49,145111,2,14,P|350:81|418:217,1,300
321,193,145431,2,14,P|211:121|153:243,1,300
235,208,145751,2,14,P|133:331|63:225,1,300
83,122,146071,6,14,P|174:268|384:298,1,300
387,348,146391,2,14,P|479:192|414:82,1,300
363,71,146631,1,0,0:0:0:0:
305,116,146711,2,14,P|378:247|251:282,1,300
247,191,147031,2,14,P|143:235|217:373,1,300
417,188,147351,6,14,P|345:175|304:115,1,150,14|0,0:0|0:0,0:0:0:0:
378,79,147511,2,14,P|337:35|225:81,1,150,14|0,0:0|0:0,0:0:0:0:
224,118,147671,2,14,P|123:236|108:230,1,150,14|0,0:0|0:0,0:0:0:0:
142,149,147831,2,14,P|269:60|286:96,1,150,14|0,0:0|0:0,0:0:0:0:
65,26,147991,6,14,P|44:211|155:284,1,300
33,348,148311,2,14,P|195:343|221:195,1,300
121,172,148631,6,14,P|245:88|256:108,1,150,14|0,0:0|0:0,0:0:0:0:
204,136,148791,2,14,P|345:92|349:78,1,150,14|0,0:0|0:0,0:0:0:0:
264,67,148951,2,14,P|418:101|415:131,1,150,14|0,0:0|0:0,0:0:0:0:
417,124,149111,2,14,P|485:264|499:264,1,150,14|0,0:0|0:0,0:0:0:0:
401,333,149271,6,14,P|340:278|313:199,1,150,14|0,0:0|0:0,0:0:0:0:
227,210,149431,2,14,B|220:294|296:364,1,150,14|0,0:0|0:0,0:0:0:0:
175,359,149591,2,14,P|143:296|132:192,1,150,14|0,0:0|0:0,0:0:0:0:
51,211,149751,2,14,P|48:290|88:366,1,150,14|0,0:0|0:0,0:0:0:0:
134,211,149911,6,14,P|325:225|319:255,1,300
231,217,150231,2,14,P|418:224|412:254,1,300
324,230,150551,1,14,0:0:0:0:
