osu file format v14

[General]
AudioFilename: audio.mp3
AudioLeadIn: 0
PreviewTime: -1
Countdown: 0
SampleSet: Normal
StackLeniency: 0.7
Mode: 3
LetterboxInBreaks: 0
SpecialStyle: 0
WidescreenStoryboard: 0

[Editor]
Bookmarks: 13714,30963
DistanceSpacing: 1
BeatDivisor: 8
GridSize: 8
TimelineZoom: 1.4

[Metadata]
Title:Morning Flower (SitekX Edit)
TitleUnicode:Morning Flower (SitekX Edit)
Artist:Samsung
ArtistUnicode:Samsung
Creator:SitekX
Version:heheheheeee
Source:
Tags:minecraft batting show sitek sie kurwa nudzi cave sound
BeatmapID:2173677
BeatmapSetID:1039926

[Difficulty]
HPDrainRate:5
CircleSize:4
OverallDifficulty:5
ApproachRate:5
SliderMultiplier:1.4
SliderTickRate:1

[Events]
//Background and Video events
0,0,"skin_20121202011455195976both.png",0,0
//Break Periods
2,69448,85208
//Storyboard Layer 0 (Background)
//Storyboard Layer 1 (Fail)
//Storyboard Layer 2 (Pass)
//Storyboard Layer 3 (Foreground)
//Storyboard Layer 4 (Overlay)
//Storyboard Sound Samples

[TimingPoints]
0,428.571428571429,4,1,0,100,1,0
0,-100,4,1,0,100,0,0
14410,-100,4,1,0,15,0,0
14483.75,-113.636363636364,4,1,0,15,0,0
14557.5,-133.333333333333,4,1,0,15,0,0
14631.25,-158.730158730159,4,1,0,15,0,0
14705,-200,4,1,0,15,0,0
14778.75,-263.157894736842,4,1,0,15,0,0
14852.5,-400,4,1,0,15,0,0
14926.25,-769.230769230769,4,1,0,15,0,0 15000,-Infinity,4,1,0,15,0,0
15428,-100,4,1,0,15,0,0
16178,428.571428571429,4,1,0,100,1,0
16178,-100,4,1,0,100,0,0
22178,-10,4,1,0,100,0,0
22392,-100,4,1,0,100,0,0
23249,-10,4,1,0,100,0,0
23463,-100,4,1,0,100,0,0
24320,-10,4,1,0,100,0,0
24535,-100,4,1,0,100,0,0
25392,-10,4,1,0,100,0,0
25606,-100,4,1,0,100,0,0
30963,428.571428571429,4,1,0,100,1,0
30963,-100,4,1,0,100,0,0
33748,-50,4,1,0,100,0,0
33802,-1000,4,1,0,100,0,0
33820,-50,4,1,0,100,0,0
33874,-1000,4,1,0,100,0,0
33892,-50,4,1,0,100,0,0
33946,-1000,4,1,0,100,0,0
33964,-50,4,1,0,100,0,0
34018,-1000,4,1,0,100,0,0
34036,-50,4,1,0,100,0,0
34090,-1000,4,1,0,100,0,0
34108,-50,4,1,0,100,0,0
34162,-1000,4,1,0,100,0,0
34180,-50,4,1,0,100,0,0
34234,-1000,4,1,0,100,0,0
34252,-50,4,1,0,100,0,0
34306,-1000,4,1,0,100,0,0
34324,-50,4,1,0,100,0,0
34378,-1000,4,1,0,100,0,0
34396,-50,4,1,0,100,0,0
34450,-1000,4,1,0,100,0,0
34468,-50,4,1,0,100,0,0
34522,-1000,4,1,0,100,0,0
34540,-50,4,1,0,100,0,0
34594,-1000,4,1,0,100,0,0
34612,-50,4,1,0,100,0,0
34666,-1000,4,1,0,100,0,0
34684,-50,4,1,0,100,0,0
34738,-1000,4,1,0,100,0,0
34756,-50,4,1,0,100,0,0
34810,-1000,4,1,0,100,0,0
34820,-100,4,1,0,100,0,0
36350,428.571428571429,4,1,0,100,1,0
36350,-100,4,1,0,100,0,0
40413,428.571428571429,4,1,0,100,1,0
40413,-100,4,1,0,100,0,0
41484,-100,4,1,0,15,0,0
41581.125,-94.3396226415094,4,1,0,15,0,0
41678.25,-88.495575221239,4,1,0,15,0,0
41775.375,-84.0336134453782,4,1,0,15,0,0
41872.5,-80,4,1,0,15,0,0
41969.625,-76.3358778625954,4,1,0,15,0,0
42066.75,-72.463768115942,4,1,0,15,0,0
42163.875,-69.4444444444444,4,1,0,15,0,0
42261,-66.6666666666667,4,1,0,15,0,0
42358.125,-64.1025641025641,4,1,0,15,0,0
42455.25,-61.3496932515337,4,1,0,15,0,0
42552.375,-59.1715976331361,4,1,0,15,0,0
42649.5,-57.1428571428571,4,1,0,15,0,0
42746.625,-55.2486187845304,4,1,0,15,0,0
42843.75,-53.1914893617021,4,1,0,15,0,0
42940.875,-51.5463917525773,4,1,0,15,0,0
43038,-50,4,1,0,15,0,0
43141.75,-51.5463917525773,4,1,0,15,0,0
43245.5,-53.1914893617021,4,1,0,15,0,0
43349.25,-55.2486187845304,4,1,0,15,0,0
43453,-57.1428571428571,4,1,0,15,0,0
43556.75,-59.1715976331361,4,1,0,15,0,0
43660.5,-61.3496932515337,4,1,0,15,0,0
43764.25,-64.1025641025641,4,1,0,15,0,0
43868,-66.6666666666667,4,1,0,15,0,0
43971.75,-69.4444444444444,4,1,0,15,0,0
44075.5,-72.463768115942,4,1,0,15,0,0
44179.25,-76.3358778625954,4,1,0,15,0,0
44283,-80,4,1,0,15,0,0
44386.75,-84.0336134453782,4,1,0,15,0,0
44490.5,-88.495575221239,4,1,0,15,0,0
44594.25,-94.3396226415094,4,1,0,15,0,0
44698,-100,4,1,0,15,0,0
56248,428.571428571429,4,1,0,100,1,0
56248,-100,4,1,0,100,0,0
86408,387.096774193548,4,1,0,100,1,0
86408,-500,4,1,0,15,0,0
86795.0625,-416.666666666667,4,1,0,15,0,0
87182.125,-344.827586206897,4,1,0,15,0,0
87569.1875,-303.030303030303,4,1,0,15,0,0
87956.25,-263.157894736842,4,1,0,15,0,0
88343.3125,-238.095238095238,4,1,0,15,0,0
88730.375,-217.391304347826,4,1,0,15,0,0
89117.4375,-196.078431372549,4,1,0,15,0,0
89504.5,-181.818181818182,4,1,0,15,0,0
89891.5625,-169.491525423729,4,1,0,15,0,0
90278.625,-156.25,4,1,0,15,0,0
90665.6875,-147.058823529412,4,1,0,15,0,0
91052.75,-138.888888888889,4,1,0,15,0,0
91439.8125,-129.87012987013,4,1,0,15,0,0
91826.875,-123.456790123457,4,1,0,15,0,0
92213.9375,-116.279069767442,4,1,0,15,0,0
92601,-111.111111111111,4,1,0,15,0,0
92988,-10,4,1,0,15,0,0
93182,234.375,4,1,0,100,1,0
93182,-181.818181818182,4,1,0,100,0,0
99978,387.096774193548,4,1,0,100,1,0
99978,-111.111111111111,4,1,0,100,0,0

[HitObjects]
192,192,0,5,0,0:0:0:0:
448,192,0,1,0,0:0:0:0:
320,192,428,1,0,0:0:0:0:
192,192,696,1,0,0:0:0:0:
64,192,750,128,0,1125:0:0:0:0:
448,192,1125,1,0,0:0:0:0:
192,192,1285,1,0,0:0:0:0:
320,192,1500,1,0,0:0:0:0:
64,192,1714,1,0,0:0:0:0:
448,192,1714,1,0,0:0:0:0:
64,192,1928,1,0,0:0:0:0:
320,192,1928,1,0,0:0:0:0:
448,192,1928,1,0,0:0:0:0:
192,192,2357,1,0,0:0:0:0:
64,192,2357,1,0,0:0:0:0:
448,192,2357,1,0,0:0:0:0:
64,192,2571,1,0,0:0:0:0:
320,192,2571,1,0,0:0:0:0:
448,192,2571,1,0,0:0:0:0:
64,192,2785,1,0,0:0:0:0:
192,192,2785,1,0,0:0:0:0:
448,192,2785,1,0,0:0:0:0:
64,192,3000,1,0,0:0:0:0:
320,192,3000,1,0,0:0:0:0:
448,192,3000,1,0,0:0:0:0:
192,192,3214,1,0,0:0:0:0:
448,192,3428,1,0,0:0:0:0:
320,192,3428,128,0,3857:0:0:0:0:
192,192,3857,1,0,0:0:0:0:
448,192,4071,1,0,0:0:0:0:
320,192,4071,128,0,4500:0:0:0:0:
64,192,4500,1,0,0:0:0:0:
192,192,4714,1,0,0:0:0:0:
448,192,4928,1,0,0:0:0:0:
320,192,5142,1,0,0:0:0:0:
192,192,5357,1,0,0:0:0:0:
448,192,5357,1,0,0:0:0:0:
64,192,5571,1,0,0:0:0:0:
320,192,5571,1,0,0:0:0:0:
192,192,5642,1,0,0:0:0:0:
448,192,5714,1,0,0:0:0:0:
320,192,5785,1,0,0:0:0:0:
64,192,6000,1,0,0:0:0:0:
448,192,6000,1,0,0:0:0:0:
192,192,6214,1,0,0:0:0:0:
320,192,6285,1,0,0:0:0:0:
448,192,6357,1,0,0:0:0:0:
64,192,6428,1,0,0:0:0:0:
192,192,6500,1,0,0:0:0:0:
320,192,6571,1,0,0:0:0:0:
448,192,6642,1,0,0:0:0:0:
64,192,6714,1,0,0:0:0:0:
192,192,6785,1,0,0:0:0:0:
320,192,6857,1,0,0:0:0:0:
448,192,6857,128,0,7285:0:0:0:0:
192,192,7285,1,0,0:0:0:0:
64,192,7500,1,0,0:0:0:0:
320,192,7500,128,0,7928:0:0:0:0:
448,192,7928,1,0,0:0:0:0:
64,192,8142,1,0,0:0:0:0:
192,192,8357,128,0,9214:0:0:0:0:
320,192,8357,1,0,0:0:0:0:
448,192,8571,1,0,0:0:0:0:
64,192,9214,128,0,10071:0:0:0:0:
320,192,9642,128,0,10071:0:0:0:0:
192,192,9857,1,0,0:0:0:0:
448,192,10071,1,0,0:0:0:0:
192,192,10285,1,0,0:0:0:0:
320,192,10285,1,0,0:0:0:0:
448,192,10714,1,0,0:0:0:0:
192,192,10714,1,0,0:0:0:0:
320,192,10928,1,0,0:0:0:0:
64,192,10928,128,0,11357:0:0:0:0:
192,192,11357,1,0,0:0:0:0:
64,192,11571,1,0,0:0:0:0:
320,192,11785,1,0,0:0:0:0:
192,192,12000,1,0,0:0:0:0:
320,192,12071,1,0,0:0:0:0:
448,192,12142,1,0,0:0:0:0:
64,192,12214,1,0,0:0:0:0:
192,192,12285,1,0,0:0:0:0:
320,192,12357,1,0,0:0:0:0:
448,192,12428,1,0,0:0:0:0:
64,192,12500,1,0,0:0:0:0:
192,192,12571,1,0,0:0:0:0:
320,192,12642,1,0,0:0:0:0:
448,192,12714,1,0,0:0:0:0:
64,192,12785,1,0,0:0:0:0:
192,192,12857,1,0,0:0:0:0:
320,192,12857,1,0,0:0:0:0:
320,192,13714,5,0,0:0:0:0:
64,192,13714,1,0,0:0:0:0:
192,192,14142,1,0,0:0:0:0:
64,192,14410,128,0,15428:0:0:0:0:
448,192,15428,128,0,15750:0:0:0:0:
320,192,15750,128,0,16178:0:0:0:0:
64,192,16178,1,0,0:0:0:0:
448,192,16178,1,0,0:0:0:0:
192,192,16178,1,0,0:0:0:0:
64,192,16607,1,0,0:0:0:0:
448,192,16607,1,0,0:0:0:0:
320,192,16607,1,0,0:0:0:0:
64,192,16821,1,0,0:0:0:0:
192,192,16821,1,0,0:0:0:0:
448,192,16821,1,0,0:0:0:0:
64,192,17035,1,0,0:0:0:0:
320,192,17035,1,0,0:0:0:0:
448,192,17035,1,0,0:0:0:0:
64,192,17250,1,0,0:0:0:0:
192,192,17250,1,0,0:0:0:0:
448,192,17250,1,0,0:0:0:0:
320,192,17464,1,0,0:0:0:0:
192,192,17678,128,0,18107:0:0:0:0:
64,192,17678,1,0,0:0:0:0:
320,192,18107,1,0,0:0:0:0:
192,192,18321,128,0,18750:0:0:0:0:
64,192,18321,1,0,0:0:0:0:
448,192,18750,1,0,0:0:0:0:
320,192,18964,1,0,0:0:0:0:
64,192,19178,1,0,0:0:0:0:
192,192,19392,1,0,0:0:0:0:
64,192,19607,1,0,0:0:0:0:
320,192,19607,1,0,0:0:0:0:
192,192,19821,1,0,0:0:0:0:
448,192,19821,1,0,0:0:0:0:
320,192,19892,1,0,0:0:0:0:
64,192,19964,1,0,0:0:0:0:
192,192,20035,1,0,0:0:0:0:
64,192,20250,1,0,0:0:0:0:
448,192,20250,1,0,0:0:0:0:
320,192,20464,1,0,0:0:0:0:
192,192,20535,1,0,0:0:0:0:
64,192,20607,1,0,0:0:0:0:
448,192,20678,1,0,0:0:0:0:
320,192,20750,1,0,0:0:0:0:
192,192,20821,1,0,0:0:0:0:
64,192,20892,1,0,0:0:0:0:
448,192,20964,1,0,0:0:0:0:
320,192,21035,1,0,0:0:0:0:
64,192,21107,128,0,21535:0:0:0:0:
192,192,21107,1,0,0:0:0:0:
320,192,21535,1,0,0:0:0:0:
192,192,21750,128,0,22178:0:0:0:0:
448,192,21750,1,0,0:0:0:0:
64,192,22178,1,0,0:0:0:0:
448,192,22392,1,0,0:0:0:0:
320,192,22606,128,0,22820:0:0:0:0:
192,192,22607,1,0,0:0:0:0:
192,192,22820,128,0,23249:0:0:0:0:
64,192,22820,1,0,0:0:0:0:
64,192,23249,1,0,0:0:0:0:
448,192,23463,1,0,0:0:0:0:
320,192,23678,128,0,23892:0:0:0:0:
192,192,23678,1,0,0:0:0:0:
64,192,23892,1,0,0:0:0:0:
192,192,23892,128,0,24320:0:0:0:0:
64,192,24320,1,0,0:0:0:0:
448,192,24535,1,0,0:0:0:0:
320,192,24749,128,0,24963:0:0:0:0:
192,192,24749,1,0,0:0:0:0:
64,192,24963,1,0,0:0:0:0:
192,192,24963,128,0,25392:0:0:0:0:
64,192,25392,1,0,0:0:0:0:
448,192,25606,1,0,0:0:0:0:
320,192,25820,128,0,26033:0:0:0:0:
192,192,25820,1,0,0:0:0:0:
64,192,26035,1,0,0:0:0:0:
448,192,26035,128,0,26678:0:0:0:0:
64,192,26678,128,0,27535:0:0:0:0:
192,192,27106,1,0,0:0:0:0:
448,192,27106,1,0,0:0:0:0:
320,192,27535,1,0,0:0:0:0:
448,192,27749,128,0,28178:0:0:0:0:
64,192,27749,1,0,0:0:0:0:
320,192,28178,1,0,0:0:0:0:
64,192,28178,1,0,0:0:0:0:
192,192,28392,1,0,0:0:0:0:
448,192,28392,1,0,0:0:0:0:
320,192,28820,128,0,29249:0:0:0:0:
192,192,29035,1,0,0:0:0:0:
64,192,29249,1,0,0:0:0:0:
448,192,29463,128,0,29678:0:0:0:0:
192,192,29463,1,0,0:0:0:0:
320,192,29678,1,0,0:0:0:0:
192,192,29749,1,0,0:0:0:0:
64,192,29820,1,0,0:0:0:0:
448,192,29892,1,0,0:0:0:0:
320,192,29963,1,0,0:0:0:0:
192,192,30035,1,0,0:0:0:0:
64,192,30106,1,0,0:0:0:0:
448,192,30213,1,0,0:0:0:0:
320,192,30320,1,0,0:0:0:0:
192,192,30320,1,0,0:0:0:0:
192,192,30963,5,0,0:0:0:0:
448,192,30963,1,0,0:0:0:0:
320,192,31391,1,0,0:0:0:0:
192,192,31659,1,0,0:0:0:0:
64,192,31713,128,0,32088:0:0:0:0:
448,192,32088,1,0,0:0:0:0:
192,192,32248,1,0,0:0:0:0:
320,192,32463,1,0,0:0:0:0:
64,192,32677,1,0,0:0:0:0:
448,192,32677,1,0,0:0:0:0:
64,192,32891,1,0,0:0:0:0:
320,192,32891,1,0,0:0:0:0:
448,192,32891,1,0,0:0:0:0:
192,192,33320,1,0,0:0:0:0:
64,192,33320,1,0,0:0:0:0:
448,192,33320,1,0,0:0:0:0:
320,192,33427,1,0,0:0:0:0:
64,192,33534,1,0,0:0:0:0:
192,192,33534,1,0,0:0:0:0:
320,192,33641,1,0,0:0:0:0:
64,192,33748,1,0,0:0:0:0:
192,192,33748,1,0,0:0:0:0:
448,192,33820,1,0,0:0:0:0:
64,192,33820,1,0,0:0:0:0:
192,192,33820,1,0,0:0:0:0:
448,192,33891,1,0,0:0:0:0:
64,192,33963,1,0,0:0:0:0:
192,192,33963,1,0,0:0:0:0:
320,192,34034,1,0,0:0:0:0:
64,192,34105,1,0,0:0:0:0:
448,192,34105,1,0,0:0:0:0:
192,192,34105,1,0,0:0:0:0:
192,192,34177,1,0,0:0:0:0:
64,192,34177,1,0,0:0:0:0:
448,192,34177,1,0,0:0:0:0:
320,192,34248,1,0,0:0:0:0:
64,192,34320,1,0,0:0:0:0:
192,192,34320,1,0,0:0:0:0:
320,192,34391,1,0,0:0:0:0:
320,192,34463,1,0,0:0:0:0:
192,192,34463,1,0,0:0:0:0:
64,192,34463,1,0,0:0:0:0:
192,192,34534,1,0,0:0:0:0:
64,192,34534,1,0,0:0:0:0:
448,192,34534,1,0,0:0:0:0:
448,192,34605,1,0,0:0:0:0:
320,192,34677,1,0,0:0:0:0:
64,192,34677,1,0,0:0:0:0:
192,192,34677,1,0,0:0:0:0:
448,192,34748,1,0,0:0:0:0:
64,192,34820,1,0,0:0:0:0:
192,192,34820,1,0,0:0:0:0:
192,192,34963,1,0,0:0:0:0:
64,192,34963,1,0,0:0:0:0:
448,192,35034,1,0,0:0:0:0:
192,192,36350,128,0,36778:0:0:0:0:
64,192,36778,1,0,0:0:0:0:
448,192,36992,1,0,0:0:0:0:
320,192,36992,128,0,37421:0:0:0:0:
448,192,37421,128,0,37635:0:0:0:0:
64,192,37421,1,0,0:0:0:0:
192,192,37635,128,0,38064:0:0:0:0:
64,192,38064,128,0,38492:0:0:0:0:
320,192,38492,128,0,38814:0:0:0:0:
192,192,38492,128,0,38707:0:0:0:0:
448,192,38600,128,0,38814:0:0:0:0:
64,192,38707,128,0,38921:0:0:0:0:
192,192,38814,128,0,38921:0:0:0:0:
320,192,38921,128,0,39457:0:0:0:0:
448,192,38921,128,0,39135:0:0:0:0:
64,192,39135,128,0,39671:0:0:0:0:
192,192,39350,1,0,0:0:0:0:
320,192,39564,128,0,39778:0:0:0:0:
192,192,39778,128,0,39832:0:0:0:0:
64,192,39832,128,0,39885:0:0:0:0:
192,192,39885,128,0,39939:0:0:0:0:
64,192,39939,128,0,39992:0:0:0:0:
320,192,39992,128,0,40046:0:0:0:0:
448,192,40046,128,0,40100:0:0:0:0:
320,192,40100,128,0,40153:0:0:0:0:
448,192,40153,128,0,40207:0:0:0:0:
192,192,40207,128,0,40260:0:0:0:0:
64,192,40260,128,0,40314:0:0:0:0:
192,192,40314,128,0,40367:0:0:0:0:
64,192,40367,128,0,40413:0:0:0:0:
320,192,40413,1,0,0:0:0:0:
448,192,40413,128,0,40841:0:0:0:0:
192,192,40841,1,0,0:0:0:0:
64,192,41055,1,0,0:0:0:0:
320,192,41055,128,0,41484:0:0:0:0:
448,192,41484,1,0,0:0:0:0:
64,192,41591,1,0,0:0:0:0:
192,192,41645,1,0,0:0:0:0:
448,192,41698,1,0,0:0:0:0:
320,192,41752,1,0,0:0:0:0:
64,192,41805,1,0,0:0:0:0:
192,192,41859,1,0,0:0:0:0:
448,192,41913,1,0,0:0:0:0:
320,192,41966,1,0,0:0:0:0:
64,192,42020,1,0,0:0:0:0:
192,192,42073,1,0,0:0:0:0:
320,192,42127,1,0,0:0:0:0:
448,192,42180,1,0,0:0:0:0:
64,192,42234,1,0,0:0:0:0:
192,192,42288,1,0,0:0:0:0:
320,192,42341,1,0,0:0:0:0:
448,192,42395,1,0,0:0:0:0:
64,192,42448,1,0,0:0:0:0:
192,192,42502,1,0,0:0:0:0:
320,192,42555,1,0,0:0:0:0:
448,192,42609,1,0,0:0:0:0:
64,192,42663,1,0,0:0:0:0:
192,192,42716,1,0,0:0:0:0:
320,192,42770,1,0,0:0:0:0:
448,192,42823,1,0,0:0:0:0:
64,192,42877,1,0,0:0:0:0:
192,192,42930,1,0,0:0:0:0:
320,192,42984,1,0,0:0:0:0:
448,192,43038,1,0,0:0:0:0:
192,192,43091,1,0,0:0:0:0:
64,192,43145,1,0,0:0:0:0:
448,192,43198,1,0,0:0:0:0:
320,192,43252,1,0,0:0:0:0:
192,192,43305,1,0,0:0:0:0:
64,192,43359,1,0,0:0:0:0:
448,192,43413,1,0,0:0:0:0:
320,192,43466,1,0,0:0:0:0:
192,192,43520,1,0,0:0:0:0:
64,192,43573,1,0,0:0:0:0:
448,192,43627,1,0,0:0:0:0:
320,192,43680,1,0,0:0:0:0:
192,192,43734,1,0,0:0:0:0:
64,192,43788,1,0,0:0:0:0:
448,192,43841,1,0,0:0:0:0:
320,192,43895,1,0,0:0:0:0:
192,192,43948,1,0,0:0:0:0:
64,192,44002,1,0,0:0:0:0:
448,192,44055,1,0,0:0:0:0:
320,192,44109,1,0,0:0:0:0:
192,192,44163,1,0,0:0:0:0:
64,192,44216,1,0,0:0:0:0:
448,192,44270,1,0,0:0:0:0:
320,192,44323,1,0,0:0:0:0:
192,192,44377,1,0,0:0:0:0:
64,192,44430,1,0,0:0:0:0:
448,192,44484,1,0,0:0:0:0:
320,192,44538,1,0,0:0:0:0:
192,192,44591,1,0,0:0:0:0:
64,192,44645,1,0,0:0:0:0:
448,192,44698,1,0,0:0:0:0:
320,192,44698,128,0,45341:0:0:0:0:
448,192,45341,128,0,46413:0:0:0:0:
64,192,45770,1,0,0:0:0:0:
192,192,46091,128,0,46520:0:0:0:0:
320,192,46520,128,0,47270:0:0:0:0:
64,192,46520,128,0,47163:0:0:0:0:
448,192,46520,1,0,0:0:0:0:
64,192,47270,128,0,49091:0:0:0:0:
192,192,47270,128,0,47591:0:0:0:0:
320,192,47591,1,0,0:0:0:0:
448,192,47591,128,0,48448:0:0:0:0:
320,192,48448,128,0,49520:0:0:0:0:
192,192,49091,128,0,49520:0:0:0:0:
64,192,49520,1,0,0:0:0:0:
448,192,49573,1,0,0:0:0:0:
320,192,49627,1,0,0:0:0:0:
64,192,49680,1,0,0:0:0:0:
192,192,49734,1,0,0:0:0:0:
448,192,49788,1,0,0:0:0:0:
320,192,49841,1,0,0:0:0:0:
192,192,49895,1,0,0:0:0:0:
64,192,49948,1,0,0:0:0:0:
320,192,50002,1,0,0:0:0:0:
448,192,50055,1,0,0:0:0:0:
64,192,50109,1,0,0:0:0:0:
192,192,50163,1,0,0:0:0:0:
320,192,50216,1,0,0:0:0:0:
448,192,50270,1,0,0:0:0:0:
192,192,50323,1,0,0:0:0:0:
64,192,50377,1,0,0:0:0:0:
448,192,50430,1,0,0:0:0:0:
320,192,50484,1,0,0:0:0:0:
192,192,50538,1,0,0:0:0:0:
64,192,50591,1,0,0:0:0:0:
320,192,50645,1,0,0:0:0:0:
448,192,50698,1,0,0:0:0:0:
64,192,50752,1,0,0:0:0:0:
192,192,50805,1,0,0:0:0:0:
320,192,50859,1,0,0:0:0:0:
448,192,50913,1,0,0:0:0:0:
192,192,50966,1,0,0:0:0:0:
64,192,51020,1,0,0:0:0:0:
320,192,51020,1,0,0:0:0:0:
64,192,54320,5,0,0:0:0:0:
192,192,54320,1,0,0:0:0:0:
320,192,54320,1,0,0:0:0:0:
448,192,54320,1,0,0:0:0:0:
320,192,55305,1,0,0:0:0:0:
320,192,55466,1,0,0:0:0:0:
320,192,55627,1,0,0:0:0:0:
320,192,55814,1,0,0:0:0:0:
320,192,56109,1,0,0:0:0:0:
192,192,56248,5,0,0:0:0:0:
448,192,56248,1,0,0:0:0:0:
320,192,56676,1,0,0:0:0:0:
192,192,56944,1,0,0:0:0:0:
64,192,56998,128,0,57373:0:0:0:0:
448,192,57373,1,0,0:0:0:0:
192,192,57533,1,0,0:0:0:0:
320,192,57748,1,0,0:0:0:0:
64,192,57962,1,0,0:0:0:0:
448,192,57962,1,0,0:0:0:0:
64,192,58176,1,0,0:0:0:0:
320,192,58176,1,0,0:0:0:0:
448,192,58176,1,0,0:0:0:0:
192,192,58605,1,0,0:0:0:0:
64,192,58605,1,0,0:0:0:0:
448,192,58631,1,0,0:0:0:0:
320,192,58819,1,0,0:0:0:0:
448,192,58819,1,0,0:0:0:0:
64,192,58846,1,0,0:0:0:0:
64,192,59033,1,0,0:0:0:0:
192,192,59033,1,0,0:0:0:0:
448,192,59060,1,0,0:0:0:0:
320,192,59248,1,0,0:0:0:0:
448,192,59248,1,0,0:0:0:0:
64,192,59274,1,0,0:0:0:0:
192,192,59462,1,0,0:0:0:0:
448,192,59676,1,0,0:0:0:0:
320,192,59703,128,0,60105:0:0:0:0:
64,192,60105,1,0,0:0:0:0:
448,192,60319,1,0,0:0:0:0:
192,192,60346,128,0,60748:0:0:0:0:
64,192,60748,1,0,0:0:0:0:
192,192,60962,1,0,0:0:0:0:
448,192,61176,1,0,0:0:0:0:
320,192,61390,1,0,0:0:0:0:
192,192,61605,1,0,0:0:0:0:
448,192,61631,1,0,0:0:0:0:
64,192,61819,1,0,0:0:0:0:
320,192,61846,1,0,0:0:0:0:
192,192,61873,1,0,0:0:0:0:
448,192,61962,1,0,0:0:0:0:
320,192,62033,1,0,0:0:0:0:
64,192,62105,1,0,0:0:0:0:
192,192,62176,1,0,0:0:0:0:
448,192,62248,1,0,0:0:0:0:
320,192,62248,1,0,0:0:0:0:
64,192,62319,1,0,0:0:0:0:
448,192,62390,1,0,0:0:0:0:
320,192,62462,1,0,0:0:0:0:
64,192,62533,1,0,0:0:0:0:
192,192,62605,1,0,0:0:0:0:
448,192,62676,1,0,0:0:0:0:
64,192,62748,1,0,0:0:0:0:
320,192,62819,1,0,0:0:0:0:
192,192,62890,1,0,0:0:0:0:
448,192,62962,1,0,0:0:0:0:
64,192,63033,1,0,0:0:0:0:
192,192,63105,1,0,0:0:0:0:
320,192,63131,128,0,63533:0:0:0:0:
192,192,63533,1,0,0:0:0:0:
192,192,63748,128,0,64176:0:0:0:0:
64,192,63748,1,0,0:0:0:0:
320,192,63774,128,0,64176:0:0:0:0:
448,192,64176,1,0,0:0:0:0:
64,192,64390,1,0,0:0:0:0:
448,192,64533,1,0,0:0:0:0:
192,192,64605,128,0,65462:0:0:0:0:
320,192,64605,1,0,0:0:0:0:
448,192,64676,1,0,0:0:0:0:
448,192,64819,1,0,0:0:0:0:
320,192,64962,1,0,0:0:0:0:
320,192,65105,1,0,0:0:0:0:
320,192,65248,1,0,0:0:0:0:
448,192,65248,1,0,0:0:0:0:
448,192,65390,1,0,0:0:0:0:
320,192,65390,1,0,0:0:0:0:
64,192,65462,128,0,66319:0:0:0:0:
448,192,65533,1,0,0:0:0:0:
320,192,65533,1,0,0:0:0:0:
192,192,65676,1,0,0:0:0:0:
320,192,65676,1,0,0:0:0:0:
448,192,65676,1,0,0:0:0:0:
192,192,65819,1,0,0:0:0:0:
448,192,65819,1,0,0:0:0:0:
320,192,65890,128,0,66319:0:0:0:0:
192,192,65962,1,0,0:0:0:0:
448,192,65962,1,0,0:0:0:0:
192,192,66105,1,0,0:0:0:0:
448,192,66105,1,0,0:0:0:0:
448,192,66248,1,0,0:0:0:0:
192,192,66248,1,0,0:0:0:0:
192,192,66390,1,0,0:0:0:0:
448,192,66390,1,0,0:0:0:0:
64,192,66533,1,0,0:0:0:0:
192,192,66533,1,0,0:0:0:0:
448,192,66533,1,0,0:0:0:0:
64,192,66676,1,0,0:0:0:0:
192,192,66676,1,0,0:0:0:0:
448,192,66676,1,0,0:0:0:0:
192,192,66819,1,0,0:0:0:0:
64,192,66819,1,0,0:0:0:0:
448,192,66819,1,0,0:0:0:0:
320,192,66962,1,0,0:0:0:0:
192,192,66962,1,0,0:0:0:0:
64,192,66962,1,0,0:0:0:0:
320,192,67105,1,0,0:0:0:0:
192,192,67105,1,0,0:0:0:0:
64,192,67105,1,0,0:0:0:0:
64,192,67248,1,0,0:0:0:0:
192,192,67248,1,0,0:0:0:0:
320,192,67248,1,0,0:0:0:0:
320,192,67390,1,0,0:0:0:0:
64,192,67390,1,0,0:0:0:0:
192,192,67390,1,0,0:0:0:0:
64,192,67533,1,0,0:0:0:0:
192,192,67533,1,0,0:0:0:0:
320,192,67533,1,0,0:0:0:0:
448,192,67533,1,0,0:0:0:0:
448,192,67676,1,0,0:0:0:0:
320,192,67676,1,0,0:0:0:0:
192,192,67676,1,0,0:0:0:0:
64,192,67676,1,0,0:0:0:0:
64,192,67819,1,0,0:0:0:0:
192,192,67819,1,0,0:0:0:0:
320,192,67819,1,0,0:0:0:0:
448,192,67819,1,0,0:0:0:0:
448,192,67962,1,0,0:0:0:0:
320,192,67962,1,0,0:0:0:0:
192,192,67962,1,0,0:0:0:0:
64,192,67962,1,0,0:0:0:0:
64,192,68105,1,0,0:0:0:0:
192,192,68105,1,0,0:0:0:0:
320,192,68105,1,0,0:0:0:0:
448,192,68105,1,0,0:0:0:0:
448,192,68248,1,0,0:0:0:0:
320,192,68248,1,0,0:0:0:0:
64,192,68248,1,0,0:0:0:0:
192,192,68248,1,0,0:0:0:0:
64,192,68390,1,0,0:0:0:0:
192,192,68390,1,0,0:0:0:0:
448,192,68390,1,0,0:0:0:0:
320,192,68390,1,0,0:0:0:0:
64,192,68533,1,0,0:0:0:0:
192,192,68533,1,0,0:0:0:0:
320,192,68533,1,0,0:0:0:0:
448,192,68533,1,0,0:0:0:0:
448,192,68676,1,0,0:0:0:0:
320,192,68676,1,0,0:0:0:0:
192,192,68676,1,0,0:0:0:0:
64,192,68676,1,0,0:0:0:0:
64,192,68819,1,0,0:0:0:0:
192,192,68819,1,0,0:0:0:0:
320,192,68819,1,0,0:0:0:0:
448,192,68819,1,0,0:0:0:0:
64,192,68962,1,0,0:0:0:0:
320,192,68962,1,0,0:0:0:0:
448,192,68962,1,0,0:0:0:0:
192,192,68962,1,0,0:0:0:0:
64,192,69105,1,0,0:0:0:0:
192,192,69105,1,0,0:0:0:0:
320,192,69105,1,0,0:0:0:0:
448,192,69105,1,0,0:0:0:0:
64,192,69248,1,0,0:0:0:0:
192,192,69248,1,0,0:0:0:0:
448,192,69248,1,0,0:0:0:0:
320,192,69248,1,0,0:0:0:0:
320,192,86408,5,0,0:0:0:0:
448,192,86408,1,0,0:0:0:0:
192,192,86504,1,0,0:0:0:0:
320,192,86601,1,0,0:0:0:0:
64,192,86698,1,0,0:0:0:0:
320,192,86795,1,0,0:0:0:0:
448,192,86795,1,0,0:0:0:0:
192,192,86891,1,0,0:0:0:0:
320,192,86988,1,0,0:0:0:0:
64,192,87085,1,0,0:0:0:0:
320,192,87182,1,0,0:0:0:0:
448,192,87182,1,0,0:0:0:0:
192,192,87278,1,0,0:0:0:0:
320,192,87375,1,0,0:0:0:0:
64,192,87472,1,0,0:0:0:0:
448,192,87569,1,0,0:0:0:0:
320,192,87569,1,0,0:0:0:0:
192,192,87666,1,0,0:0:0:0:
320,192,87762,1,0,0:0:0:0:
64,192,87859,1,0,0:0:0:0:
448,192,87956,1,0,0:0:0:0:
320,192,87956,1,0,0:0:0:0:
192,192,88053,1,0,0:0:0:0:
320,192,88149,1,0,0:0:0:0:
64,192,88246,1,0,0:0:0:0:
320,192,88343,1,0,0:0:0:0:
448,192,88343,1,0,0:0:0:0:
192,192,88440,1,0,0:0:0:0:
320,192,88537,1,0,0:0:0:0:
64,192,88633,1,0,0:0:0:0:
320,192,88730,1,0,0:0:0:0:
448,192,88730,1,0,0:0:0:0:
192,192,88827,1,0,0:0:0:0:
320,192,88924,1,0,0:0:0:0:
64,192,89020,1,0,0:0:0:0:
448,192,89117,1,0,0:0:0:0:
320,192,89117,1,0,0:0:0:0:
192,192,89214,1,0,0:0:0:0:
320,192,89311,1,0,0:0:0:0:
64,192,89408,1,0,0:0:0:0:
448,192,89504,1,0,0:0:0:0:
320,192,89504,1,0,0:0:0:0:
192,192,89601,1,0,0:0:0:0:
320,192,89698,1,0,0:0:0:0:
64,192,89795,1,0,0:0:0:0:
320,192,89891,1,0,0:0:0:0:
448,192,89891,1,0,0:0:0:0:
192,192,89988,1,0,0:0:0:0:
320,192,90085,1,0,0:0:0:0:
64,192,90182,1,0,0:0:0:0:
320,192,90278,1,0,0:0:0:0:
448,192,90278,1,0,0:0:0:0:
192,192,90375,1,0,0:0:0:0:
320,192,90472,1,0,0:0:0:0:
64,192,90569,1,0,0:0:0:0:
448,192,90666,1,0,0:0:0:0:
320,192,90666,1,0,0:0:0:0:
192,192,90762,1,0,0:0:0:0:
320,192,90859,1,0,0:0:0:0:
64,192,90956,1,0,0:0:0:0:
448,192,91053,1,0,0:0:0:0:
320,192,91053,1,0,0:0:0:0:
192,192,91149,1,0,0:0:0:0:
320,192,91246,1,0,0:0:0:0:
64,192,91343,1,0,0:0:0:0:
320,192,91440,1,0,0:0:0:0:
448,192,91440,1,0,0:0:0:0:
192,192,91537,1,0,0:0:0:0:
320,192,91633,1,0,0:0:0:0:
64,192,91730,1,0,0:0:0:0:
448,192,91827,1,0,0:0:0:0:
320,192,91827,1,0,0:0:0:0:
192,192,91924,1,0,0:0:0:0:
320,192,92020,1,0,0:0:0:0:
64,192,92117,1,0,0:0:0:0:
320,192,92214,1,0,0:0:0:0:
448,192,92214,1,0,0:0:0:0:
192,192,92311,1,0,0:0:0:0:
320,192,92408,1,0,0:0:0:0:
64,192,92504,1,0,0:0:0:0:
320,192,92601,1,0,0:0:0:0:
448,192,92601,1,0,0:0:0:0:
192,192,92698,1,0,0:0:0:0:
320,192,92795,1,0,0:0:0:0:
64,192,92843,1,0,0:0:0:0:
192,192,92843,1,0,0:0:0:0:
448,192,92843,1,0,0:0:0:0:
64,192,92988,1,0,0:0:0:0:
192,192,92988,1,0,0:0:0:0:
320,192,92988,1,0,0:0:0:0:
448,192,92988,1,0,0:0:0:0:
448,192,93182,1,0,0:0:0:0:
320,192,93182,1,0,0:0:0:0:
64,192,93240,1,0,0:0:0:0:
192,192,93240,1,0,0:0:0:0:
320,192,93299,1,0,0:0:0:0:
448,192,93299,1,0,0:0:0:0:
192,192,93357,1,0,0:0:0:0:
64,192,93357,1,0,0:0:0:0:
320,192,93416,1,0,0:0:0:0:
448,192,93416,1,0,0:0:0:0:
192,192,93474,1,0,0:0:0:0:
64,192,93474,1,0,0:0:0:0:
448,192,93533,1,0,0:0:0:0:
320,192,93533,1,0,0:0:0:0:
192,192,93592,1,0,0:0:0:0:
64,192,93592,1,0,0:0:0:0:
320,192,93650,1,0,0:0:0:0:
448,192,93650,1,0,0:0:0:0:
192,192,93709,1,0,0:0:0:0:
64,192,93709,1,0,0:0:0:0:
448,192,93767,1,0,0:0:0:0:
320,192,93767,1,0,0:0:0:0:
192,192,93807,1,0,0:0:0:0:
64,192,93807,1,0,0:0:0:0:
320,192,93846,1,0,0:0:0:0:
448,192,93846,1,0,0:0:0:0:
192,192,93885,1,0,0:0:0:0:
64,192,93885,1,0,0:0:0:0:
320,192,93924,1,0,0:0:0:0:
448,192,93924,1,0,0:0:0:0:
192,192,93963,1,0,0:0:0:0:
64,192,93963,1,0,0:0:0:0:
320,192,94002,1,0,0:0:0:0:
448,192,94002,1,0,0:0:0:0:
192,192,94041,1,0,0:0:0:0:
64,192,94041,1,0,0:0:0:0:
320,192,94080,1,0,0:0:0:0:
448,192,94080,1,0,0:0:0:0:
192,192,94119,1,0,0:0:0:0:
64,192,94119,1,0,0:0:0:0:
320,192,94158,1,0,0:0:0:0:
448,192,94158,1,0,0:0:0:0:
192,192,94197,128,0,94236:0:0:0:0:
64,192,94197,128,0,94236:0:0:0:0:
320,192,94236,128,0,94275:0:0:0:0:
448,192,94236,128,0,94275:0:0:0:0:
192,192,94275,128,0,94314:0:0:0:0:
64,192,94275,128,0,94314:0:0:0:0:
320,192,94314,128,0,94353:0:0:0:0:
448,192,94314,128,0,94353:0:0:0:0:
192,192,94353,128,0,94392:0:0:0:0:
64,192,94353,128,0,94392:0:0:0:0:
320,192,94392,128,0,94432:0:0:0:0:
448,192,94392,128,0,94432:0:0:0:0:
64,192,94432,128,0,94471:0:0:0:0:
192,192,94432,128,0,94471:0:0:0:0:
320,192,94471,128,0,94510:0:0:0:0:
448,192,94471,128,0,94510:0:0:0:0:
192,192,94510,128,0,94549:0:0:0:0:
64,192,94510,128,0,94549:0:0:0:0:
320,192,94549,128,0,94588:0:0:0:0:
448,192,94549,128,0,94588:0:0:0:0:
192,192,94588,128,0,94627:0:0:0:0:
64,192,94588,128,0,94627:0:0:0:0:
320,192,94627,128,0,94666:0:0:0:0:
448,192,94627,128,0,94666:0:0:0:0:
64,192,94666,128,0,94705:0:0:0:0:
192,192,94666,128,0,94705:0:0:0:0:
448,192,94705,128,0,94744:0:0:0:0:
320,192,94705,128,0,94744:0:0:0:0:
192,192,94744,128,0,94783:0:0:0:0:
64,192,94744,128,0,94783:0:0:0:0:
448,192,94783,128,0,94822:0:0:0:0:
320,192,94783,128,0,94822:0:0:0:0:
64,192,94822,128,0,94861:0:0:0:0:
192,192,94822,128,0,94861:0:0:0:0:
448,192,94861,128,0,94900:0:0:0:0:
320,192,94861,128,0,94900:0:0:0:0:
64,192,94900,128,0,94939:0:0:0:0:
192,192,94900,128,0,94939:0:0:0:0:
448,192,94939,128,0,94978:0:0:0:0:
320,192,94939,128,0,94978:0:0:0:0:
192,192,94978,128,0,95017:0:0:0:0:
64,192,94978,128,0,95017:0:0:0:0:
320,192,95057,1,0,0:0:0:0:
448,192,95057,1,0,0:0:0:0:
64,192,95115,1,0,0:0:0:0:
192,192,95115,1,0,0:0:0:0:
320,192,95174,1,0,0:0:0:0:
448,192,95174,1,0,0:0:0:0:
64,192,95232,1,0,0:0:0:0:
192,192,95232,1,0,0:0:0:0:
320,192,95291,128,0,95349:0:0:0:0:
448,192,95291,128,0,95349:0:0:0:0:
192,192,95349,1,0,0:0:0:0:
64,192,95349,1,0,0:0:0:0:
320,192,95408,1,0,0:0:0:0:
448,192,95408,1,0,0:0:0:0:
192,192,95467,1,0,0:0:0:0:
64,192,95467,1,0,0:0:0:0:
448,192,95525,128,0,95584:0:0:0:0:
320,192,95525,128,0,95584:0:0:0:0:
64,192,95584,1,0,0:0:0:0:
192,192,95584,1,0,0:0:0:0:
320,192,95642,1,0,0:0:0:0:
448,192,95642,1,0,0:0:0:0:
192,192,95701,1,0,0:0:0:0:
64,192,95701,1,0,0:0:0:0:
320,192,95760,1,0,0:0:0:0:
448,192,95760,1,0,0:0:0:0:
64,192,95818,1,0,0:0:0:0:
192,192,95818,1,0,0:0:0:0:
320,192,95877,128,0,95935:0:0:0:0:
448,192,95877,128,0,95935:0:0:0:0:
64,192,95935,1,0,0:0:0:0:
192,192,95935,1,0,0:0:0:0:
320,192,95994,1,0,0:0:0:0:
448,192,95994,1,0,0:0:0:0:
64,192,96053,1,0,0:0:0:0:
192,192,96053,1,0,0:0:0:0:
320,192,96111,1,0,0:0:0:0:
448,192,96111,1,0,0:0:0:0:
192,192,96170,1,0,0:0:0:0:
64,192,96170,1,0,0:0:0:0:
320,192,96228,1,0,0:0:0:0:
448,192,96228,1,0,0:0:0:0:
64,192,96287,128,0,96346:0:0:0:0:
192,192,96287,128,0,96346:0:0:0:0:
320,192,96346,1,0,0:0:0:0:
448,192,96346,1,0,0:0:0:0:
64,192,96404,1,0,0:0:0:0:
192,192,96404,1,0,0:0:0:0:
320,192,96463,1,0,0:0:0:0:
448,192,96463,1,0,0:0:0:0:
64,192,96463,1,0,0:0:0:0:
192,192,96463,1,0,0:0:0:0:
320,192,96580,1,0,0:0:0:0:
448,192,96580,1,0,0:0:0:0:
64,192,96639,1,0,0:0:0:0:
192,192,96639,1,0,0:0:0:0:
320,192,96639,1,0,0:0:0:0:
448,192,96639,1,0,0:0:0:0:
64,192,96756,1,0,0:0:0:0:
192,192,96756,1,0,0:0:0:0:
192,192,96814,1,0,0:0:0:0:
64,192,96814,1,0,0:0:0:0:
320,192,96814,1,0,0:0:0:0:
448,192,96814,1,0,0:0:0:0:
320,192,96932,1,0,0:0:0:0:
448,192,96932,1,0,0:0:0:0:
448,192,96990,1,0,0:0:0:0:
320,192,96990,1,0,0:0:0:0:
192,192,96990,1,0,0:0:0:0:
64,192,96990,1,0,0:0:0:0:
64,192,97107,1,0,0:0:0:0:
192,192,97107,1,0,0:0:0:0:
320,192,97166,1,0,0:0:0:0:
448,192,97166,1,0,0:0:0:0:
192,192,97224,1,0,0:0:0:0:
64,192,97224,1,0,0:0:0:0:
320,192,97283,1,0,0:0:0:0:
448,192,97283,1,0,0:0:0:0:
64,192,97342,1,0,0:0:0:0:
192,192,97342,1,0,0:0:0:0:
320,192,97400,1,0,0:0:0:0:
448,192,97400,1,0,0:0:0:0:
192,192,97459,1,0,0:0:0:0:
64,192,97459,1,0,0:0:0:0:
448,192,97517,128,0,97576:0:0:0:0:
320,192,97517,128,0,97576:0:0:0:0:
192,192,97576,128,0,97635:0:0:0:0:
64,192,97576,128,0,97635:0:0:0:0:
320,192,97635,128,0,97693:0:0:0:0:
448,192,97635,128,0,97693:0:0:0:0:
64,192,97693,1,0,0:0:0:0:
192,192,97693,1,0,0:0:0:0:
320,192,97752,1,0,0:0:0:0:
448,192,97752,1,0,0:0:0:0:
192,192,97810,128,0,97869:0:0:0:0:
64,192,97810,128,0,97869:0:0:0:0:
448,192,97869,128,0,97928:0:0:0:0:
320,192,97869,128,0,97928:0:0:0:0:
192,192,97928,128,0,97986:0:0:0:0:
64,192,97928,128,0,97986:0:0:0:0:
320,192,97986,1,0,0:0:0:0:
448,192,97986,1,0,0:0:0:0:
64,192,98045,1,0,0:0:0:0:
192,192,98045,1,0,0:0:0:0:
320,192,98103,128,0,98162:0:0:0:0:
448,192,98103,128,0,98162:0:0:0:0:
64,192,98162,128,0,98221:0:0:0:0:
192,192,98162,128,0,98221:0:0:0:0:
320,192,98221,128,0,98279:0:0:0:0:
448,192,98221,128,0,98279:0:0:0:0:
192,192,98279,1,0,0:0:0:0:
64,192,98279,1,0,0:0:0:0:
320,192,98338,1,0,0:0:0:0:
448,192,98338,1,0,0:0:0:0:
64,192,98396,1,0,0:0:0:0:
192,192,98396,1,0,0:0:0:0:
320,192,98455,1,0,0:0:0:0:
448,192,98455,1,0,0:0:0:0:
64,192,98514,1,0,0:0:0:0:
192,192,98514,1,0,0:0:0:0:
320,192,98572,1,0,0:0:0:0:
448,192,98572,1,0,0:0:0:0:
64,192,98631,128,0,98689:0:0:0:0:
192,192,98631,128,0,98689:0:0:0:0:
320,192,98689,1,0,0:0:0:0:
448,192,98689,1,0,0:0:0:0:
192,192,98748,128,0,98807:0:0:0:0:
64,192,98748,128,0,98807:0:0:0:0:
320,192,98807,1,0,0:0:0:0:
448,192,98807,1,0,0:0:0:0:
64,192,98865,1,0,0:0:0:0:
192,192,98865,1,0,0:0:0:0:
320,192,98924,128,0,98982:0:0:0:0:
448,192,98924,128,0,98982:0:0:0:0:
64,192,98982,1,0,0:0:0:0:
192,192,98982,1,0,0:0:0:0:
320,192,99041,128,0,99099:0:0:0:0:
448,192,99041,128,0,99099:0:0:0:0:
192,192,99099,1,0,0:0:0:0:
64,192,99099,1,0,0:0:0:0:
320,192,99158,128,0,99217:0:0:0:0:
448,192,99158,128,0,99217:0:0:0:0:
192,192,99217,1,0,0:0:0:0:
64,192,99217,1,0,0:0:0:0:
320,192,99275,128,0,99334:0:0:0:0:
448,192,99275,128,0,99334:0:0:0:0:
64,192,99334,128,0,99392:0:0:0:0:
192,192,99334,128,0,99392:0:0:0:0:
320,192,99392,128,0,99451:0:0:0:0:
448,192,99392,128,0,99451:0:0:0:0:
192,192,99451,128,0,99510:0:0:0:0:
64,192,99451,128,0,99510:0:0:0:0:
320,192,99510,128,0,99568:0:0:0:0:
448,192,99510,128,0,99568:0:0:0:0:
64,192,99568,1,0,0:0:0:0:
192,192,99568,1,0,0:0:0:0:
448,192,99627,1,0,0:0:0:0:
320,192,99627,1,0,0:0:0:0:
192,192,99627,1,0,0:0:0:0:
64,192,99627,1,0,0:0:0:0:
64,192,99685,1,0,0:0:0:0:
192,192,99685,1,0,0:0:0:0:
320,192,99685,1,0,0:0:0:0:
448,192,99685,1,0,0:0:0:0:
448,192,99744,1,0,0:0:0:0:
192,192,99744,1,0,0:0:0:0:
320,192,99744,1,0,0:0:0:0:
64,192,99744,1,0,0:0:0:0:
64,192,99803,1,0,0:0:0:0:
448,192,99803,1,0,0:0:0:0:
320,192,99803,1,0,0:0:0:0:
192,192,99803,1,0,0:0:0:0:
448,192,99861,1,0,0:0:0:0:
192,192,99861,1,0,0:0:0:0:
320,192,99861,1,0,0:0:0:0:
64,192,99861,1,0,0:0:0:0:
192,192,99920,1,0,0:0:0:0:
320,192,99920,1,0,0:0:0:0:
64,192,99920,1,0,0:0:0:0:
448,192,99920,1,0,0:0:0:0:
320,192,99978,1,0,0:0:0:0:
448,192,99978,1,0,0:0:0:0:
64,192,99978,1,0,0:0:0:0:
192,192,99978,1,0,0:0:0:0:
192,192,100074,1,0,0:0:0:0:
320,192,100074,1,0,0:0:0:0:
192,192,100171,1,0,0:0:0:0:
320,192,100171,1,0,0:0:0:0:
320,192,100268,1,0,0:0:0:0:
192,192,100268,1,0,0:0:0:0:
320,192,100365,1,0,0:0:0:0:
192,192,100365,1,0,0:0:0:0:
64,192,100365,1,0,0:0:0:0:
192,192,100461,1,0,0:0:0:0:
320,192,100461,1,0,0:0:0:0:
64,192,100461,1,0,0:0:0:0:
192,192,100558,1,0,0:0:0:0:
320,192,100558,1,0,0:0:0:0:
64,192,100558,1,0,0:0:0:0:
320,192,100655,1,0,0:0:0:0:
192,192,100655,1,0,0:0:0:0:
64,192,100655,1,0,0:0:0:0:
192,192,100752,1,0,0:0:0:0:
320,192,100752,1,0,0:0:0:0:
64,192,100752,1,0,0:0:0:0:
448,192,100752,1,0,0:0:0:0:
448,192,100848,1,0,0:0:0:0:
64,192,100848,1,0,0:0:0:0:
192,192,100848,1,0,0:0:0:0:
320,192,100848,1,0,0:0:0:0:
448,192,100945,1,0,0:0:0:0:
192,192,100945,1,0,0:0:0:0:
320,192,100969,1,0,0:0:0:0:
64,192,100969,1,0,0:0:0:0:
192,192,100994,1,0,0:0:0:0:
448,192,100994,1,0,0:0:0:0:
64,192,101018,1,0,0:0:0:0:
320,192,101018,1,0,0:0:0:0:
192,192,101042,1,0,0:0:0:0:
448,192,101042,1,0,0:0:0:0:
64,192,101066,1,0,0:0:0:0:
320,192,101066,1,0,0:0:0:0:
192,192,101090,1,0,0:0:0:0:
448,192,101090,1,0,0:0:0:0:
64,192,101115,1,0,0:0:0:0:
320,192,101115,1,0,0:0:0:0:
192,192,101139,1,0,0:0:0:0:
448,192,101139,1,0,0:0:0:0:
320,192,101171,1,0,0:0:0:0:
64,192,101171,1,0,0:0:0:0:
192,192,101203,1,0,0:0:0:0:
448,192,101203,1,0,0:0:0:0:
320,192,101236,1,0,0:0:0:0:
64,192,101236,1,0,0:0:0:0:
192,192,101268,1,0,0:0:0:0:
448,192,101268,1,0,0:0:0:0:
320,192,101300,1,0,0:0:0:0:
64,192,101300,1,0,0:0:0:0:
192,192,101332,1,0,0:0:0:0:
448,192,101332,1,0,0:0:0:0:
320,192,101381,1,0,0:0:0:0:
64,192,101381,1,0,0:0:0:0:
192,192,101429,1,0,0:0:0:0:
448,192,101429,1,0,0:0:0:0:
320,192,101478,1,0,0:0:0:0:
64,192,101478,1,0,0:0:0:0:
192,192,101526,1,0,0:0:0:0:
448,192,101526,1,0,0:0:0:0:
320,192,101590,1,0,0:0:0:0:
64,192,101590,1,0,0:0:0:0:
192,192,101655,1,0,0:0:0:0:
448,192,101655,1,0,0:0:0:0:
320,192,101719,1,0,0:0:0:0:
64,192,101719,1,0,0:0:0:0:
192,192,101816,1,0,0:0:0:0:
448,192,101816,1,0,0:0:0:0:
320,192,101913,1,0,0:0:0:0:
64,192,101913,1,0,0:0:0:0:
192,192,102010,1,0,0:0:0:0:
448,192,102010,1,0,0:0:0:0:
64,192,102171,1,0,0:0:0:0:
320,192,102171,1,0,0:0:0:0:
448,192,102300,1,0,0:0:0:0:
192,192,102300,1,0,0:0:0:0:
