osu file format v14

[General]
AudioFilename: audio.mp3
AudioLeadIn: 0
PreviewTime: 123174
Countdown: 0
SampleSet: None
StackLeniency: 0.7
Mode: 0
LetterboxInBreaks: 0
WidescreenStoryboard: 1

[Editor]
DistanceSpacing: 1
BeatDivisor: 8
GridSize: 4
TimelineZoom: 1

[Metadata]
Title:Marlboro Rot
TitleUnicode:Marlboro Rot
Artist:Samra
ArtistUnicode:Samra
Creator:5teven
Version:Hard
Source:
Tags:deutsch german rap ich verliere die kontrolle auf der fahrbahn lukas piano greckoe smoking kill thang dai electru berlin fernsehturm
BeatmapID:2163356
BeatmapSetID:1032459

[Difficulty]
HPDrainRate:4
CircleSize:4.5
OverallDifficulty:5.5
ApproachRate:9.5
SliderMultiplier:1.4
SliderTickRate:1

[Events]
//Background and Video events
0,0,"berlin.png",0,0
//Break Periods
//Storyboard Layer 0 (Background)
//Storyboard Layer 1 (Fail)
//Storyboard Layer 2 (Pass)
//Storyboard Layer 3 (Foreground)
//Storyboard Layer 4 (Overlay)
//Storyboard Sound Samples

[TimingPoints]
16020,638.297872340426,4,1,1,100,1,0
18174,-100,4,1,1,25,0,0
18333,-100,4,1,1,100,0,0
18812,-100,4,1,1,25,0,0
18972,-100,4,1,1,100,0,0
19450,-100,4,1,1,25,0,0
19610,-100,4,1,1,100,0,0
25913,-66.6666666666667,4,1,1,100,0,0
26392,-100,4,1,1,100,0,0
36126,-66.6666666666667,4,1,1,100,0,0
41871,-66.6666666666667,4,1,1,100,0,0
42190,-100,4,1,1,100,0,0
43067,-66.6666666666667,4,1,1,100,0,0
43466,-66.6666666666667,4,1,1,100,0,0
43706,-100,4,1,1,100,0,0
46578,-66.6666666666667,4,1,1,100,0,0
54078,-100,4,1,1,100,0,0
86312,-66.6666666666667,4,1,1,100,0,0
86631,-100,4,1,1,100,0,0
101871,-66.6666666666667,4,1,1,100,0,0
102509,-100,4,1,1,100,0,0
110168,-66.6666666666667,4,1,1,100,0,0
110488,-100,4,1,1,100,0,0
110647,-50,4,1,1,100,0,0
111285,-100,4,1,1,100,0,0
117988,-66.6666666666667,4,1,1,100,0,0
119743,-66.6666666666667,4,1,1,100,0,0
120700,-100,4,1,1,100,0,0
122934,-100,4,1,1,100,0,1
123254,-66.6666666666667,4,1,1,100,0,1
143360,-100,4,1,1,100,0,0
145833,-100,4,1,1,25,0,0
148387,-100,4,1,1,75,0,0
148546,-100,4,1,1,50,0,0
153493,-100,4,1,1,75,0,0
153652,-100,4,1,1,50,0,0
162429,-100,4,1,1,50,0,0
163067,-100,4,1,1,75,0,0
163706,-100,4,1,1,100,0,0

[HitObjects]
96,84,16019,5,0,0:0:0:0:
156,168,16498,1,0,0:0:0:0:
284,284,17296,1,0,0:0:0:0:
432,136,18254,5,0,0:0:0:0:
376,96,18573,5,0,0:0:0:0:
308,88,18892,5,0,0:0:0:0:
256,100,19131,6,0,L|208:116,1,35
172,128,19530,5,0,0:0:0:0:
140,192,19849,6,0,L|178:213,1,35
204,224,20168,5,0,0:0:0:0:
272,216,20488,1,0,0:0:0:0:
340,208,20807,6,0,P|325:177|316:176,1,35,4|0,0:0|0:0,0:0:0:0:
296,164,21126,1,0,0:0:0:0:
268,144,21285,1,0,0:0:0:0:
244,120,21445,2,0,P|220:108|200:112,1,35
176,116,21764,5,0,0:0:0:0:
144,132,21924,1,0,0:0:0:0:
120,156,22083,2,0,P|108:174|107:193,1,35
108,220,22402,1,0,0:0:0:0:
128,248,22562,1,0,0:0:0:0:
156,268,22722,6,0,L|194:280,1,35
208,248,23041,6,0,L|245:261,1,35
272,272,23360,5,4,0:0:0:0:
324,228,23679,5,0,0:0:0:0:
352,208,23839,1,0,0:0:0:0:
380,188,23998,5,0,0:0:0:0:
380,120,24317,1,0,0:0:0:0:
308,116,24637,1,0,0:0:0:0:
280,136,24796,1,0,0:0:0:0:
252,160,24956,1,0,0:0:0:0:
224,180,25115,1,0,0:0:0:0:
196,200,25275,2,0,L|168:216,2,17.5
228,184,25594,1,0,0:0:0:0:
320,132,25913,6,0,P|363:132|418:159,1,105.000004005432,4|0,0:0|0:0,0:0:0:0:
487,126,26392,1,0,0:0:0:0:
499,158,26551,1,0,0:0:0:0:
497,193,26711,1,0,0:0:0:0:
485,226,26871,2,0,P|464:243|445:239,1,35
422,241,27190,5,0,0:0:0:0:
389,228,27349,1,0,0:0:0:0:
363,203,27509,1,0,0:0:0:0:
337,179,27668,1,0,0:0:0:0:
311,154,27828,2,0,L|288:128,2,35
352,208,28466,5,6,0:0:0:0:
324,232,28626,1,2,0:0:0:0:
300,208,28785,5,2,0:0:0:0:
276,232,28945,1,2,0:0:0:0:
248,208,29105,5,2,0:0:0:0:
220,228,29264,1,2,0:0:0:0:
188,244,29424,6,0,P|168:248|144:248,1,35
120,236,29743,1,0,0:0:0:0:
96,212,29902,2,0,P|88:196|85:179,1,35
84,144,30222,2,0,P|88:128|104:104,2,35
80,180,30700,5,0,0:0:0:0:
84,252,31020,5,6,0:0:0:0:
104,280,31179,1,2,0:0:0:0:
136,296,31339,5,2,0:0:0:0:
172,288,31498,1,2,0:0:0:0:
204,272,31658,5,2,0:0:0:0:
236,260,31817,1,2,0:0:0:0:
268,248,31977,1,2,0:0:0:0:
296,228,32137,1,2,0:0:0:0:
344,180,32456,6,0,L|368:140,1,35
376,116,32775,1,0,0:0:0:0:
372,80,32934,1,0,0:0:0:0:
348,56,33094,1,0,0:0:0:0:
316,44,33254,2,0,P|300:40|268:44,1,35
248,52,33573,5,6,0:0:0:0:
216,64,33732,1,2,0:0:0:0:
192,88,33892,1,2,0:0:0:0:
176,120,34051,1,2,0:0:0:0:
164,152,34211,6,0,L|144:192,1,35
156,216,34530,2,0,L|200:240,1,35
220,236,34849,2,0,L|244:200,1,35
260,180,35168,5,0,0:0:0:0:
280,152,35328,1,0,0:0:0:0:
300,124,35488,1,0,0:0:0:0:
324,96,35647,1,0,0:0:0:0:
348,72,35807,2,0,L|380:36,1,35
152,240,36126,6,0,P|195:209|240:208,1,78.7500030040742,4|0,0:0|0:0,0:0:0:0:
272,208,36525,2,0,L|327:220,1,52.5000020027161
376,232,36844,2,0,L|440:248,2,52.5000020027161
300,212,37402,5,0,0:0:0:0:
200,176,37722,1,0,0:0:0:0:
160,144,37881,1,0,0:0:0:0:
144,124,37961,1,0,0:0:0:0:
140,100,38041,1,0,0:0:0:0:
236,60,38360,6,0,L|281:74,1,35
336,92,38679,1,0,0:0:0:0:
388,108,38839,1,0,0:0:0:0:
400,160,38998,5,0,0:0:0:0:
372,204,39158,1,0,0:0:0:0:
340,244,39318,1,0,0:0:0:0:
236,256,39637,6,0,L|196:240,1,26.2500010013581
192,172,39956,6,0,P|222:183|254:177,1,52.5
336,136,40434,5,0,0:0:0:0:
357,121,40514,1,0,0:0:0:0:
374,101,40594,1,0,0:0:0:0:
356,208,40913,6,0,L|324:252,1,52.5000020027161
312,300,41232,2,0,L|244:280,1,52.5000020027161,4|0,0:0|0:0,0:0:0:0:
212,268,41551,1,0,0:0:0:0:
160,256,41711,1,0,0:0:0:0:
136,208,41871,6,0,L|240:168,1,105.000004005432
244,100,42509,6,0,L|285:110,1,35
312,120,42828,1,0,0:0:0:0:
248,164,43067,2,0,P|280:183|326:197,1,78.7500030040742
372,208,43466,2,0,P|404:221|431:266,1,78.7500030040742
436,290,43865,5,0,0:0:0:0:
429,324,44025,1,0,0:0:0:0:
332,336,44264,1,0,0:0:0:0:
300,328,44424,2,0,P|280:316|252:272,1,70
196,240,45062,5,2,0:0:0:0:
248,80,45222,1,2,0:0:0:0:
304,248,45381,1,2,0:0:0:0:
160,144,45541,1,2,0:0:0:0:
316,148,45700,1,2,0:0:0:0:
80,320,46020,1,0,0:0:0:0:
380,248,46339,5,4,0:0:0:0:
336,184,46578,6,0,L|304:136,1,52.5000020027161
272,100,46897,1,0,0:0:0:0:
224,76,47057,1,0,0:0:0:0:
144,76,47296,6,0,P|108:88|88:104,1,52.5000020027161
60,136,47615,1,0,0:0:0:0:
52,188,47775,1,0,0:0:0:0:
68,236,47934,1,0,0:0:0:0:
96,280,48094,2,0,P|120:300|152:316,1,52.5000020027161
236,348,48573,5,2,0:0:0:0:
358,330,48732,1,2,0:0:0:0:
251,262,48892,1,2,0:0:0:0:
80,144,49211,5,0,0:0:0:0:
128,124,49371,2,0,L|188:100,1,52.5000020027161
228,88,49690,1,0,0:0:0:0:
280,80,49849,1,0,0:0:0:0:
332,88,50009,1,0,0:0:0:0:
380,108,50168,2,0,P|408:128|424:156,1,52.5000020027161
428,196,50488,1,0,0:0:0:0:
412,248,50647,2,0,L|388:304,1,52.5000020027161
312,192,51206,5,0,0:0:0:0:
260,204,51365,1,4,0:0:0:0:
208,192,51525,2,0,L|144:180,1,52.5000020027161
120,144,51844,6,0,P|104:172|103:197,1,52.5000020027161
108,244,52163,1,0,0:0:0:0:
132,292,52323,1,0,0:0:0:0:
168,328,52482,2,0,P|196:348|228:348,1,52.5000020027161
316,332,52961,5,0,0:0:0:0:
364,308,53121,1,0,0:0:0:0:
388,264,53280,1,0,0:0:0:0:
348,228,53440,2,0,P|399:217|433:231,2,78.7500030040742
316,244,54078,5,4,0:0:0:0:
284,256,54238,1,0,0:0:0:0:
248,252,54397,1,0,0:0:0:0:
220,232,54557,2,0,L|184:205,1,35
200,176,54876,2,0,L|236:152,1,35
256,132,55195,5,0,0:0:0:0:
276,104,55355,2,0,L|304:132,2,35
248,80,55833,1,0,0:0:0:0:
212,88,55993,2,0,L|182:124,1,35
168,140,56312,1,0,0:0:0:0:
156,152,56392,1,0,0:0:0:0:
144,168,56472,1,4,0:0:0:0:
140,256,56871,5,0,0:0:0:0:
176,256,57030,1,0,0:0:0:0:
208,264,57190,5,0,0:0:0:0:
240,272,57349,1,0,0:0:0:0:
276,276,57509,5,0,0:0:0:0:
308,260,57668,1,0,0:0:0:0:
328,232,57828,2,0,P|336:220|340:196,1,35
336,164,58147,1,0,0:0:0:0:
304,148,58307,2,0,P|335:135|380:148,1,70
440,176,58785,5,0,0:0:0:0:
441,140,58945,1,0,0:0:0:0:
428,108,59105,2,0,P|416:84|400:68,1,35
384,56,59424,5,0,0:0:0:0:
348,60,59583,1,0,0:0:0:0:
332,92,59743,1,0,0:0:0:0:
324,124,59902,1,0,0:0:0:0:
312,156,60062,1,0,0:0:0:0:
288,180,60222,1,0,0:0:0:0:
224,224,60381,2,0,L|200:236,2,17.5
256,212,60700,5,0,0:0:0:0:
292,208,60860,1,0,0:0:0:0:
328,212,61020,1,0,0:0:0:0:
388,216,61259,5,0,0:0:0:0:
400,204,61339,1,0,0:0:0:0:
408,188,61418,1,0,0:0:0:0:
404,136,61658,5,4,0:0:0:0:
368,96,61897,5,0,0:0:0:0:
336,80,62057,1,0,0:0:0:0:
300,72,62216,1,0,0:0:0:0:
268,84,62376,2,0,L|224:104,1,35
204,116,62695,1,0,0:0:0:0:
184,144,62855,1,0,0:0:0:0:
172,176,63014,6,0,L|164:216,2,35
176,124,63573,2,0,L|184:84,1,35
216,96,63892,2,0,L|208:132,1,35
204,164,64211,5,0,0:0:0:0:
200,200,64371,1,0,0:0:0:0:
196,236,64530,1,0,0:0:0:0:
128,252,64849,5,0,0:0:0:0:
112,220,65009,1,0,0:0:0:0:
108,184,65168,1,0,0:0:0:0:
120,152,65328,1,0,0:0:0:0:
140,124,65488,1,0,0:0:0:0:
204,96,65807,5,0,0:0:0:0:
240,96,65966,1,0,0:0:0:0:
272,108,66126,1,0,0:0:0:0:
300,132,66285,1,0,0:0:0:0:
320,160,66445,1,0,0:0:0:0:
332,192,66605,6,0,B|332:212|332:212|328:240,1,35
300,292,67083,5,0,0:0:0:0:
268,304,67243,1,0,0:0:0:0:
232,300,67402,2,0,P|184:280|176:256,1,70
156,180,68121,5,0,0:0:0:0:
160,128,68360,5,0,0:0:0:0:
176,96,68520,1,0,0:0:0:0:
208,80,68679,1,0,0:0:0:0:
276,68,68998,5,0,0:0:0:0:
308,128,69317,5,6,0:0:0:0:
332,152,69477,1,2,0:0:0:0:
352,180,69637,1,2,0:0:0:0:
352,216,69796,1,2,0:0:0:0:
340,248,69956,1,2,0:0:0:0:
312,272,70115,1,2,0:0:0:0:
276,272,70275,1,2,0:0:0:0:
244,256,70434,1,2,0:0:0:0:
212,240,70594,6,2,L|180:228,1,35
148,216,70913,1,2,0:0:0:0:
124,188,71073,1,2,0:0:0:0:
124,152,71232,1,2,0:0:0:0:
176,108,71551,5,0,0:0:0:0:
244,96,71871,1,4,0:0:0:0:
284,156,72190,5,2,0:0:0:0:
304,184,72349,1,2,0:0:0:0:
312,220,72509,5,2,0:0:0:0:
304,256,72668,1,2,0:0:0:0:
284,284,72828,5,2,0:0:0:0:
252,296,72988,1,2,0:0:0:0:
216,292,73147,5,2,0:0:0:0:
188,272,73307,1,2,0:0:0:0:
172,240,73466,5,2,0:0:0:0:
164,204,73626,1,2,0:0:0:0:
172,168,73785,5,2,0:0:0:0:
192,140,73944,1,2,0:0:0:0:
220,120,74104,5,2,0:0:0:0:
256,112,74264,1,6,0:0:0:0:
324,124,74583,5,2,0:0:0:0:
324,160,74743,1,2,0:0:0:0:
328,196,74902,5,2,0:0:0:0:
324,232,75062,1,2,0:0:0:0:
324,268,75222,5,2,0:0:0:0:
292,284,75381,1,2,0:0:0:0:
260,276,75541,5,2,0:0:0:0:
224,272,75700,1,2,0:0:0:0:
192,260,75860,5,2,0:0:0:0:
188,224,76020,1,2,0:0:0:0:
188,188,76179,5,2,0:0:0:0:
188,152,76339,1,2,0:0:0:0:
216,132,76498,5,2,0:0:0:0:
252,132,76658,1,2,0:0:0:0:
288,128,76817,6,2,L|328:128,1,35,6|2,0:0|0:0,0:0:0:0:
348,152,77296,6,0,L|366:195,1,35
364,220,77615,1,0,0:0:0:0:
352,252,77775,1,0,0:0:0:0:
324,276,77934,1,0,0:0:0:0:
288,280,78094,6,0,L|240:272,1,35
220,264,78413,1,0,0:0:0:0:
188,248,78573,1,0,0:0:0:0:
168,220,78732,1,0,0:0:0:0:
164,184,78892,2,0,L|172:148,1,35
192,120,79212,5,0,0:0:0:0:
220,100,79371,1,0,0:0:0:0:
252,92,79530,1,0,0:0:0:0:
288,92,79690,1,0,0:0:0:0:
316,112,79849,1,0,0:0:0:0:
340,136,80009,1,0,0:0:0:0:
348,172,80168,6,0,L|336:204,1,35
312,232,80488,2,0,L|276:248,2,35
280,220,80966,1,0,0:0:0:0:
300,192,81126,6,0,L|288:152,1,35
276,128,81445,2,0,L|316:110,2,35
244,140,81924,1,0,0:0:0:0:
208,140,82083,5,4,0:0:0:0:
148,176,82402,6,0,L|191:187,1,35
232,200,82801,1,0,0:0:0:0:
264,208,82961,1,0,0:0:0:0:
300,208,83121,1,0,0:0:0:0:
336,200,83280,2,0,L|381:187,1,35
400,176,83600,1,0,0:0:0:0:
424,152,83759,1,0,0:0:0:0:
440,100,83998,5,2,0:0:0:0:
264,44,84238,1,2,0:0:0:0:
388,176,84477,1,2,0:0:0:0:
228,276,84796,5,2,0:0:0:0:
144,191,84956,1,2,0:0:0:0:
244,124,85115,1,2,0:0:0:0:
320,206,85275,1,2,0:0:0:0:
120,136,85594,2,0,L|160:118,1,35
302,159,86312,6,0,L|263:104,1,52.5000020027161
105,93,86631,2,0,L|120:135,1,35
144,108,86950,2,0,L|159:150,1,35
128,300,87509,5,2,0:0:0:0:
148,272,87668,1,2,0:0:0:0:
184,272,87828,5,2,0:0:0:0:
200,240,87988,1,2,0:0:0:0:
220,212,88147,5,2,0:0:0:0:
236,180,88307,1,2,0:0:0:0:
268,164,88466,2,0,L|286:205,1,35
88,184,88785,5,0,0:0:0:0:
112,212,88945,1,0,0:0:0:0:
140,232,89105,2,0,P|164:244|196:244,1,52.5
240,236,89583,1,0,0:0:0:0:
53,221,90062,5,2,0:0:0:0:
88,224,90222,1,2,0:0:0:0:
76,192,90381,1,2,0:0:0:0:
112,132,90700,5,2,0:0:0:0:
148,136,90860,1,2,0:0:0:0:
140,104,91020,1,2,0:0:0:0:
208,120,91339,5,2,0:0:0:0:
224,152,91498,1,2,0:0:0:0:
240,184,91658,1,2,0:0:0:0:
256,216,91817,1,2,0:0:0:0:
272,248,91977,5,2,0:0:0:0:
284,280,92137,1,2,0:0:0:0:
296,312,92296,1,6,0:0:0:0:
224,82,92615,5,0,0:0:0:0:
256,96,92775,1,0,0:0:0:0:
288,108,92934,1,0,0:0:0:0:
188,224,93254,5,0,0:0:0:0:
164,248,93413,1,0,0:0:0:0:
140,272,93573,1,0,0:0:0:0:
134,90,93892,6,0,L|153:134,1,35
216,304,94371,5,2,0:0:0:0:
232,272,94530,1,2,0:0:0:0:
256,296,94690,1,2,0:0:0:0:
276,268,94849,1,2,0:0:0:0:
308,284,95009,1,2,0:0:0:0:
320,252,95168,1,2,0:0:0:0:
352,268,95328,1,2,0:0:0:0:
356,232,95488,2,2,L|376:204,1,35
412,196,95807,5,2,0:0:0:0:
392,168,95966,1,2,0:0:0:0:
428,164,96126,2,2,L|446:133,1,35
420,112,96445,5,2,0:0:0:0:
452,96,96605,1,2,0:0:0:0:
424,72,96764,1,2,0:0:0:0:
392,88,96924,1,2,0:0:0:0:
380,56,97083,1,2,0:0:0:0:
352,80,97243,1,2,0:0:0:0:
328,52,97402,1,2,0:0:0:0:
320,120,97722,6,0,L|276:132,1,35
272,268,98360,6,0,L|258:226,1,35
228,220,98679,6,0,L|214:178,1,35
208,152,98998,1,0,0:0:0:0:
204,120,99158,1,0,0:0:0:0:
216,88,99317,2,0,P|228:76|256:72,1,35
296,76,99716,1,0,0:0:0:0:
452,136,99876,5,0,0:0:0:0:
316,168,100275,2,0,L|360:188,1,35
172,228,100594,1,0,0:0:0:0:
300,288,100833,1,0,0:0:0:0:
192,308,101232,5,2,0:0:0:0:
168,280,101392,1,2,0:0:0:0:
196,260,101551,5,2,0:0:0:0:
176,232,101711,1,2,0:0:0:0:
180,180,101871,2,0,P|240:196|284:264,1,131.25000500679
416,188,102509,1,4,0:0:0:0:
380,248,102828,6,0,L|348:280,1,35
180,96,103466,5,0,0:0:0:0:
160,124,103626,2,0,L|184:160,2,35
224,136,104105,1,0,0:0:0:0:
236,104,104264,2,0,P|272:116|304:144,1,70
144,120,104743,5,0,0:0:0:0:
176,104,104902,1,0,0:0:0:0:
312,108,105062,2,0,P|328:136|328:148,1,35
160,150,105381,5,0,0:0:0:0:
192,138,105541,1,0,0:0:0:0:
328,138,105700,2,0,P|344:166|344:178,1,35
176,188,106020,5,0,0:0:0:0:
208,180,106179,1,0,0:0:0:0:
344,176,106339,2,0,P|360:204|360:216,1,35
128,104,106658,5,0,0:0:0:0:
144,76,106817,2,0,P|176:64|216:64,1,70
228,68,107216,5,0,0:0:0:0:
244,72,107296,1,0,0:0:0:0:
260,80,107376,1,0,0:0:0:0:
300,112,107615,5,4,0:0:0:0:
360,148,107934,6,0,L|400:172,1,35
136,80,108413,5,2,0:0:0:0:
148,236,108573,1,2,0:0:0:0:
252,104,108732,1,2,0:0:0:0:
256,240,108892,1,2,0:0:0:0:
132,96,109051,1,2,0:0:0:0:
156,240,109211,1,2,0:0:0:0:
252,108,109371,1,0,0:0:0:0:
256,124,109450,1,0,0:0:0:0:
264,140,109530,1,0,0:0:0:0:
316,184,109849,5,0,0:0:0:0:
296,164,110009,1,0,0:0:0:0:
272,136,110168,2,0,P|240:116|204:108,1,52.5000020027161
296,164,110488,1,0,0:0:0:0:
232,216,110647,2,0,B|180:172|104:176|104:176,2,105
152,96,111285,5,0,0:0:0:0:
168,100,111365,1,0,0:0:0:0:
184,104,111445,1,0,0:0:0:0:
296,164,111605,2,0,L|260:140,1,35
208,88,111924,1,0,0:0:0:0:
196,76,112004,1,0,0:0:0:0:
188,60,112084,1,0,0:0:0:0:
220,152,112402,6,0,L|264:168,1,35
324,176,112722,1,4,0:0:0:0:
88,240,113041,6,0,L|112:204,1,35
176,232,113360,2,0,L|200:196,1,35
216,176,113679,1,0,0:0:0:0:
240,148,113839,1,0,0:0:0:0:
172,148,114158,5,0,0:0:0:0:
144,88,114317,1,0,0:0:0:0:
208,72,114477,1,0,0:0:0:0:
288,96,114637,6,0,L|328:112,1,35
304,168,114956,2,0,L|344:184,1,35
368,192,115275,5,0,0:0:0:0:
240,168,115594,2,0,L|280:184,1,35
248,240,115913,2,0,L|288:256,1,35
312,264,116232,1,0,0:0:0:0:
348,268,116392,1,0,0:0:0:0:
380,256,116551,2,0,L|408:236,1,35
436,212,116871,5,2,0:0:0:0:
340,48,117030,1,2,0:0:0:0:
320,212,117190,1,2,0:0:0:0:
412,120,117349,1,2,0:0:0:0:
268,132,117509,1,2,0:0:0:0:
112,84,117828,5,0,0:0:0:0:
88,128,117988,5,0,0:0:0:0:
88,180,118147,2,0,P|92:200|112:228,1,52.5000020027161
156,252,118466,1,0,0:0:0:0:
208,268,118626,2,0,P|236:268|256:260,2,26.2500010013581
160,248,118945,1,0,0:0:0:0:
120,216,119105,2,0,P|104:192|104:156,1,52.5000020027161
112,116,119424,5,0,0:0:0:0:
124,92,119504,1,0,0:0:0:0:
144,76,119583,1,0,0:0:0:0:
184,44,119743,6,0,P|208:36|252:44,2,52.5000020027161
220,136,120381,5,0,0:0:0:0:
64,296,120700,6,8,P|92:272|100:272,1,35
152,304,121020,2,8,L|188:276,1,35
248,296,121339,2,8,P|268:288|280:276,1,35
300,252,121658,5,2,0:0:0:0:
316,220,121817,1,2,0:0:0:0:
320,184,121977,1,2,0:0:0:0:
312,148,122137,1,2,0:0:0:0:
296,116,122296,1,2,0:0:0:0:
272,92,122456,1,2,0:0:0:0:
240,76,122615,1,2,0:0:0:0:
172,92,122934,5,12,0:0:0:0:
276,80,123254,5,2,0:0:0:0:
328,84,123413,1,2,0:0:0:0:
372,116,123573,1,2,0:0:0:0:
396,164,123732,1,2,0:0:0:0:
408,212,123892,1,2,0:0:0:0:
404,264,124051,1,2,0:0:0:0:
376,308,124211,1,2,0:0:0:0:
328,328,124371,1,2,0:0:0:0:
276,316,124530,1,2,0:0:0:0:
236,280,124690,1,2,0:0:0:0:
200,244,124849,2,2,P|180:208|180:144,1,105.000004005432
240,60,125488,5,0,0:0:0:0:
292,48,125647,5,0,0:0:0:0:
320,48,125727,1,0,0:0:0:0:
344,56,125807,1,0,0:0:0:0:
388,84,125966,5,0,0:0:0:0:
424,124,126126,1,0,0:0:0:0:
432,204,126365,6,0,P|428:240|412:264,1,52.5000020027161
368,312,126764,2,0,P|344:324|304:316,1,52.5000020027161
268,316,127083,1,0,0:0:0:0:
220,296,127243,5,0,0:0:0:0:
200,280,127323,1,0,0:0:0:0:
188,256,127402,1,0,0:0:0:0:
160,156,127722,1,0,0:0:0:0:
160,52,128041,5,4,0:0:0:0:
236,64,128280,2,0,P|289:104|290:134,1,78.7500030040742
296,168,128644,1,0,0:0:0:0:
272,280,128998,5,0,0:0:0:0:
236,320,129158,1,0,0:0:0:0:
184,324,129317,1,0,0:0:0:0:
132,312,129477,5,0,0:0:0:0:
112,296,129557,1,0,0:0:0:0:
96,276,129637,1,0,0:0:0:0:
80,228,129796,5,0,0:0:0:0:
80,176,129956,2,0,P|88:140|136:92,1,105.000004005432
232,52,130594,5,4,0:0:0:0:
336,72,130913,5,2,0:0:0:0:
380,100,131072,1,2,0:0:0:0:
412,144,131232,1,2,0:0:0:0:
420,196,131392,1,2,0:0:0:0:
408,248,131551,1,2,0:0:0:0:
372,284,131711,1,2,0:0:0:0:
324,304,131870,2,2,P|268:308|216:284,1,105.000004005432
156,92,132828,6,0,L|267:132,1,105.000004005432,2|4,0:0|0:0,0:0:0:0:
356,160,133466,5,2,0:0:0:0:
396,192,133625,1,2,0:0:0:0:
420,240,133785,1,2,0:0:0:0:
412,292,133944,1,2,0:0:0:0:
384,336,134104,1,2,0:0:0:0:
336,360,134263,1,2,0:0:0:0:
284,352,134423,1,2,0:0:0:0:
248,312,134583,1,2,0:0:0:0:
232,260,134742,1,2,0:0:0:0:
240,208,134902,1,2,0:0:0:0:
256,156,135061,2,2,P|292:104|352:80,1,105.000004005432
428,56,135700,5,0,0:0:0:0:
444,108,135859,5,0,0:0:0:0:
448,136,135939,1,0,0:0:0:0:
444,164,136019,1,0,0:0:0:0:
424,212,136178,5,0,0:0:0:0:
392,252,136338,1,0,0:0:0:0:
328,300,136577,6,0,P|312:312|276:316,1,52.5000020027161
272,240,136976,2,0,P|240:228|204:236,1,52.5000020027161
172,240,137295,1,0,0:0:0:0:
120,252,137455,5,0,0:0:0:0:
92,248,137535,1,0,0:0:0:0:
72,232,137614,1,0,0:0:0:0:
28,136,137934,1,0,0:0:0:0:
96,56,138253,5,4,0:0:0:0:
172,80,138493,2,0,P|201:108|194:150,1,78.7500030040742
180,192,138892,1,0,0:0:0:0:
132,300,139246,5,0,0:0:0:0:
168,320,139370,1,0,0:0:0:0:
220,324,139529,1,0,0:0:0:0:
268,308,139689,5,0,0:0:0:0:
292,296,139769,1,0,0:0:0:0:
308,276,139849,1,0,0:0:0:0:
320,224,140008,5,0,0:0:0:0:
332,172,140168,2,0,P|320:112|280:84,1,105.000004005432
188,56,140807,5,4,0:0:0:0:
92,96,141126,5,2,0:0:0:0:
52,132,141285,1,2,0:0:0:0:
32,180,141445,1,2,0:0:0:0:
28,232,141605,1,2,0:0:0:0:
44,280,141764,1,2,0:0:0:0:
80,320,141924,1,2,0:0:0:0:
124,348,142083,2,2,P|172:364|232:340,1,105.000004005432
352,184,143360,5,12,0:0:0:0:
140,84,145833,6,0,P|179:93|196:111,1,52.5,2|0,0:0|0:0,0:0:0:0:
140,104,146312,2,0,P|179:113|196:131,1,52.5,2|0,0:0|0:0,0:0:0:0:
140,124,146791,2,0,P|179:133|196:151,1,52.5,2|0,0:0|0:0,0:0:0:0:
427,305,148466,5,4,0:0:0:0:
372,300,151020,6,0,P|333:291|316:273,1,52.5,2|0,0:0|0:0,0:0:0:0:
372,280,151499,2,0,P|333:271|316:253,1,52.5,2|0,0:0|0:0,0:0:0:0:
372,260,151978,2,0,P|333:251|316:233,1,52.5,2|0,0:0|0:0,0:0:0:0:
116,88,153573,5,4,0:0:0:0:
368,328,155168,5,2,0:0:0:0:
384,260,155488,1,2,0:0:0:0:
368,192,155807,1,2,0:0:0:0:
292,80,156126,6,0,P|253:89|236:107,1,52.5,2|0,0:0|0:0,0:0:0:0:
292,100,156605,2,0,P|253:109|236:127,1,52.5,2|0,0:0|0:0,0:0:0:0:
292,120,157084,2,0,P|253:129|236:147,1,52.5,2|0,0:0|0:0,0:0:0:0:
88,320,158599,6,0,P|127:311|144:293,1,52.5,2|0,0:0|0:0,0:0:0:0:
88,300,159078,2,0,P|127:291|144:273,1,52.5,2|0,0:0|0:0,0:0:0:0:
88,280,159557,2,0,P|127:271|144:253,1,52.5,2|0,0:0|0:0,0:0:0:0:
344,72,161152,6,0,P|383:81|400:99,1,52.5,2|0,0:0|0:0,0:0:0:0:
344,92,161631,2,0,P|383:101|400:119,1,52.5,2|0,0:0|0:0,0:0:0:0:
344,112,162110,2,0,P|383:121|400:139,1,52.5,2|0,0:0|0:0,0:0:0:0:
416,152,162509,5,6,0:0:0:0:
420,292,163147,1,6,0:0:0:0:
288,340,163785,1,6,0:0:0:0:
124,156,164902,5,2,0:0:0:0:
132,140,164982,1,2,0:0:0:0:
144,128,165062,1,2,0:0:0:0:
188,96,165301,1,2,0:0:0:0:
252,72,165621,1,2,0:0:0:0:
320,92,165940,1,2,0:0:0:0:
372,140,166259,1,6,0:0:0:0:
80,316,168892,5,4,0:0:0:0:
336,264,170089,5,2,0:0:0:0:
320,260,170169,1,2,0:0:0:0:
304,252,170249,1,2,0:0:0:0:
260,224,170488,1,2,0:0:0:0:
208,176,170808,1,2,0:0:0:0:
168,120,171127,1,2,0:0:0:0:
152,52,171446,1,6,0:0:0:0:
416,68,173679,5,2,0:0:0:0:
396,136,173998,1,6,0:0:0:0:
200,312,175195,5,2,0:0:0:0:
160,252,175514,1,2,0:0:0:0:
164,184,175833,1,2,0:0:0:0:
204,124,176152,1,2,0:0:0:0:
268,96,176472,1,6,0:0:0:0:
120,308,179105,5,4,0:0:0:0:
56,36,180381,5,2,0:0:0:0:
124,52,180701,1,2,0:0:0:0:
180,96,181020,1,2,0:0:0:0:
212,160,181339,1,2,0:0:0:0:
256,212,181658,5,4,0:0:0:0:
316,248,181977,1,2,0:0:0:0:
384,264,182296,1,2,0:0:0:0:
452,244,182615,1,2,0:0:0:0:
492,184,182934,5,6,0:0:0:0:
372,112,183573,1,4,0:0:0:0:
256,192,184211,1,4,0:0:0:0:
