osu file format v14

[General]
AudioFilename: audio.mp3
AudioLeadIn: 0
PreviewTime: 123174
Countdown: 0
SampleSet: Normal
StackLeniency: 0.7
Mode: 0
LetterboxInBreaks: 0
WidescreenStoryboard: 1

[Editor]
DistanceSpacing: 1
BeatDivisor: 8
GridSize: 4
TimelineZoom: 1

[Metadata]
Title:Marlboro Rot
TitleUnicode:Marlboro Rot
Artist:Samra
ArtistUnicode:Samra
Creator:5teven
Version:Die letzte Fahrt
Source:
Tags:deutsch german rap ich verliere die kontrolle auf der fahrbahn lukas piano greckoe smoking kill thang dai electru berlin fernsehturm
BeatmapID:2158807
BeatmapSetID:1032459

[Difficulty]
HPDrainRate:4.5
CircleSize:5
OverallDifficulty:7
ApproachRate:10
SliderMultiplier:1.4
SliderTickRate:1

[Events]
//Background and Video events
0,0,"berlin.png",0,0
//Break Periods
//Storyboard Layer 0 (Background)
//Storyboard Layer 1 (Fail)
//Storyboard Layer 2 (Pass)
//Storyboard Layer 3 (Foreground)
//Storyboard Layer 4 (Overlay)
//Storyboard Sound Samples

[TimingPoints]
16020,638.297872340426,4,1,1,100,1,0
18174,-100,4,1,1,25,0,0
18333,-100,4,1,1,100,0,0
18812,-100,4,1,1,25,0,0
18972,-100,4,1,1,100,0,0
19450,-100,4,1,1,25,0,0
19610,-100,4,1,1,100,0,0
25913,-66.6666666666667,4,1,1,100,0,0
26392,-100,4,1,1,100,0,0
36126,-66.6666666666667,4,1,1,100,0,0
41871,-66.6666666666667,4,1,1,100,0,0
42190,-100,4,1,1,100,0,0
43067,-66.6666666666667,4,1,1,100,0,0
43466,-66.6666666666667,4,1,1,100,0,0
43706,-100,4,1,1,100,0,0
46578,-66.6666666666667,4,1,1,100,0,0
54078,-100,4,1,1,100,0,0
86312,-66.6666666666667,4,1,1,100,0,0
86631,-100,4,1,1,100,0,0
101871,-66.6666666666667,4,1,1,100,0,0
102509,-100,4,1,1,100,0,0
110168,-66.6666666666667,4,1,1,100,0,0
110488,-100,4,1,1,100,0,0
110647,-50,4,1,1,100,0,0
111285,-100,4,1,1,100,0,0
117988,-66.6666666666667,4,1,1,100,0,0
119743,-66.6666666666667,4,1,1,100,0,0
120700,-100,4,1,1,100,0,0
122934,-100,4,1,1,100,0,1
123254,-66.6666666666667,4,1,1,100,0,1
143360,-100,4,1,1,100,0,0
145833,-100,4,1,1,25,0,0
148387,-100,4,1,1,75,0,0
148546,-100,4,1,1,50,0,0
153493,-100,4,1,1,75,0,0
153652,-100,4,1,1,50,0,0
162429,-100,4,1,1,50,0,0
163067,-100,4,1,1,75,0,0
163706,-100,4,1,1,100,0,0

[HitObjects]
79,304,16019,5,0,0:0:0:0:
116,205,16498,1,0,0:0:0:0:
261,107,17296,1,0,0:0:0:0:
106,249,18254,5,0,0:0:0:0:
170,222,18573,5,0,0:0:0:0:
156,153,18892,5,0,0:0:0:0:
208,147,19131,6,0,L|232:111,1,35
215,66,19530,5,0,0:0:0:0:
283,54,19849,6,0,L|321:75,1,35
343,89,20168,5,0,0:0:0:0:
400,129,20488,1,0,0:0:0:0:
345,172,20807,6,0,P|326:181|301:177,1,35,4|0,0:0|0:0,0:0:0:0:
277,177,21126,1,0,0:0:0:0:
246,160,21285,1,0,0:0:0:0:
212,149,21445,2,0,P|188:137|168:141,1,35
145,141,21764,5,0,0:0:0:0:
112,154,21924,1,0,0:0:0:0:
90,181,22083,2,0,P|78:199|77:218,1,35
82,246,22402,1,0,0:0:0:0:
100,275,22562,1,0,0:0:0:0:
127,296,22722,6,0,L|165:308,1,35
190,289,23041,6,0,L|227:302,1,35
256,310,23360,5,4,0:0:0:0:
317,275,23679,5,0,0:0:0:0:
352,272,23839,1,0,0:0:0:0:
377,248,23998,5,0,0:0:0:0:
398,181,24317,1,0,0:0:0:0:
368,117,24637,1,0,0:0:0:0:
338,98,24796,1,0,0:0:0:0:
304,87,24956,1,0,0:0:0:0:
269,86,25115,1,0,0:0:0:0:
234,93,25275,2,0,L|204:103,2,17.5
268,85,25594,1,0,0:0:0:0:
371,70,25913,6,0,P|414:70|469:97,1,105.000004005432,4|0,0:0|0:0,0:0:0:0:
487,126,26392,1,0,0:0:0:0:
499,158,26551,1,0,0:0:0:0:
497,193,26711,1,0,0:0:0:0:
485,226,26871,2,0,P|464:243|445:239,1,35
422,241,27190,5,0,0:0:0:0:
389,228,27349,1,0,0:0:0:0:
363,203,27509,1,0,0:0:0:0:
337,179,27668,1,0,0:0:0:0:
311,154,27828,2,0,L|288:128,2,35
270,211,28466,5,6,0:0:0:0:
202,263,28626,1,2,0:0:0:0:
164,188,28785,5,2,0:0:0:0:
233,153,28945,1,2,0:0:0:0:
273,222,29105,5,2,0:0:0:0:
210,257,29264,1,2,0:0:0:0:
141,173,29424,6,0,P|141:153|146:135,2,35
92,192,29902,2,0,P|96:212|112:236,1,35
124,252,30222,2,0,P|144:272|156:276,2,35
108,220,30700,5,0,0:0:0:0:
97,152,31020,5,6,0:0:0:0:
181,157,31179,1,2,0:0:0:0:
257,199,31339,5,2,0:0:0:0:
351,187,31498,1,2,0:0:0:0:
378,257,31658,5,2,0:0:0:0:
314,316,31817,1,2,0:0:0:0:
245,248,31977,1,2,0:0:0:0:
277,168,32137,1,2,0:0:0:0:
372,168,32456,6,0,L|356:204,1,35
340,228,32775,1,0,0:0:0:0:
312,248,32934,1,0,0:0:0:0:
280,256,33094,1,0,0:0:0:0:
244,248,33254,2,0,P|228:240|212:220,1,35
169,143,33573,5,6,0:0:0:0:
227,73,33732,1,2,0:0:0:0:
311,86,33892,1,2,0:0:0:0:
364,153,34051,1,2,0:0:0:0:
176,84,34211,6,0,L|209:106,1,35
240,96,34530,2,0,L|273:118,1,35
304,104,34849,2,0,L|337:126,1,35
360,144,35168,1,0,0:0:0:0:
384,168,35328,1,0,0:0:0:0:
400,200,35488,1,0,0:0:0:0:
400,236,35647,1,0,0:0:0:0:
388,268,35807,2,0,P|368:288|352:296,1,35
152,240,36126,6,0,P|195:209|240:208,1,78.7500030040742,4|0,0:0|0:0,0:0:0:0:
272,208,36525,2,0,L|327:220,1,52.5000020027161
376,232,36844,2,0,L|440:248,2,52.5000020027161
300,212,37402,5,0,0:0:0:0:
200,176,37722,1,0,0:0:0:0:
160,144,37881,1,0,0:0:0:0:
144,124,37961,1,0,0:0:0:0:
140,100,38041,1,0,0:0:0:0:
236,60,38360,6,0,L|281:74,1,35
336,92,38679,1,0,0:0:0:0:
388,108,38839,1,0,0:0:0:0:
400,160,38998,5,0,0:0:0:0:
372,204,39158,1,0,0:0:0:0:
340,244,39318,1,0,0:0:0:0:
236,256,39637,6,0,L|196:240,1,26.2500010013581
192,172,39956,6,0,P|222:183|254:177,1,52.5
336,136,40434,5,0,0:0:0:0:
357,121,40514,1,0,0:0:0:0:
374,101,40594,1,0,0:0:0:0:
356,208,40913,6,0,L|324:252,1,52.5000020027161
312,300,41232,2,0,L|244:280,1,52.5000020027161,4|0,0:0|0:0,0:0:0:0:
212,268,41551,1,0,0:0:0:0:
160,256,41711,1,0,0:0:0:0:
136,208,41871,6,0,L|240:168,1,105.000004005432
244,100,42509,6,0,L|285:110,1,35
312,120,42828,1,0,0:0:0:0:
248,164,43067,2,0,P|280:183|326:197,1,78.7500030040742
372,208,43466,2,0,P|404:221|431:266,1,78.7500030040742
436,290,43865,5,0,0:0:0:0:
429,324,44025,1,0,0:0:0:0:
332,336,44264,1,0,0:0:0:0:
300,328,44424,2,0,P|280:316|252:272,1,70
196,240,45062,5,2,0:0:0:0:
248,80,45222,1,2,0:0:0:0:
304,248,45381,1,2,0:0:0:0:
160,144,45541,1,2,0:0:0:0:
316,148,45700,1,2,0:0:0:0:
80,320,46020,1,0,0:0:0:0:
380,248,46339,5,4,0:0:0:0:
336,184,46578,6,0,L|304:136,1,52.5000020027161
272,100,46897,1,0,0:0:0:0:
224,76,47057,1,0,0:0:0:0:
144,76,47296,6,0,P|108:88|88:104,1,52.5000020027161
60,136,47615,1,0,0:0:0:0:
52,188,47775,1,0,0:0:0:0:
68,236,47934,1,0,0:0:0:0:
96,280,48094,2,0,P|120:300|152:316,1,52.5000020027161
236,348,48573,5,2,0:0:0:0:
358,330,48732,1,2,0:0:0:0:
251,262,48892,1,2,0:0:0:0:
80,144,49211,5,0,0:0:0:0:
128,124,49371,2,0,L|188:100,1,52.5000020027161
228,88,49690,1,0,0:0:0:0:
280,80,49849,1,0,0:0:0:0:
332,88,50009,1,0,0:0:0:0:
380,108,50168,2,0,P|408:128|424:156,1,52.5000020027161
428,196,50488,1,0,0:0:0:0:
412,248,50647,2,0,L|388:304,1,52.5000020027161
312,192,51206,5,0,0:0:0:0:
260,204,51365,1,4,0:0:0:0:
208,192,51525,2,0,L|144:180,1,52.5000020027161
120,144,51844,6,0,P|104:172|103:197,1,52.5000020027161
108,244,52163,1,0,0:0:0:0:
132,292,52323,1,0,0:0:0:0:
168,328,52482,2,0,P|196:348|228:348,1,52.5000020027161
316,332,52961,5,0,0:0:0:0:
364,308,53121,1,0,0:0:0:0:
388,264,53280,1,0,0:0:0:0:
348,228,53440,2,0,P|399:217|433:231,2,78.7500030040742
316,244,54078,5,4,0:0:0:0:
284,256,54238,1,0,0:0:0:0:
248,252,54397,1,0,0:0:0:0:
220,232,54557,2,0,L|184:205,1,35
200,176,54876,2,0,L|236:152,1,35
256,132,55195,5,0,0:0:0:0:
276,104,55355,2,0,L|304:132,2,35
248,80,55833,1,0,0:0:0:0:
212,88,55993,2,0,L|182:124,1,35
168,140,56312,1,0,0:0:0:0:
156,152,56392,1,0,0:0:0:0:
144,168,56472,1,4,0:0:0:0:
140,256,56871,5,0,0:0:0:0:
176,256,57030,1,0,0:0:0:0:
208,264,57190,5,0,0:0:0:0:
240,272,57349,1,0,0:0:0:0:
276,276,57509,5,0,0:0:0:0:
308,260,57668,1,0,0:0:0:0:
328,232,57828,2,0,P|336:220|340:196,1,35
336,164,58147,1,0,0:0:0:0:
304,148,58307,2,0,P|335:135|380:148,1,70
440,176,58785,5,0,0:0:0:0:
441,140,58945,1,0,0:0:0:0:
428,108,59105,2,0,P|416:84|400:68,1,35
384,56,59424,5,0,0:0:0:0:
348,60,59583,1,0,0:0:0:0:
332,92,59743,1,0,0:0:0:0:
324,124,59902,1,0,0:0:0:0:
312,156,60062,1,0,0:0:0:0:
288,180,60222,1,0,0:0:0:0:
224,224,60381,2,0,L|200:236,2,17.5
256,212,60700,5,0,0:0:0:0:
292,208,60860,1,0,0:0:0:0:
328,212,61020,1,0,0:0:0:0:
388,216,61259,5,0,0:0:0:0:
400,204,61339,1,0,0:0:0:0:
408,188,61418,1,0,0:0:0:0:
404,136,61658,5,4,0:0:0:0:
368,96,61897,5,0,0:0:0:0:
336,80,62057,1,0,0:0:0:0:
300,72,62216,1,0,0:0:0:0:
268,84,62376,2,0,L|224:104,1,35
204,116,62695,1,0,0:0:0:0:
184,144,62855,1,0,0:0:0:0:
172,176,63014,6,0,L|164:216,2,35
176,124,63573,2,0,L|184:84,1,35
216,96,63892,2,0,L|208:132,1,35
204,164,64211,5,0,0:0:0:0:
200,200,64371,1,0,0:0:0:0:
196,236,64530,1,0,0:0:0:0:
128,252,64849,5,0,0:0:0:0:
112,220,65009,1,0,0:0:0:0:
108,184,65168,1,0,0:0:0:0:
120,152,65328,1,0,0:0:0:0:
140,124,65488,1,0,0:0:0:0:
204,96,65807,5,0,0:0:0:0:
240,96,65966,1,0,0:0:0:0:
272,108,66126,1,0,0:0:0:0:
300,132,66285,1,0,0:0:0:0:
320,160,66445,1,0,0:0:0:0:
332,192,66605,6,0,B|332:212|332:212|328:240,1,35
300,292,67083,5,0,0:0:0:0:
268,304,67243,1,0,0:0:0:0:
232,300,67402,2,0,P|184:280|176:256,1,70
156,180,68121,5,0,0:0:0:0:
160,128,68360,5,0,0:0:0:0:
176,96,68520,1,0,0:0:0:0:
208,80,68679,1,0,0:0:0:0:
276,68,68998,5,0,0:0:0:0:
308,128,69317,5,6,0:0:0:0:
372,204,69477,1,2,0:0:0:0:
260,216,69637,1,2,0:0:0:0:
292,120,69796,1,2,0:0:0:0:
368,232,69956,1,2,0:0:0:0:
228,208,70115,1,2,0:0:0:0:
292,120,70275,1,2,0:0:0:0:
348,240,70434,1,2,0:0:0:0:
220,216,70594,6,2,L|188:204,1,35
116,176,70913,1,2,0:0:0:0:
52,68,71073,1,2,0:0:0:0:
164,84,71232,1,2,0:0:0:0:
316,208,71551,5,0,0:0:0:0:
344,280,71871,1,4,0:0:0:0:
280,304,72190,5,2,0:0:0:0:
140,168,72349,1,2,0:0:0:0:
152,344,72509,5,2,0:0:0:0:
224,172,72668,1,2,0:0:0:0:
328,336,72828,5,2,0:0:0:0:
376,148,72988,1,2,0:0:0:0:
176,228,73147,5,2,0:0:0:0:
272,52,73307,1,2,0:0:0:0:
296,252,73466,5,2,0:0:0:0:
160,84,73626,1,2,0:0:0:0:
168,288,73785,5,2,0:0:0:0:
300,152,73944,1,2,0:0:0:0:
420,320,74104,5,2,0:0:0:0:
424,144,74264,1,6,0:0:0:0:
296,108,74583,5,2,0:0:0:0:
112,176,74743,1,2,0:0:0:0:
344,232,74902,5,2,0:0:0:0:
120,308,75062,1,2,0:0:0:0:
352,320,75222,5,2,0:0:0:0:
116,208,75381,1,2,0:0:0:0:
348,160,75541,5,2,0:0:0:0:
120,96,75700,1,2,0:0:0:0:
320,44,75860,5,2,0:0:0:0:
136,184,76020,1,2,0:0:0:0:
344,224,76179,5,2,0:0:0:0:
148,304,76339,1,2,0:0:0:0:
344,272,76498,5,2,0:0:0:0:
168,216,76658,1,2,0:0:0:0:
64,108,76817,6,2,L|102:93,1,35,6|2,0:0|0:0,0:0:0:0:
348,152,77296,6,0,L|366:195,1,35
364,220,77615,1,0,0:0:0:0:
352,252,77775,1,0,0:0:0:0:
324,276,77934,1,0,0:0:0:0:
288,280,78094,6,0,L|240:272,1,35
220,264,78413,1,0,0:0:0:0:
188,248,78573,1,0,0:0:0:0:
168,220,78732,1,0,0:0:0:0:
164,184,78892,2,0,L|172:148,1,35
192,120,79212,5,0,0:0:0:0:
220,100,79371,1,0,0:0:0:0:
252,92,79530,1,0,0:0:0:0:
288,92,79690,1,0,0:0:0:0:
316,112,79849,1,0,0:0:0:0:
340,136,80009,1,0,0:0:0:0:
348,172,80168,6,0,L|336:204,1,35
312,232,80488,2,0,L|276:248,2,35
280,220,80966,1,0,0:0:0:0:
300,192,81126,6,0,L|288:152,1,35
276,128,81445,2,0,L|316:110,2,35
244,140,81924,1,0,0:0:0:0:
208,140,82083,5,4,0:0:0:0:
148,176,82402,6,0,L|191:187,1,35
232,200,82801,1,0,0:0:0:0:
264,208,82961,1,0,0:0:0:0:
300,208,83121,1,0,0:0:0:0:
336,200,83280,2,0,L|381:187,1,35
400,176,83600,1,0,0:0:0:0:
424,152,83759,1,0,0:0:0:0:
440,100,83998,5,2,0:0:0:0:
264,44,84238,1,2,0:0:0:0:
388,176,84477,1,2,0:0:0:0:
228,276,84796,5,2,0:0:0:0:
144,191,84956,1,2,0:0:0:0:
244,124,85115,1,2,0:0:0:0:
320,206,85275,1,2,0:0:0:0:
120,136,85594,2,0,L|160:118,1,35
302,159,86312,6,0,L|263:104,1,52.5000020027161
105,93,86631,2,0,L|120:135,1,35
144,108,86950,2,0,L|159:150,1,35
128,300,87509,5,2,0:0:0:0:
214,138,87668,1,2,0:0:0:0:
346,259,87828,5,2,0:0:0:0:
398,100,87988,1,2,0:0:0:0:
134,275,88147,5,2,0:0:0:0:
201,77,88307,1,2,0:0:0:0:
59,120,88466,2,0,L|77:161,1,35
88,184,88785,5,0,0:0:0:0:
112,212,88945,1,0,0:0:0:0:
140,232,89105,2,0,P|164:244|196:244,1,52.5
240,236,89583,1,0,0:0:0:0:
53,221,90062,5,2,0:0:0:0:
275,240,90222,1,2,0:0:0:0:
94,144,90381,1,2,0:0:0:0:
293,82,90700,5,2,0:0:0:0:
218,262,90860,1,2,0:0:0:0:
209,79,91020,1,2,0:0:0:0:
358,77,91339,5,2,0:0:0:0:
262,303,91498,1,2,0:0:0:0:
170,92,91658,1,2,0:0:0:0:
354,185,91817,1,2,0:0:0:0:
115,221,91977,5,2,0:0:0:0:
263,61,92137,1,2,0:0:0:0:
280,269,92296,1,6,0:0:0:0:
224,82,92615,5,0,0:0:0:0:
256,96,92775,1,0,0:0:0:0:
288,108,92934,1,0,0:0:0:0:
188,224,93254,5,0,0:0:0:0:
164,248,93413,1,0,0:0:0:0:
140,272,93573,1,0,0:0:0:0:
134,90,93892,6,0,L|153:134,1,35
216,304,94371,5,2,0:0:0:0:
280,156,94530,1,2,0:0:0:0:
376,288,94690,1,2,0:0:0:0:
200,300,94849,1,2,0:0:0:0:
288,156,95009,1,2,0:0:0:0:
356,308,95168,1,2,0:0:0:0:
192,288,95328,1,2,0:0:0:0:
292,160,95488,2,2,L|312:200,1,35
360,312,95807,5,2,0:0:0:0:
204,300,95966,1,2,0:0:0:0:
264,192,96126,2,2,L|282:161,1,35
356,48,96445,5,2,0:0:0:0:
440,184,96605,1,2,0:0:0:0:
248,176,96764,1,2,0:0:0:0:
348,48,96924,1,2,0:0:0:0:
424,200,97083,1,2,0:0:0:0:
240,168,97243,1,2,0:0:0:0:
344,56,97402,1,2,0:0:0:0:
404,216,97722,6,0,L|360:228,1,35
272,268,98360,6,0,L|258:226,1,35
228,220,98679,6,0,L|214:178,1,35
208,152,98998,1,0,0:0:0:0:
204,120,99158,1,0,0:0:0:0:
216,88,99317,2,0,P|228:76|256:72,1,35
296,76,99716,1,0,0:0:0:0:
452,136,99876,5,0,0:0:0:0:
316,168,100275,2,0,L|360:188,1,35
172,228,100594,1,0,0:0:0:0:
300,288,100833,1,0,0:0:0:0:
192,308,101232,5,2,0:0:0:0:
108,196,101392,1,2,0:0:0:0:
264,192,101551,5,2,0:0:0:0:
188,84,101711,1,2,0:0:0:0:
320,68,101871,2,0,P|380:84|424:152,1,131.25000500679
416,188,102509,1,4,0:0:0:0:
380,248,102828,6,0,L|348:280,1,35
180,96,103466,5,0,0:0:0:0:
160,124,103626,2,0,L|184:160,2,35
224,136,104105,1,0,0:0:0:0:
236,104,104264,2,0,P|272:116|304:144,1,70
144,120,104743,5,0,0:0:0:0:
176,104,104902,1,0,0:0:0:0:
312,108,105062,2,0,P|328:136|328:148,1,35
160,150,105381,5,0,0:0:0:0:
192,138,105541,1,0,0:0:0:0:
328,138,105700,2,0,P|344:166|344:178,1,35
176,188,106020,5,0,0:0:0:0:
208,180,106179,1,0,0:0:0:0:
344,176,106339,2,0,P|360:204|360:216,1,35
128,104,106658,5,0,0:0:0:0:
144,76,106817,2,0,P|176:64|216:64,1,70
228,68,107216,5,0,0:0:0:0:
244,72,107296,1,0,0:0:0:0:
260,80,107376,1,0,0:0:0:0:
300,112,107615,5,4,0:0:0:0:
360,148,107934,6,0,L|400:172,1,35
136,80,108413,5,2,0:0:0:0:
148,236,108573,1,2,0:0:0:0:
252,104,108732,1,2,0:0:0:0:
256,240,108892,1,2,0:0:0:0:
132,96,109051,1,2,0:0:0:0:
156,240,109211,1,2,0:0:0:0:
252,108,109371,1,0,0:0:0:0:
256,124,109450,1,0,0:0:0:0:
264,140,109530,1,0,0:0:0:0:
316,184,109849,5,0,0:0:0:0:
296,164,110009,1,0,0:0:0:0:
272,136,110168,2,0,P|240:116|204:108,1,52.5000020027161
296,164,110488,1,0,0:0:0:0:
232,216,110647,2,0,B|180:172|104:176|104:176,2,105
152,96,111285,5,0,0:0:0:0:
168,100,111365,1,0,0:0:0:0:
184,104,111445,1,0,0:0:0:0:
296,164,111605,2,0,L|260:140,1,35
208,88,111924,1,0,0:0:0:0:
196,76,112004,1,0,0:0:0:0:
188,60,112084,1,0,0:0:0:0:
220,152,112402,6,0,L|264:168,1,35
324,176,112722,1,4,0:0:0:0:
88,240,113041,6,0,L|112:204,1,35
176,232,113360,2,0,L|200:196,1,35
216,176,113679,1,0,0:0:0:0:
240,148,113839,1,0,0:0:0:0:
172,148,114158,5,0,0:0:0:0:
144,88,114317,1,0,0:0:0:0:
208,72,114477,1,0,0:0:0:0:
288,96,114637,6,0,L|328:112,1,35
304,168,114956,2,0,L|344:184,1,35
368,192,115275,5,0,0:0:0:0:
240,168,115594,2,0,L|280:184,1,35
248,240,115913,2,0,L|288:256,1,35
312,264,116232,1,0,0:0:0:0:
348,268,116392,1,0,0:0:0:0:
380,256,116551,2,0,L|408:236,1,35
436,212,116871,5,2,0:0:0:0:
340,48,117030,1,2,0:0:0:0:
320,212,117190,1,2,0:0:0:0:
412,120,117349,1,2,0:0:0:0:
268,132,117509,1,2,0:0:0:0:
112,84,117828,5,0,0:0:0:0:
88,128,117988,5,0,0:0:0:0:
88,180,118147,2,0,P|92:200|112:228,1,52.5000020027161
156,252,118466,1,0,0:0:0:0:
208,268,118626,2,0,P|236:268|256:260,2,26.2500010013581
160,248,118945,1,0,0:0:0:0:
120,216,119105,2,0,P|104:192|104:156,1,52.5000020027161
112,116,119424,5,0,0:0:0:0:
124,92,119504,1,0,0:0:0:0:
144,76,119583,1,0,0:0:0:0:
184,44,119743,6,0,P|208:36|252:44,2,52.5000020027161
220,136,120381,5,0,0:0:0:0:
84,136,120700,6,8,P|112:112|120:112,1,35
200,180,121020,2,8,L|236:152,1,35
312,240,121339,2,8,P|332:232|344:220,1,35
288,72,121658,5,2,0:0:0:0:
152,280,121817,1,2,0:0:0:0:
368,220,121977,1,2,0:0:0:0:
168,128,122137,1,2,0:0:0:0:
304,304,122296,1,2,0:0:0:0:
280,76,122456,1,2,0:0:0:0:
136,280,122615,1,2,0:0:0:0:
352,108,122934,5,12,0:0:0:0:
229,79,123254,5,2,0:0:0:0:
185,309,123413,1,2,0:0:0:0:
397,99,123573,1,2,0:0:0:0:
132,141,123732,1,2,0:0:0:0:
418,299,123892,1,2,0:0:0:0:
253,80,124051,1,2,0:0:0:0:
303,332,124211,1,2,0:0:0:0:
413,135,124371,1,2,0:0:0:0:
139,206,124530,1,2,0:0:0:0:
370,318,124690,1,2,0:0:0:0:
176,320,124849,2,2,P|136:288|120:232,1,105.000004005432
160,104,125488,5,0,0:0:0:0:
204,76,125647,1,0,0:0:0:0:
228,68,125727,1,0,0:0:0:0:
256,72,125807,1,0,0:0:0:0:
304,92,125966,1,0,0:0:0:0:
340,132,126126,1,0,0:0:0:0:
332,212,126365,6,0,P|328:248|312:272,1,52.5000020027161
264,316,126764,2,0,P|240:328|200:320,1,52.5000020027161
164,312,127083,1,0,0:0:0:0:
120,284,127243,1,0,0:0:0:0:
100,264,127323,1,0,0:0:0:0:
92,240,127402,1,0,0:0:0:0:
92,136,127722,1,0,0:0:0:0:
181,81,128041,5,4,0:0:0:0:
259,90,128280,1,0,0:0:0:0:
282,102,128361,2,0,P|311:130|312:160,1,52.5000020027161
303,192,128644,1,0,0:0:0:0:
284,304,128998,5,0,0:0:0:0:
220,232,129158,1,0,0:0:0:0:
176,336,129317,1,0,0:0:0:0:
123,259,129477,1,0,0:0:0:0:
107,237,129557,1,0,0:0:0:0:
103,210,129637,1,0,0:0:0:0:
104,158,129796,1,0,0:0:0:0:
129,111,129956,2,0,P|165:76|227:84,1,105.000004005432
306,132,130594,5,4,0:0:0:0:
144,104,130913,5,2,0:0:0:0:
105,274,131072,1,2,0:0:0:0:
252,213,131232,1,2,0:0:0:0:
63,131,131392,1,2,0:0:0:0:
134,250,131551,1,2,0:0:0:0:
210,107,131711,1,2,0:0:0:0:
283,256,131870,2,2,P|343:260|388:227,1,105.000004005432
188,52,132828,6,0,L|299:92,1,105.000004005432,2|4,0:0|0:0,0:0:0:0:
348,308,133466,5,2,0:0:0:0:
136,152,133625,1,2,0:0:0:0:
397,99,133785,1,2,0:0:0:0:
184,320,133944,1,2,0:0:0:0:
448,200,134104,1,2,0:0:0:0:
164,84,134263,1,2,0:0:0:0:
320,328,134423,1,2,0:0:0:0:
413,135,134583,1,2,0:0:0:0:
139,206,134742,1,2,0:0:0:0:
370,318,134902,1,2,0:0:0:0:
104,296,135061,2,2,P|96:272|120:176,1,105.000004005432
160,104,135700,5,0,0:0:0:0:
204,76,135859,1,0,0:0:0:0:
228,68,135939,1,0,0:0:0:0:
256,72,136019,1,0,0:0:0:0:
304,92,136178,1,0,0:0:0:0:
340,132,136338,1,0,0:0:0:0:
332,212,136577,6,0,P|328:248|312:272,1,52.5000020027161
264,316,136976,2,0,P|240:328|200:320,1,52.5000020027161
164,312,137295,1,0,0:0:0:0:
120,284,137455,1,0,0:0:0:0:
100,264,137535,1,0,0:0:0:0:
92,240,137614,1,0,0:0:0:0:
92,136,137934,1,0,0:0:0:0:
181,81,138253,5,4,0:0:0:0:
259,90,138492,1,0,0:0:0:0:
282,102,138573,2,0,P|311:130|312:160,1,52.5000020027161
303,192,138892,1,0,0:0:0:0:
300,296,139246,5,0,0:0:0:0:
224,240,139370,1,0,0:0:0:0:
196,340,139529,1,0,0:0:0:0:
131,262,139689,1,0,0:0:0:0:
118,236,139769,1,0,0:0:0:0:
108,211,139849,1,0,0:0:0:0:
104,158,140008,1,0,0:0:0:0:
129,111,140168,2,0,P|165:76|227:84,1,105.000004005432
306,132,140806,5,4,0:0:0:0:
140,100,141126,5,2,0:0:0:0:
184,336,141285,1,2,0:0:0:0:
268,176,141445,1,2,0:0:0:0:
52,220,141605,1,2,0:0:0:0:
108,72,141764,1,2,0:0:0:0:
248,292,141924,1,2,0:0:0:0:
264,140,142083,2,2,P|296:116|368:144,1,105.000004005432
472,308,143360,5,12,0:0:0:0:
140,84,145833,6,0,P|179:93|196:111,1,52.5,2|0,0:0|0:0,0:0:0:0:
140,104,146312,2,0,P|179:113|196:131,1,52.5,2|0,0:0|0:0,0:0:0:0:
140,124,146791,2,0,P|179:133|196:151,1,52.5,2|0,0:0|0:0,0:0:0:0:
427,305,148466,5,4,0:0:0:0:
372,300,151020,6,0,P|333:291|316:273,1,52.5,2|0,0:0|0:0,0:0:0:0:
372,280,151499,2,0,P|333:271|316:253,1,52.5,2|0,0:0|0:0,0:0:0:0:
372,260,151978,2,0,P|333:251|316:233,1,52.5,2|0,0:0|0:0,0:0:0:0:
116,88,153573,5,4,0:0:0:0:
368,328,155168,5,2,0:0:0:0:
384,260,155488,1,2,0:0:0:0:
368,192,155807,1,2,0:0:0:0:
292,80,156126,6,0,P|253:89|236:107,1,52.5,2|0,0:0|0:0,0:0:0:0:
292,100,156605,2,0,P|253:109|236:127,1,52.5,2|0,0:0|0:0,0:0:0:0:
292,120,157084,2,0,P|253:129|236:147,1,52.5,2|0,0:0|0:0,0:0:0:0:
88,320,158599,6,0,P|127:311|144:293,1,52.5,2|0,0:0|0:0,0:0:0:0:
88,300,159078,2,0,P|127:291|144:273,1,52.5,2|0,0:0|0:0,0:0:0:0:
88,280,159557,2,0,P|127:271|144:253,1,52.5,2|0,0:0|0:0,0:0:0:0:
344,72,161152,6,0,P|383:81|400:99,1,52.5,2|0,0:0|0:0,0:0:0:0:
344,92,161631,2,0,P|383:101|400:119,1,52.5,2|0,0:0|0:0,0:0:0:0:
344,112,162110,2,0,P|383:121|400:139,1,52.5,2|0,0:0|0:0,0:0:0:0:
416,152,162509,5,6,0:0:0:0:
420,292,163147,1,6,0:0:0:0:
288,340,163785,1,6,0:0:0:0:
124,156,164902,5,2,0:0:0:0:
132,140,164982,1,2,0:0:0:0:
144,128,165062,1,2,0:0:0:0:
188,96,165301,1,2,0:0:0:0:
252,72,165621,1,2,0:0:0:0:
320,92,165940,1,2,0:0:0:0:
372,140,166259,1,6,0:0:0:0:
80,316,168892,5,4,0:0:0:0:
336,264,170089,5,2,0:0:0:0:
320,260,170169,1,2,0:0:0:0:
304,252,170249,1,2,0:0:0:0:
260,224,170488,1,2,0:0:0:0:
208,176,170808,1,2,0:0:0:0:
168,120,171127,1,2,0:0:0:0:
152,52,171446,1,6,0:0:0:0:
416,68,173679,5,2,0:0:0:0:
396,136,173998,1,6,0:0:0:0:
200,312,175195,5,2,0:0:0:0:
160,252,175514,1,2,0:0:0:0:
164,184,175833,1,2,0:0:0:0:
204,124,176152,1,2,0:0:0:0:
268,96,176472,1,6,0:0:0:0:
120,308,179105,5,4,0:0:0:0:
56,36,180381,5,2,0:0:0:0:
124,52,180701,1,2,0:0:0:0:
180,96,181020,1,2,0:0:0:0:
212,160,181339,1,2,0:0:0:0:
256,212,181658,5,4,0:0:0:0:
316,248,181977,1,2,0:0:0:0:
384,264,182296,1,2,0:0:0:0:
452,244,182615,1,2,0:0:0:0:
492,184,182934,5,6,0:0:0:0:
372,112,183573,1,4,0:0:0:0:
256,192,184211,1,4,0:0:0:0:
