osu file format v14

[General]
AudioFilename: audio.mp3
AudioLeadIn: 0
PreviewTime: 95014
Countdown: 0
SampleSet: Soft
StackLeniency: 0.7
Mode: 0
LetterboxInBreaks: 0
WidescreenStoryboard: 1

[Editor]
Bookmarks: 51502
DistanceSpacing: 0.8
BeatDivisor: 4
GridSize: 8
TimelineZoom: 3.000005

[Metadata]
Title:Rotter Tarmination
TitleUnicode:Rotter Tarmination
Artist:Sampling Masters MEGA
ArtistUnicode:Sampling Masters MEGA
Creator:Luscent
Version:allein's WTF Extra
Source:太鼓の達人
Tags:allein app gibune beomsan taiko no tatsujin hosoe shinji 細江 慎治 instrumental rhythm video game electronic Rotterdam Nation
BeatmapID:4492687
BeatmapSetID:2099784

[Difficulty]
HPDrainRate:6
CircleSize:5
OverallDifficulty:9
ApproachRate:9
SliderMultiplier:1.8
SliderTickRate:1

[Events]
//Background and Video events
0,0,"bg.jpg",0,0
//Break Periods
//Storyboard Layer 0 (Background)
//Storyboard Layer 1 (Fail)
//Storyboard Layer 2 (Pass)
//Storyboard Layer 3 (Foreground)
//Storyboard Layer 4 (Overlay)
//Storyboard Sound Samples

[TimingPoints]
1102,300,4,2,1,70,1,0
13102,300,4,1,1,80,1,0
17452,-66.6666666666667,4,1,1,80,0,0
18052,-100,4,1,1,80,0,0
21502,-80,4,1,1,80,0,0
22402,-66.6666666666667,4,1,1,80,0,0
22702,-100,4,1,1,90,0,0
25402,-80,4,1,1,90,0,0
25702,-100,4,1,1,90,0,0
26002,-80,4,1,1,90,0,0
26302,-100,4,1,1,90,0,0
32302,-100,4,1,1,80,0,0
36652,-80,4,1,1,80,0,0
37252,-100,4,1,1,80,0,0
40702,-80,4,1,1,80,0,0
41602,-66.6666666666667,4,1,1,80,0,0
41902,-100,4,1,1,90,0,0
44602,-80,4,1,1,90,0,0
44902,-100,4,1,1,90,0,0
45202,-80,4,1,1,90,0,0
45502,-100,4,1,1,90,0,0
50302,-133.333333333333,4,1,1,80,0,0
51502,-100,4,2,1,80,0,0
62752,-66.6666666666667,4,2,1,80,0,0
63352,-100,4,2,1,80,0,0
65302,-66.6666666666667,4,2,1,80,0,0
65752,-100,4,2,1,80,0,0
67702,-66.6666666666667,4,2,1,80,0,0
68152,-100,4,2,1,80,0,0
72802,-66.6666666666667,4,2,1,80,0,0
73102,-100,4,2,1,80,0,0
75202,-66.6666666666667,4,2,1,80,0,0
75502,-100,4,2,1,80,0,0
78802,-66.6666666666667,4,2,1,80,0,0
79102,-100,4,2,1,80,0,0
80302,-100,4,3,1,70,0,0
81502,-66.6666666666667,4,2,1,70,0,0
82702,450.000001125,4,2,1,80,1,0
82702,-50,4,2,1,80,0,0
83152,-100,4,2,1,80,0,0
83602,-50,4,2,1,80,0,0
84502,-100,4,2,1,80,0,0
89902,-66.6666666666667,4,2,1,80,0,0
90352,-133.333333333333,4,2,1,80,0,0
90802,-80,4,2,1,80,0,0
91252,-100,4,2,1,80,0,0
93502,-66.6666666666667,4,2,1,80,0,0
93952,-80,4,2,1,80,0,0
94402,-100,4,2,1,80,0,0
94852,-133.333333333333,4,2,1,80,0,0
95302,300,4,2,1,80,1,1
97102,300,4,2,1,80,1,0
99502,-200,4,2,1,60,0,0
99952,-50,4,2,1,60,0,0
100102,-200,4,2,1,60,0,0
100552,-50,4,2,1,60,0,0
100702,-200,4,2,1,60,0,0
101152,-50,4,2,1,60,0,0
101302,-200,4,2,1,60,0,0
101752,-50,4,2,1,60,0,0
101902,-100,4,2,1,70,0,0
104002,-66.6666666666667,4,2,1,70,0,0
104302,-100,4,2,1,70,0,0
105577,-100,4,2,1,50,0,0
106702,-100,4,2,1,60,0,0
107302,-66.6666666666667,4,2,1,70,0,0
107602,-50,4,2,1,80,0,0
107752,-100,4,2,1,90,0,0
107902,-100,4,2,99,80,0,0
110302,-100,4,2,1,80,0,0

[Colours]
Combo1 : 242,24,57
Combo2 : 164,38,38
Combo3 : 251,130,125

[HitObjects]
259,297,1102,5,4,1:0:0:0:
394,236,1252,2,0,L|377:284,1,45,0|0,0:0|1:0,0:0:0:0:
382,351,1402,1,0,0:0:0:0:
301,231,1552,2,0,B|312:187|312:187|292:137,1,90,0|0,1:0|0:0,0:0:0:0:
84,173,1852,1,0,1:0:0:0:
134,228,2002,2,0,L|241:217,1,90,0|0,1:0|0:0,0:0:0:0:
341,53,2302,5,0,1:0:0:0:
341,53,2452,2,0,B|237:6|259:115|151:64,1,180,0|0,1:0|1:0,0:0:0:0:
469,122,2902,1,0,1:0:0:0:
434,150,2977,1,0,1:0:0:0:
400,179,3052,1,0,1:0:0:0:
436,205,3127,1,0,1:0:0:0:
476,224,3202,1,0,1:0:0:0:
445,257,3277,1,0,1:2:0:0:
477,288,3352,2,8,L|492:349,1,45,0|0,1:0|1:2,0:2:0:0:
372,246,3502,5,4,1:0:0:0:
372,246,3652,2,0,B|330:264|330:264|261:244,1,90,0|0,0:0|1:0,0:0:0:0:
62,269,3952,2,0,B|104:251|104:251|173:271,1,90,0|0,1:0|1:0,0:0:0:0:
222,287,4252,2,0,L|232:338,2,45,0|0|0,0:0|1:0|1:0,0:0:0:0:
345,340,4552,1,0,3:0:0:0:
226,193,4702,5,0,1:0:0:0:
226,193,4852,2,0,B|242:139|242:139|222:86|222:86|245:5,1,180,0|0,1:0|1:0,0:0:0:0:
350,55,5302,1,0,1:0:0:0:
426,29,5452,1,0,1:0:0:0:
459,105,5602,1,0,1:0:0:0:
382,130,5752,1,0,0:0:0:0:
206,126,5902,6,0,L|88:105,1,90,4|0,1:2|0:0,0:0:0:0:
77,126,6127,1,0,1:0:0:0:
44,114,6202,1,0,0:0:0:0:
3,220,6352,1,0,1:2:0:0:
160,277,6502,2,0,P|223:296|262:382,1,135,0|0,1:0|1:0,0:0:0:0:
285,365,6802,2,0,P|330:351|359:288,1,90,0|0,1:0|1:0,0:0:0:0:
479,218,7102,5,0,1:0:0:0:
428,260,7252,2,0,L|235:212,1,180,0|0,1:0|1:0,0:0:0:0:
135,185,7702,5,0,1:0:0:0:
271,101,7852,1,0,1:0:0:0:
329,146,8002,1,0,1:0:0:0:
174,126,8152,1,0,0:0:0:0:
39,17,8302,6,0,L|61:147,1,90,4|0,1:0|0:0,0:0:0:0:
71,131,8527,1,0,1:0:0:0:
62,161,8602,1,0,0:0:0:0:
6,204,8752,1,0,1:0:0:0:
134,295,8902,1,0,1:0:0:0:
311,165,9127,1,0,1:0:0:0:
300,194,9202,1,0,1:0:0:0:
368,251,9352,1,0,1:0:0:0:
463,147,9502,5,4,3:2:0:0:
399,114,9652,1,0,1:0:0:0:
505,212,9802,1,0,1:0:0:0:
458,55,9952,1,4,3:2:0:0:
313,89,10102,1,0,1:0:0:0:
168,53,10252,1,0,1:0:0:0:
163,50,10327,1,0,1:0:0:0:
158,47,10402,1,0,1:0:0:0:
24,202,10552,1,0,1:0:0:0:
24,202,10627,1,0,1:0:0:0:
24,202,10702,6,0,B|59:174|105:153|173:237,1,135,4|0,1:2|3:0,0:0:0:0:
197,248,11002,1,0,3:0:0:0:
256,192,11077,12,0,12802,0:0:0:0:
500,273,13102,5,6,1:0:0:0:
224,279,13252,2,0,B|267:263|267:263|317:293,1,90,0|2,0:0|1:0,0:0:0:0:
409,225,13552,5,0,0:0:0:0:
302,150,13702,1,2,1:0:0:0:
398,60,13852,1,0,0:0:0:0:
512,150,14002,2,0,L|422:137,1,90,0|2,1:0|1:0,0:0:0:0:
418,136,14227,1,0,1:0:0:0:
413,134,14302,1,0,1:0:0:0:
235,9,14452,5,2,1:0:0:0:
171,121,14602,1,0,1:0:0:0:
149,23,14752,5,0,0:0:0:0:
85,135,14902,1,2,1:0:0:0:
238,75,15052,5,0,1:0:0:0:
302,187,15202,1,0,1:0:0:0:
340,124,15352,2,0,L|285:112,1,45
138,187,15502,2,0,B|101:253|101:253|108:290,1,90,4|0,1:2|0:0,0:0:0:0:
69,330,15802,5,0,1:0:0:0:
285,280,15952,1,0,0:0:0:0:
239,333,16102,2,0,L|147:310,1,90,2|0,1:0|0:0,0:0:0:0:
512,348,16402,2,0,L|420:325,1,90,0|2,1:0|1:0,0:0:0:0:
359,306,16627,1,0,1:0:0:0:
348,239,16702,6,0,B|316:180|389:157|389:157,1,90,4|0,1:2|0:0,0:0:0:0:
512,247,17002,1,4,1:3:0:0:
235,129,17152,6,0,B|254:64|321:100|321:100,1,90,4|0,1:2|0:0,0:0:0:0:
500,0,17452,6,0,B|548:89|437:124|437:124,1,135.000005149842,4|4,1:3|1:2,0:0:0:0:
305,93,17752,1,0,0:2:0:0:
272,68,17827,1,0,0:0:0:0:
272,27,17902,1,4,1:2:0:0:
7,117,18052,5,0,0:0:0:0:
50,195,18202,1,2,1:0:0:0:
223,147,18352,5,0,0:0:0:0:
180,225,18502,1,2,1:0:0:0:
93,117,18652,5,0,0:0:0:0:
50,195,18802,1,0,1:0:0:0:
259,210,18952,6,0,L|323:195,2,45,2|0|0,1:0|1:0|1:0,0:0:0:0:
115,313,19252,5,2,0:0:0:0:
35,333,19402,1,0,1:0:0:0:
205,355,19552,5,0,1:0:0:0:
285,375,19702,1,2,0:0:0:0:
462,322,19852,1,0,1:0:0:0:
376,211,20002,6,0,L|354:325,1,90,2|0,1:0|1:0,0:0:0:0:
341,320,20227,1,0,1:0:0:0:
363,335,20302,2,0,P|421:329|470:222,1,180,4|0,1:2|1:0,0:0:0:0:
311,147,20752,1,0,0:0:0:0:
79,183,20902,6,0,P|131:178|182:200,1,90,2|0,1:0|0:0,0:0:0:0:
452,75,21202,2,0,P|400:70|349:92,1,90,0|0,1:0|1:0,0:0:0:0:
304,47,21427,1,0,1:0:0:0:
247,87,21502,6,0,B|202:153|248:238|344:233,1,168.75,4|0,1:2|0:0,0:0:0:0:
358,224,21802,2,0,B|377:224|391:253|362:273,1,56.25,4|0,1:3|0:0,0:0:0:0:
247,87,21952,6,0,B|292:153|246:238|150:233,1,168.75,4|0,1:2|0:0,0:0:0:0:
136,224,22252,2,0,B|117:224|103:253|132:273,1,56.25,4|0,1:3|0:0,0:0:0:0:
194,323,22402,6,0,B|255:409|329:322|329:322,1,135.000005149842,4|0,1:2|1:0,0:0:0:0:
310,339,22627,1,0,1:0:0:0:
310,339,22702,1,4,1:2:0:0:
512,224,22852,5,2,1:0:0:0:
294,66,23152,1,6,1:0:0:0:
228,93,23302,1,0,1:0:0:0:
258,162,23452,1,2,1:0:0:0:
324,135,23602,1,6,1:0:0:0:
418,190,23752,1,0,0:0:0:0:
217,259,23902,1,6,0:0:0:0:
53,138,24052,5,0,0:0:0:0:
261,57,24352,1,4,0:0:0:0:
327,84,24502,1,0,0:0:0:0:
297,153,24652,1,2,0:0:0:0:
231,126,24802,1,4,0:0:0:0:
139,184,24952,1,2,0:0:0:0:
287,294,25102,6,0,L|306:351,1,45,0|0,0:3|0:0,0:0:0:0:
364,360,25252,1,4,0:3:0:0:
507,258,25402,6,0,B|482:325|482:325|381:282,1,168.75,6|0,0:0|0:0,0:0:0:0:
359,223,25702,6,0,L|378:166,1,45
436,159,25852,1,4,0:3:0:0:
331,18,26002,6,0,B|335:40|335:40|294:75|294:75|288:75|288:75|293:79|293:79|310:128|310:128|291:177,1,168.75,6|0,0:0|0:0,0:0:0:0:
223,179,26302,6,0,L|173:190,1,45,4|0,0:2|0:0,0:0:0:0:
114,201,26452,2,0,L|64:212,1,45,2|0,0:0|0:0,0:0:0:0:
0,181,26602,6,0,L|50:192,1,45,6|0,0:2|0:0,0:0:0:0:
159,255,26752,1,2,0:0:0:0:
359,223,26902,5,4,0:2:0:0:
386,252,26977,1,0,0:0:0:0:
389,292,27052,1,2,0:0:0:0:
368,326,27127,1,0,0:0:0:0:
298,327,27202,5,4,0:2:0:0:
271,298,27277,1,0,0:0:0:0:
268,258,27352,1,2,0:0:0:0:
289,224,27427,1,0,0:0:0:0:
323,166,27502,5,4,0:2:0:0:
183,103,27652,2,0,B|123:88|123:88|81:105|81:105|2:86,1,180,2|4,0:0|0:2,0:0:0:0:
278,26,28102,2,0,B|325:37|325:37|357:11,1,90,2|0,0:0|0:0,0:0:0:0:
501,223,28402,2,0,B|469:197|469:197|422:208,1,90,4|2,0:2|0:0,0:0:0:0:
377,198,28627,1,0,0:0:0:0:
350,234,28702,6,0,L|384:348,1,90,6|0,0:0|0:0,0:0:0:0:
159,356,29002,2,0,L|133:269,1,90,2|4,0:0|0:2,0:0:0:0:
244,102,29302,1,0,0:0:0:0:
274,285,29452,1,2,0:0:0:0:
197,258,29602,1,4,0:0:0:0:
314,119,29752,1,2,0:0:0:0:
31,116,29902,5,4,0:3:0:0:
168,154,30052,1,4,0:3:0:0:
101,138,30202,1,6,0:0:0:0:
238,176,30352,1,0,0:0:0:0:
503,179,30502,5,4,0:3:0:0:
366,217,30652,1,4,0:3:0:0:
433,200,30802,1,6,0:0:0:0:
298,242,30952,2,0,L|312:284,1,45
441,375,31102,6,0,L|455:333,3,45,4|0|0|0,0:0|0:0|0:0|0:0,0:0:0:0:
312,284,31402,2,0,L|270:270,1,45,6|0,0:0|0:0,0:0:0:0:
155,314,31552,2,0,L|113:328,1,45
251,342,31702,2,0,L|293:356,1,45,4|0,0:0|0:0,0:0:0:0:
389,288,31852,1,0,0:0:0:0:
159,233,32002,1,6,0:0:0:0:
123,225,32077,1,0,0:0:0:0:
87,217,32152,1,0,0:0:0:0:
51,211,32227,1,0,0:0:0:0:
12,232,32302,5,4,0:0:0:0:
43,2,32452,2,0,L|68:102,1,90,0|2,0:0|0:0,0:0:0:0:
295,130,32752,2,0,L|320:230,1,90,0|2,0:0|0:0,0:0:0:0:
115,144,33052,1,0,0:0:0:0:
252,0,33202,6,0,L|227:100,1,90,0|2,0:0|0:0,0:0:0:0:
195,110,33427,1,0,0:0:0:0:
212,146,33502,1,0,0:0:0:0:
376,171,33652,5,0,0:0:0:0:
376,98,33802,1,0,0:0:0:0:
237,212,33952,1,2,0:0:0:0:
437,219,34102,1,0,0:0:0:0:
482,274,34252,1,2,0:0:0:0:
245,313,34402,2,0,L|146:289,1,90
118,282,34627,1,0,0:0:0:0:
88,309,34702,1,4,0:2:0:0:
14,297,35002,5,0,0:0:0:0:
171,368,35152,1,2,0:0:0:0:
292,259,35302,2,0,P|301:178|264:89,1,180,2|0,0:0|0:0,0:0:0:0:
7,121,35752,1,2,0:0:0:0:
7,121,35827,1,0,0:0:0:0:
7,121,35902,6,0,B|39:177|104:136|104:136,1,90,4|0,0:0|0:0,0:0:0:0:
133,92,36202,1,4,0:3:0:0:
419,166,36352,1,4,0:0:0:0:
364,121,36652,6,0,B|338:119|317:121|303:167,1,56.25,4|0,0:3|0:0,0:0:0:0:
186,171,36802,2,0,B|171:192|162:211|195:246,1,56.25,4|0,0:0|0:0,0:0:0:0:
97,322,36952,1,0,0:0:0:0:
97,322,37027,1,0,0:0:0:0:
97,322,37102,1,6,0:0:0:0:
279,364,37252,6,0,P|235:332|183:325,1,90,0|2,0:0|1:0,0:0:0:0:
0,263,37552,2,0,P|43:251|78:223,1,90,0|2,0:0|0:0,0:0:0:0:
295,226,37852,1,0,0:0:0:0:
148,80,38002,1,0,1:0:0:0:
186,171,38152,2,0,L|204:114,2,45,2|0|0,0:0|0:0|0:0,0:0:0:0:
326,152,38452,5,2,0:0:0:0:
418,51,38602,1,0,0:0:0:0:
381,204,38752,2,0,L|408:289,1,90,2|0,0:0|0:0,0:0:0:0:
298,344,39052,1,2,0:0:0:0:
486,208,39202,2,0,B|513:142|513:142|459:146,1,90
429,145,39427,1,0,0:0:0:0:
429,145,39502,6,0,B|374:126|374:126|306:140|306:140|227:119,1,180,4|0,0:2|0:0,0:0:0:0:
15,160,39952,1,0,0:0:0:0:
67,259,40102,2,0,B|116:217|116:217|126:185,1,90,2|0,0:0|0:0,0:0:0:0:
173,0,40402,2,0,L|191:112,1,90,0|2,0:0|0:0,0:0:0:0:
179,155,40627,1,0,0:0:0:0:
235,197,40702,6,0,B|256:259|355:269|386:206,1,168.75,4|0,0:0|0:0,0:0:0:0:
429,122,41002,2,0,B|390:117|386:148|386:148,1,56.25,4|0,0:3|0:0,0:0:0:0:
458,290,41152,6,0,B|453:364|526:386|526:386,1,112.5,4|0,0:0|0:0,0:0:0:0:
352,266,41452,2,0,B|339:237|376:221,1,56.25,4|0,0:3|0:0,0:0:0:0:
277,341,41602,6,0,B|195:262|141:398|141:398,1,135.000005149842,4|0,0:0|0:0,0:0:0:0:
164,356,41827,1,0,0:0:0:0:
164,356,41902,1,4,0:0:0:0:
0,190,42052,5,2,0:0:0:0:
74,178,42352,1,6,0:0:0:0:
234,164,42502,1,0,0:0:0:0:
394,146,42652,1,2,0:0:0:0:
268,99,42802,5,6,0:0:0:0:
196,107,42952,1,0,0:0:0:0:
213,280,43102,5,6,0:0:0:0:
213,280,43252,2,0,B|253:259|253:259|325:293,1,90,0|2,0:0|0:0,0:0:0:0:
279,6,43552,1,4,0:0:0:0:
279,6,43702,2,0,B|239:27|239:27|167:-7,1,90,0|2,0:0|0:0,0:0:0:0:
141,166,44002,1,4,0:0:0:0:
340,143,44152,1,2,0:0:0:0:
104,47,44302,6,0,L|89:112,1,45,0|0,0:3|0:0,0:0:0:0:
0,140,44452,1,4,0:3:0:0:
212,120,44602,6,0,B|232:198|232:198|266:226,1,112.5,6|0,0:0|0:0,0:0:0:0:
404,243,44902,6,0,L|368:299,1,45
412,382,45052,1,4,0:3:0:0:
256,218,45202,6,0,B|186:259|186:259|142:254,1,112.5,6|0,0:0|0:0,0:0:0:0:
121,235,45427,1,0,0:0:0:0:
121,235,45502,2,0,L|109:290,1,45,4|0,0:2|0:0,0:0:0:0:
188,370,45652,2,0,L|176:315,1,45,2|0,0:0|0:0,0:0:0:0:
60,354,45802,2,0,L|115:342,1,45,6|0,0:2|0:0,0:0:0:0:
254,324,45952,2,0,L|309:336,1,45,2|0,0:0|0:0,0:0:0:0:
375,287,46102,5,4,0:2:0:0:
404,314,46177,1,0,0:0:0:0:
444,317,46252,1,2,0:0:0:0:
478,296,46327,1,0,0:0:0:0:
479,226,46402,5,4,0:2:0:0:
450,199,46477,1,0,0:0:0:0:
410,196,46552,1,2,0:0:0:0:
376,217,46627,1,0,0:0:0:0:
317,247,46702,5,4,0:2:0:0:
80,161,46852,2,0,L|270:191,1,180,2|6,0:0|0:0,0:0:0:0:
437,53,47302,2,0,L|338:68,1,90,0|2,0:0|0:0,0:0:0:0:
68,0,47602,2,0,L|166:15,1,90,6|0,0:0|0:0,0:0:0:0:
278,75,47902,5,6,0:0:0:0:
177,252,48052,2,0,L|-13:282,1,180,0|4,0:0|0:0,0:0:0:0:
45,121,48502,2,0,B|89:167|89:167|147:150,1,90,0|2,0:0|0:0,0:0:0:0:
312,287,48802,2,0,B|356:241|356:241|414:258,1,90,4|2,0:0|0:0,0:0:0:0:
512,124,49102,5,4,0:3:0:0:
446,100,49252,1,4,0:3:0:0:
273,167,49402,1,6,0:0:0:0:
204,179,49702,5,4,0:3:0:0:
344,146,49852,1,4,0:3:0:0:
473,218,50002,1,6,0:0:0:0:
315,367,50152,5,0,0:0:0:0:
304,358,50227,1,0,0:0:0:0:
293,349,50302,2,0,L|324:229,1,101.250003862381,6|0,0:0|2:0,0:0:0:0:
399,232,50602,6,0,L|383:172,7,33.7500012874604,0|0|0|0|0|0|0|0,3:0|3:0|3:0|3:0|3:0|3:0|3:0|3:0,3:0:0:0:
240,248,51202,1,0,0:0:0:0:
240,248,51277,1,0,0:0:0:0:
240,248,51352,1,0,0:0:0:0:
240,248,51427,1,0,0:0:0:0:
240,248,51502,6,0,B|171:253|171:253|137:223,1,90,6|0,1:0|0:0,0:0:0:0:
3,315,51802,1,0,1:0:0:0:
3,315,51952,1,2,1:0:0:0:
124,294,52102,6,0,L|151:163,1,90,0|2,1:0|1:0,0:0:0:0:
131,64,52402,1,0,1:0:0:0:
190,106,52552,6,0,L|176:171,1,45,0|0,1:0|0:0,0:0:0:0:
107,152,52702,1,2,1:0:0:0:
266,132,52852,1,0,1:0:0:0:
190,106,53002,1,2,1:0:0:0:
349,86,53152,1,0,0:0:0:0:
259,45,53302,1,0,1:0:0:0:
418,25,53452,1,2,1:0:0:0:
400,178,53602,2,0,L|378:280,1,90,2|0,1:0|1:0,0:0:0:0:
397,287,53827,1,0,1:0:0:0:
412,309,53902,1,2,1:0:0:0:
462,247,54052,5,0,0:0:0:0:
310,231,54202,1,2,1:0:0:0:
291,379,54352,1,2,1:0:0:0:
347,333,54502,5,2,1:0:0:0:
125,283,54652,5,0,1:0:0:0:
277,299,54802,1,2,1:0:0:0:
296,151,54952,1,0,1:0:0:0:
296,151,55027,1,0,1:0:0:0:
296,151,55102,1,4,1:2:0:0:
1,177,55402,5,4,1:2:0:0:
169,197,55702,1,4,1:2:0:0:
248,215,55852,5,0,0:0:0:0:
80,235,56002,1,4,1:2:0:0:
321,208,56152,5,0,0:0:0:0:
347,215,56227,1,0,0:0:0:0:
373,221,56302,1,6,1:0:0:0:
504,153,56452,1,0,0:0:0:0:
438,233,56602,1,2,1:0:0:0:
449,98,56752,1,2,1:0:0:0:
341,132,56902,5,0,1:0:0:0:
210,64,57052,1,2,1:0:0:0:
272,156,57202,1,0,1:0:0:0:
287,0,57352,2,0,L|274:44,1,45,0|0,1:0|1:0,0:0:0:0:
148,157,57502,5,2,1:0:0:0:
21,153,57652,1,2,1:0:0:0:
85,118,57802,1,2,1:0:0:0:
150,240,57952,1,0,0:0:0:0:
277,236,58102,1,2,1:0:0:0:
212,204,58252,1,0,1:0:0:0:
264,303,58402,1,2,1:0:0:0:
396,285,58552,5,0,1:0:0:0:
369,281,58627,1,0,1:0:0:0:
342,277,58702,1,2,1:0:0:0:
437,220,58852,1,0,1:0:0:0:
497,362,59002,1,2,1:0:0:0:
170,277,59302,5,0,1:0:0:0:
70,226,59452,1,2,1:0:0:0:
15,362,59602,1,0,1:0:0:0:
264,303,59752,5,0,1:0:0:0:
264,303,59827,1,0,1:0:0:0:
264,303,59902,2,0,L|256:247,7,45,6|0|0|0|0|0|0|0,1:0|3:0|3:0|3:0|3:0|3:0|3:0|3:0,3:0:0:0:
214,193,60502,2,2,L|222:137,1,45
390,222,60652,2,2,L|398:166,1,45
449,130,60802,6,2,L|441:74,3,45
511,72,61102,5,4,1:2:0:0:
291,2,61252,1,2,1:0:0:0:
0,192,61852,1,2,1:0:0:0:
258,370,62152,1,8,1:0:0:0:
258,370,62227,1,8,1:0:0:0:
258,370,62302,6,0,L|235:224,1,135,8|0,1:0|0:0,0:0:0:0:
236,236,62602,1,8,1:0:0:0:
193,184,62752,2,0,L|216:38,1,135,0|0,1:0|0:0,0:0:0:0:
157,7,63052,5,8,1:0:0:0:
264,177,63202,1,0,1:0:0:0:
415,66,63352,2,0,L|403:-6,1,45,0|0,1:0|1:0,0:0:0:0:
475,0,63502,5,4,1:0:0:0:
296,113,63652,1,2,1:0:0:0:
512,378,64252,1,10,1:0:0:0:
506,192,64552,5,8,1:0:0:0:
506,192,64627,1,8,1:0:0:0:
506,192,64702,2,0,L|379:216,1,90,8|0,1:0|0:0,0:0:0:0:
320,232,64927,1,0,1:0:0:0:
302,218,65002,2,0,B|268:211|268:211|200:266,1,90,8|0,1:0|1:0,0:0:0:0:
0,240,65302,6,0,L|168:271,1,135.000005149842,0|8,3:0|1:0,0:0:0:0:
374,292,65602,1,0,1:0:0:0:
194,382,65752,6,0,L|182:322,1,45,8|8,1:0|1:0,0:0:0:0:
250,316,65902,1,4,1:2:0:0:
162,182,66052,1,2,1:0:0:0:
368,363,66202,1,8,1:0:0:0:
303,98,66502,1,0,1:0:0:0:
225,245,66652,5,10,0:1:0:0:
388,195,66802,1,0,1:0:0:0:
232,44,66952,1,8,1:0:0:0:
232,44,67027,1,8,1:0:0:0:
232,44,67102,6,0,L|220:150,1,90,10|0,1:0|0:0,0:0:0:0:
103,273,67402,1,10,1:0:0:0:
279,179,67552,1,0,1:0:0:0:
0,216,67702,6,0,B|105:244|105:244|144:232,1,135.000005149842,2|8,0:1|1:0,0:0:0:0:
301,316,68002,1,0,1:0:0:0:
409,255,68152,2,0,L|348:270,1,45,0|0,1:0|1:0,0:0:0:0:
202,224,68302,5,4,1:2:0:0:
338,135,68452,1,8,1:0:0:0:
139,147,68602,1,0,1:0:0:0:
379,191,68752,1,2,3:2:0:0:
415,122,69052,5,8,0:1:0:0:
240,73,69202,1,0,1:0:0:0:
202,224,69352,1,8,1:0:0:0:
194,250,69427,1,8,1:0:0:0:
250,294,69502,5,4,1:2:0:0:
490,13,70402,6,0,L|516:9,2,22.5,0|0|0,1:0|0:0|1:0,0:0:0:0:
436,70,70552,1,0,1:0:0:0:
436,70,70627,1,0,1:0:0:0:
436,70,70702,2,0,B|419:57|419:57|348:68,1,90,4|0,1:0|0:0,0:0:0:0:
45,95,71002,1,10,1:0:0:0:
164,161,71152,1,0,0:0:0:0:
45,95,71302,6,0,B|62:82|62:82|133:93,1,90,0|8,1:0|0:1,0:0:0:0:
402,147,71602,1,2,1:0:0:0:
252,200,71752,2,0,L|245:150,1,45,8|8,1:0|1:0,0:0:0:0:
250,0,71902,6,0,L|235:105,1,90,8|0,1:0|0:0,0:0:0:0:
181,251,72202,1,10,1:0:0:0:
325,340,72352,1,0,1:0:0:0:
309,250,72502,5,0,0:0:0:0:
116,187,72652,1,10,1:0:0:0:
241,281,72802,2,0,L|397:259,1,135.000005149842,10|0,1:0|1:0,0:0:0:0:
374,262,73027,1,0,1:0:0:0:
374,262,73102,5,4,1:2:0:0:
492,184,73252,1,0,1:0:0:0:
319,112,73402,1,10,1:0:0:0:
182,167,73702,1,0,1:0:0:0:
64,89,73852,1,8,0:1:0:0:
237,17,74002,1,10,1:0:0:0:
262,203,74152,5,8,1:0:0:0:
262,203,74227,1,8,1:0:0:0:
262,203,74302,2,0,L|285:357,1,135,8|0,1:0|1:0,0:0:0:0:
343,370,74602,1,10,1:0:0:0:
370,200,74752,1,8,1:0:0:0:
347,298,74902,1,0,1:0:0:0:
184,272,75052,1,10,1:0:0:0:
416,300,75202,6,0,P|492:284|504:202,1,135.000005149842,10|8,1:0|1:0,0:0:0:0:
504,151,75427,1,8,1:0:0:0:
444,182,75502,5,12,1:0:0:0:
320,135,75652,1,0,1:0:0:0:
200,80,75802,1,10,1:0:0:0:
0,38,76102,1,0,1:0:0:0:
124,85,76252,1,8,0:1:0:0:
244,140,76402,1,2,1:0:0:0:
392,18,76552,1,8,0:1:0:0:
392,18,76627,1,8,1:0:0:0:
392,18,76702,6,0,B|423:114|423:114|418:166,1,135,8|0,1:0|0:0,0:0:0:0:
370,201,77002,2,0,L|342:296,1,90,10|0,1:0|1:0,0:0:0:0:
174,306,77302,1,0,0:0:0:0:
75,328,77452,1,10,1:0:0:0:
159,236,77602,1,2,1:0:0:0:
258,258,77752,1,8,1:0:0:0:
325,361,77902,5,4,1:2:0:0:
450,280,78052,1,0,0:0:0:0:
284,192,78202,2,0,B|242:127|242:127|238:82,1,90,2|8,0:0|1:0,0:0:0:0:
236,78,78427,1,8,1:0:0:0:
268,93,78502,1,4,1:2:0:0:
67,172,78652,1,0,0:0:0:0:
284,192,78802,6,0,L|432:219,1,135.000005149842,2|8,0:0|1:0,0:0:0:0:
483,199,79027,1,8,1:0:0:0:
434,152,79102,5,4,1:2:0:0:
494,331,79252,1,0,1:0:0:0:
271,302,79402,6,0,L|223:310,1,45,8|8,1:0|1:0,0:0:0:0:
340,291,79552,2,0,L|387:282,1,45,0|0,3:2|3:0,0:0:0:0:
317,357,79702,5,12,1:0:0:0:
118,277,79852,1,0,3:0:0:0:
48,42,80002,1,8,1:0:0:0:
36,80,80077,1,8,1:0:0:0:
25,118,80152,1,8,1:0:0:0:
11,156,80227,1,8,1:0:0:0:
42,180,80302,6,0,B|152:149|152:149|177:168,1,135,4|0,1:2|0:0,0:0:0:0:
253,163,80602,1,0,1:0:0:0:
254,167,80677,1,0,0:0:0:0:
255,171,80752,1,0,0:0:0:0:
256,175,80827,1,0,0:0:0:0:
257,179,80902,1,0,1:0:0:0:
196,332,81052,5,0,0:0:0:0:
290,244,81202,1,0,1:0:0:0:
278,200,81277,1,0,0:0:0:0:
268,155,81352,1,0,0:0:0:0:
259,110,81427,1,0,0:0:0:0:
274,65,81502,6,0,B|305:93|305:93|231:174|231:174|236:242|236:242,3,202.500007724762,4|4|4|4,1:2|1:2|1:2|1:2,0:0:0:0:
405,346,82402,1,0,1:0:0:0:
405,346,82477,1,0,1:0:0:0:
405,346,82552,1,0,1:0:0:0:
405,346,82627,1,0,1:0:0:0:
405,346,82702,6,0,B|463:335|463:335|385:301,1,120,6|0,1:0|3:0,0:0:0:0:
255,304,83002,1,0,1:0:0:0:
130,253,83152,6,0,B|72:242|72:242|150:208,1,120,2|0,1:0|1:0,0:0:0:0:
357,191,83602,6,0,B|415:202|415:202|337:236,1,120,6|0,1:0|3:0,0:0:0:0:
255,304,83902,1,0,1:0:0:0:
130,253,84052,6,0,B|72:264|72:264|150:298,1,120,2|0,1:0|0:0,0:0:0:0:
282,374,84352,1,0,1:0:0:0:
253,197,84502,6,0,L|245:121,1,60,6|0,1:0|3:0,0:0:0:0:
285,39,84802,1,0,1:0:0:0:
246,137,84952,6,0,L|238:213,1,60,6|0,1:0|3:0,0:0:0:0:
184,335,85252,1,0,1:0:0:0:
17,269,85402,6,0,B|47:277|47:277|92:253,1,60,6|0,1:0|3:0,0:0:0:0:
147,224,85702,1,0,1:0:0:0:
355,289,85852,1,2,1:0:0:0:
207,266,86002,1,0,1:0:0:0:
149,104,86152,1,0,1:0:0:0:
420,212,86302,6,0,L|351:225,1,60,6|0,1:1|0:0,0:0:0:0:
293,193,86602,1,0,1:0:0:0:
512,311,86752,1,2,1:0:0:0:
90,77,87202,6,0,L|159:90,1,60,6|0,1:0|0:0,0:0:0:0:
217,58,87502,1,0,1:0:0:0:
0,195,87652,1,2,1:0:0:0:
216,204,88102,5,6,1:0:0:0:
264,151,88252,1,0,3:0:0:0:
287,219,88402,1,0,1:0:0:0:
215,201,88552,5,6,1:0:0:0:
268,152,88702,1,0,3:0:0:0:
284,222,88852,1,0,1:0:0:0:
214,197,89002,5,6,1:0:0:0:
271,153,89152,1,0,3:0:0:0:
281,224,89302,1,0,1:0:0:0:
238,70,89452,5,2,1:0:0:0:
369,237,89602,5,2,1:0:0:0:
159,267,89752,5,2,1:0:0:0:
427,167,89902,6,0,B|383:290|383:290|396:367,1,180.000006866455,6|0,1:0|1:0,0:0:0:0:
505,335,90352,2,0,L|426:305,1,45.0000017166138,2|0,1:0|0:0,0:0:0:0:
309,350,90652,1,0,1:0:0:0:
159,267,90802,6,0,B|56:217|56:217|42:174,1,150,6|0,1:0|1:0,0:0:0:0:
205,144,91252,2,0,L|142:173,1,60,2|0,1:0|0:0,0:0:0:0:
4,278,91552,1,0,1:0:0:0:
66,108,91702,5,6,1:0:0:0:
111,53,92002,5,0,1:0:0:0:
268,203,92152,1,6,1:0:0:0:
189,219,92452,5,0,1:0:0:0:
340,12,92602,1,6,1:0:0:0:
394,66,92902,5,0,1:0:0:0:
472,228,93052,2,0,L|495:303,2,60,2|0|0,1:0|1:0|1:0,0:0:0:0:
512,157,93502,6,0,B|386:230|386:230|339:225,1,180.000006866455,6|0,1:0|1:0,0:0:0:0:
163,217,93952,6,0,B|241:167|241:167|275:259,1,150,2|0,1:0|1:0,0:0:0:0:
398,305,94402,1,6,1:0:0:0:
310,0,94702,1,0,1:0:0:0:
418,77,94852,6,0,L|388:154,1,45.0000017166138,2|0,1:0|0:0,0:0:0:0:
221,88,95152,1,0,1:0:0:0:
511,132,95302,5,4,1:0:0:0:
9,356,96502,1,0,1:0:0:0:
9,356,96652,1,4,1:3:0:0:
9,356,96802,1,4,1:3:0:0:
9,356,96952,1,4,1:3:0:0:
235,304,97102,5,4,1:0:0:0:
72,321,97252,2,0,L|184:352,1,90,2|0,1:0|1:0,0:0:0:0:
177,8,97702,1,0,1:0:0:0:
338,6,97852,2,0,L|251:30,1,90,10|0,0:1|1:0,0:0:0:0:
15,110,98152,1,8,1:0:0:0:
15,110,98227,1,8,1:0:0:0:
15,110,98302,2,0,B|50:101|50:101|150:153,1,135,2|0,1:0|0:0,0:0:0:0:
198,187,98602,2,0,B|261:145|261:145|275:118,1,90,2|0,1:0|1:0,0:0:0:0:
366,133,98902,1,2,1:0:0:0:
476,161,99052,1,8,1:0:0:0:
366,133,99202,1,8,1:0:0:0:
506,251,99352,1,0,1:0:0:0:
282,335,99502,6,0,L|257:237,1,90,4|0,1:0|0:0,0:0:0:0:
282,160,99952,6,0,L|257:258,1,90,0|0,1:0|1:0,0:0:0:0:
107,160,100102,6,0,L|204:187,1,90,4|0,1:0|0:0,0:0:0:0:
259,247,100552,6,0,L|186:176,1,90,0|0,1:0|1:0,0:0:0:0:
346,97,100702,6,0,L|273:167,1,90,4|0,1:0|0:0,0:0:0:0:
194,184,101152,6,0,L|291:156,1,90,0|0,1:0|1:0,0:0:0:0:
281,334,101302,6,0,L|256:236,1,90,4|0,1:0|0:0,0:0:0:0:
280,159,101752,6,0,L|255:257,1,90,0|0,1:0|1:0,0:0:0:0:
95,284,101902,5,4,1:0:0:0:
187,302,102052,1,2,0:0:0:0:
185,297,102127,1,0,0:0:0:0:
183,292,102202,1,0,1:0:0:0:
10,296,102352,1,0,1:0:0:0:
8,291,102427,1,0,1:0:0:0:
6,286,102502,1,0,1:0:0:0:
95,284,102652,1,2,0:0:0:0:
276,317,102802,1,0,1:0:0:0:
421,255,102952,1,0,1:0:0:0:
292,203,103102,6,0,L|279:147,1,45,4|0,1:2|0:0,0:0:0:0:
218,217,103252,2,0,L|205:161,1,45,2|0,0:0|0:0,0:0:0:0:
247,66,103402,6,0,L|234:122,1,45,0|0,1:0|0:0,0:0:0:0:
173,52,103552,2,0,L|160:108,1,45,0|0,1:0|1:0,0:0:0:0:
139,163,103702,5,0,1:0:0:0:
315,95,103852,1,2,0:0:0:0:
512,185,104002,2,0,B|450:153|450:153|386:184,1,135.000005149842,0|0,1:0|1:0,0:0:0:0:
391,182,104227,1,0,1:0:0:0:
391,182,104302,1,4,1:0:0:0:
493,285,104452,5,2,0:0:0:0:
348,266,104602,1,0,1:0:0:0:
259,372,104752,1,2,0:0:0:0:
257,233,104902,5,2,1:2:0:0:
216,215,104977,1,2,0:2:0:0:
176,197,105052,1,2,0:2:0:0:
136,184,105127,1,2,0:2:0:0:
176,166,105202,1,2,1:2:0:0:
216,149,105277,1,2,0:2:0:0:
257,135,105352,1,2,1:2:0:0:
297,153,105427,1,2,1:2:0:0:
337,170,105502,1,6,1:2:0:0:
377,184,105577,1,2,0:2:0:0:
337,201,105652,1,2,0:2:0:0:
297,219,105727,1,2,0:2:0:0:
257,233,105802,5,2,0:2:0:0:
256,228,105877,1,2,0:2:0:0:
255,223,105952,1,2,0:2:0:0:
255,218,106027,1,2,0:2:0:0:
255,213,106102,1,2,0:2:0:0:
255,208,106177,1,2,0:2:0:0:
255,203,106252,1,2,0:2:0:0:
255,198,106327,1,2,0:2:0:0:
255,193,106402,1,2,0:2:0:0:
255,188,106477,1,2,0:2:0:0:
255,183,106552,1,2,0:2:0:0:
255,178,106627,1,2,0:2:0:0:
254,173,106702,6,2,L|252:141,14,22.5,2|2|2|2|2|2|2|2|2|2|2|2|2|2|2,0:2|0:2|0:2|0:2|0:2|0:2|0:2|0:2|0:2|0:2|0:2|0:2|0:2|0:2|0:2,0:2:0:0:
171,145,107302,6,2,L|166:111,6,33.7500012874604,2|2|2|2|2|2|2,0:2|0:2|0:2|0:2|0:2|0:2|0:2,0:2:0:0:
91,125,107602,6,2,L|85:90,16,22.5,2|2|2|0|2|2|2|0|2|2|2|0|2|2|2|0|6,0:2|0:2|0:2|0:0|0:2|0:2|0:2|0:0|0:2|0:2|0:2|0:0|0:2|0:2|0:2|0:0|1:2,0:2:0:0:
