osu file format v14

[General]
AudioFilename: audio.mp3
AudioLeadIn: 0
PreviewTime: 95014
Countdown: 0
SampleSet: None
StackLeniency: 0.2
Mode: 0
LetterboxInBreaks: 0
WidescreenStoryboard: 1

[Editor]
Bookmarks: 22702,32302,51502,61102,82702
DistanceSpacing: 2.4
BeatDivisor: 6
GridSize: 8
TimelineZoom: 4.600004

[Metadata]
Title:Rotter Tarmination
TitleUnicode:Rotter Tarmination
Artist:Sampling Masters MEGA
ArtistUnicode:Sampling Masters MEGA
Creator:Luscent
Version:Nasmoeb's Extra
Source:太鼓の達人
Tags:allein app gibune beomsan taiko no tatsujin hosoe shinji 細江 慎治 instrumental rhythm video game electronic Rotterdam Nation
BeatmapID:4543128
BeatmapSetID:2099784

[Difficulty]
HPDrainRate:6
CircleSize:3
OverallDifficulty:9
ApproachRate:9.5
SliderMultiplier:1.8
SliderTickRate:1

[Events]
//Background and Video events
0,0,"bg.jpg",0,0
//Break Periods
//Storyboard Layer 0 (Background)
//Storyboard Layer 1 (Fail)
//Storyboard Layer 2 (Pass)
//Storyboard Layer 3 (Foreground)
//Storyboard Layer 4 (Overlay)
//Storyboard Sound Samples

[TimingPoints]
1102,300,4,2,1,70,1,0
13102,300,4,1,1,80,1,0
50452,-200,4,2,1,90,0,0
50902,-142.857142857143,4,2,1,90,0,0
51052,-117.647058823529,4,2,1,90,0,0
51502,-80,4,2,1,80,0,0
55102,-50,4,2,1,80,0,0
56302,-80,4,2,1,80,0,0
60202,-133.333333333333,4,2,1,80,0,0
60802,-100,4,2,1,80,0,0
80302,-100,4,3,1,70,0,0
81502,-50,4,2,1,70,0,0
82402,-100,4,2,1,70,0,0
82702,450.000001125,4,2,1,80,1,0
89452,-25,4,2,1,80,0,0
89902,-100,4,2,1,80,0,0
95302,300,4,2,1,80,1,0
97102,300,4,2,1,80,1,0
99502,-100,4,2,1,60,0,0
101902,-100,4,2,1,70,0,0
105577,-100,4,2,1,50,0,0
106702,-100,4,2,1,60,0,0
107302,-100,4,2,1,70,0,0
107602,-33.3333333333333,4,2,1,80,0,0
107752,-33.3333333333333,4,2,1,90,0,0
107902,-33.3333333333333,4,2,1,100,0,0
110302,-33.3333333333333,4,2,1,5,0,0

[Colours]
Combo1 : 242,24,57
Combo2 : 164,38,38
Combo3 : 251,130,125

[HitObjects]
32,48,1102,6,0,P|96:64|168:48,1,135,4|0,1:0|1:0,1:0:0:0:
191,24,1402,2,0,P|236:15|280:21,1,90,0|0,1:0|1:0,1:0:0:0:
512,152,1702,2,0,P|448:168|376:152,1,135,0|0,1:0|1:0,1:0:0:0:
352,128,2002,2,0,P|307:119|263:125,1,90,0|0,1:0|1:0,1:0:0:0:
0,248,2302,2,0,P|64:264|136:248,1,135,0|0,1:0|1:0,1:0:0:0:
159,224,2602,2,0,P|203:215|247:221,1,90,0|0,1:0|1:0,1:0:0:0:
464,360,2902,5,0,1:0:0:0:
464,360,2977,1,0,1:0:0:0:
464,360,3052,1,0,1:0:0:0:
464,360,3127,1,0,1:0:0:0:
464,360,3202,2,0,L|520:368,3,45,0|0|0|0,1:0|1:0|1:0|1:0,1:0:0:0:
496,272,3502,6,0,P|432:288|360:272,1,135,4|0,1:0|1:0,1:0:0:0:
336,248,3802,2,0,P|291:239|247:245,1,90,0|0,1:0|1:0,1:0:0:0:
8,160,4102,2,0,P|72:176|144:160,1,135,0|0,1:0|1:0,1:0:0:0:
168,136,4402,2,0,P|212:127|256:133,1,90,0|0,1:0|1:0,1:0:0:0:
512,48,4702,2,0,P|448:64|376:48,1,135,0|0,1:0|1:0,1:0:0:0:
352,24,5002,2,0,P|307:15|263:21,1,90,0|0,1:0|1:0,1:0:0:0:
177,324,5302,5,0,1:0:0:0:
279,301,5452,1,0,1:0:0:0:
258,198,5602,1,0,1:0:0:0:
155,220,5752,1,0,1:0:0:0:
155,220,5827,1,0,1:0:0:0:
155,220,5902,5,4,1:2:0:0:
400,248,6127,1,0,1:0:0:0:
192,304,6352,1,0,1:2:0:0:
416,200,6502,1,0,1:0:0:0:
352,24,6727,1,0,1:0:0:0:
280,320,6952,1,0,1:0:0:0:
144,80,7102,5,0,1:0:0:0:
280,360,7327,1,0,1:0:0:0:
352,120,7552,1,0,1:0:0:0:
0,208,7702,5,0,1:0:0:0:
88,192,7852,1,0,1:0:0:0:
136,264,8002,1,0,1:0:0:0:
232,248,8152,1,0,1:0:0:0:
232,248,8227,1,0,1:0:0:0:
232,248,8302,6,0,P|296:263|360:244,1,135,4|0,1:0|1:0,1:0:0:0:
383,216,8602,2,0,P|428:207|472:213,1,90,0|0,1:0|1:0,1:0:0:0:
280,136,8902,2,0,P|215:120|151:139,1,135,0|0,1:0|1:0,1:0:0:0:
128,167,9202,2,0,P|83:176|39:170,1,90,0|0,1:0|1:0,1:0:0:0:
240,376,9502,5,4,1:2:0:0:
320,344,9652,1,0,1:0:0:0:
253,289,9802,1,0,1:0:0:0:
280,88,9952,1,4,1:2:0:0:
200,56,10102,1,0,1:0:0:0:
267,1,10252,1,0,1:0:0:0:
267,1,10327,1,0,1:0:0:0:
267,1,10402,1,0,1:0:0:0:
272,192,10552,5,0,1:0:0:0:
272,192,10627,1,0,1:0:0:0:
272,192,10702,1,4,1:2:0:0:
256,192,10777,12,0,13027,0:0:0:0:
480,40,13102,5,6,1:0:0:0:
408,96,13252,2,0,P|440:128|480:192,1,90,0|2,0:0|1:0,0:0:0:0:
240,376,13552,2,0,P|248:288|272:176,1,180,0|2,0:0|0:1,0:0:0:0:
296,312,14002,1,0,1:0:0:0:
192,144,14152,5,2,1:0:0:0:
192,144,14227,1,0,1:0:0:0:
192,144,14302,1,0,1:0:0:0:
352,232,14452,2,0,P|392:248|424:296,1,90,2|0,1:0|1:0,0:0:0:0:
184,272,14752,2,0,P|157:307|152:352,1,90,2|0,0:1|1:0,0:0:0:0:
36,108,15052,1,2,1:0:0:0:
4,260,15202,1,0,1:0:0:0:
108,164,15352,1,2,0:0:0:0:
76,340,15502,6,0,L|274:291,1,180,0|0,1:0|1:0,0:0:0:0:
420,284,15952,1,0,0:0:0:0:
288,320,16102,1,0,1:0:0:0:
164,359,16252,1,0,0:0:0:0:
164,359,16327,1,0,2:0:0:0:
164,359,16402,1,0,1:0:0:0:
119,183,16552,5,2,1:0:0:0:
111,151,16627,1,0,1:0:0:0:
103,119,16702,1,4,1:2:0:0:
335,65,16852,1,0,0:0:0:0:
389,298,17002,1,4,1:3:0:0:
157,352,17152,1,4,1:2:0:0:
231,127,17302,5,0,0:0:0:0:
463,159,17452,1,4,1:3:0:0:
389,384,17602,1,4,1:2:0:0:
157,352,17752,1,0,0:2:0:0:
157,352,17827,1,0,0:0:0:0:
157,352,17902,5,4,1:2:0:0:
29,184,18052,2,0,P|69:176|125:136,1,90,2|0,0:0|1:0,0:0:0:0:
296,96,18352,2,0,P|296:144|264:208,1,90,2|0,0:0|1:0,0:0:0:0:
120,296,18652,1,2,0:0:0:0:
216,264,18802,1,0,1:0:0:0:
288,376,18952,5,2,1:0:0:0:
288,376,19027,1,0,1:0:0:0:
288,376,19102,1,0,1:0:0:0:
352,264,19252,2,0,P|384:240|456:224,1,90,2|0,0:0|1:0,0:0:0:0:
208,120,19552,2,0,P|128:104|16:72,1,180,2|2,1:0|1:0,0:0:0:0:
160,48,20002,1,0,1:0:0:0:
281,183,20152,1,2,1:0:0:0:
208,384,20302,6,0,L|248:184,1,180,0|0,1:0|1:0,0:0:0:0:
304,48,20752,1,0,0:0:0:0:
281,183,20902,1,0,1:0:0:0:
264,312,21052,1,0,0:0:0:0:
264,312,21127,1,0,0:0:0:0:
264,312,21202,1,0,1:0:0:0:
408,176,21352,5,0,1:0:0:0:
416,144,21427,1,0,1:0:0:0:
424,112,21502,1,4,1:2:0:0:
192,58,21652,1,0,0:2:0:0:
138,291,21802,1,4,1:3:0:0:
370,345,21952,1,4,1:2:0:0:
296,120,22102,5,0,0:2:0:0:
64,152,22252,1,4,1:3:0:0:
138,377,22402,1,4,1:2:0:0:
176,373,22477,1,0,0:0:0:0:
214,369,22552,1,0,1:0:0:0:
252,365,22627,1,0,1:0:0:0:
290,361,22702,1,4,1:2:0:0:
488,280,22852,5,2,1:0:0:0:
408,240,23002,1,0,1:0:0:0:
480,192,23152,2,0,P|440:128|424:40,1,135,6|0,1:0|0:0,0:0:0:0:
400,16,23452,6,0,P|400:40|384:72,1,45,2|0,1:0|0:0,0:0:0:0:
392,144,23602,1,6,1:0:0:0:
488,8,23752,1,0,0:0:0:0:
328,200,23902,6,0,P|288:192|232:184,1,90,6|0,0:0|0:0,0:0:0:0:
104,104,24202,1,2,0:0:0:0:
312,16,24352,1,4,0:0:0:0:
256,80,24502,1,0,0:0:0:0:
336,208,24652,1,2,0:0:0:0:
336,208,24727,1,0,0:0:0:0:
336,208,24802,5,4,0:0:0:0:
200,352,24952,1,2,0:0:0:0:
200,352,25027,1,0,0:0:0:0:
200,352,25102,1,0,0:3:0:0:
176,256,25252,1,4,0:3:0:0:
0,384,25402,5,6,0:0:0:0:
72,336,25552,2,0,L|88:272,2,45
208,128,25852,1,4,0:3:0:0:
32,224,26002,1,6,0:0:0:0:
176,256,26152,2,0,L|192:192,1,45
64,0,26302,5,4,0:2:0:0:
56,24,26377,1,0,0:0:0:0:
55,50,26452,1,2,0:0:0:0:
59,75,26527,1,0,0:0:0:0:
69,99,26602,1,6,0:2:0:0:
84,120,26677,1,0,0:0:0:0:
103,137,26752,1,2,0:0:0:0:
125,149,26827,1,0,0:0:0:0:
208,128,26902,6,0,P|198:106|169:80,1,45,4|0,0:2|0:0,0:0:0:0:
109,235,27052,2,0,P|133:237|170:225,1,45,2|0,0:0|0:0,0:0:0:0:
293,120,27202,2,0,P|289:96|267:63,1,45,4|0,0:2|0:0,0:0:0:0:
128,327,27352,2,0,P|151:323|184:301,1,45,2|0,0:0|0:0,0:0:0:0:
365,171,27502,5,4,0:2:0:0:
288,208,27652,1,2,0:0:0:0:
352,256,27802,1,0,0:2:0:0:
224,384,27952,2,0,P|288:352|384:344,1,135,6|0,0:0|0:0,0:0:0:0:
384,384,28252,2,0,P|360:368|336:368,1,45
280,304,28402,1,4,0:2:0:0:
432,224,28552,1,2,0:0:0:0:
176,184,28702,6,0,P|216:176|272:168,1,90,6|0,0:0|0:0,0:0:0:0:
400,88,29002,1,2,0:0:0:0:
192,0,29152,1,4,0:2:0:0:
248,64,29302,1,0,0:0:0:0:
392,0,29452,1,2,0:0:0:0:
392,0,29527,1,0,0:0:0:0:
392,0,29602,5,4,0:0:0:0:
273,178,29752,1,2,0:0:0:0:
273,178,29827,1,0,0:0:0:0:
273,178,29902,1,4,0:3:0:0:
192,0,30052,1,4,0:3:0:0:
32,232,30202,5,6,0:0:0:0:
104,184,30352,2,0,P|125:191|147:197,1,45
184,368,30502,2,0,P|205:373|227:381,1,45,4|0,0:3|0:0,0:0:0:0:
296,336,30652,1,4,0:3:0:0:
0,352,30802,5,6,0:0:0:0:
72,304,30952,2,0,P|93:311|115:317,1,45
243,273,31102,1,4,0:0:0:0:
235,279,31177,1,0,0:0:0:0:
227,285,31252,2,0,P|205:277|184:272,1,45
102,88,31402,6,0,P|123:95|145:101,3,45,6|0|0|0,0:0|0:0|0:0|0:0,0:0:0:0:
205,159,31702,1,4,0:0:0:0:
225,150,31777,1,0,0:0:0:0:
247,143,31852,1,0,0:0:0:0:
268,136,31927,1,0,0:0:0:0:
290,130,32002,1,6,0:0:0:0:
312,125,32077,1,0,0:0:0:0:
334,121,32152,1,0,0:0:0:0:
356,118,32227,1,0,0:0:0:0:
379,116,32302,1,4,0:0:0:0:
491,49,32452,6,0,P|450:34|402:0,1,90,2|0,0:0|0:0,0:0:0:0:
224,40,32752,2,0,P|264:112|304:224,1,180,0|2,0:0|0:0,0:0:0:0:
304,72,33202,1,0,0:0:0:0:
216,240,33352,5,2,0:0:0:0:
216,240,33427,1,0,0:0:0:0:
216,240,33502,1,0,0:0:0:0:
344,376,33652,2,0,P|352:328|376:280,1,90,2|0,0:0|0:0,0:0:0:0:
224,40,33952,2,0,P|216:88|192:136,1,90,2|0,0:0|0:0,0:0:0:0:
432,232,34252,1,2,0:0:0:0:
368,72,34402,1,0,0:0:0:0:
400,205,34552,1,2,0:0:0:0:
436,20,34702,6,0,L|238:69,1,180
92,76,35152,1,0,0:0:0:0:
224,40,35302,1,0,0:0:0:0:
348,1,35452,1,0,0:0:0:0:
348,1,35527,1,0,2:0:0:0:
348,1,35602,1,0,0:0:0:0:
92,76,35752,5,2,0:0:0:0:
104,112,35827,1,0,0:0:0:0:
116,148,35902,1,4,0:0:0:0:
184,368,36052,1,0,0:0:0:0:
404,300,36202,1,4,0:3:0:0:
336,80,36352,1,4,0:0:0:0:
104,271,36502,5,0,0:0:0:0:
308,379,36652,1,4,0:3:0:0:
415,175,36802,1,4,0:0:0:0:
212,68,36952,1,0,0:0:0:0:
212,68,37027,1,0,0:0:0:0:
212,68,37102,1,4,0:0:0:0:
51,193,37252,6,0,P|91:175|136:182,1,90,2|0,0:0|1:0,0:0:0:0:
265,355,37552,2,0,P|257:308|234:250,1,90,2|0,0:0|0:0,0:0:0:0:
332,86,37852,1,2,0:0:0:0:
316,173,38002,1,0,1:0:0:0:
404,300,38152,5,2,0:0:0:0:
404,300,38227,1,0,0:0:0:0:
404,300,38302,1,0,0:0:0:0:
485,157,38452,2,0,P|440:155|397:142,1,90,2|0,0:0|0:0,0:0:0:0:
187,4,38752,2,0,P|188:87|149:204,1,180,2|2,0:0|0:0,0:0:0:0:
132,72,39202,1,0,0:0:0:0:
286,187,39352,1,2,0:0:0:0:
79,342,39502,6,0,L|277:293,1,180
424,287,39952,1,0,0:0:0:0:
292,323,40102,1,0,0:0:0:0:
167,362,40252,1,0,0:0:0:0:
167,362,40327,1,0,2:0:0:0:
167,362,40402,1,0,0:0:0:0:
122,182,40552,5,2,0:0:0:0:
110,145,40627,1,0,0:0:0:0:
98,108,40702,1,4,0:0:0:0:
319,36,40852,1,0,0:0:0:0:
391,257,41002,1,4,0:3:0:0:
170,329,41152,1,4,0:0:0:0:
193,27,41302,5,0,0:0:0:0:
400,132,41452,1,4,0:3:0:0:
294,339,41602,1,4,0:0:0:0:
294,339,41677,1,0,0:0:0:0:
294,339,41752,2,0,P|285:315|276:267,1,45
87,234,41902,5,4,0:0:0:0:
5,260,42052,1,2,0:0:0:0:
68,321,42202,1,0,0:0:0:0:
5,260,42352,2,0,P|57:197|72:140,1,135,6|0,0:0|0:0,0:0:0:0:
25,115,42652,2,0,P|28:133|47:164,1,45,2|0,0:0|0:0,0:0:0:0:
152,294,42802,2,0,P|189:278|241:270,1,90,6|0,0:0|0:0,0:0:0:0:
357,169,43102,5,6,0:0:0:0:
143,95,43252,1,0,0:0:0:0:
184,172,43402,1,2,0:0:0:0:
160,302,43552,1,4,0:0:0:0:
160,302,43627,1,0,0:0:0:0:
160,302,43702,1,0,0:0:0:0:
332,209,43852,5,2,0:0:0:0:
332,209,43927,1,0,0:0:0:0:
332,209,44002,1,4,0:0:0:0:
146,124,44152,1,2,0:0:0:0:
198,52,44302,1,0,0:3:0:0:
286,285,44452,5,4,0:3:0:0:
198,52,44602,1,6,0:0:0:0:
281,81,44752,6,0,L|272:146,2,45
212,182,45052,1,4,0:3:0:0:
341,8,45202,1,6,0:0:0:0:
212,182,45352,2,0,L|224:244,1,45
448,384,45502,5,4,0:2:0:0:
456,360,45577,1,0,0:0:0:0:
457,334,45652,1,2,0:0:0:0:
453,309,45727,1,0,0:0:0:0:
443,285,45802,1,6,0:2:0:0:
428,264,45877,1,0,0:0:0:0:
409,247,45952,1,2,0:0:0:0:
387,235,46027,1,0,0:0:0:0:
304,256,46102,6,0,P|314:278|343:304,1,45,4|0,0:2|0:0,0:0:0:0:
403,149,46252,2,0,P|379:147|342:159,1,45,2|0,0:0|0:0,0:0:0:0:
219,264,46402,2,0,P|223:288|245:321,1,45,6|0,0:2|0:0,0:0:0:0:
384,57,46552,2,0,P|361:61|328:83,1,45,2|0,0:0|0:0,0:0:0:0:
147,213,46702,5,4,0:2:0:0:
224,176,46852,1,2,0:0:0:0:
160,128,47002,1,0,0:0:0:0:
288,0,47152,2,0,P|224:32|128:40,1,135,6|0,0:0|0:0,0:0:0:0:
128,0,47452,2,0,P|152:16|176:16,1,45,2|0,0:0|0:0,0:0:0:0:
232,80,47602,1,6,0:0:0:0:
80,160,47752,1,0,0:0:0:0:
336,200,47902,6,0,P|296:208|240:216,1,90,6|0,0:0|0:0,0:0:0:0:
112,296,48202,1,2,0:0:0:0:
320,384,48352,1,4,0:0:0:0:
264,320,48502,1,0,0:0:0:0:
347,209,48652,5,2,0:0:0:0:
347,209,48727,1,0,0:0:0:0:
347,209,48802,1,4,0:0:0:0:
181,351,48952,1,2,0:0:0:0:
264,320,49102,2,0,L|273:261,1,45,4|0,0:3|0:0,0:0:0:0:
212,62,49252,2,0,L|203:121,1,45,4|0,0:3|0:0,0:0:0:0:
28,242,49402,5,6,0:0:0:0:
96,191,49552,1,0,0:0:0:0:
174,225,49702,1,4,0:3:0:0:
358,238,49852,5,4,0:3:0:0:
358,238,49927,1,0,0:0:0:0:
358,238,50002,1,6,0:0:0:0:
269,168,50152,2,0,B|266:186|266:186|268:190|268:190|263:211,1,45
425,177,50302,1,6,0:0:0:0:
227,10,50452,6,0,P|230:21|231:33,1,22.5,0|0,3:0|3:0,3:0:0:0:
275,56,50602,2,0,L|270:98,1,22.5,0|0,3:0|3:0,3:0:0:0:
190,141,50752,6,0,L|159:155,1,22.5,0|0,3:0|3:0,3:0:0:0:
349,207,50902,6,0,L|381:217,1,31.4999990386963,0|0,3:0|3:0,3:0:0:0:
159,255,51052,6,0,L|129:287,1,38.2500007295609,0|0,3:0|3:0,0:0:0:0:
256,376,51202,5,2,3:0:0:0:
299,332,51277,1,2,3:0:0:0:
256,289,51352,1,2,3:0:0:0:
212,332,51427,1,2,3:0:0:0:
256,376,51502,6,0,L|256:192,1,168.75,6|0,1:0|0:0,0:0:0:0:
255,15,51802,6,0,P|229:27|211:48,1,56.25,2|0,1:0|0:0,0:0:0:0:
255,15,51952,2,0,P|280:27|298:48,1,56.25,2|0,1:0|0:0,0:0:0:0:
255,15,52102,2,0,B|249:41|262:38|255:71,1,56.25,0|0,1:0|0:0,0:0:0:0:
128,80,52252,5,2,1:0:0:0:
120,53,52327,1,0,0:0:0:0:
127,25,52402,1,0,1:0:0:0:
385,25,52552,1,0,1:0:0:0:
392,53,52627,1,0,0:0:0:0:
384,80,52702,6,0,L|448:72,1,56.25,2|0,1:0|0:0,0:0:0:0:
384,80,52852,2,0,L|392:144,1,56.25,0|0,1:0|0:0,0:0:0:0:
384,80,53002,2,0,L|249:96,1,112.5,2|0,1:0|0:0,0:0:0:0:
120,264,53302,6,0,L|56:272,1,56.25,0|0,1:0|0:0,0:0:0:0:
120,264,53452,2,0,L|112:200,1,56.25,2|0,1:0|0:0,0:0:0:0:
120,264,53602,2,0,L|217:251,1,56.25,2|0,1:0|0:0,0:0:0:0:
128,328,53752,1,0,1:0:0:0:
128,328,53827,1,0,1:0:0:0:
128,328,53902,6,0,B|104:272|104:272|128:216|128:216|112:160,1,168.75,2|0,1:0|0:0,0:0:0:0:
200,24,54202,2,0,B|208:32|208:32|272:48,1,56.25,2|0,1:0|0:0,0:0:0:0:
296,80,54352,2,0,B|288:72|288:72|224:56,1,56.25,2|0,1:0|0:0,0:0:0:0:
178,109,54502,1,2,1:0:0:0:
400,336,54652,6,0,B|392:328|392:328|328:312,1,56.25,0|0,1:0|0:0,0:0:0:0:
216,328,54802,2,0,B|224:336|224:336|288:352,1,56.25,2|0,1:0|0:0,0:0:0:0:
448,232,54952,1,0,1:0:0:0:
448,232,55027,1,0,1:0:0:0:
448,232,55102,6,0,L|72:136,3,360,4|4|4|4,1:2|1:2|1:2|1:2,0:0:0:0:
173,194,56077,1,0,0:0:0:0:
173,194,56152,2,0,B|193:199|193:199|255:167,1,90
256,0,56302,6,0,L|256:208,1,168.75,6|0,1:0|0:0,0:0:0:0:
255,359,56602,6,0,P|233:344|205:342,1,56.25,2|0,1:0|0:0,0:0:0:0:
256,359,56752,2,0,P|278:344|306:342,1,56.25,2|0,1:0|0:0,0:0:0:0:
256,359,56902,2,0,B|263:326|250:329|256:303,1,56.25,0|0,1:0|0:0,0:0:0:0:
128,312,57052,5,2,1:0:0:0:
120,339,57127,1,0,0:0:0:0:
127,367,57202,1,0,1:0:0:0:
385,367,57352,1,0,1:0:0:0:
392,339,57427,1,0,1:0:0:0:
384,312,57502,6,0,L|448:320,1,56.25,2|0,1:0|0:0,0:0:0:0:
384,312,57652,2,0,L|392:248,1,56.25,2|0,1:0|0:0,0:0:0:0:
384,312,57802,2,0,L|249:296,1,112.5,2|0,1:0|0:0,0:0:0:0:
120,128,58102,6,0,L|56:120,1,56.25,2|0,1:0|0:0,0:0:0:0:
120,128,58252,2,0,L|112:192,1,56.25,0|0,1:0|0:0,0:0:0:0:
120,128,58402,2,0,L|217:141,1,56.25,2|0,1:0|0:0,0:0:0:0:
128,64,58552,1,0,1:0:0:0:
128,64,58627,1,0,1:0:0:0:
128,64,58702,6,0,B|104:120|104:120|128:176|128:176|112:232,1,168.75,2|0,1:0|0:0,0:0:0:0:
200,368,59002,2,0,B|208:360|208:360|272:344,1,56.25,2|0,1:0|0:0,0:0:0:0:
296,312,59152,2,0,B|288:320|288:320|224:336,1,56.25,2|0,1:0|0:0,0:0:0:0:
178,283,59302,1,0,1:0:0:0:
400,56,59452,6,0,B|392:64|392:64|328:80,1,56.25,2|0,1:0|0:0,0:0:0:0:
216,64,59602,2,0,B|224:56|224:56|288:40,1,56.25,0|0,1:0|0:0,0:0:0:0:
448,160,59752,1,0,1:0:0:0:
448,160,59827,1,0,1:0:0:0:
424,166,59902,1,6,1:0:0:0:
400,172,59977,1,0,0:0:0:0:
376,178,60052,1,0,0:0:0:0:
352,184,60127,1,0,0:0:0:0:
328,190,60202,2,0,L|270:205,3,33.7500012874604
174,292,60502,6,0,L|163:341,1,33.7500012874604,0|0,3:0|3:0,3:0:0:0:
262,278,60652,2,0,L|251:327,1,33.7500012874604,0|0,3:0|3:0,3:0:0:0:
104,214,60802,6,0,L|93:263,1,45,0|0,3:0|3:0,3:0:0:0:
334,335,60952,2,0,L|323:384,1,45,0|0,3:0|3:0,3:0:0:0:
166,324,61102,5,4,1:2:0:0:
262,277,61252,2,0,P|275:235|276:190,1,90,2|8,1:0|1:0,0:0:0:0:
223,4,61552,2,0,P|204:54|203:151,1,135
368,203,61852,1,8,1:0:0:0:
288,104,62002,1,0,1:0:0:0:
127,182,62152,5,8,1:0:0:0:
127,182,62227,1,8,1:0:0:0:
127,182,62302,2,0,P|113:224|112:269,1,90,8|0,1:0|0:0,0:0:0:0:
341,381,62602,2,0,P|355:339|356:294,1,90,8|0,1:0|1:0,0:0:0:0:
171,341,62902,5,0,0:0:0:0:
352,263,63052,1,8,1:0:0:0:
200,134,63202,1,0,1:0:0:0:
381,56,63352,1,0,1:0:0:0:
381,56,63427,1,0,1:0:0:0:
381,56,63502,1,4,1:0:0:0:
175,116,63652,6,0,P|131:120|87:111,1,90,0|8,1:0|1:0,0:0:0:0:
266,216,63952,2,0,P|336:214|417:227,1,135
343,157,64252,1,8,1:0:0:0:
470,273,64402,1,0,1:0:0:0:
475,91,64552,5,8,1:0:0:0:
475,91,64627,1,8,1:0:0:0:
475,91,64702,1,8,1:0:0:0:
266,216,64852,1,0,0:0:0:0:
467,362,65002,2,0,P|464:316|474:251,1,90,8|0,1:0|1:0,0:0:0:0:
439,184,65227,1,0,0:0:0:0:
439,184,65302,5,0,0:0:0:0:
332,274,65452,1,8,1:0:0:0:
200,150,65602,1,0,1:0:0:0:
53,236,65752,1,8,1:0:0:0:
53,236,65827,1,8,1:0:0:0:
53,236,65902,5,4,1:2:0:0:
282,194,66052,1,0,1:0:0:0:
397,373,66202,1,8,1:0:0:0:
227,377,66352,6,0,P|208:327|207:230,1,135
365,176,66652,1,8,0:1:0:0:
292,277,66802,1,0,1:0:0:0:
131,199,66952,5,8,1:0:0:0:
131,199,67027,1,8,1:0:0:0:
131,199,67102,2,0,P|117:157|116:112,1,90,8|0,1:0|0:0,0:0:0:0:
345,0,67402,2,0,P|359:42|360:87,1,90,8|0,1:0|1:0,0:0:0:0:
175,40,67702,5,0,0:0:0:0:
356,118,67852,1,8,1:0:0:0:
204,247,68002,1,0,1:0:0:0:
385,325,68152,1,0,1:0:0:0:
385,325,68227,1,0,1:0:0:0:
385,325,68302,1,4,1:2:0:0:
201,276,68452,6,0,P|158:284|126:315,1,90,8|0,1:0|1:0,0:0:0:0:
274,152,68752,2,0,P|333:178|418:200,1,135
268,59,69052,1,8,0:1:0:0:
313,234,69202,1,0,1:0:0:0:
436,21,69352,5,8,1:0:0:0:
436,21,69427,1,8,1:0:0:0:
436,21,69502,1,4,1:2:0:0:
204,368,69802,1,0,0:0:0:0:
17,0,70102,6,0,P|68:14|51:83,1,135
29,90,70402,2,0,L|42:146,3,45,0|0|0|0,1:0|1:0|1:0|1:0,0:0:0:0:
130,224,70702,6,0,L|233:238,1,90,4|0,1:0|0:0,0:0:0:0:
369,163,71002,2,0,L|400:158,1,22.5,10|0,1:0|0:0,0:0:0:0:
286,67,71152,2,0,P|285:112|270:161,1,90,0|0,0:0|1:0,0:0:0:0:
400,302,71452,1,8,0:1:0:0:
219,236,71602,2,0,L|210:208,1,22.5,2|0,1:0|0:0,0:0:0:0:
390,67,71752,5,8,1:0:0:0:
390,67,71827,1,8,1:0:0:0:
390,67,71902,1,8,1:0:0:0:
298,305,72052,1,0,0:0:0:0:
198,94,72202,1,10,1:0:0:0:
386,199,72352,1,0,1:0:0:0:
191,318,72502,5,0,0:0:0:0:
374,384,72652,2,0,L|381:352,1,22.5,10|0,1:0|0:0,0:0:0:0:
306,116,72802,2,0,L|284:213,1,90,10|0,1:0|0:0,0:0:0:0:
286,203,73027,1,0,0:0:0:0:
286,203,73102,1,4,1:2:0:0:
56,138,73252,5,0,0:0:0:0:
208,32,73402,2,0,L|217:63,1,22.5,10|0,1:0|0:0,0:0:0:0:
116,269,73552,2,0,P|122:223|139:172,1,90,0|0,1:0|1:0,0:0:0:0:
71,0,73852,1,8,0:1:0:0:
224,145,74002,2,0,L|256:154,1,22.5,2|0,1:0|0:0,0:0:0:0:
31,227,74152,5,8,1:0:0:0:
31,227,74227,1,8,1:0:0:0:
31,227,74302,1,8,1:0:0:0:
217,40,74452,1,0,1:0:0:0:
217,40,74527,1,0,1:0:0:0:
217,40,74602,1,10,1:0:0:0:
262,309,74752,1,8,1:0:0:0:
262,309,74827,1,0,1:0:0:0:
262,309,74902,5,0,1:0:0:0:
75,144,75052,2,0,L|109:138,1,22.5,10|0,1:0|1:0,1:0:0:0:
261,170,75202,2,0,L|159:188,1,90,10|8,1:0|1:0,1:0:0:0:
172,185,75427,1,8,1:0:0:0:
172,185,75502,1,12,1:0:0:0:
469,223,75652,5,0,1:0:0:0:
337,85,75802,2,0,L|328:118,1,22.5,10|0,1:0|0:0,0:0:0:0:
421,353,75952,2,0,P|404:312|392:251,1,90,0|0,0:0|1:0,0:0:0:0:
432,82,76252,1,8,0:1:0:0:
306,244,76402,2,0,P|293:251|269:263,1,22.5,2|0,1:0|0:0,0:0:0:0:
512,319,76552,5,8,0:1:0:0:
512,319,76627,1,8,1:0:0:0:
512,319,76702,1,8,1:0:0:0:
319,346,76852,1,0,0:0:0:0:
469,223,77002,1,10,1:0:0:0:
300,147,77152,1,0,1:0:0:0:
300,147,77227,1,0,0:0:0:0:
300,147,77302,5,0,0:0:0:0:
415,374,77452,2,0,L|424:337,1,22.5,10|0,1:0|0:0,0:0:0:0:
425,48,77602,2,0,L|401:145,1,90,2|8,1:0|1:0,0:0:0:0:
403,135,77827,1,8,1:0:0:0:
403,135,77902,1,4,1:2:0:0:
242,235,78052,1,0,0:0:0:0:
106,98,78202,1,0,0:0:0:0:
387,284,78352,5,8,1:0:0:0:
387,284,78427,1,8,1:0:0:0:
387,284,78502,1,4,1:2:0:0:
225,383,78652,1,0,0:0:0:0:
89,246,78802,1,0,0:0:0:0:
276,54,78952,5,8,1:0:0:0:
276,54,79027,1,8,1:0:0:0:
276,54,79102,1,4,1:2:0:0:
300,147,79252,1,0,1:0:0:0:
106,98,79402,1,8,1:0:0:0:
80,69,79477,1,8,1:0:0:0:
94,33,79552,1,0,3:2:0:0:
300,147,79702,6,0,B|283:143|283:143|209:158,1,90,8|0,1:0|3:0,0:0:0:0:
40,284,80002,1,8,1:0:0:0:
84,293,80077,1,8,1:0:0:0:
112,328,80152,1,8,1:0:0:0:
142,361,80227,1,8,1:0:0:0:
186,370,80302,1,4,1:2:0:0:
270,332,80452,5,0,1:0:0:0:
357,355,80602,1,0,1:0:0:0:
355,344,80677,1,2,1:3:0:0:
388,314,80752,1,0,1:3:0:0:
398,270,80827,1,0,1:3:0:0:
404,226,80902,6,0,B|409:217|475:190|486:191,1,90,2|0,1:3|1:0,1:0:0:0:
365,35,81202,2,0,L|352:83,1,45,2|0,1:3|1:2,1:0:0:0:
430,115,81352,2,0,L|443:67,1,45,2|2,1:3|1:3,1:0:0:0:
136,24,81502,6,0,P|135:101|161:205,1,180,4|0,1:0|0:0,0:0:0:0:
199,331,81727,2,0,P|200:254|174:150,1,180,4|0,1:0|0:0,0:0:0:0:
136,24,81952,2,0,P|135:101|161:205,1,180,4|0,1:0|0:0,0:0:0:0:
199,331,82177,2,0,P|200:254|174:150,1,180,4|0,1:0|0:0,0:0:0:0:
29,86,82402,5,0,1:0:0:0:
40,129,82477,1,0,1:0:0:0:
49,172,82552,1,0,1:0:0:0:
57,216,82627,1,0,1:0:0:0:
62,259,82702,5,6,1:0:0:0:
261,132,82852,1,0,3:0:0:0:
29,86,83002,1,0,1:0:0:0:
433,360,83152,6,0,B|486:382|486:382|447:317,1,120,2|0,1:0|1:0,0:0:0:0:
278,219,83602,5,6,1:0:0:0:
46,173,83752,1,0,3:0:0:0:
245,46,83902,1,0,1:0:0:0:
454,328,84052,6,0,B|486:382|486:382|433:360,1,120,2|0,1:0|1:0,0:0:0:0:
189,236,84502,5,6,1:0:0:0:
220,145,84652,1,0,3:0:0:0:
279,267,84802,1,0,1:0:0:0:
311,176,84952,1,6,1:0:0:0:
189,236,85102,1,0,3:0:0:0:
220,145,85252,1,0,1:0:0:0:
279,267,85402,1,6,1:0:0:0:
311,176,85552,1,0,3:0:0:0:
189,236,85702,1,0,1:0:0:0:
432,355,85852,6,0,L|416:365,1,15,2|0,1:0|0:0,0:0:0:0:
495,373,86002,2,0,L|517:389,1,15,0|0,1:0|0:0,0:0:0:0:
459,322,86152,2,0,L|457:296,1,15,0|0,1:0|0:0,0:0:0:0:
424,70,86302,5,6,1:1:0:0:
192,116,86452,1,0,0:0:0:0:
391,243,86602,1,0,1:0:0:0:
67,360,86752,6,0,B|14:382|14:382|46:329,1,120,2|0,1:0|1:0,0:0:0:0:
175,203,87202,5,6,1:0:0:0:
407,157,87352,1,0,0:0:0:0:
208,30,87502,1,0,1:0:0:0:
46,329,87652,6,0,B|14:382|14:382|67:360,1,120,2|0,1:0|1:0,0:0:0:0:
318,196,88102,5,6,1:0:0:0:
287,105,88252,1,0,3:0:0:0:
228,227,88402,1,0,1:0:0:0:
196,136,88552,1,6,1:0:0:0:
318,196,88702,1,0,3:0:0:0:
287,105,88852,1,0,1:0:0:0:
228,227,89002,1,6,1:0:0:0:
196,136,89152,1,0,3:0:0:0:
318,196,89302,1,0,1:0:0:0:
46,330,89452,6,0,B|47:309|47:309|53:300|53:300|60:264,1,60,2|0,1:0|0:0,0:0:0:0:
215,284,89602,2,0,B|216:263|216:263|222:254|222:254|229:218,1,60,2|0,1:0|0:0,0:0:0:0:
384,238,89752,2,0,B|385:217|385:217|391:208|391:208|398:172,1,60,2|0,1:0|0:0,0:0:0:0:
480,42,89902,5,6,1:0:0:0:
286,105,90052,1,0,0:0:0:0:
295,319,90202,1,0,1:0:0:0:
29,64,90352,6,0,B|-2:12|-2:12|64:38,1,120,2|0,1:0|1:0,0:0:0:0:
480,42,90802,5,6,1:0:0:0:
489,256,90952,1,0,0:0:0:0:
295,319,91102,1,0,1:0:0:0:
53,33,91252,6,0,B|-2:12|-2:12|29:64,1,120,2|0,1:0|1:0,0:0:0:0:
19,363,91702,5,6,1:0:0:0:
36,267,91852,1,0,0:0:0:0:
111,380,92002,1,0,1:0:0:0:
130,286,92152,1,6,1:0:0:0:
19,363,92302,1,0,0:0:0:0:
36,267,92452,1,0,1:0:0:0:
111,380,92602,1,6,1:0:0:0:
130,286,92752,1,0,0:0:0:0:
19,363,92902,1,0,1:0:0:0:
53,33,93052,6,0,L|77:28,1,15,2|0,1:0|0:0,0:0:0:0:
4,11,93202,2,0,L|-11:-2,1,15,0|0,1:0|0:0,0:0:0:0:
29,63,93352,2,0,L|28:83,1,15,0|0,1:0|0:0,0:0:0:0:
112,377,93502,5,6,1:0:0:0:
88,173,93652,1,0,0:0:0:0:
224,20,93802,1,0,1:0:0:0:
459,33,93952,6,0,B|514:12|514:12|483:64,1,120,2|0,1:0|1:0,0:0:0:0:
111,380,94402,5,6,1:0:0:0:
247,227,94552,1,0,0:0:0:0:
223,23,94702,1,0,1:0:0:0:
4,340,94852,6,0,B|-19:379|-19:379|22:363,1,90,2|0,1:0|0:0,0:0:0:0:
193,48,95152,6,0,L|174:25,1,30,0|0,1:0|0:0,0:0:0:0:
81,291,95302,1,4,1:0:0:0:
512,214,96502,6,0,L|521:169,1,30,0|0,1:0|0:0,0:0:0:0:
402,174,96652,2,0,L|371:195,1,30,4|0,1:3|0:0,0:0:0:0:
257,230,96802,2,0,L|252:263,1,30,4|0,1:3|0:0,0:0:0:0:
144,172,96952,2,0,L|103:164,1,30,4|0,1:3|0:0,0:0:0:0:
0,206,97102,6,0,L|19:318,1,90,4|2,1:0|1:0,0:0:0:0:
233,137,97402,1,0,1:0:0:0:
44,81,97552,1,0,0:0:0:0:
44,81,97627,1,0,0:0:0:0:
44,81,97702,1,0,1:0:0:0:
163,274,97852,2,0,L|275:255,1,90,0|0,1:0|1:0,0:0:0:0:
318,29,98152,6,0,L|247:40,1,45,0|0,1:0|1:0,0:0:0:0:
161,53,98302,2,0,P|172:97|178:162,1,90,0|0,1:0|0:0,0:0:0:0:
360,233,98602,2,0,P|348:188|343:124,1,90,0|0,1:0|1:0,0:0:0:0:
258,264,98827,1,0,0:0:0:0:
258,264,98902,1,0,0:0:0:0:
445,331,99052,1,0,1:0:0:0:
512,144,99202,1,0,1:0:0:0:
302,66,99352,6,0,L|253:47,2,45,0|0|4,1:0|1:0|1:0,0:0:0:0:
350,262,99652,2,0,P|395:251|454:243,1,90
171,50,99952,6,0,L|182:98,2,45,0|0|4,1:0|1:0|1:0,0:0:0:0:
417,150,100252,2,0,P|429:105|452:50,1,90
133,166,100552,6,0,L|182:185,2,45,0|0|4,1:0|1:0|1:0,0:0:0:0:
358,9,100852,2,0,P|318:21|247:36,1,90
179,272,101152,6,0,L|232:254,2,45,0|0|4,1:0|1:0|1:0,0:0:0:0:
158,6,101452,2,0,P|171:47|183:109,1,90
438,244,101752,6,0,P|430:222|425:196,1,45,0|0,1:0|1:0,0:0:0:0:
335,106,101902,1,4,1:0:0:0:
279,327,102052,5,2,0:0:0:0:
320,308,102127,1,0,0:0:0:0:
365,308,102202,1,0,1:0:0:0:
354,0,102352,5,0,1:0:0:0:
313,19,102427,1,0,1:0:0:0:
268,19,102502,1,0,1:0:0:0:
133,166,102652,5,2,0:0:0:0:
151,195,102727,1,0,0:0:0:0:
145,229,102802,1,0,1:0:0:0:
425,200,102952,5,0,1:0:0:0:
406,159,103027,1,0,1:0:0:0:
406,114,103102,1,4,1:2:0:0:
282,190,103252,5,2,0:0:0:0:
301,231,103327,1,0,0:0:0:0:
301,276,103402,1,0,1:0:0:0:
32,205,103552,5,0,1:0:0:0:
13,164,103627,1,0,1:0:0:0:
13,119,103702,1,0,1:0:0:0:
133,166,103852,5,2,0:0:0:0:
151,195,103927,1,0,0:0:0:0:
145,229,104002,2,0,L|155:286,1,45,0|0,1:0|0:0,0:0:0:0:
223,102,104152,2,0,L|213:45,1,45,0|0,1:0|1:0,0:0:0:0:
365,336,104302,5,4,1:0:0:0:
334,172,104452,1,2,0:0:0:0:
437,285,104602,6,0,L|482:277,1,45,2|0,1:2|0:0,0:0:0:0:
275,237,104752,2,0,L|231:244,1,45,0|0,1:0|0:0,0:0:0:0:
434,115,104902,5,2,1:2:0:0:
458,94,104977,1,2,0:2:0:0:
467,64,105052,1,2,1:2:0:0:
458,34,105127,1,2,0:2:0:0:
433,14,105202,1,2,1:2:0:0:
401,11,105277,1,2,0:2:0:0:
374,26,105352,1,2,1:2:0:0:
359,55,105427,1,2,1:2:0:0:
368,71,105502,5,6,1:2:0:0:
348,79,105577,1,2,0:2:0:0:
365,84,105652,1,2,0:2:0:0:
346,95,105727,1,2,0:2:0:0:
364,95,105802,1,2,0:2:0:0:
349,110,105877,1,2,0:2:0:0:
367,107,105952,1,2,0:2:0:0:
353,122,106027,1,2,0:2:0:0:
370,115,106102,1,2,0:2:0:0:
360,133,106177,1,2,0:2:0:0:
375,123,106252,1,2,0:2:0:0:
365,142,106327,1,2,0:2:0:0:
379,131,106402,1,2,0:2:0:0:
374,151,106477,1,2,0:2:0:0:
385,137,106552,1,2,0:2:0:0:
384,158,106627,1,2,0:2:0:0:
393,143,106702,6,0,L|398:176,15,22.5,2|2|2|2|2|2|2|2|2|2|2|2|2|2|2|2,0:0|0:0|0:0|0:0|0:0|0:0|0:0|0:0|0:0|0:0|0:0|0:0|0:0|0:0|0:0|0:0,0:0:0:0:
434,205,107302,6,0,L|449:210,14,11.25,2|2|2|0|2|2|2|0|2|2|2|0|2|2|2,3:2|0:2|0:2|0:0|3:2|0:2|0:2|0:0|3:2|0:2|0:2|0:0|3:2|0:2|0:2,0:0:0:0:
358,240,107602,6,0,L|310:247,14,33.7500012874604,2|2|2|0|2|2|2|0|2|2|2|0|2|2|2,3:2|0:2|3:2|0:0|3:2|0:2|3:2|0:0|3:2|3:2|3:2|0:0|3:2|3:2|3:2,0:0:0:0:
428,294,107902,5,6,1:2:0:0:
