osu file format v14

[General]
AudioFilename: audio.mp3
AudioLeadIn: 0
PreviewTime:95014
Countdown: 0
SampleSet: None
StackLeniency: 0.7
Mode: 0
LetterboxInBreaks: 0
WidescreenStoryboard: 1

[Editor]
Bookmarks: 51502
DistanceSpacing: 0.5
BeatDivisor: 4
GridSize: 8
TimelineZoom: 4.200004

[Metadata]
Title:Rotter Tarmination
TitleUnicode:Rotter Tarmination
Artist:Sampling Masters MEGA
ArtistUnicode:Sampling Masters MEGA
Creator:Luscent
Version:Insane
Source:太鼓の達人
Tags:allein app gibune beomsan taiko no tatsujin hosoe shinji 細江 慎治 instrumental rhythm video game electronic Rotterdam Nation
BeatmapID:4506393
BeatmapSetID:2099784

[Difficulty]
HPDrainRate:5
CircleSize:4
OverallDifficulty:8
ApproachRate:9
SliderMultiplier:1.62
SliderTickRate:1

[Events]
//Background and Video events
0,0,"bg.jpg",0,0
//Break Periods
//Storyboard Layer 0 (Background)
//Storyboard Layer 1 (Fail)
//Storyboard Layer 2 (Pass)
//Storyboard Layer 3 (Foreground)
//Storyboard Layer 4 (Overlay)
//Storyboard Sound Samples

[TimingPoints]
1102,300,4,2,1,70,1,0
13102,300,4,1,1,80,1,0
22702,-90.9090909090909,4,1,1,90,0,1
25102,-100,4,1,1,90,0,1
27502,-90.9090909090909,4,1,1,90,0,1
29902,-100,4,1,1,90,0,1
32302,-100,4,1,1,80,0,0
41902,-90.9090909090909,4,1,1,90,0,1
44302,-100,4,1,1,90,0,1
46702,-90.9090909090909,4,1,1,90,0,1
49102,-100,4,1,1,90,0,1
50302,-100,4,1,1,80,0,1
51502,-100,4,2,1,80,0,0
61102,-100,4,2,1,80,0,1
69502,-100,4,2,1,80,0,0
70702,-90.9090909090909,4,2,1,80,0,1
80302,-100,4,3,1,70,0,0
81502,-76.9230769230769,4,2,1,70,0,0
82702,450.000001125,4,2,1,80,1,0
82702,-66.6666666666667,4,2,1,80,0,0
95302,300,4,2,1,80,1,1
97102,300,4,2,1,80,1,0
99502,-100,4,2,1,60,0,0
101902,-100,4,2,1,70,0,0
105577,-100,4,2,1,50,0,0
106702,-100,4,2,1,60,0,0
107302,-100,4,2,1,70,0,0
107602,-100,4,2,1,80,0,0
107752,-100,4,2,1,90,0,0
107902,-100,4,2,1,100,0,0
110302,-100,4,2,1,80,0,0

[Colours]
Combo1 : 242,24,57
Combo2 : 164,38,38
Combo3 : 251,130,125

[HitObjects]
139,211,1102,6,0,B|86:163|110:97,2,121.5,4|0|0,1:0|1:0|1:0,0:0:0:0:
81,296,1702,1,0,0:0:0:0:
170,357,1852,1,0,1:0:0:0:
170,357,1927,1,0,0:0:0:0:
170,357,2002,2,0,B|220:335|256:344,1,81,0|0,1:0|0:0,0:0:0:0:
344,375,2302,1,0,1:0:0:0:
432,311,2452,2,0,B|445:213|343:184,1,162,0|0,0:0|1:0,0:0:0:0:
221,246,2902,5,0,1:0:0:0:
201,220,2977,1,0,1:0:0:0:
198,187,3052,1,0,1:0:0:0:
206,155,3127,1,0,1:0:0:0:
222,126,3202,1,0,1:0:0:0:
236,97,3277,1,0,1:0:0:0:
235,64,3352,1,0,1:0:0:0:
223,33,3427,1,0,1:0:0:0:
194,16,3502,6,0,B|83:22|95:124,1,162,4|0,1:0|1:0,0:0:0:0:
37,192,3952,1,0,1:0:0:0:
111,244,4102,2,0,B|175:228|164:268|235:250,1,121.5,0|0,1:0|1:0,0:0:0:0:
229,251,4402,2,0,B|220:196|234:138,1,81,0|0,1:0|3:0,0:0:0:0:
319,203,4702,1,0,1:0:0:0:
411,173,4852,2,0,B|443:252|414:338,1,162,0|0,1:0|1:0,0:0:0:0:
339,345,5302,1,0,1:0:0:0:
492,364,5452,1,0,1:0:0:0:
339,345,5602,1,0,1:0:0:0:
134,352,5902,6,0,B|101:295|122:221,1,121.5,4|0,1:2|1:0,0:0:0:0:
118,234,6202,2,0,B|71:257|23:246,1,81,0|0,0:0|1:2,0:0:0:0:
0,173,6502,1,0,1:0:0:0:
276,206,6802,1,0,1:0:0:0:
240,111,6952,1,0,1:0:0:0:
172,172,7102,1,0,1:0:0:0:
276,206,7252,2,0,B|288:119|269:39,1,162,0|0,1:0|1:0,0:0:0:0:
346,15,7702,1,0,1:0:0:0:
185,41,7852,1,0,1:0:0:0:
346,15,8002,1,0,1:0:0:0:
401,177,8302,5,4,1:0:0:0:
320,314,8527,1,0,1:0:0:0:
191,252,8752,1,0,1:0:0:0:
423,203,8902,5,0,1:0:0:0:
342,340,9127,1,0,1:0:0:0:
213,278,9352,1,0,1:0:0:0:
310,232,9502,6,0,B|321:181|308:126,1,81,4|0,3:2|1:0,0:0:0:0:
227,79,9802,1,0,1:0:0:0:
23,247,9952,2,0,B|64:264|126:249,1,81,4|0,3:2|1:0,0:0:0:0:
219,298,10252,1,0,1:0:0:0:
219,298,10327,1,0,1:0:0:0:
219,298,10402,1,0,1:0:0:0:
177,170,10552,1,0,1:0:0:0:
177,170,10627,1,0,1:0:0:0:
177,170,10702,1,4,1:2:0:0:
256,192,10852,12,0,12802,0:0:0:0:
106,285,13102,6,0,B|165:222|261:254,1,162,6|2,1:0|1:0,0:0:0:0:
368,191,13552,1,0,0:0:0:0:
291,79,13702,2,0,B|258:120|276:182,1,81,2|0,1:0|0:0,0:0:0:0:
356,308,14002,1,0,1:0:0:0:
484,216,14152,5,2,1:0:0:0:
484,216,14227,1,0,1:0:0:0:
484,216,14302,2,0,B|437:227|376:213,1,81,0|2,1:0|1:0,0:0:0:0:
270,282,14602,1,0,1:0:0:0:
119,219,14752,2,0,B|172:257|155:340,1,121.5
157,327,15052,1,0,1:0:0:0:
286,204,15202,2,0,B|258:160|271:117,1,81,0|0,1:0|0:0,0:0:0:0:
378,54,15502,6,0,B|445:45|486:111|455:169,1,162,2|0,1:0|1:0,0:0:0:0:
364,230,15952,1,0,0:0:0:0:
264,302,16102,2,0,B|197:311|156:245|187:187,1,162,2|0,1:0|1:0,0:0:0:0:
284,85,16552,5,2,1:0:0:0:
284,85,16627,1,0,1:0:0:0:
284,85,16702,2,0,B|297:130|280:192,1,81,4|0,1:2|0:0,0:0:0:0:
264,302,17002,1,4,1:3:0:0:
22,235,17152,2,0,B|69:213|127:223,1,81,4|0,1:2|0:0,0:0:0:0:
172,133,17452,1,4,1:3:0:0:
39,35,17602,2,0,B|29:80|47:123,1,81,4|0,1:2|0:2,0:0:0:0:
80,299,17902,6,0,B|119:228|227:240,1,162,4|2,1:2|1:0,0:0:0:0:
322,270,18352,1,0,0:0:0:0:
403,166,18502,2,0,B|392:122|406:69,1,81,2|0,1:0|0:0,0:0:0:0:
317,77,18802,1,0,1:0:0:0:
417,249,18952,5,0,1:0:0:0:
417,249,19027,1,0,1:0:0:0:
417,249,19102,1,0,1:0:0:0:
259,155,19252,1,2,0:0:0:0:
411,58,19402,1,0,1:0:0:0:
268,232,19552,2,0,B|211:246|158:176|188:121,1,162,2|0,1:0|1:0,0:0:0:0:
242,55,20002,1,2,1:0:0:0:
57,18,20152,5,0,1:0:0:0:
57,18,20227,1,0,1:0:0:0:
57,18,20302,2,0,B|38:58|53:124,1,81,2|0,1:0|0:0,0:0:0:0:
135,266,20602,1,0,1:0:0:0:
172,99,20752,1,0,0:0:0:0:
0,193,20902,2,0,B|42:209|100:195,1,81,2|0,1:0|0:0,0:0:0:0:
214,236,21202,1,0,1:0:0:0:
370,95,21352,5,0,1:0:0:0:
370,95,21427,1,0,1:0:0:0:
370,95,21502,2,0,B|353:141|370:201,1,81,4|0,1:2|0:0,0:0:0:0:
360,337,21802,1,4,1:3:0:0:
139,279,21952,2,0,B|190:262|253:271,1,81,4|0,1:2|0:0,0:0:0:0:
461,175,22252,1,4,1:3:0:0:
302,223,22402,5,4,1:2:0:0:
272,202,22477,1,0,0:0:0:0:
252,170,22552,1,0,1:0:0:0:
245,134,22627,1,0,1:0:0:0:
254,100,22702,5,4,1:2:0:0:
160,151,22852,1,2,1:0:0:0:
342,100,23002,1,0,0:0:0:0:
209,14,23152,1,6,1:0:0:0:
377,165,23302,2,0,B|365:111|378:71,1,89.1000027191163,0|2,1:0|1:0,0:0:0:0:
434,279,23602,1,6,1:0:0:0:
497,140,23752,1,0,0:0:0:0:
434,279,23902,6,0,B|397:319|344:321,1,89.1000027191163,6|0,0:0|0:0,0:0:0:0:
192,286,24202,2,0,B|232:315|235:382,1,89.1000027191163,0|4,0:0|0:0,0:0:0:0:
288,235,24502,1,0,0:0:0:0:
52,270,24652,2,0,B|19:227|33:175,1,89.1000027191163,2|4,0:0|0:0,0:0:0:0:
100,112,24952,1,2,0:0:0:0:
245,40,25102,5,0,0:3:0:0:
287,154,25252,1,4,0:3:0:0:
195,205,25402,2,0,B|171:163|190:109,1,81,6|0,0:0|0:0,0:0:0:0:
287,154,25702,5,0,0:0:0:0:
245,268,25852,1,4,0:3:0:0:
337,319,26002,2,0,B|361:277|342:223,1,81,6|0,0:0|0:0,0:0:0:0:
357,207,26227,1,0,0:0:0:0:
379,177,26302,6,0,L|429:173,3,40.5,4|0|2|0,0:2|0:0|0:0|0:0,0:0:0:0:
318,112,26602,2,0,L|277:115,1,40.5,6|0,0:2|0:0,0:0:0:0:
221,178,26752,2,0,L|180:181,1,40.5,2|0,0:0|0:0,0:0:0:0:
89,152,26902,6,0,L|92:192,3,40.5,4|0|2|0,0:2|0:0|0:0|0:0,0:0:0:0:
25,253,27202,2,0,L|78:273,1,40.5,4|0,0:2|0:0,0:0:0:0:
81,346,27352,2,0,L|137:326,1,40.5,2|0,0:0|0:0,0:0:0:0:
208,363,27502,6,0,B|188:302|212:262,1,89.1000027191163,4|2,0:2|0:0,0:0:0:0:
289,199,27802,1,0,0:0:0:0:
166,155,27952,1,4,0:2:0:0:
283,231,28102,1,2,0:0:0:0:
392,133,28252,1,0,0:0:0:0:
285,71,28402,2,0,B|275:117|286:161,1,89.1000027191163,4|2,0:2|0:0,0:0:0:0:
511,254,28702,6,0,B|445:224|377:246,1,133.650004078674,6|0,0:0|0:0,0:0:0:0:
380,244,29002,2,0,B|394:294|372:338,1,89.1000027191163,2|4,0:0|0:2,0:0:0:0:
286,360,29302,1,0,0:0:0:0:
225,285,29452,1,2,0:0:0:0:
122,295,29602,2,0,B|93:247|113:193,1,89.1000027191163,4|2,0:0|0:0,0:0:0:0:
278,162,29902,5,4,0:3:0:0:
260,60,30052,1,4,0:3:0:0:
160,44,30202,2,0,B|152:90|196:116,1,81,6|0,0:0|0:0,0:0:0:0:
278,162,30502,5,4,0:3:0:0:
296,60,30652,1,4,0:3:0:0:
396,44,30802,2,0,B|404:90|360:116,1,81,6|0,0:0|0:0,0:0:0:0:
443,212,31102,6,0,L|451:261,3,40.5,4|0|0|0,0:0|0:0|0:0|0:0,0:0:0:0:
365,269,31402,2,0,L|354:318,1,40.5,6|0,0:0|0:0,0:0:0:0:
270,228,31552,2,0,L|280:277,1,40.5
194,320,31702,1,4,0:0:0:0:
174,323,31777,1,0,0:0:0:0:
154,327,31852,1,0,0:0:0:0:
134,331,31927,1,0,0:0:0:0:
114,335,32002,2,0,B|104:308|107:285,3,40.5,6|0|0|0,0:0|0:0|0:0|0:0,0:0:0:0:
69,270,32302,6,0,B|152:227|129:124,2,162,4|2|2,0:0|0:0|0:0,0:0:0:0:
39,171,33052,1,0,0:0:0:0:
32,66,33202,2,0,B|86:66|113:121,1,81,0|2,0:0|0:0,0:0:0:0:
163,156,33502,6,0,B|212:149|212:149|274:112|274:112|317:110,1,162
415,54,33952,2,0,B|379:111|421:198,1,121.5,2|0,0:0|0:0,0:0:0:0:
409,171,34252,1,0,0:0:0:0:
373,270,34402,1,0,0:0:0:0:
242,213,34552,5,0,0:0:0:0:
242,213,34627,1,0,0:0:0:0:
242,213,34702,2,0,B|283:189|349:204,1,81,2|0,0:0|0:0,0:0:0:0:
175,274,35002,2,0,B|139:238|149:176,1,81,0|2,0:0|0:0,0:0:0:0:
176,91,35302,2,0,B|158:189|53:174,1,162,2|0,0:0|0:0,0:0:0:0:
6,251,35752,5,2,0:0:0:0:
54,329,35902,1,4,0:0:0:0:
214,249,36202,1,4,0:3:0:0:
262,327,36352,1,4,0:0:0:0:
421,243,36652,1,4,0:3:0:0:
469,321,36802,1,4,0:0:0:0:
308,111,37102,6,0,B|379:163|460:117,2,162,6|2|2,0:0|1:0|0:0,0:0:0:0:
226,142,37852,1,0,0:0:0:0:
117,93,38002,2,0,B|140:170,1,81,0|2,1:0|0:0,0:0:0:0:
35,216,38302,6,0,B|122:255|98:357,1,162
197,279,38752,2,0,B|268:250|250:169,1,121.5,2|0,0:0|0:0,0:0:0:0:
252,182,39052,2,0,B|301:197|351:178,1,81,2|0,0:0|0:0,0:0:0:0:
440,222,39352,5,0,0:0:0:0:
440,222,39427,1,0,0:0:0:0:
440,222,39502,2,0,B|425:171|425:171|445:106|445:106|431:60,1,162,2|0,0:0|0:0,0:0:0:0:
504,18,39952,1,0,0:0:0:0:
343,24,40102,2,0,L|359:108,1,81,2|0,0:0|0:0,0:0:0:0:
279,140,40402,2,0,B|241:166|177:146,1,81,0|2,0:0|0:0,0:0:0:0:
123,120,40702,5,4,0:0:0:0:
43,289,41002,1,4,0:3:0:0:
123,270,41152,1,4,0:0:0:0:
332,343,41452,1,4,0:3:0:0:
252,324,41602,1,4,0:0:0:0:
302,255,41752,5,0,0:0:0:0:
302,255,41827,1,0,0:0:0:0:
302,255,41902,2,0,B|331:206|320:165,1,89.1000027191163,4|2,0:0|0:0,0:0:0:0:
228,101,42202,1,0,0:0:0:0:
235,185,42352,1,6,0:0:0:0:
68,142,42502,2,0,B|115:164|163:144,1,89.1000027191163,0|2,0:0|0:0,0:0:0:0:
123,291,42802,1,6,0:0:0:0:
37,238,42952,1,0,0:0:0:0:
197,251,43102,6,0,B|232:318|204:413,1,133.650004078674,6|0,0:0|0:0,0:0:0:0:
211,381,43402,2,0,B|254:355|308:367,1,89.1000027191163,2|4,0:0|0:0,0:0:0:0:
415,369,43702,1,0,0:0:0:0:
343,297,43852,1,2,0:0:0:0:
438,198,44002,2,0,B|457:250|434:287,1,89.1000027191163,4|2,0:0|0:0,0:0:0:0:
303,171,44302,5,0,0:3:0:0:
225,210,44452,1,4,0:3:0:0:
144,174,44602,2,0,B|122:135|137:90,1,81,6|0,0:0|0:0,0:0:0:0:
303,171,44902,5,0,0:0:0:0:
282,261,45052,1,4,0:3:0:0:
183,297,45202,2,0,B|139:284|118:242,1,81,6|0,0:0|0:0,0:0:0:0:
96,230,45427,1,0,0:0:0:0:
66,239,45502,6,0,L|19:252,3,40.5,4|0|2|0,0:2|0:0|0:0|0:0,0:0:0:0:
59,153,45802,2,0,L|45:99,1,40.5,6|0,0:2|0:0,0:0:0:0:
135,98,45952,2,0,L|150:41,1,40.5,2|0,0:0|0:0,0:0:0:0:
240,113,46102,5,4,0:2:0:0:
251,134,46177,1,0,0:0:0:0:
257,157,46252,1,2,0:0:0:0:
256,181,46327,1,0,0:0:0:0:
247,203,46402,2,0,B|217:212|174:204,3,40.5,4|0|2|0,0:2|0:0|0:0|0:0,0:0:0:0:
311,273,46702,6,0,B|357:193|481:216,1,178.200005438233,4|0,0:2|0:0,0:0:0:0:
355,54,47152,2,0,L|403:137,1,89.1000027191163,6|0,0:0|0:0,0:0:0:0:
289,152,47452,1,2,0:0:0:0:
195,119,47602,2,0,B|171:77|198:26,1,89.1000027191163,6|0,0:0|0:0,0:0:0:0:
25,219,47902,6,0,B|68:199|119:202,1,89.1000027191163,6|0,0:0|0:0,0:0:0:0:
212,258,48202,1,0,0:0:0:0:
111,201,48352,1,4,0:0:0:0:
73,326,48502,1,0,0:0:0:0:
190,294,48652,1,2,0:0:0:0:
303,361,48802,2,0,B|294:312|316:275,1,89.1000027191163,4|2,0:0|0:0,0:0:0:0:
426,78,49102,5,4,0:3:0:0:
465,163,49252,1,4,0:3:0:0:
402,229,49402,2,0,B|366:192|383:143,1,81,6|0,0:0|0:0,0:0:0:0:
193,78,49702,5,4,0:3:0:0:
154,163,49852,1,4,0:3:0:0:
217,229,50002,2,0,B|253:192|236:143,1,81,6|0,0:0|0:0,0:0:0:0:
262,148,50227,1,0,0:0:0:0:
285,141,50302,1,6,0:0:0:0:
256,192,50452,12,6,51502,1:0:0:0:
198,121,51802,5,0,1:0:0:0:
184,239,51952,1,2,1:0:0:0:
314,256,52102,1,0,1:0:0:0:
334,135,52252,1,2,1:0:0:0:
256,192,52402,1,0,1:0:0:0:
453,197,52702,6,0,B|449:148|457:89,2,81,2|0|2,1:0|1:0|1:0,0:0:0:0:
446,330,53152,1,0,0:0:0:0:
333,285,53302,2,0,B|292:297|242:291,2,81,0|2|2,1:0|1:0|1:0,0:0:0:0:
143,346,53752,5,0,1:0:0:0:
143,346,53827,1,0,1:0:0:0:
143,346,53902,2,0,B|80:350|42:278|73:226,1,162,2|2,1:0|1:0,0:0:0:0:
99,134,54352,1,2,1:0:0:0:
254,140,54502,2,0,B|270:183|256:239,1,81,2|0,1:0|1:0,0:0:0:0:
186,279,54802,1,2,1:0:0:0:
356,265,54952,1,0,1:0:0:0:
356,265,55027,1,0,1:0:0:0:
356,265,55102,5,4,1:2:0:0:
125,164,55402,5,4,1:2:0:0:
453,239,55702,5,4,1:2:0:0:
36,198,56002,5,4,1:2:0:0:
247,19,56302,6,0,B|335:59|307:153,1,162,6|2,1:0|1:0,0:0:0:0:
296,239,56752,1,2,1:0:0:0:
112,191,56902,2,0,B|145:160|190:162,1,81,0|2,1:0|1:0,0:0:0:0:
178,292,57202,1,0,1:0:0:0:
33,244,57352,5,0,1:0:0:0:
33,244,57427,1,0,1:0:0:0:
33,244,57502,2,0,L|14:150,2,81,2|2|2,1:0|1:0|1:0,0:0:0:0:
116,71,57952,1,0,0:0:0:0:
256,103,58102,2,0,L|272:182,2,81,2|0|2,1:0|1:0|1:0,0:0:0:0:
437,62,58552,5,0,1:0:0:0:
437,62,58627,1,0,1:0:0:0:
437,62,58702,2,0,B|370:61|336:140|379:197,1,162,2|2,1:0|1:0,0:0:0:0:
236,276,59152,2,0,B|278:250|334:259,1,81,0|0,0:0|1:0,0:0:0:0:
179,350,59452,1,2,1:0:0:0:
102,215,59602,1,0,1:0:0:0:
8,278,59752,1,0,1:0:0:0:
8,278,59827,1,0,1:0:0:0:
8,278,59902,6,0,L|19:334,7,40.5,6|0|0|0|0|0|0|0,1:0|3:0|3:0|3:0|3:0|3:0|3:0|3:0,3:0:0:0:
53,340,60502,2,2,B|130:281|80:193,1,162
451,229,61102,5,4,1:2:0:0:
362,294,61252,1,2,1:0:0:0:
451,229,61402,2,0,B|427:181|440:129,1,81
321,214,61702,2,0,B|279:242|220:229,1,81,0|0,0:0|1:0,0:0:0:0:
133,274,62002,1,0,0:0:0:0:
57,150,62152,5,8,1:0:0:0:
57,150,62227,1,8,1:0:0:0:
57,150,62302,2,0,B|118:120|170:189|149:243,1,162,8|8,1:0|1:0,0:0:0:0:
237,328,62752,1,0,1:0:0:0:
27,352,63052,1,8,1:0:0:0:
0,242,63202,1,0,1:0:0:0:
219,152,63502,5,4,1:0:0:0:
299,232,63652,1,0,1:0:0:0:
219,152,63802,2,0,B|193:106|208:58,1,81
312,98,64102,2,0,B|356:110|400:89,1,81,0|8,0:0|1:0,0:0:0:0:
512,146,64402,1,0,0:0:0:0:
473,40,64552,5,8,1:0:0:0:
473,40,64627,1,8,1:0:0:0:
473,40,64702,2,0,B|407:42|389:129|432:166,1,162,8|8,1:0|1:0,0:0:0:0:
328,197,65152,2,0,B|372:224|364:286,1,81,0|0,1:0|3:0,0:0:0:0:
471,265,65452,1,8,1:0:0:0:
408,351,65602,1,0,1:0:0:0:
471,265,65752,1,8,1:0:0:0:
271,302,65902,6,0,B|226:323|176:309,1,81,4|0,1:2|1:0,0:0:0:0:
73,258,66202,1,8,1:0:0:0:
121,366,66352,1,0,0:0:0:0:
215,231,66502,2,0,B|188:185|205:140,1,81,0|8,1:0|0:1,0:0:0:0:
289,109,66802,1,0,1:0:0:0:
127,44,66952,5,8,1:0:0:0:
127,44,67027,1,8,1:0:0:0:
127,44,67102,2,0,B|210:89|162:187,1,162,8|8,1:0|1:0,0:0:0:0:
96,252,67552,1,0,1:0:0:0:
350,321,67852,1,8,1:0:0:0:
321,222,68002,1,0,1:0:0:0:
489,195,68302,5,4,1:2:0:0:
452,90,68452,2,0,B|471:133|457:182,1,81,8|0,1:0|1:0,0:0:0:0:
270,135,68752,2,0,B|308:155|371:134,1,81,2|0,3:2|0:0,0:0:0:0:
128,77,69052,2,0,L|168:154,1,81,8|0,0:1|1:0,0:0:0:0:
231,265,69352,1,8,1:0:0:0:
231,265,69427,1,8,1:0:0:0:
231,265,69502,1,4,1:2:0:0:
231,265,70402,6,0,L|179:272,3,40.5,0|0|0|0,1:0|1:0|1:0|1:0,0:0:0:0:
267,277,70702,6,0,B|241:220|270:168,1,89.1000027191163,4|0,1:0|0:0,0:0:0:0:
403,103,71002,2,0,L|382:147,1,44.5500013595581,10|0,1:0|0:0,0:0:0:0:
343,216,71152,1,0,0:0:0:0:
181,106,71302,2,0,B|221:122|273:105,1,89.1000027191163,0|8,1:0|0:1,0:0:0:0:
330,18,71602,1,2,1:0:0:0:
475,61,71752,5,8,1:0:0:0:
475,61,71827,1,8,1:0:0:0:
475,61,71902,2,0,B|499:136|477:247,1,178.200005438233,8|10,1:0|1:0,0:0:0:0:
478,237,72352,1,0,1:0:0:0:
285,350,72652,1,10,1:0:0:0:
231,273,72802,1,10,1:0:0:0:
0,290,73102,6,0,B|43:313|96:291,1,89.1000027191163,4|0,1:2|1:0,0:0:0:0:
114,130,73402,2,0,L|161:172,1,44.5500013595581,10|0,1:0|0:0,0:0:0:0:
212,206,73552,1,0,0:0:0:0:
334,115,73702,2,0,B|348:158|332:202,1,89.1000027191163,0|8,1:0|0:1,0:0:0:0:
256,297,74002,1,2,1:0:0:0:
57,252,74152,5,8,1:0:0:0:
57,252,74227,1,8,1:0:0:0:
57,252,74302,2,0,B|117:221|201:238,1,133.650004078674,8|0,1:0|1:0,0:0:0:0:
187,235,74602,2,0,B|213:192|208:129,1,89.1000027191163,10|8,1:0|1:0,0:0:0:0:
118,120,74902,1,0,0:0:0:0:
150,18,75052,1,10,1:0:0:0:
251,48,75202,2,0,B|307:61|359:46,1,89.1000027191163,10|8,1:0|1:0,0:0:0:0:
339,50,75427,1,8,1:0:0:0:
339,50,75502,6,0,B|360:92|341:166,1,89.1000027191163,12|0,1:0|1:0,0:0:0:0:
361,266,75802,1,10,1:0:0:0:
256,164,75952,1,0,0:0:0:0:
106,249,76102,2,0,B|148:227|213:235,1,89.1000027191163,0|8,1:0|0:1,0:0:0:0:
345,319,76402,2,0,L|334:263,1,44.5500013595581,2|0,1:0|0:0,0:0:0:0:
456,255,76552,5,8,0:1:0:0:
456,255,76627,1,8,1:0:0:0:
456,255,76702,2,0,B|421:161|461:81,1,178.200005438233,8|10,1:0|1:0,0:0:0:0:
335,120,77152,2,0,L|223:158,1,89.1000027191163,0|0,1:0|0:0,0:0:0:0:
121,181,77452,2,0,L|106:132,1,44.5500013595581,10|0,1:0|0:0,0:0:0:0:
174,68,77602,2,0,B|263:131|218:235,1,178.200005438233,2|4,1:0|1:2,0:0:0:0:
222,223,78352,5,8,1:0:0:0:
222,223,78427,1,8,1:0:0:0:
222,223,78502,1,4,1:2:0:0:
222,223,78952,5,8,1:0:0:0:
222,223,79027,1,8,1:0:0:0:
222,223,79102,1,4,1:2:0:0:
283,332,79252,1,0,1:0:0:0:
390,288,79402,2,0,L|453:300,3,44.5500013595581,8|8|0|0,1:0|1:0|3:2|3:0,0:0:0:0:
361,261,79702,6,0,B|330:218|350:166,1,89.1000027191163,8|0,1:0|3:0,0:0:0:0:
432,87,80002,1,8,1:0:0:0:
439,112,80077,1,8,1:0:0:0:
446,137,80152,1,8,1:0:0:0:
453,162,80227,1,8,1:0:0:0:
460,185,80302,1,4,1:2:0:0:
256,192,80452,12,4,82177,1:2:0:0:
118,255,82702,6,0,B|34:198|78:103,1,162.00000617981,6|0,1:0|1:0,0:0:0:0:
159,72,83152,1,2,1:0:0:0:
226,309,83452,1,0,1:0:0:0:
226,309,83602,2,0,B|268:228|365:237,1,162.00000617981,6|0,1:0|1:0,0:0:0:0:
442,272,84052,1,2,1:0:0:0:
488,88,84352,1,0,1:0:0:0:
387,49,84502,6,0,B|371:93|401:140,1,81.0000030899049,6|0,1:0|3:0,0:0:0:0:
299,148,84802,1,0,1:0:0:0:
176,186,84952,2,0,B|206:219|268:210,1,81.0000030899049,6|0,1:0|3:0,0:0:0:0:
208,297,85252,1,0,1:0:0:0:
285,354,85402,2,0,B|336:331|350:286,2,81.0000030899049,6|0|0,1:0|3:0|1:0,0:0:0:0:
417,326,85852,2,0,B|344:257|369:173,1,162.00000617981,2|0,1:0|1:0,0:0:0:0:
311,89,86302,6,0,B|251:157|159:130,1,162.00000617981,6|0,1:1|1:0,0:0:0:0:
93,80,86752,1,2,1:0:0:0:
55,281,87052,1,0,0:0:0:0:
55,281,87202,2,0,B|138:229|225:255,1,162.00000617981,6|0,1:0|1:0,0:0:0:0:
287,292,87652,1,2,1:0:0:0:
445,363,87952,1,0,0:0:0:0:
504,297,88102,6,0,B|510:246|477:209,1,81.0000030899049,6|0,1:0|3:0,0:0:0:0:
399,220,88402,1,0,1:0:0:0:
399,131,88552,2,0,B|354:108|307:127,1,81.0000030899049,6|0,1:0|3:0,0:0:0:0:
238,164,88852,1,0,1:0:0:0:
159,103,89002,2,0,B|115:123|103:184,1,81.0000030899049,6|0,1:0|3:0,0:0:0:0:
62,239,89302,1,0,1:0:0:0:
64,329,89452,5,2,1:0:0:0:
138,278,89602,1,2,1:0:0:0:
219,261,89752,1,2,1:0:0:0:
321,280,89902,6,0,B|261:202|302:113,1,162.00000617981,6|0,1:0|1:0,0:0:0:0:
367,75,90352,1,2,1:0:0:0:
169,28,90652,1,0,1:0:0:0:
169,28,90802,2,0,B|191:111|114:182,1,162.00000617981,6|0,1:0|1:0,0:0:0:0:
37,188,91252,1,2,1:0:0:0:
28,339,91552,1,0,1:0:0:0:
104,290,91702,6,0,B|153:275|194:282,1,81.0000030899049,6|0,1:0|0:0,0:0:0:0:
257,340,92002,1,0,1:0:0:0:
306,220,92152,2,0,B|361:225|400:210,1,81.0000030899049,6|0,1:0|0:0,0:0:0:0:
466,262,92452,1,0,1:0:0:0:
432,103,92602,2,0,B|478:117|533:109,2,81.0000030899049,6|0|0,1:0|0:0|1:0,0:0:0:0:
363,42,93052,1,2,1:0:0:0:
305,101,93202,1,0,1:0:0:0:
243,154,93352,1,0,1:0:0:0:
137,108,93502,6,0,B|109:64|128:16,2,81.0000030899049,6|0|0,1:0|0:0|1:0,0:0:0:0:
74,170,93952,1,2,1:0:0:0:
292,253,94252,1,0,1:0:0:0:
375,276,94402,6,0,B|403:320|384:368,2,81.0000030899049,6|0|0,1:0|0:0|1:0,0:0:0:0:
438,214,94852,1,2,1:0:0:0:
256,192,95152,1,0,1:0:0:0:
256,192,95302,1,4,1:0:0:0:
256,192,96502,1,0,1:0:0:0:
256,192,96652,5,4,1:3:0:0:
336,193,96802,1,4,1:3:0:0:
416,194,96952,1,4,1:3:0:0:
504,224,97102,6,0,B|493:180|504:128,2,81,4|2|0,1:0|1:0|1:0,0:0:0:0:
325,306,97702,2,0,L|224:292,1,81,0|0,1:0|0:0,0:0:0:0:
102,159,98002,2,0,B|140:186|143:251,1,81,0|0,1:0|1:0,0:0:0:0:
128,253,98227,1,0,1:0:0:0:
105,286,98302,6,0,B|8:254|24:154,1,162,0|0,1:0|1:0,0:0:0:0:
154,78,98752,6,0,B|251:110|235:210,1,162,0|0,1:0|1:0,0:0:0:0:
335,243,99202,1,0,1:0:0:0:
448,199,99352,1,0,1:0:0:0:
448,199,99427,1,0,0:0:0:0:
448,199,99502,1,4,1:0:0:0:
284,374,99952,5,0,1:0:0:0:
284,374,100027,1,0,1:0:0:0:
284,374,100102,1,4,1:0:0:0:
73,294,100552,5,0,1:0:0:0:
73,294,100627,1,0,1:0:0:0:
73,294,100702,1,4,1:0:0:0:
190,100,101152,5,0,1:0:0:0:
190,100,101227,1,0,1:0:0:0:
190,100,101302,1,4,1:0:0:0:
293,237,101752,5,0,1:0:0:0:
293,237,101827,1,0,1:0:0:0:
293,237,101902,2,0,B|345:204|430:211,1,121.5,4|0,1:0|0:0,0:0:0:0:
409,209,102202,2,0,L|431:106,1,81,0|0,1:0|1:0,0:0:0:0:
351,60,102427,1,0,1:0:0:0:
351,60,102502,2,0,B|306:72|246:54,1,81,0|2,1:0|0:0,0:0:0:0:
188,101,102727,1,0,0:0:0:0:
188,101,102802,2,0,B|138:64|149:11,1,81,0|0,1:0|1:0,0:0:0:0:
26,164,103102,5,4,1:2:0:0:
144,205,103252,1,2,0:0:0:0:
151,223,103327,1,0,0:0:0:0:
159,241,103402,1,0,1:0:0:0:
261,284,103552,1,0,1:0:0:0:
268,302,103627,1,0,1:0:0:0:
276,320,103702,1,0,1:0:0:0:
372,254,103852,2,0,B|395:262|438:256,2,40.5,2|0|0,0:0|0:0|1:0,0:0:0:0:
285,185,104152,2,0,B|254:142|273:97,1,81,0|4,1:0|1:0,0:0:0:0:
412,101,104452,5,2,0:0:0:0:
405,132,104602,1,0,1:0:0:0:
399,163,104752,1,2,0:0:0:0:
271,277,104902,5,2,1:2:0:0:
252,268,104977,1,2,0:2:0:0:
233,259,105052,1,2,0:2:0:0:
214,251,105127,1,2,0:2:0:0:
195,243,105202,2,0,B|164:252|129:249,19,40.5,2|2|2|2|6|2|2|2|2|2|2|2|2|2|2|2|2|2|2|2,1:2|0:2|1:2|1:2|1:2|0:2|0:2|0:2|0:2|0:2|0:2|0:2|0:2|0:2|0:2|0:2|0:2|0:2|0:2|0:2,0:0:0:0:
256,192,106702,12,6,107902,1:2:0:0:
