osu file format v14

[General]
AudioFilename: audio.mp3
AudioLeadIn: 0
PreviewTime: 95014
Countdown: 0
SampleSet: Soft
StackLeniency: 0.7
Mode: 0
LetterboxInBreaks: 0
WidescreenStoryboard: 0

[Editor]
Bookmarks: 51502
DistanceSpacing: 0.6
BeatDivisor: 8
GridSize: 8
TimelineZoom: 5.800002

[Metadata]
Title:Rotter Tarmination
TitleUnicode:Rotter Tarmination
Artist:Sampling Masters MEGA
ArtistUnicode:Sampling Masters MEGA
Creator:Luscent
Version:Another
Source:太鼓の達人
Tags:allein app gibune beomsan taiko no tatsujin hosoe shinji 細江 慎治 instrumental rhythm video game electronic Rotterdam Nation
BeatmapID:4404756
BeatmapSetID:2099784

[Difficulty]
HPDrainRate:7
CircleSize:5
OverallDifficulty:9
ApproachRate:9
SliderMultiplier:1.92
SliderTickRate:1

[Events]
//Background and Video events
0,0,"bg.jpg",0,0
//Break Periods
//Storyboard Layer 0 (Background)
//Storyboard Layer 1 (Fail)
//Storyboard Layer 2 (Pass)
//Storyboard Layer 3 (Foreground)
//Storyboard Layer 4 (Overlay)
//Storyboard Sound Samples

[TimingPoints]
1102,300,4,2,1,70,1,0
13102,300,4,1,1,80,1,0
22702,-76.9230769230769,4,1,1,90,0,1
25102,-100,4,1,1,90,0,1
27502,-76.9230769230769,4,1,1,90,0,1
29902,-100,4,1,1,90,0,1
32302,-100,4,1,1,80,0,0
41902,-76.9230769230769,4,1,1,90,0,1
44302,-100,4,1,1,90,0,1
46702,-76.9230769230769,4,1,1,90,0,1
49102,-100,4,1,1,90,0,1
51502,-66.6666666666667,4,2,1,80,0,0
55102,-50,4,2,1,80,0,1
55139,-50,4,2,1,5,0,1
55402,-50,4,2,1,80,0,1
55439,-50,4,2,1,5,0,1
55702,-50,4,2,1,80,0,1
55739,-50,4,2,1,5,0,1
56002,-50,4,2,1,80,0,1
56039,-50,4,2,1,5,0,1
56302,-66.6666666666667,4,2,1,80,0,0
61102,-100,4,2,1,80,0,1
69502,-100,4,2,1,80,0,0
70702,-76.9230769230769,4,2,1,80,0,1
80302,-100,4,3,1,70,0,0
81502,-76.9230769230769,4,2,1,70,0,0
82702,450.000001125,4,2,1,80,1,0
95302,300,4,2,1,80,1,1
97102,300,4,2,1,80,1,0
98302,-76.9230769230769,4,2,1,80,0,0
99502,-76.9230769230769,4,2,1,60,0,0
101902,-76.9230769230769,4,2,1,70,0,0
105577,-76.9230769230769,4,2,1,50,0,0
106702,-66.6666666666667,4,2,1,60,0,0
107302,-28.5714285714286,4,2,1,70,0,0
107602,-28.5714285714286,4,2,1,80,0,0
107752,-28.5714285714286,4,2,1,90,0,0
107902,-28.5714285714286,4,2,99,80,0,1
110302,-28.5714285714286,4,2,1,80,0,0

[Colours]
Combo1 : 242,24,57
Combo2 : 164,38,38
Combo3 : 251,130,125

[HitObjects]
112,240,502,5,0,0:0:0:0:
200,176,652,1,0,0:0:0:0:
312,176,802,1,0,0:0:0:0:
400,240,952,1,0,0:0:0:0:
491,154,1102,6,0,B|422:117|447:31,1,144,4|0,1:0|1:0,0:0:0:0:
447,30,1402,1,0,0:0:0:0:
303,86,1552,1,0,1:0:0:0:
157,41,1702,1,0,0:0:0:0:
12,206,1852,1,0,1:0:0:0:
12,206,1927,1,0,3:0:0:0:
12,206,2002,2,0,B|64:220|126:203,1,96,0|0,1:0|0:0,0:0:0:0:
215,286,2302,6,0,B|247:248|311:255,1,96,0|0,1:0|0:0,0:0:0:0:
301,254,2527,2,0,B|366:183|324:112,1,144,0|0,1:0|1:0,0:0:0:0:
457,24,2902,1,0,1:0:0:0:
443,57,2977,1,0,1:0:0:0:
440,93,3052,1,0,1:0:0:0:
451,127,3127,1,0,1:0:0:0:
471,156,3202,1,0,1:0:0:0:
491,186,3277,1,0,1:0:0:0:
500,221,3352,1,0,1:0:0:0:
500,257,3427,1,0,1:0:0:0:
489,291,3502,6,0,B|402:272|353:340,1,144,4|0,1:0|1:0,0:0:0:0:
359,331,3802,1,0,1:0:0:0:
248,252,3952,1,0,1:0:0:0:
104,280,4102,2,0,B|72:235|83:178,1,96,0|0,1:0|0:0,0:0:0:0:
81,189,4327,1,0,1:0:0:0:
81,189,4402,1,0,1:0:0:0:
0,71,4552,1,0,3:0:0:0:
37,78,4627,1,0,3:0:0:0:
74,72,4702,1,0,1:0:0:0:
223,146,4852,6,0,B|203:97|224:43,1,96,0|0,1:0|0:0,0:0:0:0:
423,47,5152,2,0,B|443:96|422:150,1,96,0|0,1:0|1:0,0:0:0:0:
184,309,5452,1,0,1:0:0:0:
325,232,5602,1,0,1:0:0:0:
471,310,5752,1,0,0:0:0:0:
121,190,5902,6,0,B|59:124|92:43,2,144,4|0|0,1:0|1:0|1:2,0:0:0:0:
49,331,6502,2,0,B|125:301|191:364,1,144,0|0,1:0|1:0,0:0:0:0:
182,356,6802,2,0,B|232:325|230:272,1,96,0|0,1:0|1:0,0:0:0:0:
250,92,7102,1,0,1:0:0:0:
318,206,7252,1,0,1:0:0:0:
348,229,7327,1,0,3:0:0:0:
384,239,7402,1,0,3:0:0:0:
507,191,7552,1,0,1:0:0:0:
461,40,7702,5,0,1:0:0:0:
396,149,7852,1,0,1:0:0:0:
263,116,8002,1,0,1:0:0:0:
197,209,8152,1,0,0:0:0:0:
41,171,8302,6,0,B|91:229|70:310,1,144,4|0,1:0|1:0,0:0:0:0:
71,305,8602,2,0,B|119:276|167:286,1,96,0|0,0:0|1:0,0:0:0:0:
268,330,8902,1,0,1:0:0:0:
364,230,9052,1,0,0:0:0:0:
364,230,9127,1,0,1:0:0:0:
364,230,9202,1,0,1:0:0:0:
263,122,9352,1,0,1:0:0:0:
91,177,9502,5,4,3:1:0:0:
256,256,9652,1,0,1:0:0:0:
417,171,9802,1,0,1:0:0:0:
91,113,9952,5,4,3:1:0:0:
256,192,10102,1,0,1:0:0:0:
417,107,10252,1,0,1:0:0:0:
411,69,10327,1,0,1:0:0:0:
405,31,10402,1,4,1:0:0:0:
256,256,10552,1,0,1:0:0:0:
254,296,10627,1,0,1:0:0:0:
252,337,10702,1,4,1:0:0:0:
256,192,10777,12,0,12802,0:0:0:0:
175,59,13102,5,6,1:0:0:0:
219,188,13252,1,0,0:0:0:0:
122,310,13402,1,2,1:0:0:0:
78,181,13552,1,0,0:0:0:0:
62,148,13627,1,0,0:0:0:0:
46,115,13702,1,2,1:0:0:0:
8,346,13852,5,0,0:0:0:0:
195,263,14002,2,0,B|243:280|304:267,1,96,0|2,1:0|1:0,0:0:0:0:
324,287,14227,1,0,1:0:0:0:
357,305,14302,1,0,1:0:0:0:
501,243,14452,1,2,1:0:0:0:
370,63,14602,2,0,B|313:114|345:195,1,144,0|0,1:0|2:0,0:0:0:0:
406,228,14902,1,2,1:0:0:0:
52,287,15052,5,0,1:0:0:0:
195,263,15202,1,0,1:0:0:0:
299,372,15352,1,0,0:0:0:0:
63,138,15502,6,0,B|109:204|204:172,1,144,2|0,1:0|2:0,0:0:0:0:
265,213,15802,1,0,1:0:0:0:
470,276,15952,1,0,0:0:0:0:
393,8,16102,6,0,B|328:62|362:146,1,144,2|0,1:0|2:0,0:0:0:0:
425,175,16402,1,0,1:0:0:0:
248,283,16552,1,2,1:0:0:0:
203,263,16627,1,0,1:0:0:0:
172,250,16702,1,4,1:0:0:0:
12,315,16852,5,0,0:0:0:0:
172,250,17002,1,4,1:3:0:0:
332,185,17152,5,4,1:0:0:0:
172,250,17302,1,0,0:0:0:0:
12,315,17452,5,4,1:3:0:0:
172,250,17602,1,4,1:0:0:0:
332,185,17752,5,0,0:2:0:0:
172,250,17902,1,4,1:0:0:0:
87,167,18052,6,0,B|109:115|72:68,1,96,0|2,0:0|1:0,0:0:0:0:
70,351,18352,2,0,B|110:316|163:321,1,96,0|2,0:0|1:0,0:0:0:0:
312,371,18652,1,0,0:0:0:0:
428,260,18802,1,0,1:0:0:0:
264,151,18952,5,2,1:0:0:0:
254,188,19027,1,0,1:0:0:0:
245,225,19102,1,0,1:0:0:0:
94,190,19252,2,0,B|62:146|85:93,1,96,2|0,0:0|1:0,0:0:0:0:
230,322,19552,2,2,B|282:264|367:291,1,144,2|0,1:0|2:0,0:0:0:0:
428,260,19852,1,0,1:0:0:0:
418,68,20002,1,2,1:0:0:0:
277,199,20152,5,0,1:0:0:0:
250,178,20227,1,0,1:0:0:0:
223,157,20302,2,0,B|171:179|125:167,1,96,2|0,1:0|0:0,0:0:0:0:
16,109,20602,1,0,1:0:0:0:
39,250,20752,1,0,0:0:0:0:
180,375,20902,2,0,B|148:322|167:269,1,96,2|0,1:0|0:0,0:0:0:0:
312,304,21202,1,0,1:0:0:0:
403,166,21352,5,0,1:0:0:0:
418,130,21427,1,0,1:0:0:0:
433,94,21502,1,4,1:0:0:0:
440,231,21652,1,0,0:2:0:0:
512,343,21802,1,4,1:3:0:0:
440,231,21952,5,4,1:0:0:0:
433,94,22102,1,0,0:2:0:0:
440,231,22252,5,4,1:3:0:0:
512,343,22402,1,4,1:0:0:0:
334,260,22552,5,0,1:0:0:0:
305,234,22627,1,0,1:0:0:0:
276,208,22702,2,0,B|229:152|271:84,1,124.79999428711,4|2,1:0|1:0,0:0:0:0:
135,239,23002,2,0,B|69:202|63:141,1,124.79999428711,0|6,1:0|1:0,0:0:0:0:
118,361,23302,2,0,B|60:407|-3:383,1,124.79999428711,0|2,1:0|1:0,0:0:0:0:
256,384,23602,1,6,1:0:0:0:
399,206,23752,1,0,0:0:0:0:
229,35,23902,6,0,B|220:101|281:141,1,124.79999428711,6|0,0:0|0:0,0:0:0:0:
50,188,24202,2,0,B|115:178|184:228,1,124.79999428711,2|4,0:0|0:0,0:0:0:0:
145,372,24502,2,0,B|174:310|249:311,1,124.79999428711,0|2,0:0|0:0,0:0:0:0:
377,328,24802,1,4,0:0:0:0:
455,213,24952,1,2,0:0:0:0:
267,21,25102,5,0,0:3:0:0:
233,133,25252,1,4,0:3:0:0:
320,220,25402,2,0,B|355:175|340:128,1,96,6|0,0:0|0:0,0:0:0:0:
267,21,25702,5,0,0:0:0:0:
320,220,25852,1,4,0:3:0:0:
193,351,26002,2,0,B|150:313|164:255,1,96,6|0,0:0|0:0,0:0:0:0:
135,240,26227,1,0,0:0:0:0:
98,249,26302,5,4,0:0:0:0:
69,223,26377,1,0,0:0:0:0:
70,184,26452,1,2,0:0:0:0:
103,164,26527,1,0,0:0:0:0:
142,174,26602,5,4,0:0:0:0:
175,154,26677,1,0,0:0:0:0:
176,115,26752,1,2,0:0:0:0:
147,89,26827,1,0,0:0:0:0:
136,52,26902,5,4,0:0:0:0:
152,17,26977,1,0,0:0:0:0:
188,4,27052,1,2,0:0:0:0:
224,14,27127,1,0,0:0:0:0:
242,47,27202,5,4,0:0:0:0:
273,69,27277,1,0,0:0:0:0:
311,69,27352,1,2,0:0:0:0:
342,46,27427,1,0,0:0:0:0:
350,8,27502,5,4,0:0:0:0:
463,170,27652,2,0,B|437:102|490:56,1,124.79999428711,2|0,0:0|0:2,0:0:0:0:
316,322,27952,2,0,B|356:266|441:273,1,124.79999428711,4|2,0:0|0:0,0:0:0:0:
112,305,28252,2,0,B|185:305|221:376,1,124.79999428711,0|4,0:0|0:0,0:0:0:0:
263,189,28552,1,2,0:0:0:0:
114,32,28702,6,0,B|82:98|127:156,1,124.79999428711,6|0,0:0|0:0,0:0:0:0:
112,305,29002,2,0,B|185:305|221:376,1,124.79999428711,2|4,0:0|0:0,0:0:0:0:
316,302,29302,1,0,0:0:0:0:
376,173,29452,1,2,0:0:0:0:
481,263,29602,1,4,0:0:0:0:
511,120,29752,1,2,0:0:0:0:
259,196,29902,5,4,0:3:0:0:
145,139,30052,1,4,0:3:0:0:
22,154,30202,2,0,B|-13:109|2:51,1,96,6|0,0:0|0:0,0:0:0:0:
264,303,30502,5,4,0:3:0:0:
369,238,30652,1,4,0:3:0:0:
481,263,30802,2,0,B|516:218|501:160,1,96,6|0,0:0|0:0,0:0:0:0:
226,20,31102,5,4,0:0:0:0:
257,39,31177,1,0,0:0:0:0:
288,59,31252,1,0,0:0:0:0:
258,87,31327,1,0,0:0:0:0:
228,115,31402,1,6,0:0:0:0:
259,134,31477,1,0,0:0:0:0:
290,154,31552,1,0,0:0:0:0:
261,182,31627,1,0,0:0:0:0:
232,210,31702,5,4,0:0:0:0:
266,220,31777,1,0,0:0:0:0:
237,248,31852,1,0,0:0:0:0:
271,267,31927,1,0,0:0:0:0:
242,295,32002,1,6,0:0:0:0:
276,305,32077,1,0,0:0:0:0:
247,333,32152,1,0,0:0:0:0:
282,343,32227,1,0,0:0:0:0:
251,367,32302,6,0,B|206:348|154:360,1,96,4|0,0:0|0:0,0:0:0:0:
39,301,32602,2,0,B|5:262|21:200,1,96,2|0,0:0|0:0,0:0:0:0:
126,122,32902,1,2,0:0:0:0:
251,221,33052,1,0,0:0:0:0:
405,153,33202,1,0,0:0:0:0:
382,361,33352,5,2,0:0:0:0:
370,324,33427,1,0,0:0:0:0:
358,287,33502,1,0,0:0:0:0:
508,151,33652,1,2,0:0:0:0:
483,300,33802,1,0,0:0:0:0:
288,233,33952,2,0,B|224:283|143:251,1,144,2|0,0:0|0:0,0:0:0:0:
91,292,34252,1,0,0:0:0:0:
0,163,34402,1,2,0:0:0:0:
150,47,34552,5,0,0:0:0:0:
188,41,34627,1,0,0:0:0:0:
226,36,34702,2,0,B|285:87|250:182,1,144,2|0,0:0|2:0,0:0:0:0:
186,192,35002,1,0,0:0:0:0:
367,347,35152,1,2,0:0:0:0:
1,309,35302,6,0,B|54:256|138:277,1,144,2|0,0:0|2:0,0:0:0:0:
202,306,35602,1,0,0:0:0:0:
391,193,35752,1,2,0:0:0:0:
385,154,35827,1,0,0:0:0:0:
379,115,35902,1,4,0:0:0:0:
310,250,36052,5,0,0:0:0:0:
239,379,36202,1,4,0:3:0:0:
310,250,36352,5,4,0:0:0:0:
379,115,36502,1,0,0:0:0:0:
310,250,36652,5,4,0:3:0:0:
239,379,36802,1,4,0:0:0:0:
70,268,36952,5,0,0:0:0:0:
44,239,37027,1,0,0:0:0:0:
18,210,37102,2,0,B|105:230|156:184,1,144,6|0,0:0|2:0,0:0:0:0:
190,124,37402,1,2,1:0:0:0:
387,273,37552,1,0,0:0:0:0:
356,37,37702,6,0,B|272:75|304:164,1,144,2|0,0:0|2:0,0:0:0:0:
250,210,38002,1,0,1:0:0:0:
467,359,38152,1,2,0:0:0:0:
478,322,38227,1,0,0:0:0:0:
489,285,38302,1,0,0:0:0:0:
320,340,38452,1,2,0:0:0:0:
167,282,38602,1,0,0:0:0:0:
28,314,38752,2,0,B|-25:247|5:173,1,144,2|0,0:0|2:0,0:0:0:0:
54,128,39052,1,2,0:0:0:0:
316,205,39202,1,0,0:0:0:0:
219,15,39352,5,0,0:0:0:0:
182,26,39427,1,0,0:0:0:0:
145,37,39502,2,0,B|101:109|164:175,1,144,2|0,0:0|2:0,0:0:0:0:
97,213,39802,1,0,0:0:0:0:
270,352,39952,1,0,0:0:0:0:
494,189,40102,6,0,B|432:247|358:224,1,144,2|0,0:0|2:0,0:0:0:0:
303,179,40402,1,0,0:0:0:0:
139,308,40552,1,2,0:0:0:0:
118,340,40627,1,0,0:0:0:0:
97,372,40702,1,4,0:0:0:0:
133,234,40852,5,0,0:0:0:0:
57,126,41002,1,4,0:3:0:0:
133,234,41152,5,4,0:0:0:0:
97,372,41302,1,0,0:0:0:0:
133,234,41452,5,4,0:3:0:0:
57,126,41602,1,4,0:0:0:0:
272,286,41752,5,0,0:0:0:0:
308,274,41827,1,0,0:0:0:0:
349,263,41902,2,0,B|335:188|391:148,1,124.79999428711,4|2,0:0|0:0,0:0:0:0:
218,151,42202,2,0,B|163:98|193:31,1,124.79999428711,0|6,0:0|0:0,0:0:0:0:
107,257,42502,2,0,B|32:266|-4:201,1,124.79999428711,0|2,0:0|0:0,0:0:0:0:
255,367,42802,1,6,0:0:0:0:
433,250,42952,1,0,0:0:0:0:
349,31,43102,6,0,B|296:83|321:152,1,124.79999428711,6|0,0:0|0:0,0:0:0:0:
109,82,43402,2,0,B|108:146|176:189,1,124.79999428711,2|4,0:0|0:0,0:0:0:0:
27,315,43702,2,0,B|87:341|148:310,1,124.79999428711,0|2,0:0|0:0,0:0:0:0:
315,345,44002,1,4,0:0:0:0:
401,183,44152,1,2,0:0:0:0:
214,30,44302,5,0,0:3:0:0:
248,142,44452,1,4,0:3:0:0:
161,229,44602,2,0,B|126:184|141:137,1,96,6|0,0:0|0:0,0:0:0:0:
214,30,44902,5,0,0:0:0:0:
161,229,45052,1,4,0:3:0:0:
288,360,45202,2,0,B|331:322|317:264,1,96,6|0,0:0|0:0,0:0:0:0:
346,249,45427,1,0,0:0:0:0:
383,258,45502,5,4,0:0:0:0:
412,232,45577,1,0,0:0:0:0:
411,193,45652,1,2,0:0:0:0:
378,173,45727,1,0,0:0:0:0:
339,183,45802,5,4,0:0:0:0:
306,163,45877,1,0,0:0:0:0:
305,124,45952,1,2,0:0:0:0:
334,98,46027,1,0,0:0:0:0:
345,61,46102,5,4,0:0:0:0:
329,26,46177,1,0,0:0:0:0:
293,13,46252,1,2,0:0:0:0:
257,23,46327,1,0,0:0:0:0:
239,56,46402,5,6,0:0:0:0:
208,78,46477,1,0,0:0:0:0:
170,78,46552,1,2,0:0:0:0:
139,55,46627,1,0,0:0:0:0:
131,17,46702,5,4,0:0:0:0:
34,273,46852,2,0,B|97:240|82:169,1,124.79999428711,2|0,0:0|0:0,0:0:0:0:
4,121,47152,1,6,0:0:0:0:
243,354,47302,2,0,B|308:325|304:250,1,124.79999428711,0|2,0:0|0:0,0:0:0:0:
226,187,47602,1,6,0:0:0:0:
428,362,47752,1,0,0:0:0:0:
492,47,47902,6,0,B|426:23|365:98|406:163,1,187.199991430664,6|0,0:0|2:0,0:0:0:0:
311,186,48202,2,0,B|231:157|258:79,1,124.79999428711,2|4,0:0|0:0,0:0:0:0:
134,288,48502,1,0,0:0:0:0:
402,262,48652,1,2,0:0:0:0:
134,288,48802,1,4,0:0:0:0:
402,262,48952,1,2,0:0:0:0:
247,179,49102,5,4,0:3:0:0:
140,124,49252,1,4,0:3:0:0:
26,150,49402,2,0,B|-9:105|6:47,1,96,6|0,0:0|0:0,0:0:0:0:
226,361,49702,5,4,0:3:0:0:
332,300,49852,1,4,0:3:0:0:
447,332,50002,2,0,B|482:287|467:229,1,96,6|0,0:0|0:0,0:0:0:0:
458,206,50227,1,0,0:0:0:0:
438,171,50302,1,6,0:0:0:0:
256,192,50377,12,0,51202,0:0:0:0:
206,99,51502,5,6,1:0:0:0:
46,254,51652,2,0,B|83:266|122:252,1,72.0000027465821
279,362,51802,1,2,1:0:0:0:
116,253,51952,2,0,B|153:241|192:251,1,72.0000027465821,2|0,1:0|0:0,0:0:0:0:
187,249,52102,2,0,B|224:261|263:247,1,72.0000027465821,0|0,1:0|0:0,0:0:0:0:
480,255,52252,1,2,1:0:0:0:
257,248,52402,2,0,B|294:236|333:246,1,72.0000027465821,0|0,1:0|0:0,0:0:0:0:
399,241,52552,2,0,B|362:253|323:243,1,72.0000027465821,0|0,1:0|0:0,0:0:0:0:
422,54,52702,5,2,1:0:0:0:
257,79,52852,2,0,B|244:38|257:0,1,72.0000027465821,0|0,1:0|0:0,0:0:0:0:
257,79,53002,2,0,B|270:120|257:158,1,72.0000027465821,2|0,1:0|0:0,0:0:0:0:
105,103,53152,1,0,0:0:0:0:
0,260,53302,6,0,B|37:272|76:258,1,72.0000027465821,0|0,1:0|0:0,0:0:0:0:
218,332,53452,2,0,B|181:320|142:334,1,72.0000027465821,2|0,1:0|0:0,0:0:0:0:
305,259,53602,2,0,B|342:271|381:257,1,72.0000027465821,2|0,1:0|0:0,0:0:0:0:
485,303,53752,1,0,1:0:0:0:
494,260,53827,1,0,1:0:0:0:
503,217,53902,6,0,B|488:174|504:131,1,72.0000027465821,2|0,1:0|0:0,0:0:0:0:
409,23,54052,1,0,0:0:0:0:
495,75,54202,2,0,B|510:118|494:161,1,72.0000027465821,2|0,1:0|0:0,0:0:0:0:
306,126,54352,2,0,B|349:111|392:127,1,72.0000027465821,2|0,1:0|0:0,0:0:0:0:
220,204,54502,2,0,B|177:219|134:203,1,72.0000027465821,2|0,1:0|0:0,0:0:0:0:
47,154,54652,1,0,1:0:0:0:
0,303,54802,2,0,B|43:288|86:304,1,72.0000027465821,2|0,1:0|0:0,0:0:0:0:
329,295,54952,1,0,1:0:0:0:
340,253,55027,1,0,1:0:0:0:
336,209,55102,6,0,B|320:116|226:150|211:217|265:257|304:226,1,192,4|0,1:3|0:0,0:0:0:0:
336,209,55402,6,0,B|320:116|226:150|211:217|265:257|304:226,1,192,4|0,1:3|0:0,0:0:0:0:
336,209,55702,6,0,B|320:116|226:150|211:217|265:257|304:226,1,192,4|0,1:3|0:0,0:0:0:0:
336,209,56002,6,0,B|320:116|226:150|211:217|265:257|304:226,1,192,4|0,1:3|0:0,0:0:0:0:
0,219,56302,5,6,1:0:0:0:
155,380,56452,2,0,B|167:343|153:304,1,72.0000027465821
263,147,56602,1,2,1:0:0:0:
154,310,56752,2,0,B|142:273|152:234,1,72.0000027465821,2|0,1:0|0:0,0:0:0:0:
150,239,56902,2,0,B|162:202|148:163,1,72.0000027465821,0|0,1:0|0:0,0:0:0:0:
149,168,57052,2,0,B|137:131|147:92,1,72.0000027465821,2|0,1:0|0:0,0:0:0:0:
142,25,57202,2,0,B|154:62|144:101,1,72.0000027465821,0|0,1:0|0:0,0:0:0:0:
259,222,57352,5,0,1:0:0:0:
294,247,57427,1,0,1:0:0:0:
328,272,57502,2,0,B|370:262|409:272,1,72.0000027465821,2|0,1:0|0:0,0:0:0:0:
512,169,57652,2,0,B|470:179|431:169,1,72.0000027465821,2|0,1:0|0:0,0:0:0:0:
318,70,57802,1,2,1:0:0:0:
453,335,57952,1,0,0:0:0:0:
368,127,58102,6,0,B|355:168|369:207,1,72.0000027465821,2|0,1:0|0:0,0:0:0:0:
172,329,58252,2,0,B|185:288|171:249,1,72.0000027465821,0|0,1:0|0:0,0:0:0:0:
10,207,58402,1,2,1:0:0:0:
132,42,58552,1,0,1:0:0:0:
174,37,58627,1,0,1:0:0:0:
217,33,58702,5,2,1:0:0:0:
297,184,58852,2,0,B|260:198|214:185,1,72.0000027465821,0|0,1:0|0:0,0:0:0:0:
237,334,59002,1,2,1:0:0:0:
156,192,59152,2,0,B|193:178|239:191,1,72.0000027465821,2|0,1:0|0:0,0:0:0:0:
411,225,59302,1,0,1:0:0:0:
512,51,59452,2,0,B|475:65|429:52,1,72.0000027465821,2|0,1:0|0:0,0:0:0:0:
303,3,59602,1,0,1:0:0:0:
411,225,59752,1,0,1:0:0:0:
423,250,59827,1,0,1:0:0:0:
435,275,59902,1,6,1:0:0:0:
256,192,59977,12,0,60802,0:0:0:0:
159,77,61102,5,4,1:0:0:0:
212,213,61252,1,2,1:0:0:0:
84,299,61402,1,8,1:0:0:0:
212,213,61552,1,0,0:0:0:0:
367,242,61702,2,0,B|338:197|356:140,1,96,0|0,1:0|0:0,0:0:0:0:
457,92,62002,1,0,1:0:0:0:
494,271,62152,5,8,1:0:0:0:
484,308,62227,1,8,1:0:0:0:
475,345,62302,1,8,1:0:0:0:
332,283,62452,1,0,0:0:0:0:
186,323,62602,1,8,1:0:0:0:
48,268,62752,2,0,B|-11:206|20:125,1,144,0|0,1:0|0:0,0:0:0:0:
73,82,63052,1,8,1:0:0:0:
181,177,63202,1,0,1:0:0:0:
389,93,63352,5,0,1:0:0:0:
371,58,63427,1,0,1:0:0:0:
354,23,63502,1,4,1:0:0:0:
267,139,63652,1,0,1:0:0:0:
405,208,63802,1,8,1:0:0:0:
503,92,63952,1,0,0:0:0:0:
432,312,64102,5,0,1:0:0:0:
290,261,64252,2,0,B|244:289|190:280,1,96,8|0,1:0|1:0,0:0:0:0:
104,112,64552,1,8,1:0:0:0:
75,86,64627,1,8,1:0:0:0:
46,60,64702,2,0,B|7:131|43:205,1,144,8|0,1:0|0:0,0:0:0:0:
0,262,65002,1,8,1:0:0:0:
245,169,65152,2,0,B|313:207|394:179,1,144,0|0,1:0|0:0,0:0:0:0:
453,220,65452,1,8,1:0:0:0:
511,64,65602,1,0,1:0:0:0:
318,7,65752,5,8,1:0:0:0:
308,44,65827,1,8,1:0:0:0:
298,81,65902,1,4,1:0:0:0:
149,140,66052,1,0,1:0:0:0:
1,84,66202,1,8,1:1:0:0:
64,258,66352,1,0,0:0:0:0:
217,228,66502,6,0,B|262:242|312:229,1,96,0|8,1:0|0:1,0:0:0:0:
417,300,66802,1,0,1:0:0:0:
509,99,66952,1,8,1:0:0:0:
473,83,67027,1,8,1:0:0:0:
437,67,67102,2,0,B|351:102|373:185,1,144,8|0,1:0|0:0,0:0:0:0:
433,221,67402,1,8,1:0:0:0:
128,302,67552,2,0,B|50:266|72:183,1,144,0|0,1:0|0:0,0:0:0:0:
132,147,67852,1,8,1:0:0:0:
328,246,68002,1,0,1:0:0:0:
221,362,68152,5,0,1:0:0:0:
214,324,68227,1,0,1:0:0:0:
208,286,68302,1,4,1:0:0:0:
388,316,68452,1,8,1:0:0:0:
503,183,68602,1,0,1:0:0:0:
388,316,68752,1,0,0:0:0:0:
132,147,68902,5,0,1:0:0:0:
322,195,69052,1,8,0:1:0:0:
459,7,69202,5,0,1:0:0:0:
292,71,69352,1,8,1:0:0:0:
292,71,69427,1,8,1:0:0:0:
292,71,69502,1,4,1:0:0:0:
292,71,70402,5,0,1:0:0:0:
310,109,70477,1,0,1:0:0:0:
314,152,70552,1,0,1:0:0:0:
311,195,70627,1,0,1:0:0:0:
292,233,70702,1,4,1:0:0:0:
151,302,70852,1,0,0:0:0:0:
9,193,71002,2,0,B|42:201|81:191,1,62.3999971435548,10|0,1:0|0:0,0:0:0:0:
124,123,71152,1,0,0:0:0:0:
19,315,71302,5,0,1:0:0:0:
207,237,71452,1,8,0:1:0:0:
349,333,71602,2,0,B|340:301|346:269,1,62.3999971435548,2|0,1:0|0:0,0:0:0:0:
478,226,71752,1,8,1:0:0:0:
477,187,71827,1,8,1:0:0:0:
478,144,71902,6,0,B|403:222|299:173,1,187.199991430664,8|0,1:0|0:0,0:0:0:0:
207,237,72202,2,0,B|230:204|229:155,1,62.3999971435548,10|0,1:0|0:0,0:0:0:0:
59,16,72352,2,0,B|-30:96|38:186,1,187.199991430664,0|0,1:0|0:0,0:0:0:0:
115,187,72652,1,10,1:0:0:0:
212,356,72802,1,10,1:0:0:0:
115,187,72952,1,0,0:0:0:0:
0,303,73102,6,0,B|64:348|120:324,1,124.79999428711,4|0,1:0|0:0,0:0:0:0:
268,227,73402,2,0,B|257:184|269:140,1,62.3999971435548,10|0,1:0|0:0,0:0:0:0:
346,364,73552,1,0,1:0:0:0:
164,251,73702,5,0,1:0:0:0:
372,150,73852,1,8,0:1:0:0:
236,59,74002,1,2,1:0:0:0:
348,262,74152,5,8,1:0:0:0:
371,241,74227,1,8,1:0:0:0:
394,220,74302,2,0,B|473:199|513:238,1,124.79999428711,8|0,1:0|0:0,0:0:0:0:
281,189,74527,1,0,1:0:0:0:
257,211,74602,2,2,B|224:224|171:211,1,62.3999971435548,10|0,1:0|0:0,1:0:0:0:
91,250,74752,2,0,B|-10:183|53:85,1,187.199991430664,8|0,1:0|0:0,0:0:0:0:
142,18,75052,2,0,L|165:83,1,62.3999971435548,10|0,1:0|0:0,0:0:0:0:
272,63,75202,2,0,L|295:128,1,62.3999971435548,10|0,1:0|0:0,0:0:0:0:
384,67,75352,5,8,1:0:0:0:
418,51,75427,1,8,1:0:0:0:
452,35,75502,1,12,1:0:0:0:
384,170,75652,1,0,1:0:0:0:
302,284,75802,1,10,1:0:0:0:
384,170,75952,1,0,0:0:0:0:
441,367,76102,5,0,1:0:0:0:
302,284,76252,1,8,0:1:0:0:
141,314,76402,2,0,B|89:263|113:189,1,124.79999428711,2|8,1:0|0:1,0:0:0:0:
51,165,76627,1,8,1:0:0:0:
20,104,76702,6,0,B|97:26|200:85|210:152,1,187.199991430664,8|0,1:0|0:0,0:0:0:0:
241,163,77002,2,0,B|286:144|302:122|304:103,1,62.3999971435548,10|0,1:0|0:0,0:0:0:0:
408,49,77152,2,0,B|329:135|414:215,1,187.199991430664,0|0,1:0|0:0,0:0:0:0:
483,254,77452,1,10,1:0:0:0:
309,364,77602,1,2,1:0:0:0:
136,211,77752,5,8,1:0:0:0:
174,222,77827,1,8,1:0:0:0:
212,234,77902,1,4,1:2:0:0:
284,176,78052,1,0,0:0:0:0:
318,275,78202,1,0,0:0:0:0:
136,211,78352,5,8,1:0:0:0:
174,222,78427,1,8,1:0:0:0:
212,234,78502,1,4,1:2:0:0:
318,275,78652,1,0,0:0:0:0:
370,120,78802,1,0,0:0:0:0:
136,211,78952,5,8,1:0:0:0:
174,222,79027,1,8,1:0:0:0:
212,234,79102,1,4,1:2:0:0:
370,120,79252,1,0,1:0:0:0:
136,211,79402,5,8,1:0:0:0:
174,222,79477,1,8,1:0:0:0:
212,234,79552,1,0,3:2:0:0:
204,194,79627,1,0,3:0:0:0:
196,153,79702,1,8,1:0:0:0:
318,275,79852,1,0,3:0:0:0:
338,149,80002,1,8,1:0:0:0:
328,112,80077,1,8,1:0:0:0:
318,75,80152,1,8,1:0:0:0:
307,38,80227,1,8,1:0:0:0:
326,8,80302,5,4,1:2:0:0:
276,79,80452,1,0,1:0:0:0:
197,92,80602,1,0,1:2:0:0:
200,110,80677,1,0,1:2:0:0:
203,128,80752,1,0,0:2:0:0:
207,146,80827,1,0,0:2:0:0:
211,164,80902,1,0,1:0:0:0:
253,225,81052,1,0,1:0:0:0:
280,295,81202,1,0,1:2:0:0:
277,314,81277,1,0,1:2:0:0:
274,333,81352,1,0,1:2:0:0:
271,352,81427,1,0,1:2:0:0:
246,369,81502,6,0,B|176:344|184:269,1,124.79999428711,4|0,1:2|0:0,0:0:0:0:
342,184,81727,6,0,B|412:209|404:284,1,124.79999428711,4|0,1:2|0:0,0:0:0:0:
80,310,81952,6,0,B|36:253|67:191,1,124.79999428711,4|0,1:2|0:0,0:0:0:0:
137,124,82177,5,4,1:2:0:0:
137,124,82402,5,0,1:0:0:0:
180,131,82477,1,0,1:0:0:0:
223,138,82552,1,0,1:0:0:0:
265,145,82627,1,0,1:0:0:0:
307,152,82702,5,6,1:0:0:0:
427,73,82852,1,0,3:0:0:0:
405,226,83002,1,0,1:0:0:0:
512,334,83152,1,2,1:0:0:0:
512,334,83452,1,0,1:0:0:0:
342,264,83602,5,6,1:0:0:0:
238,373,83752,1,0,3:0:0:0:
121,274,83902,1,0,1:0:0:0:
27,331,84052,1,2,1:0:0:0:
27,331,84352,1,0,1:0:0:0:
94,198,84502,5,6,1:0:0:0:
64,123,84652,1,0,3:0:0:0:
36,47,84802,1,0,1:0:0:0:
200,245,84952,5,6,1:0:0:0:
170,170,85102,1,0,3:0:0:0:
142,94,85252,1,0,1:0:0:0:
306,292,85402,5,6,1:0:0:0:
276,217,85552,1,0,3:0:0:0:
248,141,85702,1,0,1:0:0:0:
64,123,85852,5,2,1:0:0:0:
170,170,86002,5,0,1:0:0:0:
276,217,86152,5,0,1:0:0:0:
422,298,86302,5,6,1:1:0:0:
495,193,86452,1,0,0:0:0:0:
408,88,86602,1,0,1:0:0:0:
457,1,86752,1,2,1:0:0:0:
457,1,87052,1,0,1:0:0:0:
343,155,87202,5,6,1:0:0:0:
242,25,87352,1,0,0:0:0:0:
136,119,87502,1,0,1:0:0:0:
23,73,87652,1,2,1:0:0:0:
23,73,87952,1,0,1:0:0:0:
136,119,88102,5,6,1:0:0:0:
211,89,88252,1,0,3:0:0:0:
287,61,88402,1,0,1:0:0:0:
89,225,88552,5,6,1:0:0:0:
164,195,88702,1,0,3:0:0:0:
240,167,88852,1,0,1:0:0:0:
42,331,89002,5,6,1:0:0:0:
117,301,89152,1,0,3:0:0:0:
193,273,89302,1,0,1:0:0:0:
432,240,89452,5,2,1:0:0:0:
256,192,89602,5,2,1:0:0:0:
80,240,89752,5,2,1:0:0:0:
94,7,89902,5,6,1:0:0:0:
206,88,90052,1,0,0:0:0:0:
160,214,90202,1,0,1:0:0:0:
12,213,90352,2,0,B|82:236|69:329,1,128,2|0,1:0|1:0,0:0:0:0:
418,377,90802,5,6,1:0:0:0:
306,296,90952,1,0,0:0:0:0:
352,170,91102,1,0,1:0:0:0:
500,171,91252,2,0,B|430:148|443:55,1,128,2|0,1:0|1:0,0:0:0:0:
256,192,91702,6,0,B|218:204|177:192,1,64,6|0,1:0|0:0,0:0:0:0:
30,193,92002,1,0,1:0:0:0:
256,192,92152,6,0,B|294:204|335:192,1,64,6|0,1:0|0:0,0:0:0:0:
482,193,92452,1,0,1:0:0:0:
256,192,92602,6,0,B|218:204|177:192,1,64,6|0,1:0|0:0,0:0:0:0:
30,193,92902,1,0,1:0:0:0:
257,193,93052,5,2,1:0:0:0:
409,289,93202,1,0,1:0:0:0:
413,76,93352,1,0,1:0:0:0:
157,351,93502,5,6,1:0:0:0:
283,274,93652,1,0,0:0:0:0:
409,289,93802,1,0,1:0:0:0:
481,357,93952,2,0,B|513:292|490:225,1,128,2|0,1:0|1:0,0:0:0:0:
355,33,94402,5,6,1:0:0:0:
229,110,94552,1,0,0:0:0:0:
103,95,94702,1,0,1:0:0:0:
31,27,94852,2,0,B|-1:92|22:159,1,128,2|0,1:0|1:0,0:0:0:0:
256,192,95302,5,4,1:0:0:0:
256,192,96502,5,0,1:0:0:0:
170,268,96652,5,4,1:3:0:0:
363,205,96802,1,4,1:3:0:0:
220,89,96952,1,4,1:3:0:0:
343,339,97102,5,4,1:0:0:0:
512,221,97252,2,0,B|467:248|412:233,1,96,2|0,1:0|1:0,0:0:0:0:
355,72,97552,1,0,0:0:0:0:
256,192,97702,1,0,1:0:0:0:
85,104,97852,2,0,B|70:151|89:210,1,96,0|0,0:0|1:0,0:0:0:0:
0,303,98152,5,0,1:0:0:0:
26,326,98227,1,0,1:0:0:0:
37,355,98302,2,0,B|135:374|114:308|216:322,1,187.199991430664,0|0,1:0|0:0,0:0:0:0:
291,288,98602,2,0,B|326:294|358:287,1,62.3999971435548,0|0,1:0|0:0,0:0:0:0:
440,311,98752,2,0,B|516:279|524:194|475:152,1,187.199991430664,0|0,1:0|0:0,0:0:0:0:
422,101,99052,1,0,1:0:0:0:
292,160,99202,1,0,1:0:0:0:
133,183,99352,5,0,1:0:0:0:
159,192,99427,1,0,1:0:0:0:
185,201,99502,1,4,1:0:0:0:
275,231,99652,1,0,0:0:0:0:
363,263,99802,1,0,0:0:0:0:
133,183,99952,5,0,1:0:0:0:
159,192,100027,1,0,1:0:0:0:
185,201,100102,1,4,1:0:0:0:
275,231,100252,1,0,0:0:0:0:
363,263,100402,1,0,0:0:0:0:
133,183,100552,5,0,1:0:0:0:
159,192,100627,1,0,1:0:0:0:
185,201,100702,1,4,1:0:0:0:
275,231,100852,1,0,0:0:0:0:
363,263,101002,1,0,0:0:0:0:
133,183,101152,5,0,1:0:0:0:
159,192,101227,1,0,1:0:0:0:
185,201,101302,1,4,1:0:0:0:
275,231,101452,1,0,0:0:0:0:
363,263,101602,1,0,0:0:0:0:
133,183,101752,5,0,1:0:0:0:
159,192,101827,1,0,1:0:0:0:
185,201,101902,1,4,1:0:0:0:
352,122,102052,5,2,0:0:0:0:
339,93,102127,1,0,0:0:0:0:
326,64,102202,1,0,1:0:0:0:
250,304,102352,5,0,1:0:0:0:
236,332,102427,1,0,1:0:0:0:
223,360,102502,1,0,1:0:0:0:
431,262,102652,5,2,0:0:0:0:
456,244,102727,1,0,0:0:0:0:
481,225,102802,1,0,1:0:0:0:
322,211,102952,5,0,1:0:0:0:
303,185,103027,1,0,1:0:0:0:
284,159,103102,1,4,1:0:0:0:
137,149,103252,5,2,0:0:0:0:
127,112,103327,1,0,0:0:0:0:
117,75,103402,1,2,1:2:0:0:
52,321,103552,5,2,1:2:0:0:
76,292,103627,1,0,1:0:0:0:
100,263,103702,1,2,1:2:0:0:
318,331,103852,5,2,0:0:0:0:
284,317,103927,1,0,0:0:0:0:
250,303,104002,1,2,1:2:0:0:
364,99,104152,5,2,1:2:0:0:
372,135,104227,1,0,1:0:0:0:
380,171,104302,1,4,1:0:0:0:
464,155,104452,5,2,0:0:0:0:
304,257,104602,5,0,1:0:0:0:
142,116,104752,5,2,0:0:0:0:
24,192,104902,5,2,1:2:0:0:
34,192,104977,1,2,0:2:0:0:
45,192,105052,1,2,1:2:0:0:
57,192,105127,1,2,0:2:0:0:
67,192,105202,1,2,1:2:0:0:
79,192,105277,1,2,0:2:0:0:
90,192,105352,1,2,1:2:0:0:
101,192,105427,1,2,1:2:0:0:
112,192,105502,1,4,1:0:0:0:
123,192,105577,1,2,0:2:0:0:
134,192,105652,1,2,0:2:0:0:
145,192,105727,1,2,0:2:0:0:
157,192,105802,1,2,0:2:0:0:
167,192,105877,1,2,0:2:0:0:
179,192,105952,1,2,0:2:0:0:
190,192,106027,1,2,0:2:0:0:
202,192,106102,1,2,0:2:0:0:
212,192,106177,1,2,0:2:0:0:
223,192,106252,1,2,0:2:0:0:
235,192,106327,1,2,0:2:0:0:
245,192,106402,1,2,0:2:0:0:
257,192,106477,1,2,0:2:0:0:
268,192,106552,1,2,0:2:0:0:
279,192,106627,1,2,0:2:0:0:
295,173,106702,2,2,L|286:113,1,36.0000013732911
306,195,106777,2,2,L|300:229,1,36.0000013732911
320,195,106852,2,2,L|311:135,1,36.0000013732911
331,185,106927,2,2,L|322:239,1,36.0000013732911
349,179,107002,2,2,L|340:119,1,36.0000013732911
363,196,107077,2,2,L|353:251,1,36.0000013732911
380,184,107152,2,2,L|371:124,1,36.0000013732911
388,195,107227,2,2,L|379:249,1,36.0000013732911
397,194,107302,2,2,L|393:132,2,42.0000004005432,2|2|2,3:2|0:2|0:2,0:2:0:0:
407,184,107377,2,2,L|393:255,2,42.0000004005432,2|2|2,3:2|0:2|0:2,0:2:0:0:
415,192,107452,2,2,L|421:122,2,42.0000004005432,2|2|2,3:2|0:2|0:2,0:2:0:0:
425,182,107527,2,2,L|436:261,2,42.0000004005432,2|2|2,3:2|0:2|0:2,0:2:0:0:
436,200,107602,2,2,L|446:122,2,42.0000004005432,2|2|2,3:2|0:2|3:2,0:2:0:0:
446,190,107677,2,2,L|445:267,2,42.0000004005432,2|2|2,3:2|0:2|3:2,0:2:0:0:
454,198,107752,2,2,L|467:121,2,42.0000004005432,2|2|2,3:2|3:2|3:2,3:2:0:0:
464,188,107827,2,2,L|487:255,2,42.0000004005432,2|2|2,3:2|3:2|3:2,3:2:0:0:
498,192,107902,5,6,1:2:0:0:
