osu file format v14

[General]
AudioFilename: audio.mp3
AudioLeadIn: 0
PreviewTime: -1
Countdown: 0
SampleSet: None
StackLeniency: 0.7
Mode: 3
LetterboxInBreaks: 0
SpecialStyle: 0
WidescreenStoryboard: 0

[Editor]
DistanceSpacing: 0.8
BeatDivisor: 4
GridSize: 8
TimelineZoom: 2.599998

[Metadata]
Title:Mulch[WIP]
TitleUnicode:Mulch[WIP]
Artist:Sampling Masters MEGA
ArtistUnicode:Sampling Masters MEGA
Creator:minseok
Version:CHIEF
Source:DJMAX RESPECT
Tags:
BeatmapID:1666589
BeatmapSetID:793615

[Difficulty]
HPDrainRate:5
CircleSize:7
OverallDifficulty:5
ApproachRate:5
SliderMultiplier:1.4
SliderTickRate:1

[Events]
//Background and Video events
//Break Periods
//Storyboard Layer 0 (Background)
//Storyboard Layer 1 (Fail)
//Storyboard Layer 2 (Pass)
//Storyboard Layer 3 (Foreground)
//Storyboard Sound Samples

[TimingPoints]
1500,300,4,1,0,25,1,0

[HitObjects]
402,192,1500,5,0,0:0:0:0:
329,192,1500,1,0,0:0:0:0:
109,192,1650,1,0,0:0:0:0:
329,192,1800,1,0,0:0:0:0:
402,192,1800,1,0,0:0:0:0:
109,192,1950,1,0,0:0:0:0:
329,192,2100,1,0,0:0:0:0:
402,192,2100,1,0,0:0:0:0:
109,192,2250,1,0,0:0:0:0:
402,192,2400,1,0,0:0:0:0:
329,192,2400,1,0,0:0:0:0:
109,192,2550,1,0,0:0:0:0:
475,192,2700,128,0,3000:0:0:0:0:
329,192,2700,1,0,0:0:0:0:
182,192,2700,1,0,0:0:0:0:
36,192,2700,1,0,0:0:0:0:
402,192,2850,128,0,3150:0:0:0:0:
256,192,2850,1,0,0:0:0:0:
109,192,2850,1,0,0:0:0:0:
329,192,3000,128,0,3300:0:0:0:0:
182,192,3000,1,0,0:0:0:0:
36,192,3000,1,0,0:0:0:0:
256,192,3150,128,0,3450:0:0:0:0:
109,192,3150,1,0,0:0:0:0:
182,192,3300,128,0,3600:0:0:0:0:
36,192,3300,1,0,0:0:0:0:
475,192,3300,1,0,0:0:0:0:
109,192,3450,128,0,3750:0:0:0:0:
402,192,3450,1,0,0:0:0:0:
36,192,3600,128,0,3900:0:0:0:0:
329,192,3600,1,0,0:0:0:0:
475,192,3600,1,0,0:0:0:0:
402,192,3750,1,0,0:0:0:0:
256,192,3750,1,0,0:0:0:0:
475,192,3900,128,0,4200:0:0:0:0:
329,192,3900,1,0,0:0:0:0:
182,192,3900,1,0,0:0:0:0:
402,192,4050,128,0,4350:0:0:0:0:
256,192,4050,1,0,0:0:0:0:
109,192,4050,1,0,0:0:0:0:
329,192,4200,128,0,4500:0:0:0:0:
182,192,4200,1,0,0:0:0:0:
36,192,4200,1,0,0:0:0:0:
256,192,4350,128,0,4650:0:0:0:0:
109,192,4350,1,0,0:0:0:0:
475,192,4350,1,0,0:0:0:0:
182,192,4500,128,0,4800:0:0:0:0:
36,192,4500,1,0,0:0:0:0:
402,192,4500,1,0,0:0:0:0:
109,192,4650,128,0,4950:0:0:0:0:
475,192,4650,128,0,4950:0:0:0:0:
329,192,4650,1,0,0:0:0:0:
36,192,4800,128,0,5100:0:0:0:0:
402,192,4800,128,0,5100:0:0:0:0:
256,192,4800,1,0,0:0:0:0:
182,192,4950,1,0,0:0:0:0:
329,192,4950,128,0,5250:0:0:0:0:
109,192,5100,1,0,0:0:0:0:
256,192,5100,128,0,5400:0:0:0:0:
475,192,5100,1,0,0:0:0:0:
182,192,5250,128,0,5550:0:0:0:0:
402,192,5250,1,0,0:0:0:0:
109,192,5400,128,0,5700:0:0:0:0:
329,192,5400,1,0,0:0:0:0:
475,192,5400,1,0,0:0:0:0:
36,192,5550,128,0,5850:0:0:0:0:
256,192,5550,1,0,0:0:0:0:
402,192,5550,1,0,0:0:0:0:
475,192,5700,128,0,6000:0:0:0:0:
182,192,5700,1,0,0:0:0:0:
329,192,5700,1,0,0:0:0:0:
329,192,5850,128,0,6150:0:0:0:0:
109,192,5850,1,0,0:0:0:0:
256,192,5850,1,0,0:0:0:0:
182,192,6000,128,0,6300:0:0:0:0:
36,192,6000,1,0,0:0:0:0:
36,192,6150,128,0,6450:0:0:0:0:
109,192,6150,1,0,0:0:0:0:
402,192,6150,1,0,0:0:0:0:
329,192,6300,128,0,6600:0:0:0:0:
256,192,6300,1,0,0:0:0:0:
475,192,6300,1,0,0:0:0:0:
182,192,6450,128,0,6750:0:0:0:0:
109,192,6450,1,0,0:0:0:0:
402,192,6450,1,0,0:0:0:0:
402,192,6600,128,0,6900:0:0:0:0:
256,192,6600,1,0,0:0:0:0:
36,192,6600,1,0,0:0:0:0:
109,192,6750,128,0,7050:0:0:0:0:
36,192,6750,1,0,0:0:0:0:
475,192,6750,1,0,0:0:0:0:
329,192,6900,128,0,7200:0:0:0:0:
182,192,6900,1,0,0:0:0:0:
256,192,6900,1,0,0:0:0:0:
182,192,7050,128,0,7350:0:0:0:0:
475,192,7050,1,0,0:0:0:0:
36,192,7050,1,0,0:0:0:0:
256,192,7125,1,0,0:0:0:0:
402,192,7200,128,0,7500:0:0:0:0:
36,192,7200,1,0,0:0:0:0:
475,192,7200,1,0,0:0:0:0:
109,192,7350,128,0,7500:0:0:0:0:
475,192,7350,1,0,0:0:0:0:
36,192,7350,1,0,0:0:0:0:
182,192,7500,1,0,0:0:0:0:
329,192,7500,1,0,0:0:0:0:
36,192,7500,128,0,7800:0:0:0:0:
182,192,7650,128,0,7950:0:0:0:0:
256,192,7650,1,0,0:0:0:0:
402,192,7650,1,0,0:0:0:0:
109,192,7800,128,0,8100:0:0:0:0:
329,192,7800,1,0,0:0:0:0:
475,192,7800,1,0,0:0:0:0:
256,192,7950,128,0,8250:0:0:0:0:
402,192,7950,1,0,0:0:0:0:
182,192,8100,128,0,8400:0:0:0:0:
475,192,8100,1,0,0:0:0:0:
329,192,8250,128,0,8550:0:0:0:0:
109,192,8250,1,0,0:0:0:0:
402,192,8250,1,0,0:0:0:0:
256,192,8400,128,0,8700:0:0:0:0:
36,192,8400,1,0,0:0:0:0:
475,192,8400,1,0,0:0:0:0:
402,192,8550,128,0,8850:0:0:0:0:
109,192,8550,1,0,0:0:0:0:
182,192,8550,1,0,0:0:0:0:
475,192,8700,128,0,9000:0:0:0:0:
36,192,8700,1,0,0:0:0:0:
329,192,8700,1,0,0:0:0:0:
329,192,8850,128,0,9150:0:0:0:0:
256,192,8850,1,0,0:0:0:0:
109,192,8850,1,0,0:0:0:0:
402,192,9000,128,0,9300:0:0:0:0:
182,192,9000,1,0,0:0:0:0:
36,192,9000,1,0,0:0:0:0:
256,192,9150,128,0,9450:0:0:0:0:
109,192,9150,1,0,0:0:0:0:
329,192,9300,128,0,9600:0:0:0:0:
36,192,9300,1,0,0:0:0:0:
475,192,9300,1,0,0:0:0:0:
182,192,9450,128,0,9750:0:0:0:0:
402,192,9450,1,0,0:0:0:0:
109,192,9450,1,0,0:0:0:0:
256,192,9600,128,0,9900:0:0:0:0:
475,192,9600,1,0,0:0:0:0:
36,192,9600,1,0,0:0:0:0:
109,192,9750,128,0,10050:0:0:0:0:
329,192,9750,1,0,0:0:0:0:
402,192,9750,1,0,0:0:0:0:
402,192,9900,128,0,10200:0:0:0:0:
182,192,9900,1,0,0:0:0:0:
475,192,9900,1,0,0:0:0:0:
36,192,9900,1,0,0:0:0:0:
182,192,10050,128,0,10200:0:0:0:0:
329,192,10050,1,0,0:0:0:0:
256,192,10200,128,0,10350:0:0:0:0:
329,192,10350,128,0,10500:0:0:0:0:
109,192,10500,128,0,10650:0:0:0:0:
36,192,10500,1,0,0:0:0:0:
182,192,10500,1,0,0:0:0:0:
475,192,10500,1,0,0:0:0:0:
182,192,10650,128,0,10800:0:0:0:0:
329,192,10650,1,0,0:0:0:0:
256,192,10800,128,0,10950:0:0:0:0:
402,192,10800,1,0,0:0:0:0:
329,192,10950,128,0,11100:0:0:0:0:
109,192,10950,1,0,0:0:0:0:
109,192,11100,128,0,11250:0:0:0:0:
182,192,11100,1,0,0:0:0:0:
475,192,11100,1,0,0:0:0:0:
36,192,11100,1,0,0:0:0:0:
182,192,11250,128,0,11400:0:0:0:0:
329,192,11250,1,0,0:0:0:0:
256,192,11400,128,0,11550:0:0:0:0:
402,192,11400,1,0,0:0:0:0:
329,192,11550,128,0,11700:0:0:0:0:
109,192,11550,1,0,0:0:0:0:
475,192,11700,1,0,0:0:0:0:
36,192,11700,1,0,0:0:0:0:
182,192,11700,1,0,0:0:0:0:
109,192,11700,128,0,12150:0:0:0:0:
402,192,12150,128,0,12300:0:0:0:0:
36,192,12300,128,0,12450:0:0:0:0:
182,192,12300,1,0,0:0:0:0:
109,192,12375,128,0,12525:0:0:0:0:
256,192,12375,1,0,0:0:0:0:
475,192,12375,1,0,0:0:0:0:
182,192,12450,128,0,12600:0:0:0:0:
329,192,12450,1,0,0:0:0:0:
256,192,12525,128,0,12675:0:0:0:0:
402,192,12525,1,0,0:0:0:0:
329,192,12600,128,0,12750:0:0:0:0:
475,192,12600,1,0,0:0:0:0:
36,192,12600,1,0,0:0:0:0:
402,192,12675,128,0,12825:0:0:0:0:
109,192,12675,1,0,0:0:0:0:
475,192,12750,128,0,12900:0:0:0:0:
182,192,12750,1,0,0:0:0:0:
256,192,12825,1,0,0:0:0:0:
329,192,12900,1,0,0:0:0:0:
36,192,12900,1,0,0:0:0:0:
182,192,12900,1,0,0:0:0:0:
109,192,13050,1,0,0:0:0:0:
402,192,13050,1,0,0:0:0:0:
36,192,13200,1,0,0:0:0:0:
182,192,13200,1,0,0:0:0:0:
329,192,13200,1,0,0:0:0:0:
475,192,13200,1,0,0:0:0:0:
475,192,13350,1,0,0:0:0:0:
36,192,13350,1,0,0:0:0:0:
475,192,13500,128,0,13650:0:0:0:0:
329,192,13500,1,0,0:0:0:0:
109,192,13500,1,0,0:0:0:0:
402,192,13575,128,0,13725:0:0:0:0:
256,192,13575,1,0,0:0:0:0:
36,192,13575,1,0,0:0:0:0:
329,192,13650,128,0,13800:0:0:0:0:
182,192,13650,1,0,0:0:0:0:
256,192,13725,128,0,13875:0:0:0:0:
109,192,13725,1,0,0:0:0:0:
182,192,13800,128,0,13950:0:0:0:0:
36,192,13800,1,0,0:0:0:0:
475,192,13800,1,0,0:0:0:0:
109,192,13875,128,0,14025:0:0:0:0:
402,192,13875,1,0,0:0:0:0:
36,192,13950,128,0,14100:0:0:0:0:
329,192,13950,1,0,0:0:0:0:
256,192,14025,1,0,0:0:0:0:
182,192,14100,1,0,0:0:0:0:
329,192,14100,1,0,0:0:0:0:
475,192,14100,1,0,0:0:0:0:
402,192,14250,1,0,0:0:0:0:
109,192,14250,1,0,0:0:0:0:
36,192,14400,1,0,0:0:0:0:
109,192,14400,1,0,0:0:0:0:
402,192,14400,1,0,0:0:0:0:
475,192,14400,1,0,0:0:0:0:
329,192,14550,1,0,0:0:0:0:
182,192,14550,1,0,0:0:0:0:
475,192,14700,128,0,14850:0:0:0:0:
329,192,14700,1,0,0:0:0:0:
109,192,14700,1,0,0:0:0:0:
402,192,14775,128,0,14925:0:0:0:0:
256,192,14775,1,0,0:0:0:0:
36,192,14775,1,0,0:0:0:0:
329,192,14850,128,0,15000:0:0:0:0:
182,192,14850,1,0,0:0:0:0:
256,192,14925,128,0,15075:0:0:0:0:
109,192,14925,1,0,0:0:0:0:
182,192,15000,128,0,15150:0:0:0:0:
475,192,15000,1,0,0:0:0:0:
36,192,15000,1,0,0:0:0:0:
109,192,15075,128,0,15225:0:0:0:0:
402,192,15075,1,0,0:0:0:0:
36,192,15150,128,0,15300:0:0:0:0:
329,192,15150,1,0,0:0:0:0:
256,192,15225,1,0,0:0:0:0:
475,192,15300,128,0,15450:0:0:0:0:
329,192,15300,1,0,0:0:0:0:
182,192,15300,1,0,0:0:0:0:
402,192,15375,128,0,15525:0:0:0:0:
256,192,15375,1,0,0:0:0:0:
329,192,15450,128,0,15600:0:0:0:0:
182,192,15450,1,0,0:0:0:0:
256,192,15525,128,0,15675:0:0:0:0:
109,192,15525,1,0,0:0:0:0:
182,192,15600,128,0,15750:0:0:0:0:
475,192,15600,1,0,0:0:0:0:
36,192,15600,1,0,0:0:0:0:
109,192,15675,128,0,15825:0:0:0:0:
402,192,15675,1,0,0:0:0:0:
36,192,15750,128,0,16050:0:0:0:0:
329,192,15750,1,0,0:0:0:0:
256,192,15825,1,0,0:0:0:0:
182,192,15900,1,0,0:0:0:0:
402,192,15900,1,0,0:0:0:0:
109,192,15975,128,0,16125:0:0:0:0:
256,192,15975,1,0,0:0:0:0:
475,192,15975,1,0,0:0:0:0:
182,192,16050,128,0,16200:0:0:0:0:
329,192,16050,1,0,0:0:0:0:
256,192,16125,128,0,16275:0:0:0:0:
402,192,16125,1,0,0:0:0:0:
329,192,16200,128,0,16350:0:0:0:0:
475,192,16200,1,0,0:0:0:0:
36,192,16200,1,0,0:0:0:0:
402,192,16275,128,0,16425:0:0:0:0:
109,192,16275,1,0,0:0:0:0:
475,192,16350,128,0,16500:0:0:0:0:
182,192,16350,1,0,0:0:0:0:
256,192,16425,1,0,0:0:0:0:
329,192,16500,1,0,0:0:0:0:
36,192,16500,1,0,0:0:0:0:
182,192,16500,1,0,0:0:0:0:
109,192,16650,1,0,0:0:0:0:
256,192,16650,1,0,0:0:0:0:
182,192,16800,1,0,0:0:0:0:
329,192,16800,1,0,0:0:0:0:
475,192,16800,1,0,0:0:0:0:
36,192,16800,1,0,0:0:0:0:
256,192,16950,1,0,0:0:0:0:
402,192,16950,1,0,0:0:0:0:
475,192,17100,128,0,17250:0:0:0:0:
329,192,17100,1,0,0:0:0:0:
36,192,17175,128,0,17325:0:0:0:0:
182,192,17175,1,0,0:0:0:0:
402,192,17250,128,0,17400:0:0:0:0:
329,192,17250,1,0,0:0:0:0:
109,192,17325,128,0,17475:0:0:0:0:
182,192,17325,1,0,0:0:0:0:
475,192,17325,1,0,0:0:0:0:
329,192,17400,128,0,17550:0:0:0:0:
256,192,17400,1,0,0:0:0:0:
36,192,17400,1,0,0:0:0:0:
182,192,17475,128,0,17625:0:0:0:0:
402,192,17475,1,0,0:0:0:0:
256,192,17550,128,0,17700:0:0:0:0:
109,192,17550,1,0,0:0:0:0:
329,192,17625,1,0,0:0:0:0:
182,192,17700,1,0,0:0:0:0:
475,192,17700,1,0,0:0:0:0:
36,192,17700,1,0,0:0:0:0:
109,192,17850,1,0,0:0:0:0:
402,192,17850,1,0,0:0:0:0:
109,192,18000,1,0,0:0:0:0:
182,192,18000,1,0,0:0:0:0:
402,192,18000,1,0,0:0:0:0:
329,192,18000,1,0,0:0:0:0:
182,192,18150,1,0,0:0:0:0:
329,192,18150,1,0,0:0:0:0:
36,192,18300,128,0,18450:0:0:0:0:
182,192,18300,1,0,0:0:0:0:
475,192,18375,128,0,18525:0:0:0:0:
329,192,18375,1,0,0:0:0:0:
109,192,18450,128,0,18600:0:0:0:0:
182,192,18450,1,0,0:0:0:0:
402,192,18525,128,0,18675:0:0:0:0:
36,192,18525,1,0,0:0:0:0:
329,192,18525,1,0,0:0:0:0:
182,192,18600,128,0,18750:0:0:0:0:
475,192,18600,1,0,0:0:0:0:
256,192,18600,1,0,0:0:0:0:
329,192,18675,128,0,18825:0:0:0:0:
109,192,18675,1,0,0:0:0:0:
256,192,18750,128,0,18900:0:0:0:0:
402,192,18750,1,0,0:0:0:0:
182,192,18825,1,0,0:0:0:0:
329,192,18900,1,0,0:0:0:0:
475,192,18900,1,0,0:0:0:0:
36,192,18900,1,0,0:0:0:0:
182,192,19050,1,0,0:0:0:0:
329,192,19050,1,0,0:0:0:0:
109,192,19200,1,0,0:0:0:0:
182,192,19200,1,0,0:0:0:0:
329,192,19200,1,0,0:0:0:0:
402,192,19200,1,0,0:0:0:0:
109,192,19350,1,0,0:0:0:0:
402,192,19350,1,0,0:0:0:0:
475,192,19500,128,0,19650:0:0:0:0:
182,192,19500,1,0,0:0:0:0:
329,192,19575,128,0,19725:0:0:0:0:
36,192,19575,1,0,0:0:0:0:
182,192,19650,128,0,19800:0:0:0:0:
256,192,19650,1,0,0:0:0:0:
36,192,19725,128,0,19875:0:0:0:0:
475,192,19725,1,0,0:0:0:0:
402,192,19800,128,0,19950:0:0:0:0:
109,192,19800,1,0,0:0:0:0:
256,192,19875,128,0,20025:0:0:0:0:
329,192,19875,1,0,0:0:0:0:
109,192,19950,128,0,20100:0:0:0:0:
182,192,19950,1,0,0:0:0:0:
402,192,20025,1,0,0:0:0:0:
36,192,20100,128,0,20250:0:0:0:0:
329,192,20100,1,0,0:0:0:0:
182,192,20175,128,0,20325:0:0:0:0:
475,192,20175,1,0,0:0:0:0:
329,192,20250,128,0,20400:0:0:0:0:
256,192,20250,1,0,0:0:0:0:
475,192,20325,128,0,20475:0:0:0:0:
36,192,20325,1,0,0:0:0:0:
109,192,20400,128,0,20550:0:0:0:0:
402,192,20400,1,0,0:0:0:0:
256,192,20475,128,0,20625:0:0:0:0:
182,192,20475,1,0,0:0:0:0:
402,192,20550,128,0,20700:0:0:0:0:
329,192,20550,1,0,0:0:0:0:
109,192,20625,1,0,0:0:0:0:
182,192,20700,1,0,0:0:0:0:
36,192,20700,1,0,0:0:0:0:
475,192,20700,1,0,0:0:0:0:
329,192,20700,1,0,0:0:0:0:
36,192,21000,1,0,0:0:0:0:
182,192,21000,1,0,0:0:0:0:
475,192,21000,1,0,0:0:0:0:
329,192,21000,1,0,0:0:0:0:
109,192,21000,1,0,0:0:0:0:
36,192,21300,1,0,0:0:0:0:
182,192,21300,1,0,0:0:0:0:
475,192,21300,1,0,0:0:0:0:
329,192,21300,1,0,0:0:0:0:
402,192,21300,1,0,0:0:0:0:
109,192,21450,1,0,0:0:0:0:
256,192,21600,1,0,0:0:0:0:
402,192,21900,128,0,22125:0:0:0:0:
109,192,22050,128,0,22275:0:0:0:0:
402,192,22200,128,0,22350:0:0:0:0:
109,192,22350,128,0,22500:0:0:0:0:
475,192,22500,128,0,22725:0:0:0:0:
329,192,22500,1,0,0:0:0:0:
36,192,22500,1,0,0:0:0:0:
329,192,22650,128,0,22875:0:0:0:0:
182,192,22650,1,0,0:0:0:0:
182,192,22800,128,0,23025:0:0:0:0:
475,192,22800,1,0,0:0:0:0:
36,192,22800,1,0,0:0:0:0:
329,192,22950,1,0,0:0:0:0:
36,192,22950,128,0,23100:0:0:0:0:
182,192,23100,1,0,0:0:0:0:
475,192,23100,1,0,0:0:0:0:
402,192,23100,128,0,23400:0:0:0:0:
256,192,23250,128,0,23550:0:0:0:0:
109,192,23400,128,0,23550:0:0:0:0:
402,192,23550,128,0,23700:0:0:0:0:
36,192,23700,128,0,23925:0:0:0:0:
182,192,23700,1,0,0:0:0:0:
475,192,23700,1,0,0:0:0:0:
182,192,23850,128,0,24075:0:0:0:0:
329,192,23850,1,0,0:0:0:0:
329,192,24000,128,0,24225:0:0:0:0:
36,192,24000,1,0,0:0:0:0:
475,192,24000,1,0,0:0:0:0:
475,192,24150,128,0,24300:0:0:0:0:
182,192,24150,1,0,0:0:0:0:
329,192,24300,1,0,0:0:0:0:
109,192,24300,128,0,24450:0:0:0:0:
36,192,24300,1,0,0:0:0:0:
182,192,24450,1,0,0:0:0:0:
329,192,24450,1,0,0:0:0:0:
256,192,24600,1,0,0:0:0:0:
109,192,24600,1,0,0:0:0:0:
182,192,24750,1,0,0:0:0:0:
36,192,24750,1,0,0:0:0:0:
475,192,24900,1,0,0:0:0:0:
402,192,24900,128,0,25050:0:0:0:0:
182,192,24900,1,0,0:0:0:0:
36,192,24900,1,0,0:0:0:0:
109,192,25050,1,0,0:0:0:0:
256,192,25050,1,0,0:0:0:0:
182,192,25200,1,0,0:0:0:0:
329,192,25200,1,0,0:0:0:0:
256,192,25350,1,0,0:0:0:0:
402,192,25350,1,0,0:0:0:0:
402,192,25500,128,0,25650:0:0:0:0:
475,192,25500,1,0,0:0:0:0:
36,192,25500,1,0,0:0:0:0:
182,192,25500,1,0,0:0:0:0:
109,192,25650,1,0,0:0:0:0:
256,192,25650,1,0,0:0:0:0:
402,192,25800,128,0,25950:0:0:0:0:
36,192,25800,1,0,0:0:0:0:
475,192,25800,1,0,0:0:0:0:
182,192,25800,1,0,0:0:0:0:
109,192,25950,1,0,0:0:0:0:
256,192,25950,1,0,0:0:0:0:
402,192,26100,128,0,26250:0:0:0:0:
475,192,26100,1,0,0:0:0:0:
36,192,26100,1,0,0:0:0:0:
182,192,26100,1,0,0:0:0:0:
109,192,26250,1,0,0:0:0:0:
256,192,26250,1,0,0:0:0:0:
402,192,26400,128,0,26550:0:0:0:0:
182,192,26400,1,0,0:0:0:0:
329,192,26400,1,0,0:0:0:0:
256,192,26550,1,0,0:0:0:0:
109,192,26550,1,0,0:0:0:0:
182,192,26700,1,0,0:0:0:0:
36,192,26700,1,0,0:0:0:0:
475,192,26700,1,0,0:0:0:0:
329,192,26700,1,0,0:0:0:0:
402,192,26850,1,0,0:0:0:0:
256,192,27000,1,0,0:0:0:0:
109,192,27150,1,0,0:0:0:0:
475,192,27300,128,0,27600:0:0:0:0:
36,192,27300,1,0,0:0:0:0:
182,192,27300,1,0,0:0:0:0:
329,192,27450,128,0,27750:0:0:0:0:
256,192,27450,1,0,0:0:0:0:
182,192,27600,128,0,27900:0:0:0:0:
109,192,27600,1,0,0:0:0:0:
402,192,27600,1,0,0:0:0:0:
36,192,27750,128,0,27900:0:0:0:0:
256,192,27750,1,0,0:0:0:0:
475,192,27900,1,0,0:0:0:0:
329,192,27900,1,0,0:0:0:0:
109,192,28050,1,0,0:0:0:0:
256,192,28200,1,0,0:0:0:0:
402,192,28350,1,0,0:0:0:0:
36,192,28500,128,0,28800:0:0:0:0:
329,192,28500,1,0,0:0:0:0:
475,192,28500,1,0,0:0:0:0:
182,192,28650,128,0,28950:0:0:0:0:
256,192,28650,1,0,0:0:0:0:
329,192,28800,128,0,29100:0:0:0:0:
109,192,28800,1,0,0:0:0:0:
402,192,28800,1,0,0:0:0:0:
475,192,28950,128,0,29100:0:0:0:0:
256,192,28950,1,0,0:0:0:0:
36,192,29100,1,0,0:0:0:0:
182,192,29100,128,0,29250:0:0:0:0:
109,192,29250,1,0,0:0:0:0:
402,192,29250,1,0,0:0:0:0:
36,192,29400,1,0,0:0:0:0:
475,192,29400,1,0,0:0:0:0:
402,192,29550,1,0,0:0:0:0:
109,192,29550,1,0,0:0:0:0:
329,192,29700,128,0,29850:0:0:0:0:
475,192,29700,1,0,0:0:0:0:
36,192,29700,1,0,0:0:0:0:
109,192,29850,1,0,0:0:0:0:
402,192,29850,1,0,0:0:0:0:
475,192,30000,1,0,0:0:0:0:
36,192,30000,1,0,0:0:0:0:
109,192,30150,1,0,0:0:0:0:
402,192,30150,1,0,0:0:0:0:
182,192,30300,128,0,30450:0:0:0:0:
256,192,30300,1,0,0:0:0:0:
329,192,30300,1,0,0:0:0:0:
402,192,30450,1,0,0:0:0:0:
256,192,30600,1,0,0:0:0:0:
109,192,30750,1,0,0:0:0:0:
109,192,30900,1,0,0:0:0:0:
402,192,30900,128,0,31050:0:0:0:0:
182,192,30975,1,0,0:0:0:0:
256,192,31050,1,0,0:0:0:0:
109,192,31050,128,0,31200:0:0:0:0:
329,192,31125,1,0,0:0:0:0:
402,192,31200,1,0,0:0:0:0:
182,192,31350,1,0,0:0:0:0:
329,192,31350,1,0,0:0:0:0:
