osu file format v14

[General]
AudioFilename: audio.mp3
AudioLeadIn: 0
PreviewTime: 71896
Countdown: 0
SampleSet: Normal
StackLeniency: 0.7
Mode: 1
LetterboxInBreaks: 0
WidescreenStoryboard: 0

[Editor]
Bookmarks: 28259,37259,54714,63441,72169,107078,152896
DistanceSpacing: 1.9
BeatDivisor: 4
GridSize: 32
TimelineZoom: 2.1

[Metadata]
Title:Kattobi KEIKYU Rider
TitleUnicode:Kattobi KEIKYU Rider
Artist:Sampling Masters MEGA
ArtistUnicode:Sampling Masters MEGA
Creator:kvgyubh
Version:DEN DEDEN DEDEN ONI
Source:
Tags:
BeatmapID:1456896
BeatmapSetID:688433

[Difficulty]
HPDrainRate:5
CircleSize:5
OverallDifficulty:5
ApproachRate:5
SliderMultiplier:1.4
SliderTickRate:1

[Events]
//Background and Video events
0,0,"1503541159.jpg",0,0
//Break Periods
//Storyboard Layer 0 (Background)
//Storyboard Layer 1 (Fail)
//Storyboard Layer 2 (Pass)
//Storyboard Layer 3 (Foreground)
//Storyboard Sound Samples

[TimingPoints]
173,272.727272727273,4,1,0,70,1,0
37259,-100,4,1,0,80,0,1
44896,-100,4,1,0,70,0,0
45987,-100,4,1,0,80,0,1
53286,-101.010101010101,4,1,0,80,0,1
53354,-102.040816326531,4,1,0,80,0,1
53423,-103.092783505155,4,1,0,80,0,1
53491,-104.166666666667,4,1,0,80,0,1
53559,-105.263157894737,4,1,0,80,0,1
53627,-106.382978723404,4,1,0,80,0,1
53695,-107.52688172043,4,1,0,80,0,1
53763,-108.695652173913,4,1,0,80,0,1
53832,-109.89010989011,4,1,0,80,0,1
53900,-111.111111111111,4,1,0,80,0,1
53968,-112.359550561798,4,1,0,80,0,1
54036,-113.636363636364,4,1,0,80,0,1
54104,-114.942528735632,4,1,0,80,0,1
54173,-116.279069767442,4,1,0,80,0,1
54241,-117.647058823529,4,1,0,80,0,1
54309,-119.047619047619,4,1,0,80,0,1
54377,-120.481927710843,4,1,0,80,0,1
54445,-121.951219512195,4,1,0,80,0,1
54513,-129.87012987013,4,1,0,80,0,1
54582,-138.888888888889,4,1,0,80,0,1
54650,-149.253731343284,4,1,0,80,0,1
54714,-166.666666666667,4,1,0,70,0,0
61332,-169.204737732657,4,1,0,70,0,0
61400,-172.413793103448,4,1,0,70,0,0
61468,-175.438596491228,4,1,0,70,0,0
61536,-178.571428571429,4,1,0,70,0,0
61604,-181.818181818182,4,1,0,70,0,0
61673,-185.185185185185,4,1,0,70,0,0
61741,-188.679245283019,4,1,0,70,0,0
61809,-192.307692307692,4,1,0,70,0,0
61877,-196.078431372549,4,1,0,70,0,0
61945,-200,4,1,0,70,0,0
62013,-204.081632653061,4,1,0,70,0,0
62082,-208.333333333333,4,1,0,70,0,0
62150,-212.765957446809,4,1,0,70,0,0
62218,-217.391304347826,4,1,0,70,0,0
62286,-222.222222222222,4,1,0,70,0,0
62354,-227.272727272727,4,1,0,70,0,0
62423,-232.558139534884,4,1,0,70,0,0
62491,-238.095238095238,4,1,0,70,0,0
62559,-243.90243902439,4,1,0,70,0,0
62627,-250,4,1,0,70,0,0
62695,-256.410256410256,4,1,0,70,0,0
62763,-263.157894736842,4,1,0,70,0,0
62832,-270.27027027027,4,1,0,70,0,0
62900,-277.777777777778,4,1,0,70,0,0
62968,-285.714285714286,4,1,0,70,0,0
63036,-294.117647058824,4,1,0,70,0,0
63104,-303.030303030303,4,1,0,70,0,0
63173,-312.5,4,1,0,70,0,0
63241,-322.58064516129,4,1,0,70,0,0
63309,-333.333333333333,4,1,0,70,0,0
63441,-333.333333333333,4,1,0,80,0,1
69987,-333.333333333333,4,1,0,70,0,0
71078,-200,4,1,0,70,0,0
71146,-166.666666666667,4,1,0,70,0,0
71214,-142.857142857143,4,1,0,70,0,0
71282,-125,4,1,0,70,0,0
71350,-111.111111111111,4,1,0,70,0,0
71419,-100,4,1,0,70,0,0
71487,-90.9090909090909,4,1,0,70,0,0
71555,-83.3333333333333,4,1,0,70,0,0
71623,-76.9230769230769,4,1,0,70,0,0
71691,-66.6666666666667,4,1,0,70,0,0
71759,-58.8235294117647,4,1,0,70,0,0
71828,-52.6315789473684,4,1,0,70,0,0
71896,-50,4,1,0,70,0,0
72169,-100,4,1,0,80,0,1
80896,-100,4,1,0,70,0,0
107078,-100,4,1,0,80,0,1
114714,-100,4,1,0,70,0,0
115805,-100,4,1,0,80,0,1
123445,-102.040816326531,4,1,0,80,0,1
123513,-104.166666666667,4,1,0,80,0,1
123582,-106.382978723404,4,1,0,80,0,1
123650,-108.695652173913,4,1,0,80,0,1
123718,-111.111111111111,4,1,0,80,0,1
123786,-113.636363636364,4,1,0,80,0,1
123854,-116.279069767442,4,1,0,80,0,1
123923,-119.047619047619,4,1,0,80,0,1
123991,-121.951219512195,4,1,0,80,0,1
124059,-125,4,1,0,80,0,1
124127,-128.205128205128,4,1,0,80,0,1
124195,-131.578947368421,4,1,0,80,0,1
124263,-135.135135135135,4,1,0,80,0,1
124332,-149.253731343284,4,1,0,80,0,1
124400,-166.666666666667,4,1,0,80,0,1
124468,-188.679245283019,4,1,0,80,0,1
124532,-250,4,1,0,70,0,0
139873,-217.391304347826,4,1,0,70,0,0
139941,-192.307692307692,4,1,0,70,0,0
140009,-172.413793103448,4,1,0,70,0,0
140078,-156.25,4,1,0,70,0,0
140146,-142.857142857143,4,1,0,70,0,0
140214,-131.578947368421,4,1,0,70,0,0
140282,-121.951219512195,4,1,0,70,0,0
140350,-113.636363636364,4,1,0,70,0,0
140419,-106.382978723404,4,1,0,70,0,0
140487,-100,4,1,0,70,0,0
140555,-94.3396226415094,4,1,0,70,0,0
140623,-89.2857142857143,4,1,0,70,0,0
140691,-84.7457627118644,4,1,0,70,0,0
140759,-80.6451612903226,4,1,0,70,0,0
140828,-76.9230769230769,4,1,0,70,0,0
140896,-73.5294117647059,4,1,0,70,0,0
140964,-70.4225352112676,4,1,0,70,0,0
141032,-67.5675675675676,4,1,0,70,0,0
141100,-64.9350649350649,4,1,0,70,0,0
141169,-62.5,4,1,0,70,0,0
141237,-60.2409638554217,4,1,0,70,0,0
141305,-58.1395348837209,4,1,0,70,0,0
141373,-56.1797752808989,4,1,0,70,0,0
141441,-50,4,1,0,70,0,0
141987,-100,4,1,0,70,0,0
152896,-71.4285714285714,4,1,0,80,0,1
161623,-71.4285714285714,4,1,0,70,0,0
162441,-25,4,1,0,70,0,0

[HitObjects]
256,192,1809,5,2,0:0:0:0:
256,192,1945,1,0,0:0:0:0:
256,192,2218,1,0,0:0:0:0:
256,192,2354,1,4,0:0:0:0:
256,192,2627,1,4,0:0:0:0:
256,192,2900,1,6,0:0:0:0:
256,192,3309,1,0,0:0:0:0:
256,192,3718,1,0,0:0:0:0:
256,192,3991,1,0,0:0:0:0:
256,192,4127,1,0,0:0:0:0:
256,192,4263,1,0,0:0:0:0:
256,192,4400,1,0,0:0:0:0:
256,192,4536,1,4,0:0:0:0:
256,192,4809,1,4,0:0:0:0:
256,192,5218,1,6,0:0:0:0:
256,192,5491,1,0,0:0:0:0:
256,192,5900,1,0,0:0:0:0:
256,192,6173,1,8,0:0:0:0:
256,192,6309,1,8,0:0:0:0:
256,192,6445,1,0,0:0:0:0:
256,192,6582,1,0,0:0:0:0:
256,192,6718,1,4,0:0:0:0:
256,192,6991,1,4,0:0:0:0:
256,192,7263,1,6,0:0:0:0:
256,192,7673,1,0,0:0:0:0:
256,192,8082,1,0,0:0:0:0:
256,192,8354,1,0,0:0:0:0:
256,192,8491,1,0,0:0:0:0:
256,192,8627,1,0,0:0:0:0:
256,192,8763,1,8,0:0:0:0:
256,192,8900,1,4,0:0:0:0:
256,192,9173,1,4,0:0:0:0:
256,192,9582,1,6,0:0:0:0:
256,192,9854,1,0,0:0:0:0:
256,192,10263,1,0,0:0:0:0:
256,192,10536,1,8,0:0:0:0:
256,192,10741,1,0,0:0:0:0:
256,192,10945,1,0,0:0:0:0:
256,192,11082,1,2,0:0:0:0:
256,192,11150,1,0,0:0:0:0:
256,192,11218,1,0,0:0:0:0:
256,192,11354,1,0,0:0:0:0:
256,192,11491,1,0,0:0:0:0:
256,192,11627,1,2,0:0:0:0:
256,192,11763,1,0,0:0:0:0:
256,192,11900,1,0,0:0:0:0:
256,192,12036,1,0,0:0:0:0:
256,192,12309,1,0,0:0:0:0:
256,192,12377,1,0,0:0:0:0:
256,192,12445,1,0,0:0:0:0:
256,192,12582,1,0,0:0:0:0:
256,192,12718,1,2,0:0:0:0:
256,192,12786,1,0,0:0:0:0:
256,192,12854,1,2,0:0:0:0:
256,192,12991,1,2,0:0:0:0:
256,192,13059,1,0,0:0:0:0:
256,192,13127,1,2,0:0:0:0:
256,192,13263,1,0,0:0:0:0:
256,192,13400,1,2,0:0:0:0:
256,192,13468,1,2,0:0:0:0:
256,192,13536,1,2,0:0:0:0:
256,192,13673,1,2,0:0:0:0:
256,192,13809,1,0,0:0:0:0:
256,192,13945,1,0,0:0:0:0:
256,192,14082,1,2,0:0:0:0:
256,192,14218,1,0,0:0:0:0:
256,192,14491,1,0,0:0:0:0:
256,192,14559,1,0,0:0:0:0:
256,192,14627,1,2,0:0:0:0:
256,192,14763,1,2,0:0:0:0:
256,192,14900,1,2,0:0:0:0:
256,192,14945,1,2,0:0:0:0:
256,192,15036,1,0,0:0:0:0:
256,192,15173,1,2,0:0:0:0:
256,192,15218,1,2,0:0:0:0:
256,192,15309,1,0,0:0:0:0:
256,192,15445,1,0,0:0:0:0:
256,192,15513,1,0,0:0:0:0:
256,192,15582,1,0,0:0:0:0:
256,192,15718,1,0,0:0:0:0:
256,192,15854,1,0,0:0:0:0:
256,192,15991,1,2,0:0:0:0:
256,192,16059,1,0,0:0:0:0:
256,192,16127,1,0,0:0:0:0:
256,192,16263,1,2,0:0:0:0:
256,192,16400,1,0,0:0:0:0:
256,192,16536,1,0,0:0:0:0:
256,192,16673,1,2,0:0:0:0:
256,192,16741,1,2,0:0:0:0:
256,192,16809,1,2,0:0:0:0:
256,192,16945,1,2,0:0:0:0:
256,192,17082,1,0,0:0:0:0:
256,192,17150,1,0,0:0:0:0:
256,192,17218,1,2,0:0:0:0:
256,192,17354,1,0,0:0:0:0:
256,192,17627,1,0,0:0:0:0:
256,192,17763,1,2,0:0:0:0:
256,192,17832,1,2,0:0:0:0:
256,192,17900,1,0,0:0:0:0:
256,192,18036,1,2,0:0:0:0:
256,192,18173,1,0,0:0:0:0:
256,192,18309,1,2,0:0:0:0:
256,192,18377,1,2,0:0:0:0:
256,192,18445,1,0,0:0:0:0:
256,192,18582,1,0,0:0:0:0:
256,192,18718,1,0,0:0:0:0:
256,192,18786,1,0,0:0:0:0:
256,192,18854,1,2,0:0:0:0:
256,192,18923,1,2,0:0:0:0:
256,192,18991,1,0,0:0:0:0:
256,192,19059,1,0,0:0:0:0:
256,192,19127,1,2,0:0:0:0:
256,192,19263,1,4,0:0:0:0:
256,192,19536,1,2,0:0:0:0:
256,192,19809,1,0,0:0:0:0:
256,192,19945,1,2,0:0:0:0:
256,192,20013,1,2,0:0:0:0:
256,192,20082,1,2,0:0:0:0:
256,192,20218,1,2,0:0:0:0:
256,192,20354,1,0,0:0:0:0:
256,192,20627,1,8,0:0:0:0:
256,192,20763,1,8,0:0:0:0:
256,192,20900,1,0,0:0:0:0:
256,192,21036,1,0,0:0:0:0:
256,192,21104,1,2,0:0:0:0:
256,192,21173,1,2,0:0:0:0:
256,192,21241,1,2,0:0:0:0:
256,192,21309,1,0,0:0:0:0:
256,192,21445,1,0,0:0:0:0:
256,192,21718,1,8,0:0:0:0:
256,192,21991,1,0,0:0:0:0:
256,192,22127,1,0,0:0:0:0:
256,192,22263,1,0,0:0:0:0:
256,192,22400,1,8,0:0:0:0:
256,192,22536,1,0,0:0:0:0:
256,192,22604,1,0,0:0:0:0:
256,192,22673,1,0,0:0:0:0:
256,192,22809,1,2,0:0:0:0:
256,192,22945,1,0,0:0:0:0:
256,192,23082,1,0,0:0:0:0:
256,192,23150,1,2,0:0:0:0:
256,192,23218,1,2,0:0:0:0:
256,192,23286,1,2,0:0:0:0:
256,192,23354,1,0,0:0:0:0:
256,192,23423,1,0,0:0:0:0:
256,192,23491,1,2,0:0:0:0:
256,192,23627,1,0,0:0:0:0:
256,192,23900,1,2,0:0:0:0:
256,192,24173,1,0,0:0:0:0:
256,192,24309,1,8,0:0:0:0:
256,192,24445,1,8,0:0:0:0:
256,192,24582,1,8,0:0:0:0:
256,192,24718,1,2,0:0:0:0:
256,192,24786,1,0,0:0:0:0:
256,192,24854,1,0,0:0:0:0:
256,192,24991,1,2,0:0:0:0:
256,192,25127,1,2,0:0:0:0:
256,192,25263,1,0,0:0:0:0:
256,192,25400,1,0,0:0:0:0:
256,192,25536,1,0,0:0:0:0:
256,192,25673,1,2,0:0:0:0:
256,192,25809,1,0,0:0:0:0:
256,192,26082,1,2,0:0:0:0:
256,192,26354,1,0,0:0:0:0:
256,192,26423,1,0,0:0:0:0:
256,192,26491,1,2,0:0:0:0:
256,192,26627,1,0,0:0:0:0:
256,192,26695,1,0,0:0:0:0:
256,192,26763,1,2,0:0:0:0:
256,192,26900,1,0,0:0:0:0:
256,192,26968,1,0,0:0:0:0:
256,192,27036,1,2,0:0:0:0:
256,192,27173,1,2,0:0:0:0:
256,192,27309,1,0,0:0:0:0:
256,192,27445,1,0,0:0:0:0:
256,192,27513,1,0,0:0:0:0:
256,192,27582,1,0,0:0:0:0:
256,192,27650,1,0,0:0:0:0:
256,192,27718,1,2,0:0:0:0:
256,192,27786,1,2,0:0:0:0:
256,192,27854,1,0,0:0:0:0:
256,192,27923,1,0,0:0:0:0:
256,192,27991,1,2,0:0:0:0:
256,192,28059,1,2,0:0:0:0:
256,192,28127,1,2,0:0:0:0:
256,192,28195,1,2,0:0:0:0:
256,192,28263,1,0,0:0:0:0:
256,192,28332,1,0,0:0:0:0:
256,192,28400,1,2,0:0:0:0:
256,192,28536,1,0,0:0:0:0:
256,192,28604,1,0,0:0:0:0:
256,192,28673,1,2,0:0:0:0:
256,192,28809,1,8,0:0:0:0:
256,192,28945,1,0,0:0:0:0:
256,192,29082,1,0,0:0:0:0:
256,192,29150,1,0,0:0:0:0:
256,192,29218,1,2,0:0:0:0:
256,192,29354,1,2,0:0:0:0:
256,192,29491,1,0,0:0:0:0:
256,192,29627,1,0,0:0:0:0:
256,192,29695,1,0,0:0:0:0:
256,192,29763,1,0,0:0:0:0:
256,192,29832,1,0,0:0:0:0:
256,192,29900,1,2,0:0:0:0:
256,192,29968,1,2,0:0:0:0:
256,192,30036,1,0,0:0:0:0:
256,192,30104,1,0,0:0:0:0:
256,192,30173,1,2,0:0:0:0:
256,192,30241,1,0,0:0:0:0:
256,192,30309,1,0,0:0:0:0:
256,192,30377,1,0,0:0:0:0:
256,192,30445,1,2,0:0:0:0:
256,192,30582,1,2,0:0:0:0:
256,192,30718,1,0,0:0:0:0:
256,192,30786,1,2,0:0:0:0:
256,192,30854,1,2,0:0:0:0:
256,192,30991,1,0,0:0:0:0:
256,192,31127,1,0,0:0:0:0:
256,192,31263,1,0,0:0:0:0:
256,192,31332,1,2,0:0:0:0:
256,192,31400,1,2,0:0:0:0:
256,192,31536,1,0,0:0:0:0:
256,192,31673,1,0,0:0:0:0:
256,192,31809,1,2,0:0:0:0:
256,192,31877,1,2,0:0:0:0:
256,192,31945,1,0,0:0:0:0:
256,192,32013,1,0,0:0:0:0:
256,192,32082,1,2,0:0:0:0:
256,192,32150,1,2,0:0:0:0:
256,192,32218,1,0,0:0:0:0:
256,192,32286,1,0,0:0:0:0:
256,192,32354,1,2,0:0:0:0:
256,192,32423,1,0,0:0:0:0:
256,192,32491,1,0,0:0:0:0:
256,192,32559,1,0,0:0:0:0:
256,192,32627,1,2,0:0:0:0:
256,192,32900,1,0,0:0:0:0:
256,192,32968,1,0,0:0:0:0:
256,192,33036,1,0,0:0:0:0:
256,192,33173,1,2,0:0:0:0:
256,192,33309,1,0,0:0:0:0:
256,192,33445,1,0,0:0:0:0:
256,192,33513,1,0,0:0:0:0:
256,192,33582,1,0,0:0:0:0:
256,192,33718,1,2,0:0:0:0:
256,192,33854,1,0,0:0:0:0:
256,192,33991,1,0,0:0:0:0:
256,192,34059,1,0,0:0:0:0:
256,192,34127,1,2,0:0:0:0:
256,192,34195,1,2,0:0:0:0:
256,192,34263,1,0,0:0:0:0:
256,192,34332,1,0,0:0:0:0:
256,192,34400,1,2,0:0:0:0:
256,192,34468,1,2,0:0:0:0:
256,192,34536,1,0,0:0:0:0:
256,192,34604,1,0,0:0:0:0:
256,192,34673,1,0,0:0:0:0:
256,192,34741,1,0,0:0:0:0:
256,192,34809,1,2,0:0:0:0:
256,192,34945,1,0,0:0:0:0:
256,192,35082,1,0,0:0:0:0:
256,192,35150,1,2,0:0:0:0:
256,192,35218,1,0,0:0:0:0:
256,192,35354,1,0,0:0:0:0:
256,192,35491,1,2,0:0:0:0:
256,192,35627,1,0,0:0:0:0:
256,192,35695,1,2,0:0:0:0:
256,192,35763,1,0,0:0:0:0:
256,192,35900,1,0,0:0:0:0:
256,192,36036,1,2,0:0:0:0:
256,192,36173,1,2,0:0:0:0:
256,192,36241,1,0,0:0:0:0:
256,192,36309,1,0,0:0:0:0:
256,192,36377,1,0,0:0:0:0:
256,192,36445,1,2,0:0:0:0:
256,192,36513,1,2,0:0:0:0:
256,192,36582,1,0,0:0:0:0:
256,192,36650,1,0,0:0:0:0:
256,192,36718,1,2,0:0:0:0:
256,192,36786,1,0,0:0:0:0:
256,192,36854,1,0,0:0:0:0:
256,192,36923,1,0,0:0:0:0:
256,192,36991,1,0,0:0:0:0:
256,192,37127,1,0,0:0:0:0:
256,192,37263,1,2,0:0:0:0:
256,192,37400,1,2,0:0:0:0:
256,192,37468,1,0,0:0:0:0:
256,192,37536,1,0,0:0:0:0:
256,192,37673,1,2,0:0:0:0:
256,192,37809,1,2,0:0:0:0:
256,192,37945,1,2,0:0:0:0:
256,192,38013,1,0,0:0:0:0:
256,192,38082,1,0,0:0:0:0:
256,192,38218,1,2,0:0:0:0:
256,192,38354,1,0,0:0:0:0:
256,192,38423,1,0,0:0:0:0:
256,192,38491,1,2,0:0:0:0:
256,192,38559,1,2,0:0:0:0:
256,192,38627,1,0,0:0:0:0:
256,192,38695,1,0,0:0:0:0:
256,192,38763,1,2,0:0:0:0:
256,192,38832,1,2,0:0:0:0:
256,192,38900,1,0,0:0:0:0:
256,192,38968,1,0,0:0:0:0:
256,192,39036,1,2,0:0:0:0:
256,192,39104,1,2,0:0:0:0:
256,192,39173,1,0,0:0:0:0:
256,192,39309,1,0,0:0:0:0:
256,192,39377,1,2,0:0:0:0:
256,192,39445,1,0,0:0:0:0:
256,192,39582,1,0,0:0:0:0:
256,192,39650,1,0,0:0:0:0:
256,192,39718,1,0,0:0:0:0:
256,192,39854,1,2,0:0:0:0:
256,192,39991,1,0,0:0:0:0:
256,192,40059,1,0,0:0:0:0:
256,192,40127,1,2,0:0:0:0:
256,192,40195,1,0,0:0:0:0:
256,192,40263,1,0,0:0:0:0:
256,192,40400,1,2,0:0:0:0:
256,192,40536,1,0,0:0:0:0:
256,192,40604,1,2,0:0:0:0:
256,192,40673,1,2,0:0:0:0:
256,192,40741,1,2,0:0:0:0:
256,192,40809,1,0,0:0:0:0:
256,192,40877,1,0,0:0:0:0:
256,192,40945,1,2,0:0:0:0:
256,192,41013,1,2,0:0:0:0:
256,192,41082,1,0,0:0:0:0:
256,192,41150,1,2,0:0:0:0:
256,192,41218,1,0,0:0:0:0:
256,192,41286,1,2,0:0:0:0:
256,192,41354,1,0,0:0:0:0:
256,192,41423,1,2,0:0:0:0:
256,192,41491,1,0,0:0:0:0:
256,192,41627,1,0,0:0:0:0:
256,192,41763,1,2,0:0:0:0:
256,192,41832,1,2,0:0:0:0:
256,192,41900,1,0,0:0:0:0:
256,192,42036,1,0,0:0:0:0:
256,192,42104,1,0,0:0:0:0:
256,192,42173,1,2,0:0:0:0:
256,192,42309,1,2,0:0:0:0:
256,192,42377,1,2,0:0:0:0:
256,192,42445,1,0,0:0:0:0:
256,192,42513,1,2,0:0:0:0:
256,192,42582,1,2,0:0:0:0:
256,192,42718,1,2,0:0:0:0:
256,192,42786,1,0,0:0:0:0:
256,192,42854,1,2,0:0:0:0:
256,192,42923,1,2,0:0:0:0:
256,192,42991,1,0,0:0:0:0:
256,192,43059,1,0,0:0:0:0:
256,192,43127,1,2,0:0:0:0:
256,192,43195,1,0,0:0:0:0:
256,192,43263,1,2,0:0:0:0:
256,192,43332,1,2,0:0:0:0:
256,192,43400,1,2,0:0:0:0:
256,192,43468,1,2,0:0:0:0:
256,192,43536,1,0,0:0:0:0:
256,192,43604,1,2,0:0:0:0:
256,192,43673,1,0,0:0:0:0:
256,192,43809,1,0,0:0:0:0:
256,192,43945,1,8,0:0:0:0:
256,192,44013,1,8,0:0:0:0:
256,192,44082,1,0,0:0:0:0:
256,192,44218,1,0,0:0:0:0:
256,192,44286,1,0,0:0:0:0:
256,192,44354,1,0,0:0:0:0:
256,192,44491,1,2,0:0:0:0:
256,192,44627,1,4,0:0:0:0:
256,192,44763,1,6,0:0:0:0:
256,192,44900,1,0,0:0:0:0:
256,192,44968,1,0,0:0:0:0:
256,192,45036,1,2,0:0:0:0:
256,192,45173,1,0,0:0:0:0:
256,192,45241,1,2,0:0:0:0:
256,192,45309,1,0,0:0:0:0:
256,192,45377,1,0,0:0:0:0:
256,192,45445,1,2,0:0:0:0:
256,192,45582,1,4,0:0:0:0:
256,192,45718,1,6,0:0:0:0:
256,192,45991,1,0,0:0:0:0:
256,192,46127,1,2,0:0:0:0:
256,192,46195,1,2,0:0:0:0:
256,192,46263,1,0,0:0:0:0:
256,192,46400,1,0,0:0:0:0:
256,192,46536,1,0,0:0:0:0:
256,192,46673,1,0,0:0:0:0:
256,192,46741,1,0,0:0:0:0:
256,192,46809,1,2,0:0:0:0:
256,192,46945,1,0,0:0:0:0:
256,192,47082,1,2,0:0:0:0:
256,192,47150,1,2,0:0:0:0:
256,192,47218,1,0,0:0:0:0:
256,192,47286,1,0,0:0:0:0:
256,192,47354,1,2,0:0:0:0:
256,192,47423,1,0,0:0:0:0:
256,192,47491,1,0,0:0:0:0:
256,192,47559,1,0,0:0:0:0:
256,192,47627,1,2,0:0:0:0:
256,192,47695,1,0,0:0:0:0:
256,192,47763,1,0,0:0:0:0:
256,192,47832,1,0,0:0:0:0:
256,192,47900,1,2,0:0:0:0:
256,192,48036,1,0,0:0:0:0:
256,192,48173,1,0,0:0:0:0:
256,192,48309,1,2,0:0:0:0:
256,192,48377,1,2,0:0:0:0:
256,192,48445,1,0,0:0:0:0:
256,192,48582,1,0,0:0:0:0:
256,192,48650,1,0,0:0:0:0:
256,192,48718,1,2,0:0:0:0:
256,192,48786,1,0,0:0:0:0:
256,192,48854,1,0,0:0:0:0:
256,192,48991,1,0,0:0:0:0:
256,192,49127,1,0,0:0:0:0:
256,192,49195,1,0,0:0:0:0:
256,192,49263,1,2,0:0:0:0:
256,192,49400,1,0,0:0:0:0:
256,192,49536,1,2,0:0:0:0:
256,192,49604,1,0,0:0:0:0:
256,192,49673,1,2,0:0:0:0:
256,192,49741,1,2,0:0:0:0:
256,192,49809,1,0,0:0:0:0:
256,192,49877,1,2,0:0:0:0:
256,192,49945,1,0,0:0:0:0:
256,192,50013,1,2,0:0:0:0:
256,192,50082,1,0,0:0:0:0:
256,192,50218,1,0,0:0:0:0:
256,192,50286,1,2,0:0:0:0:
256,192,50354,1,0,0:0:0:0:
256,192,50491,1,2,0:0:0:0:
256,192,50559,1,2,0:0:0:0:
256,192,50627,1,0,0:0:0:0:
256,192,50763,1,0,0:0:0:0:
256,192,50900,1,2,0:0:0:0:
256,192,50968,1,2,0:0:0:0:
256,192,51036,1,0,0:0:0:0:
256,192,51104,1,2,0:0:0:0:
256,192,51173,1,0,0:0:0:0:
256,192,51241,1,0,0:0:0:0:
256,192,51309,1,2,0:0:0:0:
256,192,51377,1,0,0:0:0:0:
256,192,51445,1,2,0:0:0:0:
256,192,51513,1,0,0:0:0:0:
256,192,51582,1,2,0:0:0:0:
256,192,51718,1,0,0:0:0:0:
256,192,51786,1,0,0:0:0:0:
256,192,51854,1,0,0:0:0:0:
256,192,51923,1,2,0:0:0:0:
256,192,51991,1,2,0:0:0:0:
256,192,52059,1,2,0:0:0:0:
256,192,52127,1,2,0:0:0:0:
256,192,52195,1,2,0:0:0:0:
256,192,52263,1,0,0:0:0:0:
256,192,52400,1,0,0:0:0:0:
256,192,52468,1,2,0:0:0:0:
256,192,52536,1,0,0:0:0:0:
256,192,52673,1,2,0:0:0:0:
256,192,52809,1,0,0:0:0:0:
256,192,52945,1,2,0:0:0:0:
256,192,53013,1,2,0:0:0:0:
256,192,53082,1,0,0:0:0:0:
256,192,53218,1,2,0:0:0:0:
256,192,53286,1,0,0:0:0:0:
256,192,53354,1,2,0:0:0:0:
256,192,53423,1,2,0:0:0:0:
256,192,53491,1,0,0:0:0:0:
256,192,53559,1,2,0:0:0:0:
256,192,53627,1,0,0:0:0:0:
256,192,53695,1,0,0:0:0:0:
256,192,53763,1,2,0:0:0:0:
256,192,53832,1,0,0:0:0:0:
256,192,53900,1,2,0:0:0:0:
256,192,53968,1,0,0:0:0:0:
256,192,54036,1,0,0:0:0:0:
256,192,54104,1,2,0:0:0:0:
256,192,54173,1,2,0:0:0:0:
256,192,54241,1,2,0:0:0:0:
256,192,54309,1,2,0:0:0:0:
256,192,54377,1,2,0:0:0:0:
256,192,54445,1,2,0:0:0:0:
256,192,54513,1,2,0:0:0:0:
256,192,54582,1,2,0:0:0:0:
256,192,54650,1,2,0:0:0:0:
256,192,54718,1,0,0:0:0:0:
256,192,54854,1,0,0:0:0:0:
256,192,55400,1,0,0:0:0:0:
256,192,55673,1,8,0:0:0:0:
256,192,55809,1,0,0:0:0:0:
256,192,56082,1,0,0:0:0:0:
256,192,56354,1,8,0:0:0:0:
256,192,56491,1,8,0:0:0:0:
256,192,56627,1,0,0:0:0:0:
256,192,56763,1,8,0:0:0:0:
256,192,56900,1,0,0:0:0:0:
256,192,57036,1,0,0:0:0:0:
256,192,57309,1,8,0:0:0:0:
256,192,57445,1,0,0:0:0:0:
256,192,57582,1,8,0:0:0:0:
256,192,57718,1,8,0:0:0:0:
256,192,57991,1,4,0:0:0:0:
256,192,58195,1,4,0:0:0:0:
256,192,58400,1,6,0:0:0:0:
256,192,58536,1,2,0:0:0:0:
256,192,58604,1,2,0:0:0:0:
256,192,58673,1,2,0:0:0:0:
256,192,58809,1,2,0:0:0:0:
256,192,59082,1,0,0:0:0:0:
256,192,59218,1,0,0:0:0:0:
256,192,59627,1,2,0:0:0:0:
256,192,59763,1,0,0:0:0:0:
256,192,60036,1,2,0:0:0:0:
256,192,60173,1,0,0:0:0:0:
256,192,60309,1,2,0:0:0:0:
256,192,60582,1,0,0:0:0:0:
256,192,60718,1,8,0:0:0:0:
256,192,60854,1,0,0:0:0:0:
256,192,60991,1,0,0:0:0:0:
256,192,61127,1,0,0:0:0:0:
256,192,61263,1,2,0:0:0:0:
256,192,61536,1,0,0:0:0:0:
256,192,61809,1,8,0:0:0:0:
256,192,61945,1,0,0:0:0:0:
256,192,62082,1,8,0:0:0:0:
256,192,62354,1,0,0:0:0:0:
256,192,62559,1,0,0:0:0:0:
256,192,62763,1,2,0:0:0:0:
256,192,62900,1,8,0:0:0:0:
256,192,63104,1,0,0:0:0:0:
256,192,63309,1,0,0:0:0:0:
256,192,63445,1,0,0:0:0:0:
256,192,63582,1,0,0:0:0:0:
256,192,63650,1,0,0:0:0:0:
256,192,63718,1,0,0:0:0:0:
256,192,63854,1,0,0:0:0:0:
256,192,63991,1,2,0:0:0:0:
256,192,64059,1,2,0:0:0:0:
256,192,64127,1,0,0:0:0:0:
256,192,64263,1,2,0:0:0:0:
256,192,64400,1,0,0:0:0:0:
256,192,64536,1,2,0:0:0:0:
256,192,64604,1,2,0:0:0:0:
256,192,64673,1,0,0:0:0:0:
256,192,64741,1,0,0:0:0:0:
256,192,64809,1,2,0:0:0:0:
256,192,64877,1,2,0:0:0:0:
256,192,64945,1,0,0:0:0:0:
256,192,65082,1,0,0:0:0:0:
256,192,65150,1,2,0:0:0:0:
256,192,65218,1,0,0:0:0:0:
256,192,65354,1,0,0:0:0:0:
256,192,65491,1,0,0:0:0:0:
256,192,65627,1,2,0:0:0:0:
256,192,65695,1,0,0:0:0:0:
256,192,65763,1,2,0:0:0:0:
256,192,65832,1,2,0:0:0:0:
256,192,65900,1,0,0:0:0:0:
256,192,65968,1,2,0:0:0:0:
256,192,66036,1,0,0:0:0:0:
256,192,66173,1,2,0:0:0:0:
256,192,66241,1,2,0:0:0:0:
256,192,66309,1,0,0:0:0:0:
256,192,66377,1,2,0:0:0:0:
256,192,66445,1,0,0:0:0:0:
256,192,66582,1,0,0:0:0:0:
256,192,66718,1,2,0:0:0:0:
256,192,66786,1,0,0:0:0:0:
256,192,66854,1,0,0:0:0:0:
256,192,66991,1,2,0:0:0:0:
256,192,67059,1,2,0:0:0:0:
256,192,67127,1,0,0:0:0:0:
256,192,67263,1,2,0:0:0:0:
256,192,67332,1,0,0:0:0:0:
256,192,67400,1,2,0:0:0:0:
256,192,67468,1,2,0:0:0:0:
256,192,67536,1,0,0:0:0:0:
256,192,67673,1,2,0:0:0:0:
256,192,67809,1,0,0:0:0:0:
256,192,67945,1,0,0:0:0:0:
256,192,68013,1,0,0:0:0:0:
256,192,68082,1,2,0:0:0:0:
256,192,68218,1,0,0:0:0:0:
256,192,68286,1,0,0:0:0:0:
256,192,68354,1,2,0:0:0:0:
256,192,68491,1,0,0:0:0:0:
256,192,68559,1,2,0:0:0:0:
256,192,68627,1,2,0:0:0:0:
256,192,68695,1,0,0:0:0:0:
256,192,68763,1,0,0:0:0:0:
256,192,68900,1,2,0:0:0:0:
256,192,68968,1,0,0:0:0:0:
256,192,69036,1,2,0:0:0:0:
256,192,69104,1,2,0:0:0:0:
256,192,69173,1,0,0:0:0:0:
256,192,69241,1,2,0:0:0:0:
256,192,69377,1,0,0:0:0:0:
256,192,69445,1,0,0:0:0:0:
256,192,69513,1,2,0:0:0:0:
256,192,69582,1,0,0:0:0:0:
256,192,69650,1,2,0:0:0:0:
256,192,69718,1,2,0:0:0:0:
256,192,69786,1,0,0:0:0:0:
256,192,69854,1,0,0:0:0:0:
256,192,69923,1,2,0:0:0:0:
256,192,69991,12,0,70945,0:0:0:0:
256,192,71082,5,2,0:0:0:0:
256,192,71286,1,2,0:0:0:0:
256,192,71491,1,2,0:0:0:0:
256,192,71627,1,2,0:0:0:0:
256,192,71673,1,2,0:0:0:0:
256,192,71718,1,2,0:0:0:0:
256,192,71809,1,2,0:0:0:0:
256,192,71900,1,2,0:0:0:0:
256,192,71991,1,2,0:0:0:0:
256,192,72173,1,0,0:0:0:0:
256,192,72241,1,0,0:0:0:0:
256,192,72309,1,0,0:0:0:0:
256,192,72445,1,2,0:0:0:0:
256,192,72582,1,0,0:0:0:0:
256,192,72650,1,0,0:0:0:0:
256,192,72718,1,0,0:0:0:0:
256,192,72854,1,2,0:0:0:0:
256,192,72991,1,0,0:0:0:0:
256,192,73059,1,2,0:0:0:0:
256,192,73127,1,0,0:0:0:0:
256,192,73263,1,0,0:0:0:0:
256,192,73332,1,0,0:0:0:0:
256,192,73400,1,2,0:0:0:0:
256,192,73468,1,2,0:0:0:0:
256,192,73536,1,0,0:0:0:0:
256,192,73673,1,0,0:0:0:0:
256,192,73741,1,2,0:0:0:0:
256,192,73809,1,2,0:0:0:0:
256,192,73877,1,2,0:0:0:0:
256,192,73945,1,0,0:0:0:0:
256,192,74013,1,0,0:0:0:0:
256,192,74082,1,0,0:0:0:0:
256,192,74218,1,2,0:0:0:0:
256,192,74354,1,0,0:0:0:0:
256,192,74423,1,0,0:0:0:0:
256,192,74491,1,0,0:0:0:0:
256,192,74627,1,2,0:0:0:0:
256,192,74763,1,0,0:0:0:0:
256,192,74832,1,0,0:0:0:0:
256,192,74900,1,0,0:0:0:0:
256,192,75036,1,2,0:0:0:0:
256,192,75173,1,0,0:0:0:0:
256,192,75309,1,0,0:0:0:0:
256,192,75377,1,2,0:0:0:0:
256,192,75445,1,0,0:0:0:0:
256,192,75513,1,0,0:0:0:0:
256,192,75582,1,2,0:0:0:0:
256,192,75718,1,2,0:0:0:0:
256,192,75854,1,0,0:0:0:0:
256,192,75991,1,0,0:0:0:0:
256,192,76059,1,2,0:0:0:0:
256,192,76127,1,2,0:0:0:0:
256,192,76195,1,0,0:0:0:0:
256,192,76263,1,0,0:0:0:0:
256,192,76332,1,0,0:0:0:0:
256,192,76400,1,2,0:0:0:0:
256,192,76536,1,0,0:0:0:0:
256,192,76604,1,0,0:0:0:0:
256,192,76673,1,0,0:0:0:0:
256,192,76809,1,2,0:0:0:0:
256,192,76945,1,0,0:0:0:0:
256,192,77013,1,0,0:0:0:0:
256,192,77082,1,0,0:0:0:0:
256,192,77218,1,2,0:0:0:0:
256,192,77354,1,0,0:0:0:0:
256,192,77423,1,2,0:0:0:0:
256,192,77491,1,2,0:0:0:0:
256,192,77627,1,0,0:0:0:0:
256,192,77695,1,0,0:0:0:0:
256,192,77763,1,2,0:0:0:0:
256,192,77832,1,0,0:0:0:0:
256,192,77900,1,0,0:0:0:0:
256,192,78036,1,2,0:0:0:0:
256,192,78104,1,2,0:0:0:0:
256,192,78173,1,2,0:0:0:0:
256,192,78241,1,2,0:0:0:0:
256,192,78309,1,0,0:0:0:0:
256,192,78445,1,2,0:0:0:0:
256,192,78513,1,2,0:0:0:0:
256,192,78582,1,0,0:0:0:0:
256,192,78650,1,2,0:0:0:0:
256,192,78718,1,0,0:0:0:0:
256,192,78786,1,0,0:0:0:0:
256,192,78854,1,0,0:0:0:0:
256,192,78991,1,2,0:0:0:0:
256,192,79127,1,0,0:0:0:0:
256,192,79195,1,0,0:0:0:0:
256,192,79263,1,0,0:0:0:0:
256,192,79400,1,2,0:0:0:0:
256,192,79536,1,0,0:0:0:0:
256,192,79604,1,0,0:0:0:0:
256,192,79673,1,2,0:0:0:0:
256,192,79809,1,4,0:0:0:0:
256,192,79991,1,4,0:0:0:0:
256,192,80173,1,6,0:0:0:0:
256,192,80354,1,4,0:0:0:0:
256,192,80536,1,4,0:0:0:0:
256,192,80718,1,4,0:0:0:0:
256,192,80900,1,0,0:0:0:0:
256,192,80968,1,0,0:0:0:0:
256,192,81036,1,0,0:0:0:0:
256,192,81173,1,2,0:0:0:0:
256,192,81445,1,2,0:0:0:0:
256,192,81582,1,0,0:0:0:0:
256,192,81718,1,0,0:0:0:0:
256,192,81854,1,2,0:0:0:0:
256,192,82127,1,0,0:0:0:0:
256,192,82195,1,0,0:0:0:0:
256,192,82263,1,0,0:0:0:0:
256,192,82400,1,0,0:0:0:0:
256,192,82536,1,0,0:0:0:0:
256,192,82582,1,0,0:0:0:0:
256,192,82673,1,2,0:0:0:0:
256,192,82718,1,2,0:0:0:0:
256,192,82809,1,0,0:0:0:0:
256,192,82854,1,0,0:0:0:0:
256,192,82945,1,2,0:0:0:0:
256,192,82991,1,2,0:0:0:0:
256,192,83082,1,0,0:0:0:0:
256,192,83354,1,2,0:0:0:0:
256,192,83423,1,2,0:0:0:0:
256,192,83491,1,0,0:0:0:0:
256,192,83627,1,2,0:0:0:0:
256,192,83763,1,0,0:0:0:0:
256,192,83900,1,0,0:0:0:0:
256,192,84036,1,2,0:0:0:0:
256,192,84173,1,0,0:0:0:0:
256,192,84241,1,0,0:0:0:0:
256,192,84309,1,0,0:0:0:0:
256,192,84377,1,2,0:0:0:0:
256,192,84445,1,2,0:0:0:0:
256,192,84582,1,2,0:0:0:0:
256,192,84718,1,0,0:0:0:0:
256,192,84786,1,2,0:0:0:0:
256,192,84854,1,2,0:0:0:0:
256,192,84923,1,2,0:0:0:0:
256,192,84991,1,2,0:0:0:0:
256,192,85127,1,0,0:0:0:0:
256,192,85263,1,0,0:0:0:0:
256,192,85536,1,2,0:0:0:0:
256,192,85673,1,2,0:0:0:0:
256,192,85809,1,0,0:0:0:0:
256,192,86082,1,0,0:0:0:0:
256,192,86218,1,2,0:0:0:0:
256,192,86491,1,0,0:0:0:0:
256,192,86627,1,0,0:0:0:0:
256,192,86763,1,2,0:0:0:0:
256,192,86900,1,0,0:0:0:0:
256,192,86968,1,0,0:0:0:0:
256,192,87036,1,2,0:0:0:0:
256,192,87173,1,0,0:0:0:0:
256,192,87445,1,0,0:0:0:0:
256,192,87582,1,2,0:0:0:0:
256,192,87650,1,2,0:0:0:0:
256,192,87718,1,0,0:0:0:0:
256,192,87854,1,2,0:0:0:0:
256,192,87923,1,2,0:0:0:0:
256,192,87991,1,0,0:0:0:0:
256,192,88127,1,2,0:0:0:0:
256,192,88195,1,0,0:0:0:0:
256,192,88263,1,0,0:0:0:0:
256,192,88400,1,0,0:0:0:0:
256,192,88536,1,0,0:0:0:0:
256,192,88604,1,0,0:0:0:0:
256,192,88673,1,2,0:0:0:0:
256,192,88741,1,2,0:0:0:0:
256,192,88809,1,0,0:0:0:0:
256,192,88877,1,0,0:0:0:0:
256,192,88945,1,2,0:0:0:0:
256,192,89082,1,4,0:0:0:0:
256,192,89354,1,2,0:0:0:0:
256,192,89627,1,0,0:0:0:0:
256,192,89763,1,0,0:0:0:0:
256,192,90036,1,2,0:0:0:0:
256,192,90173,1,0,0:0:0:0:
256,192,90445,1,2,0:0:0:0:
256,192,90513,1,0,0:0:0:0:
256,192,90582,1,0,0:0:0:0:
256,192,90718,1,0,0:0:0:0:
256,192,90854,1,2,0:0:0:0:
256,192,90991,1,0,0:0:0:0:
256,192,91127,1,0,0:0:0:0:
256,192,91263,1,2,0:0:0:0:
256,192,91536,1,2,0:0:0:0:
256,192,91673,1,2,0:0:0:0:
256,192,91809,1,0,0:0:0:0:
256,192,92082,1,2,0:0:0:0:
256,192,92218,1,0,0:0:0:0:
256,192,92354,1,0,0:0:0:0:
256,192,92423,1,0,0:0:0:0:
256,192,92491,1,0,0:0:0:0:
256,192,92627,1,0,0:0:0:0:
256,192,92763,1,2,0:0:0:0:
256,192,92900,1,0,0:0:0:0:
256,192,92968,1,2,0:0:0:0:
256,192,93036,1,2,0:0:0:0:
256,192,93104,1,2,0:0:0:0:
256,192,93173,1,0,0:0:0:0:
256,192,93241,1,0,0:0:0:0:
256,192,93309,1,2,0:0:0:0:
256,192,93445,1,0,0:0:0:0:
256,192,93718,1,2,0:0:0:0:
256,192,93991,1,0,0:0:0:0:
256,192,94127,1,2,0:0:0:0:
256,192,94195,1,2,0:0:0:0:
256,192,94263,1,2,0:0:0:0:
256,192,94400,1,2,0:0:0:0:
256,192,94536,1,0,0:0:0:0:
256,192,94604,1,0,0:0:0:0:
256,192,94673,1,2,0:0:0:0:
256,192,94809,1,2,0:0:0:0:
256,192,95082,1,0,0:0:0:0:
256,192,95218,1,2,0:0:0:0:
256,192,95354,1,2,0:0:0:0:
256,192,95491,1,2,0:0:0:0:
256,192,95627,1,0,0:0:0:0:
256,192,95900,1,2,0:0:0:0:
256,192,96173,1,0,0:0:0:0:
256,192,96309,1,2,0:0:0:0:
256,192,96377,1,2,0:0:0:0:
256,192,96445,1,0,0:0:0:0:
256,192,96513,1,0,0:0:0:0:
256,192,96582,1,2,0:0:0:0:
256,192,96718,1,0,0:0:0:0:
256,192,96786,1,0,0:0:0:0:
256,192,96854,1,0,0:0:0:0:
256,192,96923,1,2,0:0:0:0:
256,192,96991,1,0,0:0:0:0:
256,192,97127,1,0,0:0:0:0:
256,192,97195,1,2,0:0:0:0:
256,192,97263,1,0,0:0:0:0:
256,192,97400,1,2,0:0:0:0:
256,192,97468,1,0,0:0:0:0:
256,192,97536,1,0,0:0:0:0:
256,192,97604,1,2,0:0:0:0:
256,192,97673,1,0,0:0:0:0:
256,192,97741,1,0,0:0:0:0:
256,192,97809,1,2,0:0:0:0:
256,192,97877,1,0,0:0:0:0:
256,192,98013,1,0,0:0:0:0:
256,192,98082,1,0,0:0:0:0:
256,192,98150,1,2,0:0:0:0:
256,192,98354,1,0,0:0:0:0:
256,192,98491,1,2,0:0:0:0:
256,192,98559,1,2,0:0:0:0:
256,192,98627,1,0,0:0:0:0:
256,192,98763,1,2,0:0:0:0:
256,192,98900,1,0,0:0:0:0:
256,192,98968,1,0,0:0:0:0:
256,192,99104,1,2,0:0:0:0:
256,192,99173,1,0,0:0:0:0:
256,192,99309,1,2,0:0:0:0:
256,192,99445,1,0,0:0:0:0:
256,192,99513,1,0,0:0:0:0:
256,192,99582,1,0,0:0:0:0:
256,192,99650,1,2,0:0:0:0:
256,192,99718,1,0,0:0:0:0:
256,192,99854,1,2,0:0:0:0:
256,192,99991,1,0,0:0:0:0:
256,192,100059,1,2,0:0:0:0:
256,192,100127,1,2,0:0:0:0:
256,192,100195,1,0,0:0:0:0:
256,192,100263,1,0,0:0:0:0:
256,192,100536,1,2,0:0:0:0:
256,192,100673,1,0,0:0:0:0:
256,192,100741,1,0,0:0:0:0:
256,192,100809,1,0,0:0:0:0:
256,192,100877,1,2,0:0:0:0:
256,192,101013,1,2,0:0:0:0:
256,192,101082,1,0,0:0:0:0:
256,192,101218,1,0,0:0:0:0:
256,192,101286,1,0,0:0:0:0:
256,192,101354,1,2,0:0:0:0:
256,192,101491,1,0,0:0:0:0:
256,192,101627,1,0,0:0:0:0:
256,192,101695,1,0,0:0:0:0:
256,192,101763,1,2,0:0:0:0:
256,192,101832,1,2,0:0:0:0:
256,192,101900,1,0,0:0:0:0:
256,192,101968,1,0,0:0:0:0:
256,192,102036,1,0,0:0:0:0:
256,192,102173,1,2,0:0:0:0:
256,192,102309,1,2,0:0:0:0:
256,192,102377,1,0,0:0:0:0:
256,192,102445,1,0,0:0:0:0:
256,192,102718,1,2,0:0:0:0:
256,192,102854,1,2,0:0:0:0:
256,192,102923,1,0,0:0:0:0:
256,192,102991,1,0,0:0:0:0:
256,192,103127,1,2,0:0:0:0:
256,192,103263,1,0,0:0:0:0:
256,192,103332,1,0,0:0:0:0:
256,192,103400,1,2,0:0:0:0:
256,192,103468,1,0,0:0:0:0:
256,192,103536,1,0,0:0:0:0:
256,192,103673,1,2,0:0:0:0:
256,192,103809,1,2,0:0:0:0:
256,192,103877,1,0,0:0:0:0:
256,192,103945,1,0,0:0:0:0:
256,192,104013,1,2,0:0:0:0:
256,192,104082,1,0,0:0:0:0:
256,192,104150,1,2,0:0:0:0:
256,192,104218,1,2,0:0:0:0:
256,192,104286,1,0,0:0:0:0:
256,192,104354,1,0,0:0:0:0:
256,192,104423,1,2,0:0:0:0:
256,192,104491,1,0,0:0:0:0:
256,192,104559,1,0,0:0:0:0:
256,192,104627,1,0,0:0:0:0:
256,192,104763,1,0,0:0:0:0:
256,192,104900,1,2,0:0:0:0:
256,192,105036,1,2,0:0:0:0:
256,192,105104,1,2,0:0:0:0:
256,192,105173,1,0,0:0:0:0:
256,192,105309,1,2,0:0:0:0:
256,192,105445,1,0,0:0:0:0:
256,192,105582,1,0,0:0:0:0:
256,192,105650,1,0,0:0:0:0:
256,192,105718,1,2,0:0:0:0:
256,192,105854,1,0,0:0:0:0:
256,192,105991,1,2,0:0:0:0:
256,192,106127,1,2,0:0:0:0:
256,192,106195,1,2,0:0:0:0:
256,192,106263,1,2,0:0:0:0:
256,192,106400,1,2,0:0:0:0:
256,192,106536,1,0,0:0:0:0:
256,192,106604,1,0,0:0:0:0:
256,192,106673,1,2,0:0:0:0:
256,192,106741,1,0,0:0:0:0:
256,192,106809,1,2,0:0:0:0:
256,192,106877,1,2,0:0:0:0:
256,192,106945,1,0,0:0:0:0:
256,192,107082,5,0,0:0:0:0:
256,192,107150,1,2,0:0:0:0:
256,192,107218,1,2,0:0:0:0:
256,192,107286,1,2,0:0:0:0:
256,192,107354,1,0,0:0:0:0:
256,192,107423,1,0,0:0:0:0:
256,192,107491,1,2,0:0:0:0:
256,192,107559,1,2,0:0:0:0:
256,192,107627,1,0,0:0:0:0:
256,192,107695,1,2,0:0:0:0:
256,192,107763,1,2,0:0:0:0:
256,192,107832,1,0,0:0:0:0:
256,192,107900,1,0,0:0:0:0:
256,192,107968,1,2,0:0:0:0:
256,192,108036,1,0,0:0:0:0:
256,192,108104,1,2,0:0:0:0:
256,192,108173,1,0,0:0:0:0:
256,192,108241,1,2,0:0:0:0:
256,192,108309,1,2,0:0:0:0:
256,192,108377,1,2,0:0:0:0:
256,192,108445,1,0,0:0:0:0:
256,192,108513,1,0,0:0:0:0:
256,192,108582,1,2,0:0:0:0:
256,192,108650,1,2,0:0:0:0:
256,192,108718,1,0,0:0:0:0:
256,192,108786,1,2,0:0:0:0:
256,192,108854,1,2,0:0:0:0:
256,192,108923,1,2,0:0:0:0:
256,192,108991,1,0,0:0:0:0:
256,192,109059,1,2,0:0:0:0:
256,192,109127,1,0,0:0:0:0:
256,192,109195,1,2,0:0:0:0:
256,192,109263,1,0,0:0:0:0:
256,192,109332,1,0,0:0:0:0:
256,192,109400,1,2,0:0:0:0:
256,192,109468,1,2,0:0:0:0:
256,192,109536,1,0,0:0:0:0:
256,192,109604,1,2,0:0:0:0:
256,192,109673,1,2,0:0:0:0:
256,192,109741,1,2,0:0:0:0:
256,192,109809,1,0,0:0:0:0:
256,192,109877,1,0,0:0:0:0:
256,192,109945,1,2,0:0:0:0:
256,192,110013,1,2,0:0:0:0:
256,192,110082,1,0,0:0:0:0:
256,192,110150,1,2,0:0:0:0:
256,192,110218,1,2,0:0:0:0:
256,192,110286,1,2,0:0:0:0:
256,192,110354,1,0,0:0:0:0:
256,192,110423,1,2,0:0:0:0:
256,192,110491,1,2,0:0:0:0:
256,192,110559,1,0,0:0:0:0:
256,192,110627,1,0,0:0:0:0:
256,192,110695,1,2,0:0:0:0:
256,192,110763,1,2,0:0:0:0:
256,192,110832,1,0,0:0:0:0:
256,192,110900,1,0,0:0:0:0:
256,192,110968,1,2,0:0:0:0:
256,192,111036,1,0,0:0:0:0:
256,192,111104,1,2,0:0:0:0:
256,192,111173,1,0,0:0:0:0:
256,192,111241,1,2,0:0:0:0:
256,192,111309,1,0,0:0:0:0:
256,192,111377,1,2,0:0:0:0:
256,192,111445,1,0,0:0:0:0:
256,192,111513,1,2,0:0:0:0:
256,192,111582,1,2,0:0:0:0:
256,192,111650,1,2,0:0:0:0:
256,192,111718,1,0,0:0:0:0:
256,192,111786,1,0,0:0:0:0:
256,192,111854,1,2,0:0:0:0:
256,192,111923,1,2,0:0:0:0:
256,192,111991,1,0,0:0:0:0:
256,192,112059,1,2,0:0:0:0:
256,192,112127,1,2,0:0:0:0:
256,192,112195,1,2,0:0:0:0:
256,192,112263,1,0,0:0:0:0:
256,192,112332,1,0,0:0:0:0:
256,192,112400,1,2,0:0:0:0:
256,192,112468,1,0,0:0:0:0:
256,192,112536,1,0,0:0:0:0:
256,192,112604,1,2,0:0:0:0:
256,192,112673,1,0,0:0:0:0:
256,192,112741,1,2,0:0:0:0:
256,192,112809,1,0,0:0:0:0:
256,192,112877,1,2,0:0:0:0:
256,192,112945,1,2,0:0:0:0:
256,192,113013,1,0,0:0:0:0:
256,192,113082,1,0,0:0:0:0:
256,192,113150,1,2,0:0:0:0:
256,192,113218,1,0,0:0:0:0:
256,192,113286,1,2,0:0:0:0:
256,192,113354,1,0,0:0:0:0:
256,192,113423,1,2,0:0:0:0:
256,192,113491,1,0,0:0:0:0:
256,192,113559,1,2,0:0:0:0:
256,192,113627,1,2,0:0:0:0:
256,192,113695,1,2,0:0:0:0:
256,192,113763,1,0,0:0:0:0:
256,192,113832,1,2,0:0:0:0:
256,192,113900,1,0,0:0:0:0:
256,192,113968,1,2,0:0:0:0:
256,192,114036,1,2,0:0:0:0:
256,192,114104,1,0,0:0:0:0:
256,192,114173,1,2,0:0:0:0:
256,192,114309,1,0,0:0:0:0:
256,192,114445,1,4,0:0:0:0:
256,192,114582,1,6,0:0:0:0:
256,192,114718,1,2,0:0:0:0:
256,192,114786,1,2,0:0:0:0:
256,192,114854,1,0,0:0:0:0:
256,192,114991,1,2,0:0:0:0:
256,192,115059,1,0,0:0:0:0:
256,192,115127,1,0,0:0:0:0:
256,192,115263,1,4,0:0:0:0:
256,192,115400,1,2,0:0:0:0:
256,192,115536,1,6,0:0:0:0:
256,192,115809,1,0,0:0:0:0:
256,192,115877,1,2,0:0:0:0:
256,192,115945,1,2,0:0:0:0:
256,192,116013,1,2,0:0:0:0:
256,192,116082,1,0,0:0:0:0:
256,192,116150,1,2,0:0:0:0:
256,192,116218,1,2,0:0:0:0:
256,192,116286,1,2,0:0:0:0:
256,192,116354,1,0,0:0:0:0:
256,192,116423,1,2,0:0:0:0:
256,192,116491,1,2,0:0:0:0:
256,192,116559,1,0,0:0:0:0:
256,192,116627,1,0,0:0:0:0:
256,192,116695,1,2,0:0:0:0:
256,192,116763,1,0,0:0:0:0:
256,192,116832,1,2,0:0:0:0:
256,192,116900,1,0,0:0:0:0:
256,192,116968,1,2,0:0:0:0:
256,192,117036,1,2,0:0:0:0:
256,192,117104,1,2,0:0:0:0:
256,192,117173,1,0,0:0:0:0:
256,192,117241,1,2,0:0:0:0:
256,192,117309,1,2,0:0:0:0:
256,192,117377,1,2,0:0:0:0:
256,192,117445,1,0,0:0:0:0:
256,192,117513,1,2,0:0:0:0:
256,192,117582,1,2,0:0:0:0:
256,192,117650,1,2,0:0:0:0:
256,192,117718,1,0,0:0:0:0:
256,192,117786,1,2,0:0:0:0:
256,192,117854,1,0,0:0:0:0:
256,192,117923,1,2,0:0:0:0:
256,192,117991,1,0,0:0:0:0:
256,192,118059,1,2,0:0:0:0:
256,192,118127,1,2,0:0:0:0:
256,192,118195,1,2,0:0:0:0:
256,192,118263,1,0,0:0:0:0:
256,192,118332,1,2,0:0:0:0:
256,192,118400,1,2,0:0:0:0:
256,192,118468,1,2,0:0:0:0:
256,192,118536,1,0,0:0:0:0:
256,192,118604,1,0,0:0:0:0:
256,192,118673,1,2,0:0:0:0:
256,192,118741,1,2,0:0:0:0:
256,192,118809,1,0,0:0:0:0:
256,192,118877,1,2,0:0:0:0:
256,192,118945,1,2,0:0:0:0:
256,192,119013,1,2,0:0:0:0:
256,192,119082,1,0,0:0:0:0:
256,192,119150,1,0,0:0:0:0:
256,192,119218,1,2,0:0:0:0:
256,192,119286,1,2,0:0:0:0:
256,192,119354,1,0,0:0:0:0:
256,192,119423,1,2,0:0:0:0:
256,192,119491,1,2,0:0:0:0:
256,192,119559,1,2,0:0:0:0:
256,192,119627,1,0,0:0:0:0:
256,192,119695,1,2,0:0:0:0:
256,192,119763,1,0,0:0:0:0:
256,192,119832,1,0,0:0:0:0:
256,192,119900,1,0,0:0:0:0:
256,192,119968,1,2,0:0:0:0:
256,192,120036,1,0,0:0:0:0:
256,192,120104,1,2,0:0:0:0:
256,192,120173,1,0,0:0:0:0:
256,192,120241,1,2,0:0:0:0:
256,192,120309,1,2,0:0:0:0:
256,192,120377,1,2,0:0:0:0:
256,192,120445,1,0,0:0:0:0:
256,192,120513,1,0,0:0:0:0:
256,192,120582,1,2,0:0:0:0:
256,192,120650,1,2,0:0:0:0:
256,192,120718,1,0,0:0:0:0:
256,192,120786,1,0,0:0:0:0:
256,192,120854,1,2,0:0:0:0:
256,192,120923,1,2,0:0:0:0:
256,192,120991,1,0,0:0:0:0:
256,192,121059,1,0,0:0:0:0:
256,192,121127,1,2,0:0:0:0:
256,192,121195,1,2,0:0:0:0:
256,192,121263,1,0,0:0:0:0:
256,192,121332,1,2,0:0:0:0:
256,192,121400,1,2,0:0:0:0:
256,192,121468,1,2,0:0:0:0:
256,192,121536,1,0,0:0:0:0:
256,192,121604,1,2,0:0:0:0:
256,192,121673,1,2,0:0:0:0:
256,192,121741,1,2,0:0:0:0:
256,192,121809,1,0,0:0:0:0:
256,192,121877,1,2,0:0:0:0:
256,192,121945,1,2,0:0:0:0:
256,192,122013,1,2,0:0:0:0:
256,192,122082,1,0,0:0:0:0:
256,192,122150,1,2,0:0:0:0:
256,192,122218,1,0,0:0:0:0:
256,192,122286,1,2,0:0:0:0:
256,192,122354,1,0,0:0:0:0:
256,192,122423,1,2,0:0:0:0:
256,192,122491,1,0,0:0:0:0:
256,192,122559,1,0,0:0:0:0:
256,192,122627,1,0,0:0:0:0:
256,192,122695,1,2,0:0:0:0:
256,192,122763,1,0,0:0:0:0:
256,192,122832,1,2,0:0:0:0:
256,192,122900,1,0,0:0:0:0:
256,192,122968,1,2,0:0:0:0:
256,192,123036,1,2,0:0:0:0:
256,192,123104,1,2,0:0:0:0:
256,192,123173,1,0,0:0:0:0:
256,192,123241,1,2,0:0:0:0:
256,192,123309,1,2,0:0:0:0:
256,192,123377,1,2,0:0:0:0:
256,192,123445,1,0,0:0:0:0:
256,192,123513,1,2,0:0:0:0:
256,192,123582,1,0,0:0:0:0:
256,192,123650,1,0,0:0:0:0:
256,192,123718,1,2,0:0:0:0:
256,192,123786,1,0,0:0:0:0:
256,192,123854,1,2,0:0:0:0:
256,192,123923,1,0,0:0:0:0:
256,192,123991,1,0,0:0:0:0:
256,192,124059,1,2,0:0:0:0:
256,192,124127,1,0,0:0:0:0:
256,192,124195,1,2,0:0:0:0:
256,192,124263,1,0,0:0:0:0:
256,192,124332,1,2,0:0:0:0:
256,192,124400,1,0,0:0:0:0:
256,192,124468,1,2,0:0:0:0:
256,192,124536,1,0,0:0:0:0:
256,192,124673,1,0,0:0:0:0:
256,192,125082,1,8,0:0:0:0:
256,192,125218,1,0,0:0:0:0:
256,192,125491,1,0,0:0:0:0:
256,192,126036,1,0,0:0:0:0:
256,192,126173,1,8,0:0:0:0:
256,192,126309,1,0,0:0:0:0:
256,192,126445,1,0,0:0:0:0:
256,192,126718,1,0,0:0:0:0:
256,192,127127,1,0,0:0:0:0:
256,192,127263,1,8,0:0:0:0:
256,192,127400,1,0,0:0:0:0:
256,192,127673,1,0,0:0:0:0:
256,192,127809,1,0,0:0:0:0:
256,192,127945,1,8,0:0:0:0:
256,192,128218,1,2,0:0:0:0:
256,192,128354,1,0,0:0:0:0:
256,192,128423,1,0,0:0:0:0:
256,192,128491,1,0,0:0:0:0:
256,192,128627,1,0,0:0:0:0:
256,192,128763,1,0,0:0:0:0:
256,192,128900,1,0,0:0:0:0:
256,192,129036,1,0,0:0:0:0:
256,192,129445,1,8,0:0:0:0:
256,192,129582,1,0,0:0:0:0:
256,192,129991,1,0,0:0:0:0:
256,192,130400,1,0,0:0:0:0:
256,192,130536,1,8,0:0:0:0:
256,192,130673,1,0,0:0:0:0:
256,192,130945,1,0,0:0:0:0:
256,192,131354,1,8,0:0:0:0:
256,192,131627,1,8,0:0:0:0:
256,192,131763,1,0,0:0:0:0:
256,192,132036,1,0,0:0:0:0:
256,192,132173,1,6,0:0:0:0:
256,192,132354,1,4,0:0:0:0:
256,192,132536,1,4,0:0:0:0:
256,192,132718,1,4,0:0:0:0:
256,192,132900,1,4,0:0:0:0:
256,192,133082,1,6,0:0:0:0:
256,192,133263,1,0,0:0:0:0:
256,192,133400,1,0,0:0:0:0:
256,192,133809,1,8,0:0:0:0:
256,192,133945,1,0,0:0:0:0:
256,192,134354,1,0,0:0:0:0:
256,192,134763,1,0,0:0:0:0:
256,192,134900,1,2,0:0:0:0:
256,192,135036,1,0,0:0:0:0:
256,192,135309,1,0,0:0:0:0:
256,192,135718,1,0,0:0:0:0:
256,192,135991,1,0,0:0:0:0:
256,192,136127,1,0,0:0:0:0:
256,192,136263,1,8,0:0:0:0:
256,192,136536,1,0,0:0:0:0:
256,192,136945,1,0,0:0:0:0:
256,192,137082,1,0,0:0:0:0:
256,192,137150,1,0,0:0:0:0:
256,192,137218,1,2,0:0:0:0:
256,192,137354,1,0,0:0:0:0:
256,192,137491,1,0,0:0:0:0:
256,192,137627,1,0,0:0:0:0:
256,192,137763,1,0,0:0:0:0:
256,192,138173,1,8,0:0:0:0:
256,192,138309,1,0,0:0:0:0:
256,192,138582,1,0,0:0:0:0:
256,192,138718,1,0,0:0:0:0:
256,192,139127,1,0,0:0:0:0:
256,192,139263,1,8,0:0:0:0:
256,192,139400,1,0,0:0:0:0:
256,192,139673,1,0,0:0:0:0:
256,192,139809,12,0,140763,0:0:0:0:
256,192,140900,5,6,0:0:0:0:
256,192,141082,1,4,0:0:0:0:
256,192,141263,1,4,0:0:0:0:
256,192,141445,1,4,0:0:0:0:
256,192,141991,1,0,0:0:0:0:
256,192,142059,1,0,0:0:0:0:
256,192,142127,1,0,0:0:0:0:
256,192,142263,1,2,0:0:0:0:
256,192,142400,1,0,0:0:0:0:
256,192,142468,1,0,0:0:0:0:
256,192,142536,1,0,0:0:0:0:
256,192,142673,1,2,0:0:0:0:
256,192,142809,1,0,0:0:0:0:
256,192,142945,1,8,0:0:0:0:
256,192,143082,1,0,0:0:0:0:
256,192,143150,1,0,0:0:0:0:
256,192,143218,1,8,0:0:0:0:
256,192,143286,1,0,0:0:0:0:
256,192,143354,1,0,0:0:0:0:
256,192,143491,1,0,0:0:0:0:
256,192,143559,1,0,0:0:0:0:
256,192,143627,1,0,0:0:0:0:
256,192,143695,1,0,0:0:0:0:
256,192,143763,1,2,0:0:0:0:
256,192,143832,1,2,0:0:0:0:
256,192,143900,1,0,0:0:0:0:
256,192,143968,1,0,0:0:0:0:
256,192,144036,1,2,0:0:0:0:
256,192,144104,1,2,0:0:0:0:
256,192,144173,1,0,0:0:0:0:
256,192,144241,1,0,0:0:0:0:
256,192,144309,1,0,0:0:0:0:
256,192,144445,1,2,0:0:0:0:
256,192,144582,1,0,0:0:0:0:
256,192,144650,1,0,0:0:0:0:
256,192,144718,1,0,0:0:0:0:
256,192,144854,1,2,0:0:0:0:
256,192,144991,1,2,0:0:0:0:
256,192,145059,1,0,0:0:0:0:
256,192,145127,1,0,0:0:0:0:
256,192,145263,1,2,0:0:0:0:
256,192,145332,1,2,0:0:0:0:
256,192,145400,1,0,0:0:0:0:
256,192,145536,1,0,0:0:0:0:
256,192,145673,1,2,0:0:0:0:
256,192,145809,1,0,0:0:0:0:
256,192,145877,1,2,0:0:0:0:
256,192,145945,1,0,0:0:0:0:
256,192,146013,1,0,0:0:0:0:
256,192,146082,1,0,0:0:0:0:
256,192,146150,1,2,0:0:0:0:
256,192,146218,1,2,0:0:0:0:
256,192,146286,1,2,0:0:0:0:
256,192,146354,1,0,0:0:0:0:
256,192,146423,1,0,0:0:0:0:
256,192,146491,1,0,0:0:0:0:
256,192,146627,1,2,0:0:0:0:
256,192,146763,1,0,0:0:0:0:
256,192,146832,1,0,0:0:0:0:
256,192,146900,1,0,0:0:0:0:
256,192,147036,1,8,0:0:0:0:
256,192,147173,1,8,0:0:0:0:
256,192,147241,1,0,0:0:0:0:
256,192,147309,1,0,0:0:0:0:
256,192,147445,1,0,0:0:0:0:
256,192,147513,1,0,0:0:0:0:
256,192,147582,1,0,0:0:0:0:
256,192,147650,1,2,0:0:0:0:
256,192,147718,1,0,0:0:0:0:
256,192,147854,1,2,0:0:0:0:
256,192,147923,1,2,0:0:0:0:
256,192,147991,1,2,0:0:0:0:
256,192,148059,1,2,0:0:0:0:
256,192,148127,1,0,0:0:0:0:
256,192,148173,1,0,0:0:0:0:
256,192,148263,1,2,0:0:0:0:
256,192,148309,1,2,0:0:0:0:
256,192,148400,1,0,0:0:0:0:
256,192,148445,1,0,0:0:0:0:
256,192,148536,1,2,0:0:0:0:
256,192,148604,1,0,0:0:0:0:
256,192,148673,1,0,0:0:0:0:
256,192,148809,1,0,0:0:0:0:
256,192,148945,1,2,0:0:0:0:
256,192,149013,1,0,0:0:0:0:
256,192,149082,1,0,0:0:0:0:
256,192,149218,1,0,0:0:0:0:
256,192,149354,1,8,0:0:0:0:
256,192,149423,1,8,0:0:0:0:
256,192,149491,1,0,0:0:0:0:
256,192,149627,1,4,0:0:0:0:
256,192,149763,1,4,0:0:0:0:
256,192,150173,1,4,0:0:0:0:
256,192,150309,1,4,0:0:0:0:
256,192,150582,1,2,0:0:0:0:
256,192,150718,1,4,0:0:0:0:
256,192,152082,1,2,0:0:0:0:
256,192,152354,1,4,0:0:0:0:
256,192,152627,1,2,0:0:0:0:
256,192,152900,1,0,0:0:0:0:
256,192,152968,1,0,0:0:0:0:
256,192,153036,1,0,0:0:0:0:
256,192,153173,1,8,0:0:0:0:
256,192,153309,1,0,0:0:0:0:
256,192,153377,1,0,0:0:0:0:
256,192,153445,1,0,0:0:0:0:
256,192,153582,1,8,0:0:0:0:
256,192,153718,1,0,0:0:0:0:
256,192,153854,1,0,0:0:0:0:
256,192,153923,1,0,0:0:0:0:
256,192,153991,1,2,0:0:0:0:
256,192,154059,1,0,0:0:0:0:
256,192,154127,1,0,0:0:0:0:
256,192,154195,1,2,0:0:0:0:
256,192,154263,1,2,0:0:0:0:
256,192,154400,1,0,0:0:0:0:
256,192,154468,1,0,0:0:0:0:
256,192,154536,1,0,0:0:0:0:
256,192,154604,1,8,0:0:0:0:
256,192,154673,1,8,0:0:0:0:
256,192,154741,1,8,0:0:0:0:
256,192,154809,1,0,0:0:0:0:
256,192,154877,1,2,0:0:0:0:
256,192,154945,1,2,0:0:0:0:
256,192,155013,1,2,0:0:0:0:
256,192,155082,1,0,0:0:0:0:
256,192,155150,1,0,0:0:0:0:
256,192,155218,1,0,0:0:0:0:
256,192,155354,1,8,0:0:0:0:
256,192,155491,1,0,0:0:0:0:
256,192,155559,1,0,0:0:0:0:
256,192,155627,1,0,0:0:0:0:
256,192,155763,1,0,0:0:0:0:
256,192,155900,1,8,0:0:0:0:
256,192,155968,1,0,0:0:0:0:
256,192,156036,1,0,0:0:0:0:
256,192,156173,1,0,0:0:0:0:
256,192,156241,1,0,0:0:0:0:
256,192,156309,1,2,0:0:0:0:
256,192,156377,1,0,0:0:0:0:
256,192,156445,1,2,0:0:0:0:
256,192,156513,1,2,0:0:0:0:
256,192,156582,1,0,0:0:0:0:
256,192,156718,1,2,0:0:0:0:
256,192,156786,1,2,0:0:0:0:
256,192,156854,1,2,0:0:0:0:
256,192,156923,1,0,0:0:0:0:
256,192,156991,1,0,0:0:0:0:
256,192,157059,1,0,0:0:0:0:
256,192,157127,1,2,0:0:0:0:
256,192,157195,1,8,0:0:0:0:
256,192,157263,1,0,0:0:0:0:
256,192,157332,1,0,0:0:0:0:
256,192,157400,1,0,0:0:0:0:
256,192,157536,1,2,0:0:0:0:
256,192,157673,1,0,0:0:0:0:
256,192,157741,1,0,0:0:0:0:
256,192,157809,1,0,0:0:0:0:
256,192,157945,1,2,0:0:0:0:
256,192,158082,1,2,0:0:0:0:
256,192,158150,1,2,0:0:0:0:
256,192,158218,1,0,0:0:0:0:
256,192,158354,1,0,0:0:0:0:
256,192,158423,1,0,0:0:0:0:
256,192,158491,1,2,0:0:0:0:
256,192,158559,1,0,0:0:0:0:
256,192,158627,1,0,0:0:0:0:
256,192,158763,1,2,0:0:0:0:
256,192,158832,1,2,0:0:0:0:
256,192,158900,1,2,0:0:0:0:
256,192,158968,1,2,0:0:0:0:
256,192,159036,1,0,0:0:0:0:
256,192,159082,1,0,0:0:0:0:
256,192,159173,1,2,0:0:0:0:
256,192,159218,1,2,0:0:0:0:
256,192,159309,1,0,0:0:0:0:
256,192,159354,5,0,0:0:0:0:
256,192,159445,1,0,0:0:0:0:
256,192,159513,1,0,0:0:0:0:
256,192,159582,1,0,0:0:0:0:
256,192,159718,1,2,0:0:0:0:
256,192,159854,1,0,0:0:0:0:
256,192,159923,1,0,0:0:0:0:
256,192,159991,1,0,0:0:0:0:
256,192,160127,1,2,0:0:0:0:
256,192,160195,1,2,0:0:0:0:
256,192,160263,1,2,0:0:0:0:
256,192,160332,1,0,0:0:0:0:
256,192,160400,1,0,0:0:0:0:
256,192,160536,5,6,0:0:0:0:
256,192,160718,1,4,0:0:0:0:
256,192,160900,1,4,0:0:0:0:
256,192,161082,1,6,0:0:0:0:
256,192,161263,1,4,0:0:0:0:
256,192,161445,1,4,0:0:0:0:
256,192,161627,1,4,0:0:0:0:
256,192,162445,5,4,0:0:0:0:
256,192,162718,1,4,0:0:0:0:
