osu file format v14

[General]
AudioFilename: audio.mp3
AudioLeadIn: 0
PreviewTime: 7146
Countdown: 0
SampleSet: Soft
StackLeniency: 0.7
Mode: 0
LetterboxInBreaks: 0
WidescreenStoryboard: 1

[Editor]
DistanceSpacing: 1
BeatDivisor: 4
GridSize: 32
TimelineZoom: 1

[Metadata]
Title:Let's Rock It! (REG BONUS)
TitleUnicode:Let's Rock It! (REG BONUS)
Artist:Sammy Sound Team
ArtistUnicode:Sammy Sound Team
Creator:P o M u T a
Version:Normal
Source:パチスロディスクアップ
Tags:PACHISLOT DISC UP pomuta jycool jyc-binggan electronic instrumental english Sega lets
BeatmapID:3040821
BeatmapSetID:1482522

[Difficulty]
HPDrainRate:4
CircleSize:3.5
OverallDifficulty:4
ApproachRate:5
SliderMultiplier:1.2
SliderTickRate:2

[Events]
//Background and Video events
0,0,"EYnIRpEUwAAWcut.jpg",0,0
//Break Periods
//Storyboard Layer 0 (Background)
//Storyboard Layer 1 (Fail)
//Storyboard Layer 2 (Pass)
//Storyboard Layer 3 (Foreground)
//Storyboard Layer 4 (Overlay)
//Storyboard Sound Samples

[TimingPoints]
100,349.854227405248,4,2,0,40,1,0
1499,352.941176470588,4,2,0,40,1,0
1499,-100,4,2,0,60,0,1
4322,-100,4,2,0,40,0,1
4675,-100,4,2,0,50,0,1
5028,-100,4,2,0,60,0,1
5734,-100,4,2,0,60,0,0
42969,-100,4,2,0,50,0,0

[Colours]
Combo1 : 152,131,239
Combo2 : 255,206,255
Combo3 : 141,245,133
Combo4 : 247,104,125
Combo5 : 255,227,142

[HitObjects]
88,291,100,6,0,B|207:280|207:280|311:220|311:220|430:209,1,360,4|8,0:0|0:1,0:0:0:0:
490,104,1499,5,4,1:1:0:0:
395,30,1851,1,0,1:0:0:0:
289,87,2204,2,0,L|157:98,1,120,0|0,1:0|1:0,0:0:0:0:
95,192,2910,1,0,1:0:0:0:
190,266,3263,1,0,1:0:0:0:
296,209,3616,2,0,L|428:198,1,120,0|0,1:0|1:0,0:0:0:0:
464,308,4322,5,0,1:0:0:0:
354,357,4675,1,0,1:0:0:0:
233,357,5028,1,0,1:0:0:0:
122,309,5381,1,0,1:0:0:0:
24,238,5734,2,0,L|36:167,1,60,4|2,0:0|0:1,0:0:0:0:
22,120,6087,2,0,L|34:49,1,60,2|2,0:0|0:1,0:0:0:0:
86,35,6440,2,0,L|157:47,1,60,0|2,1:0|0:1,0:0:0:0:
204,33,6793,2,0,L|275:45,1,60,2|2,0:0|0:1,0:0:0:0:
310,80,7146,6,0,P|371:83|430:63,1,120,4|2,1:2|1:3,0:0:0:0:
402,182,7851,2,0,P|446:168|491:170,2,90,0|2|2,1:0|0:0|0:0,0:0:0:0:
362,227,8557,2,0,L|353:308,1,60,0|2,1:0|0:0,0:0:0:0:
313,329,8910,2,0,L|234:317,1,60,2|2,1:3|0:0,0:0:0:0:
197,341,9263,2,0,P|140:345|85:296,1,120,0|2,1:0|1:3,0:0:0:0:
61,192,9969,6,0,L|183:182,1,120,0|2,1:0|1:3,0:0:0:0:
300,178,10675,2,0,B|341:197|341:197|406:189,2,90,0|2|2,1:0|0:0|0:0,0:0:0:0:
269,125,11381,2,0,L|259:53,1,60,0|2,1:0|0:0,0:0:0:0:
214,26,11734,2,0,L|146:37,1,60,2|2,1:3|0:0,0:0:0:0:
96,23,12087,2,0,P|58:75|56:133,1,120,0|2,1:0|1:3,0:0:0:0:
133,219,12793,6,0,L|149:344,1,120,4|2,1:2|1:3,0:0:0:0:
255,283,13498,2,0,L|266:190,2,90,0|2|2,1:0|0:0|0:0,0:0:0:0:
292,329,14204,2,0,L|363:334,1,60,0|2,1:0|0:0,0:0:0:0:
394,290,14557,2,0,L|465:295,1,60,2|2,1:3|0:0,0:0:0:0:
496,251,14910,2,0,P|500:191|472:133,1,120,0|2,1:0|1:3,0:0:0:0:
387,55,15616,6,0,P|430:53|473:34,2,90,0|2|2,1:0|0:0|0:0,0:0:0:0:
328,41,16322,2,0,L|246:54,1,60,0|2,1:0|1:2,0:0:0:0:
209,39,16675,1,2,1:3:0:0:
149,48,16851,1,2,1:2:0:0:
114,97,17028,2,0,B|101:154|101:154|133:213,1,120,4|4,1:2|1:2,0:0:0:0:
250,210,17734,2,0,B|307:197|307:197|366:229,1,120,4|12,1:2|1:2,0:0:0:0:
394,276,18263,1,2,1:2:0:0:
366,329,18440,6,0,P|317:354|253:343,1,120,4|2,1:2|1:3,0:0:0:0:
138,314,19146,2,0,L|35:331,2,90,0|2|2,1:0|0:0|0:0,0:0:0:0:
174,266,19851,2,0,L|162:144,1,120,0|2,1:0|1:3,0:0:0:0:
176,87,20381,1,2,0:0:0:0:
222,49,20557,2,0,P|290:27|343:42,1,120,0|2,1:0|1:3,0:0:0:0:
434,107,21263,6,0,L|419:234,1,120,0|2,1:0|1:3,0:0:0:0:
309,273,21969,2,0,L|320:177,2,90,0|2|2,1:0|0:0|0:0,0:0:0:0:
303,332,22675,2,0,L|367:328,2,60,0|2|2,1:0|0:0|1:3,0:0:0:0:
243,339,23204,1,2,0:0:0:0:
183,346,23381,2,0,L|63:331,1,120,0|2,1:0|1:3,0:0:0:0:
123,226,24087,6,0,B|179:232|179:232|237:206,1,120,4|2,1:2|1:3,0:0:0:0:
312,112,24793,2,0,L|300:20,2,90,0|2|2,1:0|0:0|0:0,0:0:0:0:
355,154,25498,2,0,P|390:151|420:136,1,60,0|2,1:0|0:0,0:0:0:0:
453,185,25851,2,0,P|456:220|471:250,1,60,2|2,1:3|0:0,0:0:0:0:
443,298,26204,2,0,P|408:301|332:355,1,120,0|2,1:0|1:3,0:0:0:0:
228,297,26910,6,0,L|123:284,2,90,0|2|2,1:0|0:0|0:0,0:0:0:0:
282,190,27793,1,2,1:2:0:0:
285,130,27969,2,0,L|285:49,1,60,2|2,1:3|1:2,0:0:0:0:
233,40,28322,2,0,B|176:50|176:50|116:30,1,120,4|4,1:2|1:2,0:0:0:0:
28,112,29028,2,0,B|85:102|85:102|145:122,1,120,4|12,1:2|1:2,0:0:0:0:
178,170,29557,1,2,1:2:0:0:
159,227,29734,6,0,P|137:286|146:348,1,120,4|2,1:2|1:3,0:0:0:0:
259,299,30440,2,0,L|351:308,2,90,0|2|2,1:0|0:0|0:0,0:0:0:0:
262,359,31146,2,0,L|202:351,1,60,0|2,1:0|0:0,0:0:0:0:
143,341,31498,2,0,L|83:333,1,60,2|2,1:3|0:0,0:0:0:0:
40,290,31851,2,0,P|32:233|61:170,1,120,0|2,1:0|1:3,0:0:0:0:
168,136,32557,6,0,B|193:146|193:146|263:130|263:130|293:139,1,120,0|2,1:0|1:3,0:0:0:0:
319,251,33263,2,0,P|269:246|222:266,2,90,0|2|2,1:0|0:0|0:0,0:0:0:0:
355,299,33969,2,0,P|380:307|416:303,1,60,0|2,1:0|0:0,0:0:0:0:
470,286,34322,2,0,P|486:257|489:226,1,60,2|2,1:3|0:0,0:0:0:0:
486,171,34675,2,0,P|487:113|453:48,1,120,0|2,1:0|1:3,0:0:0:0:
342,38,35381,6,0,L|271:53,1,60,4|2,1:2|0:0,0:0:0:0:
227,28,35734,2,0,L|199:85,1,60,2|2,1:3|0:0,0:0:0:0:
140,87,36087,2,0,L|160:191,2,90,0|2|2,1:0|0:0|0:0,0:0:0:0:
79,87,36793,2,0,L|56:204,1,120,0|2,1:0|1:3,0:0:0:0:
35,261,37322,1,2,0:0:0:0:
80,300,37498,2,0,P|145:291|204:332,1,120,0|2,1:0|1:3,0:0:0:0:
297,260,38204,6,0,L|218:210,2,90,0|2|2,1:0|0:0|0:0,0:0:0:0:
321,315,38910,2,0,P|347:302|376:307,1,60,0|2,1:0|1:2,0:0:0:0:
431,332,39263,2,0,P|460:337|486:324,1,60,2|2,1:3|1:2,0:0:0:0:
499,265,39616,2,0,L|485:133,1,120,4|4,1:2|1:2,0:0:0:0:
385,80,40322,2,0,L|372:199,1,120,4|12,1:2|1:2,0:0:0:0:
332,244,40851,1,2,1:2:0:0:
284,280,41028,6,0,P|206:245|114:277,1,180,2|2,1:0|1:0,0:0:0:0:
32,190,41910,1,2,0:3:0:0:
45,131,42087,1,2,1:0:0:0:
58,72,42263,1,2,1:0:0:0:
115,54,42440,2,0,B|144:64|144:64|204:42,2,90,2|2|6,1:0|1:0|1:1,0:0:0:0:
