osu file format v14

[General]
AudioFilename: audio.mp3
AudioLeadIn: 0
PreviewTime: 7146
Countdown: 0
SampleSet: Soft
StackLeniency: 0.7
Mode: 0
LetterboxInBreaks: 0
WidescreenStoryboard: 1

[Editor]
DistanceSpacing: 1
BeatDivisor: 4
GridSize: 32
TimelineZoom: 2

[Metadata]
Title:Let's Rock It! (REG BONUS)
TitleUnicode:Let's Rock It! (REG BONUS)
Artist:Sammy Sound Team
ArtistUnicode:Sammy Sound Team
Creator:P o M u T a
Version:Hard
Source:パチスロディスクアップ
Tags:PACHISLOT DISC UP pomuta jycool jyc-binggan electronic instrumental english Sega lets
BeatmapID:3040819
BeatmapSetID:1482522

[Difficulty]
HPDrainRate:5
CircleSize:4
OverallDifficulty:6
ApproachRate:8
SliderMultiplier:1.5
SliderTickRate:2

[Events]
//Background and Video events
0,0,"EYnIRpEUwAAWcut.jpg",0,0
//Break Periods
//Storyboard Layer 0 (Background)
//Storyboard Layer 1 (Fail)
//Storyboard Layer 2 (Pass)
//Storyboard Layer 3 (Foreground)
//Storyboard Layer 4 (Overlay)
//Storyboard Sound Samples

[TimingPoints]
100,349.854227405248,4,2,0,40,1,0
799,-100,4,2,0,50,0,0
1499,352.941176470588,4,2,0,40,1,0
1499,-100,4,2,0,50,0,1
4322,-100,4,2,0,40,0,1
4675,-100,4,2,0,50,0,1
5028,-100,4,2,0,60,0,1
5734,-100,4,2,0,60,0,0
42969,-100,4,2,0,50,0,0

[Colours]
Combo1 : 152,131,239
Combo2 : 255,206,255
Combo3 : 141,245,133
Combo4 : 247,104,125
Combo5 : 255,227,142

[HitObjects]
86,284,100,5,4,0:0:0:0:
156,308,274,2,0,L|164:361,1,37.5,2|0,0:0|0:0,0:0:0:0:
230,314,449,2,0,L|235:223,1,75,2|2,0:0|0:0,0:0:0:0:
293,192,799,2,0,L|332:189,3,37.5,2|2|2|0,0:0|0:0|0:0|0:0,0:0:0:0:
368,186,1149,1,8,0:1:0:0:
489,274,1499,6,0,L|484:177,1,75,4|8,1:1|0:3,0:0:0:0:
482,161,1763,1,8,0:3:0:0:
478,123,1851,2,0,B|467:82|467:82|434:49,1,75,0|8,1:0|0:3,0:0:0:0:
374,46,2204,1,0,1:0:0:0:
374,46,2293,2,0,P|332:59|290:55,1,75,4|4,0:3|0:3,0:0:0:0:
263,53,2557,2,0,L|254:137,1,75,0|0,1:0|1:0,0:0:0:0:
217,192,2910,6,0,P|180:186|141:198,1,75,0|8,1:0|0:3,0:0:0:0:
117,222,3175,1,8,0:3:0:0:
102,256,3263,2,0,L|110:345,1,75,0|8,1:0|0:3,0:0:0:0:
180,354,3616,1,0,1:0:0:0:
208,330,3704,2,0,L|298:323,1,75,4|4,0:3|0:3,0:0:0:0:
315,343,3969,2,0,L|405:336,1,75,0|0,1:0|1:0,0:0:0:0:
458,305,4322,6,0,L|450:263,3,37.5,4|0|0|8,1:3|0:0|1:0|0:3,0:0:0:0:
448,232,4675,2,0,L|456:190,3,37.5,4|0|8|0,1:3|0:0|0:3|1:0,0:0:0:0:
463,158,5028,2,0,L|455:116,3,37.5,4|8|0|8,1:3|0:3|1:0|0:3,0:0:0:0:
453,83,5381,2,0,L|461:41,3,37.5,4|0|4|8,1:3|1:0|0:3|0:3,0:0:0:0:
432,20,5734,6,0,P|396:17|347:33,1,75,4|2,0:0|0:1,0:0:0:0:
311,84,6087,5,2,0:0:0:0:
236,76,6263,1,2,0:1:0:0:
179,146,6440,5,0,1:0:0:0:
254,154,6616,1,2,0:1:0:0:
311,241,6793,5,2,0:0:0:0:
236,233,6969,1,2,0:1:0:0:
184,323,7146,6,0,L|92:315,1,75,4|2,1:2|0:0,0:0:0:0:
72,307,7410,1,2,0:0:0:0:
40,287,7498,2,0,P|26:249|29:198,1,75,2|2,1:3|0:0,0:0:0:0:
34,140,7851,2,0,P|44:99|70:59,1,75,0|2,1:0|0:0,0:0:0:0:
91,49,8116,1,2,0:0:0:0:
127,39,8204,2,0,L|211:42,1,75,2|2,1:3|0:0,0:0:0:0:
254,95,8557,5,0,1:0:0:0:
331,74,8734,1,2,0:0:0:0:
331,74,8822,1,2,0:0:0:0:
331,74,8910,2,0,L|337:24,2,37.5,2|0|2,1:3|0:0|0:0,0:0:0:0:
313,147,9263,2,0,L|335:228,1,75,0|2,1:0|0:0,0:0:0:0:
367,203,9528,1,2,0:0:0:0:
398,183,9616,2,0,L|417:255,1,75,2|2,1:3|0:0,0:0:0:0:
440,327,9969,6,0,P|480:328|513:314,1,75,0|2,1:0|0:0,0:0:0:0:
367,309,10322,2,0,L|286:320,1,75,2|2,1:3|0:0,0:0:0:0:
231,362,10675,2,0,P|251:308|239:243,2,112.5,0|2|2,1:0|0:0|0:0,0:0:0:0:
164,327,11381,5,0,1:0:0:0:
90,312,11557,1,2,0:0:0:0:
22,344,11734,2,0,P|16:305|35:263,1,75,2|2,1:3|0:0,0:0:0:0:
86,225,12087,2,0,L|169:217,1,75,0|2,1:0|0:0,0:0:0:0:
195,204,12351,1,2,0:0:0:0:
224,181,12440,2,0,B|228:152|228:152|218:98,1,75,2|0,1:3|1:0,0:0:0:0:
208,32,12793,5,4,1:2:0:0:
149,79,12969,1,2,0:0:0:0:
111,74,13057,1,2,0:0:0:0:
73,70,13146,1,2,1:3:0:0:
14,117,13322,1,2,0:0:0:0:
59,176,13498,2,0,L|66:270,1,75,0|2,1:0|0:0,0:0:0:0:
54,289,13763,1,2,0:0:0:0:
54,289,13851,2,0,L|128:283,1,75,2|2,1:3|0:0,0:0:0:0:
201,301,14204,5,0,1:0:0:0:
273,319,14381,2,0,L|367:312,1,75,2|2,0:0|1:3,0:0:0:0:
413,276,14734,1,2,0:0:0:0:
455,214,14910,2,0,P|456:175|438:134,1,75,0|2,1:0|0:0,0:0:0:0:
415,116,15175,1,2,0:0:0:0:
415,116,15263,2,0,L|329:122,1,75,2|2,1:3|0:0,0:0:0:0:
272,88,15616,6,0,L|186:94,1,75,0|2,1:0|1:2,0:0:0:0:
168,117,15881,2,0,P|166:141|172:162,1,37.5,2|2,3:0|1:3,0:0:0:0:
206,218,16146,2,0,L|200:307,1,75,2|0,1:2|1:0,0:0:0:0:
171,363,16498,1,2,1:2:0:0:
171,363,16675,1,2,1:3:0:0:
96,371,16851,1,2,1:2:0:0:
30,334,17028,6,0,P|24:296|34:252,1,75,4|2,1:2|1:2,0:0:0:0:
52,188,17381,1,4,1:2:0:0:
120,158,17557,1,2,1:2:0:0:
192,176,17734,2,0,P|231:180|274:167,1,75,4|2,1:2|1:2,0:0:0:0:
321,121,18087,1,12,1:2:0:0:
249,98,18263,1,2,1:2:0:0:
321,121,18440,6,0,L|400:111,1,75,4|2,1:2|0:0,0:0:0:0:
470,104,18793,2,0,P|472:71|453:27,1,75,2|2,1:3|0:0,0:0:0:0:
442,172,19146,2,0,P|440:205|459:249,1,75,0|2,1:0|0:0,0:0:0:0:
476,274,19410,1,2,0:0:0:0:
469,310,19498,2,0,L|369:317,1,75,2|2,1:3|0:0,0:0:0:0:
327,280,19851,6,0,L|317:199,2,75,0|2|2,1:0|0:0|1:3,0:0:0:0:
295,348,20381,1,2,0:0:0:0:
252,286,20557,2,0,P|214:287|175:308,1,75,0|2,1:0|0:0,0:0:0:0:
154,329,20822,1,2,0:0:0:0:
117,321,20910,2,0,L|109:242,1,75,2|2,1:3|0:0,0:0:0:0:
39,189,21263,6,0,P|86:177|107:155,1,75,0|2,1:0|0:0,0:0:0:0:
138,92,21616,2,0,L|212:97,1,75,2|2,1:3|0:0,0:0:0:0:
275,55,21969,2,0,P|288:93|271:142,1,75,0|2,1:0|0:0,0:0:0:0:
261,158,22234,2,0,L|264:203,1,37.5,2|2,0:0|1:3,0:0:0:0:
340,228,22498,2,0,L|342:190,1,37.5,2|0,0:0|0:0,0:0:0:0:
358,156,22675,6,0,P|396:143|445:160,1,75,0|2,1:0|0:0,0:0:0:0:
488,195,23028,2,0,L|481:288,1,75,2|2,1:3|0:0,0:0:0:0:
473,344,23381,1,0,1:0:0:0:
414,297,23557,1,2,0:0:0:0:
376,299,23646,1,2,0:0:0:0:
338,301,23734,2,0,L|256:292,1,75,2|2,1:3|0:0,0:0:0:0:
194,321,24087,6,0,P|206:282|201:243,1,75,4|2,1:2|0:0,0:0:0:0:
171,180,24440,2,0,P|210:192|249:187,1,75,2|2,1:3|0:0,0:0:0:0:
314,163,24793,2,0,L|300:82,1,75,0|2,1:0|0:0,0:0:0:0:
276,61,25057,1,2,0:0:0:0:
239,67,25146,2,0,P|203:74|157:63,1,75,2|2,1:3|0:0,0:0:0:0:
104,26,25498,5,0,1:0:0:0:
52,80,25675,1,2,0:0:0:0:
51,154,25851,2,0,P|53:189|71:230,1,75,2|2,1:3|0:0,0:0:0:0:
135,259,26204,2,0,B|174:252|174:265|210:259,1,75,0|2,1:0|0:0,0:0:0:0:
244,245,26469,1,2,0:0:0:0:
274,222,26557,2,0,P|276:186|268:143,1,75,2|2,1:3|0:0,0:0:0:0:
250,74,26910,6,0,P|287:61|328:72,1,75,4|2,0:3|0:0,0:0:0:0:
340,100,27175,2,0,P|349:129|352:157,1,37.5,2|2,0:0|1:3,0:0:0:0:
414,96,27440,2,0,P|424:136|409:182,1,75,2|0,0:0|1:0,0:0:0:0:
371,228,27793,1,2,0:0:0:0:
371,228,27969,1,2,1:3:0:0:
371,302,28146,1,2,1:2:0:0:
436,265,28322,6,0,L|512:265,1,75,4|2,1:2|1:2,0:0:0:0:
371,302,28675,2,0,L|296:302,1,75,4|2,1:2|1:2,0:0:0:0:
230,338,29028,2,0,P|220:302|229:265,1,75,4|2,1:2|1:2,0:0:0:0:
292,225,29381,2,0,L|285:143,1,75,12|2,1:2|1:2,0:0:0:0:
335,93,29734,6,0,B|374:103|374:103|418:95,2,75,4|2|2,1:2|0:0|1:3,0:0:0:0:
262,74,30263,1,2,0:0:0:0:
210,128,30440,2,0,L|136:120,1,75,0|2,1:0|0:0,0:0:0:0:
110,98,30704,1,2,0:0:0:0:
110,98,30793,2,0,P|112:144|103:173,1,75,2|2,1:3|0:0,0:0:0:0:
76,252,31146,5,0,1:0:0:0:
75,327,31322,1,2,0:0:0:0:
150,326,31498,1,2,1:3:0:0:
150,251,31675,1,2,0:0:0:0:
215,288,31851,2,0,L|299:288,1,75,0|2,1:0|0:0,0:0:0:0:
322,268,32116,2,0,L|375:268,1,37.5,2|2,0:0|1:3,0:0:0:0:
423,307,32381,1,2,0:0:0:0:
483,263,32557,6,0,P|486:224|475:189,1,75,0|2,1:0|0:0,0:0:0:0:
400,190,32910,2,0,P|357:193|319:175,1,75,2|2,1:3|0:0,0:0:0:0:
258,153,33263,2,0,L|263:68,1,75,0|2,1:0|0:0,0:0:0:0:
264,40,33528,1,2,0:0:0:0:
264,40,33616,2,0,L|181:43,1,75,2|2,1:3|0:0,0:0:0:0:
113,46,33969,5,0,1:0:0:0:
60,99,34146,1,2,0:0:0:0:
74,172,34322,1,2,1:3:0:0:
153,198,34498,1,2,0:0:0:0:
153,198,34587,1,2,0:0:0:0:
153,198,34675,2,0,B|161:238|161:238|150:278,1,75,0|2,1:0|0:0,0:0:0:0:
134,304,34940,2,0,L|182:324,1,37.5,2|2,0:0|1:3,0:0:0:0:
239,344,35204,1,2,0:0:0:0:
308,315,35381,6,0,L|303:210,1,75,4|2,1:2|0:0,0:0:0:0:
377,256,35734,2,0,L|372:151,1,75,2|2,1:3|0:0,0:0:0:0:
446,197,36087,2,0,L|441:92,1,75,0|2,1:0|0:0,0:0:0:0:
442,88,36351,1,2,0:0:0:0:
442,88,36440,2,0,P|405:70|362:76,1,75,2|2,1:3|0:0,0:0:0:0:
304,105,36793,5,0,1:0:0:0:
229,93,36969,1,2,0:0:0:0:
155,81,37146,2,0,L|162:166,1,75,2|2,1:3|0:0,0:0:0:0:
171,230,37498,5,0,1:0:0:0:
96,218,37675,1,2,0:0:0:0:
99,255,37763,1,2,0:0:0:0:
102,292,37851,2,0,L|109:377,1,75,2|2,1:3|0:0,0:0:0:0:
188,325,38204,6,0,L|274:320,1,75,0|2,1:0|1:2,0:0:0:0:
295,301,38469,1,2,0:0:0:0:
321,274,38557,2,0,P|325:236|310:186,1,75,2|2,1:3|1:2,0:0:0:0:
274,144,38910,1,0,1:0:0:0:
274,144,39087,1,2,1:2:0:0:
294,74,39263,1,2,1:3:0:0:
294,74,39440,1,2,1:2:0:0:
367,89,39616,6,0,L|448:84,1,75,4|2,1:2|1:2,0:0:0:0:
503,127,39969,2,0,L|422:132,1,75,4|2,1:2|1:2,0:0:0:0:
367,176,40322,2,0,L|448:171,1,75,4|2,1:2|1:2,0:0:0:0:
503,214,40675,2,0,L|422:219,1,75,12|2,1:2|1:2,0:0:0:0:
385,298,41028,5,2,1:0:0:0:
385,298,41116,2,0,L|299:305,1,75,0|2,1:0|0:0,0:0:0:0:
280,338,41381,1,2,0:0:0:0:
220,278,41557,1,2,1:0:0:0:
220,278,41646,2,0,L|134:285,1,75,0|2,1:0|0:1,0:0:0:0:
115,318,41910,1,2,0:3:0:0:
29,290,42087,2,0,L|20:207,1,75,2|2,1:0|1:0,0:0:0:0:
66,137,42440,6,0,B|102:140|102:140|31:113,2,112.5,2|2|6,1:0|1:0|1:1,0:0:0:0:
