osu file format v14

[General]
AudioFilename: audio.mp3
AudioLeadIn: 0
PreviewTime: -1
Countdown: 0
SampleSet: Normal
StackLeniency: 0.7
Mode: 0
LetterboxInBreaks: 0
WidescreenStoryboard: 0

[Editor]
DistanceSpacing: 1
BeatDivisor: 4
GridSize: 8
TimelineZoom: 0.6999998

[Metadata]
Title:Run Away
TitleUnicode:Run Away
Artist:Sam F feat. Sophie Rose
ArtistUnicode:Sam F feat. Sophie Rose
Creator:Piefayth
Version:Insane
Source:
Tags:
BeatmapID:1566869
BeatmapSetID:742901

[Difficulty]
HPDrainRate:7
CircleSize:4
OverallDifficulty:8
ApproachRate:9.3
SliderMultiplier:2
SliderTickRate:1

[Events]
//Background and Video events
0,0,"Cl3j5_C4rzFif41WxFtE5w%3D%3D%2F109951163124252766.jpg",0,0
//Break Periods
//Storyboard Layer 0 (Background)
//Storyboard Layer 1 (Fail)
//Storyboard Layer 2 (Pass)
//Storyboard Layer 3 (Foreground)
//Storyboard Sound Samples

[TimingPoints]
166.785041110482,361.44578313253,4,1,0,100,1,0

[HitObjects]
185,257,168,6,0,P|73:257|73:145,1,200
137,193,889,1,0,0:0:0:0:
286,59,1251,1,0,0:0:0:0:
219,248,1612,1,0,0:0:0:0:
375,124,1973,1,0,0:0:0:0:
301,310,2335,1,0,0:0:0:0:
456,183,2696,1,0,0:0:0:0:
336,64,3058,6,0,P|448:64|448:176,1,200
384,128,3781,1,0,0:0:0:0:
432,192,4142,6,0,P|320:192|320:80,1,200
384,128,4865,1,0,0:0:0:0:
184,129,5226,1,0,0:0:0:0:
181,329,5588,1,0,0:0:0:0:
380,329,5949,6,0,L|380:117,1,200
320,48,6672,1,0,0:0:0:0:
267,133,7034,1,0,0:0:0:0:
265,232,7395,1,0,0:0:0:0:
267,328,7757,1,0,0:0:0:0:
380,329,8118,6,0,L|380:117,1,200
255,79,8841,2,0,P|367:79|367:173,1,200
304,140,9564,2,0,P|192:140|192:46,1,200
377,49,10287,1,0,0:0:0:0:
212,162,10648,1,0,0:0:0:0:
213,202,11010,1,0,0:0:0:0:
213,241,11371,1,0,0:0:0:0:
256,63,11732,6,0,P|351:128|284:200,1,200
262,140,12455,1,0,0:0:0:0:
61,143,12817,1,0,0:0:0:0:
184,299,13178,1,0,0:0:0:0:
258,231,13359,1,0,0:0:0:0:
161,205,13540,1,0,0:0:0:0:
352,263,13901,1,0,0:0:0:0:
161,205,14263,1,0,0:0:0:0:
256,63,14624,6,0,P|161:128|228:200,1,200
250,140,15347,1,0,0:0:0:0:
451,143,15709,1,0,0:0:0:0:
328,299,16070,1,0,0:0:0:0:
254,231,16251,1,0,0:0:0:0:
351,205,16432,1,0,0:0:0:0:
160,263,16793,1,0,0:0:0:0:
351,205,17155,1,0,0:0:0:0:
256,321,17515,6,0,P|351:256|284:184,1,200
262,244,18238,1,0,0:0:0:0:
61,241,18600,1,0,0:0:0:0:
184,85,18961,1,0,0:0:0:0:
258,153,19142,1,0,0:0:0:0:
161,179,19323,1,0,0:0:0:0:
352,121,19684,1,0,0:0:0:0:
161,179,20046,1,0,0:0:0:0:
256,321,20407,6,0,P|161:256|228:184,1,200
250,244,21130,1,0,0:0:0:0:
451,241,21492,1,0,0:0:0:0:
328,85,21853,1,0,0:0:0:0:
254,153,22034,1,0,0:0:0:0:
351,179,22215,1,0,0:0:0:0:
160,121,22576,1,0,0:0:0:0:
351,179,22938,1,0,0:0:0:0:
64,112,23299,5,0,0:0:0:0:
213,113,23570,1,0,0:0:0:0:
262,113,23660,1,0,0:0:0:0:
362,112,23841,1,0,0:0:0:0:
448,112,24021,1,0,0:0:0:0:
240,112,24383,1,0,0:0:0:0:
48,48,24744,5,0,0:0:0:0:
160,144,25015,1,0,0:0:0:0:
192,176,25105,1,0,0:0:0:0:
272,240,25286,1,0,0:0:0:0:
192,176,25466,1,0,0:0:0:0:
48,48,25829,1,0,0:0:0:0:
72,47,25919,2,0,L|104:47,4,25
122,47,26190,1,0,0:0:0:0:
222,50,26371,1,0,0:0:0:0:
371,51,26642,6,0,L|371:206,1,150
372,276,27274,1,0,0:0:0:0:
122,337,27636,5,0,0:0:0:0:
222,334,27817,1,0,0:0:0:0:
371,333,28088,22,0,L|371:184,1,150
372,108,28720,1,0,0:0:0:0:
190,192,29082,6,0,P|322:192|322:192,1,100
408,133,29624,1,0,0:0:0:0:
406,333,29805,1,0,0:0:0:0:
105,333,30166,1,0,0:0:0:0:
407,51,30527,5,0,0:0:0:0:
408,201,30708,1,0,0:0:0:0:
407,225,30798,1,0,0:0:0:0:
406,250,30889,1,0,0:0:0:0:
305,254,31070,1,0,0:0:0:0:
205,253,31250,1,0,0:0:0:0:
303,78,31612,1,0,0:0:0:0:
253,77,31702,2,0,L|219:77,4,25
256,127,31973,2,0,P|463:191|298:309,1,500
357,194,33057,1,0,0:0:0:0:
156,194,33419,1,0,0:0:0:0:
256,192,33780,12,0,34594,0:0:0:0:
80,312,34865,5,0,0:0:0:0:
80,112,35045,1,0,0:0:0:0:
176,312,35226,5,0,0:0:0:0:
176,112,35406,1,0,0:0:0:0:
352,216,35588,2,0,L|248:216,1,100
48,39,36130,6,0,L|235:148,1,200
360,208,36672,1,0,0:0:0:0:
208,208,36853,1,0,0:0:0:0:
56,208,37033,6,0,L|232:88,1,200
432,312,37756,5,0,0:0:0:0:
432,112,37936,1,0,0:0:0:0:
336,312,38117,5,0,0:0:0:0:
336,112,38297,1,0,0:0:0:0:
160,216,38479,2,0,L|264:216,1,100
464,39,39021,6,0,L|277:148,1,200
152,208,39563,1,0,0:0:0:0:
304,208,39744,1,0,0:0:0:0:
456,208,39924,6,0,L|280:88,1,200
256,192,40648,1,0,0:0:0:0:
304,192,40828,1,0,0:0:0:0:
328,192,40918,1,0,0:0:0:0:
352,192,41009,1,0,0:0:0:0:
352,296,41190,1,0,0:0:0:0:
304,296,41371,5,0,0:0:0:0:
280,296,41461,1,0,0:0:0:0:
256,296,41551,1,0,0:0:0:0:
232,296,41642,1,0,0:0:0:0:
208,296,41732,1,0,0:0:0:0:
104,192,41913,1,0,0:0:0:0:
208,192,42094,5,0,0:0:0:0:
232,192,42184,1,0,0:0:0:0:
256,192,42274,1,0,0:0:0:0:
360,192,42455,1,0,0:0:0:0:
448,136,42636,1,0,0:0:0:0:
352,96,42816,5,0,0:0:0:0:
248,96,42997,1,0,0:0:0:0:
224,96,43087,1,0,0:0:0:0:
200,96,43178,1,0,0:0:0:0:
176,96,43268,1,0,0:0:0:0:
152,96,43359,1,0,0:0:0:0:
56,96,43539,1,0,0:0:0:0:
160,96,43720,5,0,0:0:0:0:
160,120,43810,1,0,0:0:0:0:
160,144,43901,1,0,0:0:0:0:
160,168,43991,1,0,0:0:0:0:
160,192,44082,1,0,0:0:0:0:
160,288,44262,1,0,0:0:0:0:
256,296,44443,5,0,0:0:0:0:
299,319,44533,1,0,0:0:0:0:
349,324,44623,1,0,0:0:0:0:
397,312,44714,1,0,0:0:0:0:
437,283,44804,1,0,0:0:0:0:
464,241,44894,1,0,0:0:0:0:
475,193,44985,1,0,0:0:0:0:
467,143,45075,1,0,0:0:0:0:
441,101,45165,1,0,0:0:0:0:
402,70,45256,1,0,0:0:0:0:
355,55,45346,1,0,0:0:0:0:
305,59,45436,1,0,0:0:0:0:
260,80,45527,1,0,0:0:0:0:
226,116,45617,1,0,0:0:0:0:
112,312,46431,5,0,0:0:0:0:
352,128,46612,1,0,0:0:0:0:
352,312,46792,5,0,0:0:0:0:
112,128,46973,1,0,0:0:0:0:
256,272,47154,2,0,P|256:128|256:144,1,150
392,272,47786,5,0,0:0:0:0:
72,40,48057,1,0,0:0:0:0:
272,40,48238,1,0,0:0:0:0:
272,240,48419,1,0,0:0:0:0:
72,240,48599,1,0,0:0:0:0:
176,40,48780,1,0,0:0:0:0:
176,240,48961,2,0,L|176:136,1,100
112,72,49322,5,0,0:0:0:0:
352,256,49503,1,0,0:0:0:0:
352,72,49683,5,0,0:0:0:0:
112,256,49864,1,0,0:0:0:0:
256,112,50045,2,0,P|256:256|256:240,1,150
352,64,50678,5,0,0:0:0:0:
72,344,50949,1,0,0:0:0:0:
272,344,51130,1,0,0:0:0:0:
272,144,51311,1,0,0:0:0:0:
72,144,51491,1,0,0:0:0:0:
176,344,51672,1,0,0:0:0:0:
176,144,51853,2,0,L|176:248,1,100
152,56,52214,5,0,0:0:0:0:
400,56,52395,1,0,0:0:0:0:
400,304,52575,5,0,0:0:0:0:
152,304,52756,1,0,0:0:0:0:
352,216,52937,2,0,P|320:184|192:216,1,150
40,56,53569,5,0,0:0:0:0:
272,248,53840,1,0,0:0:0:0:
376,80,54021,1,0,0:0:0:0:
328,168,54202,1,0,0:0:0:0:
216,328,54382,1,0,0:0:0:0:
328,168,54563,1,0,0:0:0:0:
216,328,54744,2,0,L|216:224,1,100
392,88,55105,5,0,0:0:0:0:
392,336,55286,1,0,0:0:0:0:
144,336,55466,5,0,0:0:0:0:
144,88,55647,1,0,0:0:0:0:
232,288,55828,2,0,P|264:256|232:128,1,150
448,40,56461,5,0,0:0:0:0:
200,208,56731,1,0,0:0:0:0:
368,312,56912,1,0,0:0:0:0:
280,264,57093,1,0,0:0:0:0:
120,152,57273,1,0,0:0:0:0:
280,264,57454,1,0,0:0:0:0:
120,152,57635,2,0,L|224:152,1,100
280,64,58178,6,0,L|224:64,1,50
336,152,58358,2,0,L|392:152,1,50
232,152,58539,2,0,L|176:152,1,50
64,248,58720,2,0,L|216:248,1,150
174,307,59352,5,0,0:0:0:0:
312,60,59623,1,0,0:0:0:0:
119,115,59804,1,0,0:0:0:0:
174,307,59985,1,0,0:0:0:0:
367,252,60165,1,0,0:0:0:0:
212,88,60346,1,0,0:0:0:0:
267,281,60527,2,0,L|238:181,1,100
424,72,60888,5,0,0:0:0:0:
120,72,61069,1,0,0:0:0:0:
424,168,61249,5,0,0:0:0:0:
120,168,61430,1,0,0:0:0:0:
280,280,61611,2,0,P|280:136|280:152,1,150
376,192,62244,5,0,0:0:0:0:
93,192,62515,1,0,0:0:0:0:
235,334,62696,1,0,0:0:0:0:
376,192,62877,1,0,0:0:0:0:
235,51,63057,1,0,0:0:0:0:
167,266,63238,1,0,0:0:0:0:
308,124,63419,2,0,L|234:197,1,100
144,304,63780,5,0,0:0:0:0:
401,142,63961,1,0,0:0:0:0:
350,60,64141,2,0,L|302:89,4,50
264,112,64684,1,0,0:0:0:0:
176,160,64864,5,0,0:0:0:0:
192,176,64955,1,0,0:0:0:0:
208,192,65045,1,0,0:0:0:0:
224,208,65135,1,0,0:0:0:0:
240,224,65226,1,0,0:0:0:0:
280,256,65407,1,0,0:0:0:0:
320,224,65587,5,0,0:0:0:0:
336,208,65678,1,0,0:0:0:0:
352,192,65768,1,0,0:0:0:0:
368,176,65858,1,0,0:0:0:0:
384,160,65949,1,0,0:0:0:0:
288,144,66129,1,0,0:0:0:0:
208,208,66310,1,0,0:0:0:0:
144,80,66672,5,0,0:0:0:0:
401,242,66853,1,0,0:0:0:0:
350,324,67033,2,0,L|302:295,4,50
264,272,67576,1,0,0:0:0:0:
176,224,67756,5,0,0:0:0:0:
192,208,67847,1,0,0:0:0:0:
208,192,67937,1,0,0:0:0:0:
224,176,68027,1,0,0:0:0:0:
240,160,68118,1,0,0:0:0:0:
280,128,68299,1,0,0:0:0:0:
320,160,68479,5,0,0:0:0:0:
336,176,68570,1,0,0:0:0:0:
352,192,68660,1,0,0:0:0:0:
368,208,68750,1,0,0:0:0:0:
384,224,68841,1,0,0:0:0:0:
288,240,69021,1,0,0:0:0:0:
208,176,69202,1,0,0:0:0:0:
185,257,69563,6,0,P|73:257|73:145,1,200
137,193,70284,1,0,0:0:0:0:
286,59,70646,1,0,0:0:0:0:
219,248,71007,1,0,0:0:0:0:
375,124,71368,1,0,0:0:0:0:
301,310,71730,1,0,0:0:0:0:
456,183,72091,1,0,0:0:0:0:
336,64,72455,6,0,P|448:64|448:176,1,200
384,128,73178,1,0,0:0:0:0:
432,192,73539,6,0,P|320:192|320:80,1,200
384,128,74262,1,0,0:0:0:0:
184,129,74623,1,0,0:0:0:0:
181,329,74985,1,0,0:0:0:0:
464,320,75346,6,0,P|352:320|352:208,1,200
416,256,76069,1,0,0:0:0:0:
64,72,76430,1,0,0:0:0:0:
61,340,76792,6,0,P|102:235|206:275,1,200
138,318,77515,1,0,0:0:0:0:
436,55,77876,1,0,0:0:0:0:
464,64,78238,6,0,P|352:64|352:176,1,200
416,128,78961,1,0,0:0:0:0:
64,312,79322,1,0,0:0:0:0:
61,43,79684,6,0,P|102:148|206:108,1,200
138,65,80407,1,0,0:0:0:0:
436,328,80768,1,0,0:0:0:0:
256,63,81129,6,0,P|161:128|228:200,1,200
250,140,81852,1,0,0:0:0:0:
450,141,82214,1,0,0:0:0:0:
328,299,82575,1,0,0:0:0:0:
289,206,82756,1,0,0:0:0:0:
389,204,82937,1,0,0:0:0:0:
328,299,83117,1,0,0:0:0:0:
289,206,83298,1,0,0:0:0:0:
416,122,83659,2,0,P|311:87|245:153,1,200
336,165,84382,5,0,0:0:0:0:
144,107,84744,1,0,0:0:0:0:
180,303,85105,1,0,0:0:0:0:
324,164,85467,1,0,0:0:0:0:
234,120,85647,1,0,0:0:0:0:
224,219,85828,1,0,0:0:0:0:
324,164,86009,1,0,0:0:0:0:
234,120,86189,1,0,0:0:0:0:
317,75,86551,2,0,P|212:40|146:106,1,200
237,205,87274,5,0,0:0:0:0:
45,147,87636,1,0,0:0:0:0:
81,343,87997,1,0,0:0:0:0:
225,204,88359,1,0,0:0:0:0:
135,160,88539,1,0,0:0:0:0:
125,259,88720,1,0,0:0:0:0:
225,204,88901,1,0,0:0:0:0:
135,160,89081,1,0,0:0:0:0:
218,115,89443,2,0,P|113:80|47:146,1,200
114,301,90165,5,0,0:0:0:0:
273,180,90527,1,0,0:0:0:0:
435,63,90888,1,0,0:0:0:0:
273,181,91250,1,0,0:0:0:0:
193,241,91430,1,0,0:0:0:0:
114,301,91611,1,0,0:0:0:0:
273,180,91972,1,0,0:0:0:0:
74,208,92334,6,0,P|73:119|166:119,1,200
205,41,92876,2,0,L|255:41,1,50
355,41,93057,1,0,0:0:0:0:
356,241,93238,1,0,0:0:0:0:
156,243,93418,2,0,L|356:243,1,200
436,187,94141,5,0,0:0:0:0:
259,43,94322,1,0,0:0:0:0:
209,42,94412,1,0,0:0:0:0:
158,42,94503,1,0,0:0:0:0:
156,241,94684,1,0,0:0:0:0:
356,243,94864,2,0,L|156:243,1,200
155,142,95406,5,0,0:0:0:0:
205,142,95497,1,0,0:0:0:0:
254,141,95587,1,0,0:0:0:0:
354,143,95768,1,0,0:0:0:0:
357,292,96039,1,0,0:0:0:0:
207,295,96310,1,0,0:0:0:0:
354,143,96671,1,0,0:0:0:0:
155,242,96852,5,0,0:0:0:0:
205,242,96943,1,0,0:0:0:0:
254,243,97033,1,0,0:0:0:0:
354,241,97213,1,0,0:0:0:0:
357,92,97485,1,0,0:0:0:0:
207,93,97756,1,0,0:0:0:0:
354,241,98117,1,0,0:0:0:0:
357,142,98298,5,0,0:0:0:0:
307,142,98389,1,0,0:0:0:0:
258,141,98479,1,0,0:0:0:0:
158,143,98659,1,0,0:0:0:0:
155,292,98931,1,0,0:0:0:0:
305,291,99202,1,0,0:0:0:0:
158,143,99563,1,0,0:0:0:0:
357,242,99743,5,0,0:0:0:0:
307,242,99834,1,0,0:0:0:0:
258,243,99924,1,0,0:0:0:0:
158,241,100105,1,0,0:0:0:0:
155,92,100376,1,0,0:0:0:0:
305,93,100647,1,0,0:0:0:0:
158,241,101008,1,0,0:0:0:0:
352,193,101370,5,0,0:0:0:0:
251,194,101551,5,0,0:0:0:0:
251,194,101641,1,0,0:0:0:0:
251,194,101731,1,0,0:0:0:0:
150,194,101912,5,0,0:0:0:0:
150,194,102002,1,0,0:0:0:0:
150,194,102093,1,0,0:0:0:0:
193,112,102274,5,0,0:0:0:0:
193,112,102364,1,0,0:0:0:0:
193,112,102454,1,0,0:0:0:0:
418,311,102816,1,0,0:0:0:0:
256,192,102906,12,0,104081,0:0:0:0:
432,72,104261,5,0,0:0:0:0:
432,272,104441,1,0,0:0:0:0:
336,72,104622,5,0,0:0:0:0:
336,272,104802,1,0,0:0:0:0:
160,168,104984,2,0,L|264:168,1,100
464,345,105526,6,0,L|277:236,1,200
152,176,106068,1,0,0:0:0:0:
304,176,106249,1,0,0:0:0:0:
456,176,106429,6,0,L|280:296,1,200
80,72,107153,5,0,0:0:0:0:
80,272,107333,1,0,0:0:0:0:
176,72,107514,5,0,0:0:0:0:
176,272,107694,1,0,0:0:0:0:
352,168,107876,2,0,L|248:168,1,100
48,345,108418,6,0,L|235:236,1,200
360,176,108960,1,0,0:0:0:0:
208,176,109141,1,0,0:0:0:0:
56,176,109321,6,0,L|232:296,1,200
431,309,110045,1,0,0:0:0:0:
412,160,110225,1,0,0:0:0:0:
382,192,110315,1,0,0:0:0:0:
419,216,110405,1,0,0:0:0:0:
304,313,110587,5,0,0:0:0:0:
285,164,110767,1,0,0:0:0:0:
255,196,110857,1,0,0:0:0:0:
292,220,110947,1,0,0:0:0:0:
428,309,111129,5,0,0:0:0:0:
304,313,111310,1,0,0:0:0:0:
154,316,111490,1,0,0:0:0:0:
145,166,111671,1,0,0:0:0:0:
115,198,111761,1,0,0:0:0:0:
152,222,111851,1,0,0:0:0:0:
304,313,112032,5,0,0:0:0:0:
296,162,112213,1,0,0:0:0:0:
266,194,112303,1,0,0:0:0:0:
303,218,112393,1,0,0:0:0:0:
154,316,112575,1,0,0:0:0:0:
304,313,112755,1,0,0:0:0:0:
454,318,112936,5,0,0:0:0:0:
452,167,113117,1,0,0:0:0:0:
422,199,113207,1,0,0:0:0:0:
459,223,113297,1,0,0:0:0:0:
459,72,113478,1,0,0:0:0:0:
319,128,113659,1,0,0:0:0:0:
288,88,113749,1,0,0:0:0:0:
246,61,113839,1,0,0:0:0:0:
198,52,113930,1,0,0:0:0:0:
149,60,114020,1,0,0:0:0:0:
106,85,114110,1,0,0:0:0:0:
74,123,114201,1,0,0:0:0:0:
59,171,114291,1,0,0:0:0:0:
61,220,114381,1,0,0:0:0:0:
80,266,114472,1,0,0:0:0:0:
115,302,114562,1,0,0:0:0:0:
160,323,114652,1,0,0:0:0:0:
209,327,114743,1,0,0:0:0:0:
257,313,114833,1,0,0:0:0:0:
297,283,114924,1,0,0:0:0:0:
323,241,115014,1,0,0:0:0:0:
351,199,115105,1,0,0:0:0:0:
256,48,115828,5,0,0:0:0:0:
416,168,116009,1,0,0:0:0:0:
288,320,116189,1,0,0:0:0:0:
128,200,116370,1,0,0:0:0:0:
256,48,116551,2,0,P|256:192|256:176,1,150
392,272,117183,5,0,0:0:0:0:
192,72,117454,1,0,0:0:0:0:
392,72,117635,1,0,0:0:0:0:
392,272,117816,1,0,0:0:0:0:
192,272,117996,1,0,0:0:0:0:
300,76,118177,1,0,0:0:0:0:
296,272,118358,1,0,0:0:0:0:
300,76,118538,1,0,0:0:0:0:
256,336,118719,5,0,0:0:0:0:
95,216,118900,1,0,0:0:0:0:
224,64,119080,1,0,0:0:0:0:
384,183,119261,1,0,0:0:0:0:
256,336,119442,2,0,B|256:192|256:208,1,150
92,226,120075,5,0,0:0:0:0:
369,172,120346,1,0,0:0:0:0:
257,337,120527,1,0,0:0:0:0:
92,226,120708,1,0,0:0:0:0:
203,60,120888,1,0,0:0:0:0:
305,259,121069,1,0,0:0:0:0:
145,146,121250,1,0,0:0:0:0:
305,259,121430,1,0,0:0:0:0:
378,72,121611,5,0,0:0:0:0:
231,208,121792,1,0,0:0:0:0:
82,340,121972,1,0,0:0:0:0:
231,208,122153,1,0,0:0:0:0:
378,72,122334,1,0,0:0:0:0:
74,322,122966,5,0,0:0:0:0:
251,81,123237,1,0,0:0:0:0:
430,170,123418,1,0,0:0:0:0:
324,340,123599,1,0,0:0:0:0:
151,240,123779,1,0,0:0:0:0:
351,241,123960,1,0,0:0:0:0:
356,42,124141,1,0,0:0:0:0:
156,44,124321,1,0,0:0:0:0:
55,42,124502,5,0,0:0:0:0:
202,178,124683,1,0,0:0:0:0:
351,310,124863,1,0,0:0:0:0:
202,178,125044,1,0,0:0:0:0:
55,42,125225,1,0,0:0:0:0:
74,62,125857,5,0,0:0:0:0:
251,303,126128,1,0,0:0:0:0:
430,214,126309,1,0,0:0:0:0:
324,44,126490,1,0,0:0:0:0:
151,144,126670,1,0,0:0:0:0:
351,143,126851,1,0,0:0:0:0:
356,342,127032,1,0,0:0:0:0:
280,320,127574,6,0,L|224:320,1,50
336,232,127754,2,0,L|392:232,1,50
232,232,127935,2,0,L|176:232,1,50
64,136,128116,2,0,L|216:136,1,150
74,322,128749,5,0,0:0:0:0:
309,136,129020,1,0,0:0:0:0:
108,131,129201,1,0,0:0:0:0:
408,134,129382,1,0,0:0:0:0:
208,132,129562,1,0,0:0:0:0:
358,239,129743,1,0,0:0:0:0:
356,42,129924,2,0,L|293:42,2,50
454,42,130285,5,0,0:0:0:0:
318,189,130466,1,0,0:0:0:0:
186,338,130646,1,0,0:0:0:0:
318,189,130827,1,0,0:0:0:0:
454,42,131008,1,0,0:0:0:0:
386,116,131189,1,0,0:0:0:0:
318,189,131370,2,0,L|275:235,2,50
58,342,131731,1,0,0:0:0:0:
126,268,131912,1,0,0:0:0:0:
225,270,132092,2,0,L|162:270,2,50
325,168,132454,1,0,0:0:0:0:
377,82,132635,1,0,0:0:0:0:
419,171,132815,1,0,0:0:0:0:
454,342,133177,5,0,0:0:0:0:
318,195,133358,1,0,0:0:0:0:
186,46,133538,1,0,0:0:0:0:
318,195,133719,1,0,0:0:0:0:
454,342,133900,1,0,0:0:0:0:
386,268,134081,1,0,0:0:0:0:
318,195,134262,1,0,0:0:0:0:
284,159,134352,1,0,0:0:0:0:
251,122,134442,1,0,0:0:0:0:
58,42,134623,1,0,0:0:0:0:
126,116,134804,1,0,0:0:0:0:
225,115,134984,1,0,0:0:0:0:
275,114,135075,1,0,0:0:0:0:
324,115,135165,1,0,0:0:0:0:
325,216,135346,1,0,0:0:0:0:
377,302,135527,1,0,0:0:0:0:
419,213,135707,1,0,0:0:0:0:
58,42,136068,5,0,0:0:0:0:
194,189,136249,1,0,0:0:0:0:
326,338,136429,1,0,0:0:0:0:
194,189,136610,1,0,0:0:0:0:
58,42,136791,1,0,0:0:0:0:
126,116,136972,1,0,0:0:0:0:
194,189,137153,1,0,0:0:0:0:
228,225,137243,1,0,0:0:0:0:
261,262,137333,1,0,0:0:0:0:
454,342,137514,1,0,0:0:0:0:
386,268,137695,1,0,0:0:0:0:
287,269,137875,1,0,0:0:0:0:
237,270,137966,1,0,0:0:0:0:
188,269,138056,1,0,0:0:0:0:
187,168,138237,1,0,0:0:0:0:
