osu file format v14

[General]
AudioFilename: audio.mp3
AudioLeadIn: 0
PreviewTime: 64769
Countdown: 0
SampleSet: Soft
StackLeniency: 0.7
Mode: 3
LetterboxInBreaks: 0
EpilepsyWarning: 1
SpecialStyle: 0
WidescreenStoryboard: 1

[Editor]
DistanceSpacing: 0.5
BeatDivisor: 4
GridSize: 8
TimelineZoom: 2.2

[Metadata]
Title:Dati ( Short Ver. )
TitleUnicode:Dati ( Short Ver. )
Artist:Sam Concepcion, Tippy Dos feat. Quest
ArtistUnicode:Sam Concepcion, Tippy Dos feat. Quest
Creator:Captain Cusheen
Version:Muling Maalala Kahit sa Paglipas ng Panahon( 7k Normal )
Source:2013 PhilPop Musicfest Grand Champion
Tags:OPM Pop Tagalog Filipino Pinoy
BeatmapID:1332002
BeatmapSetID:621245

[Difficulty]
HPDrainRate:7
CircleSize:7
OverallDifficulty:8
ApproachRate:5
SliderMultiplier:1.4
SliderTickRate:1

[Events]
//Background and Video events
0,0,"Dati BG cause YEH BOIII it cool hue.jpg",0,0
//Break Periods
//Storyboard Layer 0 (Background)
Sprite,Background,Centre,"Dati BG cause YEH BOIII it cool hue.jpg",0,0
//Storyboard Layer 1 (Fail)
//Storyboard Layer 2 (Pass)
//Storyboard Layer 3 (Foreground)
Sprite,Foreground,TopLeft,"sb/light.png",320,240 M,0,530,,296,118 S,0,530,,0.6053334 C,0,530,,0,128,255 F,0,530,1182,1,0
Sprite,Foreground,Centre,"sb/light.png",320,240 M,0,1508,,283,299 S,0,1508,,0.5946667 F,0,1508,2160,1,0 C,0,1684,,0,128,255
Sprite,Foreground,Centre,"sb/light.png",320,240 M,0,3138,,156,179 S,0,3138,,0.5946669 C,0,3138,,0,128,255 F,0,3138,3790,1,0
Sprite,Foreground,Centre,"sb/light.png",320,240 M,0,4116,,402,87 S,0,4116,,0.4986668 C,0,4116,,0,128,255 F,0,4116,4769,1,0
Sprite,Foreground,Centre,"sb/light.png",320,240 M,0,10964,,660,235 S,0,10964,,1.768 C,0,10964,,128,255,255 F,0,10964,11290,1,0
Sprite,Foreground,Centre,"sb/light.png",320,240 M,0,6725,,475,299 S,0,6725,,0.5733337 C,0,6725,,0,128,255 F,0,6725,7377,1,0
Sprite,Foreground,Centre,"sb/light.png",320,240 M,0,5747,,189,277 S,0,5747,,0.5306669 C,0,5747,,0,128,255 F,0,5747,6399,1,0
Sprite,Foreground,Centre,"sb/light.png",320,240 M,0,9334,,464,157 S,0,9334,,0.6053333 C,0,9334,,0,128,255 F,0,9334,9986,1,0
Sprite,Foreground,Centre,"sb/light.png",320,240 M,0,12106,,306,-1 S,0,12106,,1.704 F,0,12106,12269,1,0 C,0,12106,12269,128,255,255
Sprite,Foreground,Centre,"sb/light.png",320,240 M,0,12269,,295,435 S,0,12269,,1.832 C,0,12269,,128,255,255 F,0,12269,12432,1,0
Sprite,Foreground,Centre,"sb/light.png",320,240 M,0,12921,,617,238 S,0,12921,,1.650666 C,0,12921,,255,128,128 F,0,12921,13247,1,0
Sprite,Foreground,Centre,"sb/light.png",320,240 M,0,11616,,70,234 S,0,11616,,1.725333 F,0,11616,11943,1,0 C,0,11616,11943,255,128,128
Sprite,Foreground,Centre,"sb/light.png",320,240 M,0,14225,,547,244 S,0,14225,,2.013334 F,0,14225,14388,1,0 C,0,14225,14388,255,128,128
Sprite,Foreground,Centre,"sb/light.png",320,240 M,0,14714,,299,432 S,0,14714,,1.896 C,0,14714,,0,255,255 F,0,14714,14877,1,0
Sprite,Foreground,Centre,"sb/light.png",320,240 M,0,14877,,311,22 S,0,14877,,1.725333 C,0,14877,,0,255,255 F,0,14877,15040,1,0
Sprite,Foreground,Centre,"sb/light.png",320,240 M,0,15529,,-12,232 S,0,15529,,2.077333 C,0,15529,,255,128,128 F,0,15529,15856,1,0
Sprite,Foreground,Centre,"sb/light.png",320,240 M,0,16182,,598,233 S,0,16182,,1.682666 C,0,16182,,128,255,255 F,0,16182,16508,1,0
Sprite,Foreground,Centre,"sb/light.png",320,240 M,0,16834,,5,244 S,0,16834,,1.714667 C,0,16834,,255,128,128 F,0,16834,17160,1,0
Sprite,Foreground,Centre,"sb/light.png",320,240 M,0,17323,,307,7 S,0,17323,,1.512 C,0,17323,,128,255,255 F,0,17323,17486,1,0
Sprite,Foreground,Centre,"sb/light.png",320,240 M,0,17486,,285,434 S,0,17486,,1.48 C,0,17486,,128,255,255 F,0,17486,17649,1,0
Sprite,Foreground,Centre,"sb/light.png",320,240 M,0,18138,,593,248 S,0,18138,,1.501333 C,0,18138,,255,128,128 F,0,18138,18464,1,0
Sprite,Foreground,Centre,"sb/light.png",320,240 M,0,18790,,-29,252 S,0,18790,,1.405333 C,0,18790,,128,255,255 F,0,18790,19116,1,0
Sprite,Foreground,Centre,"sb/light.png",320,240 M,0,19443,,609,221 S,0,19443,,1.405333 C,0,19443,,255,128,128 F,0,19443,19769,1,0
Sprite,Foreground,Centre,"sb/light.png",320,240 M,0,19932,,304,469 S,0,19932,,1.352 C,0,19932,,128,255,255 F,0,19932,20095,1,0
Sprite,Foreground,Centre,"sb/light.png",320,240 M,0,20095,,298,43 S,0,20095,,1.224 C,0,20095,,128,255,255 F,0,20095,20258,1,0
Sprite,Foreground,Centre,"sb/light.png",320,240 M,0,20747,,10,246 S,0,20747,,1.309333 C,0,20747,,255,128,128 F,0,20747,21073,1,0
Sprite,Foreground,Centre,"sb/light.png",320,240 M,0,21399,,602,243 S,0,21399,,1.32 C,0,21399,,128,255,255 F,0,21399,21725,1,0
Sprite,Foreground,Centre,"sb/light.png",320,240 M,0,22051,,-8,227 S,0,22051,,1.245334 C,0,22051,,255,128,128 F,0,22051,22377,1,0
Sprite,Foreground,Centre,"sb/light.png",320,240 M,0,22540,,292,430 S,0,22540,,1.650666 C,0,22540,,128,255,255 F,0,22540,22703,1,0
Sprite,Foreground,Centre,"sb/light.png",320,240 M,0,22703,,299,109 S,0,22703,,1.48 C,0,22703,,128,255,255 F,0,22703,22866,1,0
Sprite,Foreground,Centre,"sb/light.png",320,240 M,0,23356,,598,229 S,0,23356,,1.384 C,0,23356,,255,128,128 F,0,23356,23682,1,0
Sprite,Foreground,Centre,"sb/light.png",320,240 M,0,24008,,-1,236 S,0,24008,,1.608 C,0,24008,,128,255,255 F,0,24008,24334,1,0
Sprite,Foreground,Centre,"sb/light.png",320,240 M,0,24660,,612,237 S,0,24660,,1.384 C,0,24660,,255,128,128 F,0,24660,24986,1,0
Sprite,Foreground,Centre,"sb/light.png",320,240 M,0,25149,,307,81 S,0,25149,,1.554667 C,0,25149,,128,255,255 F,0,25149,25312,1,0.1573333
Sprite,Foreground,Centre,"sb/light.png",320,240 M,0,25312,,312,409 S,0,25312,,1.448 C,0,25312,,128,255,255 F,0,25312,25475,1,0
Sprite,Foreground,Centre,"sb/light.png",320,240 M,0,25964,,-1,241 S,0,25964,,1.202667 C,0,25964,,255,128,128 F,0,25964,26290,1,0
Sprite,Foreground,Centre,"sb/light.png",320,240 M,0,26616,,608,243 S,0,26616,,1.352 C,0,26616,,128,255,255 F,0,26616,26943,1,0
Sprite,Foreground,Centre,"sb/light.png",320,240 M,0,27269,,-2,237 S,0,27269,,1.224 C,0,27269,,255,128,128 F,0,27269,27595,1,0
Sprite,Foreground,Centre,"sb/light.png",320,240 M,0,27758,,295,421 S,0,27758,,1.554666 C,0,27758,,128,255,255 F,0,27758,27921,1,0
Sprite,Foreground,Centre,"sb/light.png",320,240 M,0,27921,,301,71 S,0,27921,,1.192 C,0,27921,,128,255,255 F,0,27921,28084,1,0
Sprite,Foreground,Centre,"sb/light.png",320,240 M,0,28573,,296,247 S,0,28573,,1.256 C,0,28573,,255,128,128 F,0,28573,28899,1,0
Sprite,Foreground,Centre,"sb/light.png",320,240 M,0,29225,,183,301 S,0,29225,,1.16 C,0,29225,,255,255,255 F,0,29225,29877,1,0
Sprite,Foreground,Centre,"sb/light.png",320,240 M,0,30203,,449,164 F,0,30203,30856,1,0
Sprite,Foreground,Centre,"sb/light.png",320,240 F,0,30856,31019,1,0 M,0,31019,,256,362 S,0,31019,,0.5840001
Sprite,Foreground,Centre,"sb/light.png",320,240 M,0,31182,,476,180 F,0,31182,31345,1,0 S,0,31345,,0.5306666
Sprite,Foreground,Centre,"sb/light.png",320,240 F,0,31019,31182,1,0 M,0,31182,,347,265 F,0,31182,,0,1 S,0,31182,,0.5519998
Sprite,Foreground,Centre,"sb/light.png",320,240 M,0,8356,,172,133 S,0,8356,,0.6053334 C,0,8356,,0,128,255 F,0,8356,9008,1,0
Sprite,Foreground,Centre,"sb/light.png",320,240 M,0,13573,,-67,245 S,0,13573,,1.928 C,0,13573,13736,128,255,255 F,0,13573,13899,1,0
Sprite,Foreground,Centre,"sb/light.png",320,240 M,0,63138,,75,54 S,0,63138,,1.778666 C,0,63138,,0,0,255 F,0,63138,63259,1,0.1039999
Sprite,Foreground,Centre,"sb/light.png",320,240 M,0,63464,,564,366 S,0,63464,,1.565333 C,0,63464,,0,0,255 F,0,63464,63555,1,0
Sprite,Foreground,Centre,"sb/owo.png",320,240 M,0,65747,,318,436 S,0,65747,,1.394666 C,0,65747,,128,255,255 F,0,65747,66073,1,0
Sprite,Foreground,Centre,"sb/particles.png",320,240 S,0,65747,,1.405333 C,0,65747,,0,255,255 F,0,65747,68356,0,0.3668728 M,0,65747,70964,313,-412,325,-293 F,0,68356,81236,0.3668728,1 M,0,70964,76182,325,-293,324,-170 M,0,76182,81399,324,-170,340,-33 F,0,81236,84008,1 M,0,81399,84008,340,-33,337,29 M,0,84008,84986,337,29,335,51 F,0,84008,84986,1,0
Sprite,Foreground,Centre,"sb/light.png",320,240 M,0,31345,,325,96 S,0,31345,,0.5626666 F,0,31345,31508,1,0
Sprite,Foreground,Centre,"sb/owo.png",320,240 M,0,97051,,364,423 S,0,97051,,1.32 F,0,97051,97377,1,0
Sprite,Foreground,Centre,"sb/lights.png",320,240 C,0,86616,,215,215,0 M,0,86616,88736,346,-76,344,-14 F,0,86616,94279,0,1 M,0,88736,91345,344,-14,342,111 M,0,91345,,342,111 M,0,91345,94443,342,111,348,290 F,0,94279,94443,1,0
Sprite,Foreground,Centre,"sb/light.png",320,240 M,0,31834,,37,251 S,0,31834,,1.384 C,0,31834,,128,255,255 F,0,31834,32160,1,0
Sprite,Foreground,Centre,"sb/light.png",320,240 M,0,32486,,629,237 S,0,32486,,1.213333 C,0,32486,,128,255,128 F,0,32486,32812,1,0
Sprite,Foreground,Centre,"sb/light.png",320,240 M,0,32975,,331,455 S,0,32975,,1.426667 C,0,32975,,128,255,255 F,0,32975,33138,1,0
Sprite,Foreground,Centre,"sb/light.png",320,240 M,0,33464,,332,439 S,0,33464,,1.288 C,0,33464,,128,255,255 F,0,33464,33627,1,0
Sprite,Foreground,Centre,"sb/light.png",320,240 M,0,33790,,30,237 S,0,33790,,1.149333 C,0,33790,,128,255,128 F,0,33790,34116,1,0
Sprite,Foreground,Centre,"sb/light.png",320,240 M,0,34443,,634,233 S,0,34443,,1.181333 C,0,34443,,128,255,255 F,0,34443,34769,1,0
Sprite,Foreground,Centre,"sb/light.png",320,240 M,0,35095,,21,229 S,0,35095,,1.202667 C,0,35095,,128,255,128 F,0,35095,35421,1,0
Sprite,Foreground,Centre,"sb/light.png",320,240 M,0,35584,,321,456 S,0,35584,,1.234667 C,0,35584,,128,255,255 F,0,35584,35747,1,0
Sprite,Foreground,Centre,"sb/light.png",320,240 M,0,36073,,331,457 S,0,36073,,1.202667 C,0,36073,,128,255,255 F,0,36073,36236,1,0
Sprite,Foreground,Centre,"sb/light.png",320,240 M,0,36399,,668,233 S,0,36399,,1.202666 C,0,36399,,128,255,128 F,0,36399,36725,1,0.152
Sprite,Foreground,Centre,"sb/light.png",320,240 M,0,37051,,12,246 S,0,37051,,1.181333 C,0,37051,,128,255,255 F,0,37051,37377,1,0
Sprite,Foreground,Centre,"sb/light.png",320,240 M,0,37703,,635,226 S,0,37703,,1.16 C,0,37703,,128,255,128 F,0,37703,38029,1,0
Sprite,Foreground,Centre,"sb/light.png",320,240 M,0,38193,,321,470 S,0,38193,,1.352 C,0,38193,,128,255,255 F,0,38193,38356,1,0
Sprite,Foreground,Centre,"sb/light.png",320,240 M,0,38682,,313,461 S,0,38682,,1.202666 C,0,38682,,128,255,255 F,0,38682,38845,1,0
Sprite,Foreground,Centre,"sb/light.png",320,240 M,0,39008,,-2,226 S,0,39008,,1.138667 C,0,39008,,128,255,128 F,0,39008,39334,1,0
Sprite,Foreground,Centre,"sb/light.png",320,240 M,0,39660,,645,225 S,0,39660,,1.234666 C,0,39660,,128,255,255 F,0,39660,39986,1,0
Sprite,Foreground,Centre,"sb/light.png",320,240 M,0,40312,,18,225 S,0,40312,,1.106667 C,0,40312,,128,255,128 F,0,40312,40638,1,0
Sprite,Foreground,Centre,"sb/light.png",320,240 M,0,40801,,337,484 S,0,40801,,1.458667 C,0,40801,,128,255,255 F,0,40801,40964,1,0
Sprite,Foreground,Centre,"sb/light.png",320,240 M,0,41290,,322,458 S,0,41290,,1.245333 C,0,41290,,128,255,255 F,0,41290,41453,1,0.05600023
Sprite,Foreground,Centre,"sb/light.png",320,240 M,0,41616,,679,237 S,0,41616,,1.256 C,0,41616,,128,255,128 F,0,41616,41943,1,0.03999997
Sprite,Foreground,Centre,"sb/light.png",320,240 M,0,42269,,2,212 S,0,42269,,1.170666 C,0,42269,,128,255,255 F,0,42269,42595,1,0
Sprite,Foreground,Centre,"sb/light.png",320,240 M,0,42921,,659,235 S,0,42921,,1.149333 C,0,42921,,128,255,128 F,0,42921,43247,1,0
Sprite,Foreground,Centre,"sb/light.png",320,240 M,0,43410,,328,433 S,0,43410,,1.224 C,0,43410,,128,255,255 F,0,43410,43573,1,0
Sprite,Foreground,Centre,"sb/light.png",320,240 M,0,43899,,302,447 S,0,43899,,1.074667 C,0,43899,,128,255,255 F,0,43899,44062,1,0
Sprite,Foreground,Centre,"sb/light.png",320,240 M,0,44877,,19,241 S,0,44877,,1.170667 C,0,44877,,128,255,255 F,0,44877,45203,1,0
Sprite,Foreground,Centre,"sb/light.png",320,240 M,0,45529,,652,244 S,0,45529,,1.117334 C,0,45529,,128,255,128 F,0,45529,45856,1,0
Sprite,Foreground,Centre,"sb/light.png",320,240 M,0,44225,,661,253 S,0,44225,,1.266667 C,0,44225,,128,255,128 F,0,44225,44551,1,0
Sprite,Foreground,Centre,"sb/light.png",320,240 M,0,46019,,319,467 S,0,46019,,1.192 C,0,46019,,128,255,255 F,0,46019,46182,1,0
Sprite,Foreground,Centre,"sb/light.png",320,240 M,0,46508,,312,477 S,0,46508,,1.298667 C,0,46508,,128,255,255 F,0,46508,46671,1,0
Sprite,Foreground,Centre,"sb/light.png",320,240 M,0,46834,,4,216 S,0,46834,,1.064 C,0,46834,,128,255,128 F,0,46834,47160,1,0
Sprite,Foreground,Centre,"sb/light.png",320,240 M,0,47486,,641,236 S,0,47486,,1.224 C,0,47486,,128,255,255 F,0,47486,47812,1,0
Sprite,Foreground,Centre,"sb/light.png",320,240 M,0,48138,,-5,216 S,0,48138,,1.138667 C,0,48138,,128,255,128 F,0,48138,48464,1,0.09333333
Sprite,Foreground,Centre,"sb/light.png",320,240 M,0,49116,,327,450 S,0,49116,,1.170666 C,0,49116,,128,255,255 F,0,49116,49279,1,0
Sprite,Foreground,Centre,"sb/light.png",320,240 M,0,48627,,330,475 S,0,48627,,1.181333 C,0,48627,,128,255,255 F,0,48627,48790,1,0
Sprite,Foreground,Centre,"sb/light.png",320,240 M,0,49443,,667,241 S,0,49443,,1.384 C,0,49443,,128,255,128 F,0,49443,49769,1,0
Sprite,Foreground,Centre,"sb/light.png",320,240 M,0,50095,,15,237 S,0,50095,,1.192 C,0,50095,,128,255,255 F,0,50095,50421,1,0
Sprite,Foreground,Centre,"sb/light.png",320,240 M,0,50747,,650,217 S,0,50747,,1.106667 C,0,50747,,128,255,128 F,0,50747,51073,1,0
Sprite,Foreground,Centre,"sb/light.png",320,240 M,0,51236,,330,465 S,0,51236,,1.224 C,0,51236,,128,255,255 F,0,51236,51399,1,0
Sprite,Foreground,Centre,"sb/light.png",320,240 M,0,51562,,322,475 S,0,51562,,1.213333 C,0,51562,,128,255,255 F,0,51562,51725,1,0
Sprite,Foreground,Centre,"sb/light.png",320,240 M,0,52051,,308,-21 S,0,52051,,1.085333 C,0,52051,,128,255,128 F,0,52051,52377,1
Sprite,Foreground,Centre,"sb/lights.png",320,240 S,0,31834,32145,0.4666667,0.9394255 F,0,31834,32486,0,0.6499041 M,0,31834,37051,337,-164,325,-61 C,0,31834,37051,255,255,255,128,255,255 S,0,32145,32375,0.9394255,1.056759 F,0,32486,32812,0.6499041,0.9988562 F,0,32812,32975,0.9988562,0.5806001 F,0,32975,33464,0.5806001,0.295832 F,0,33464,33790,0.295832,0.2478532 F,0,33790,34279,0.2478532,0.1625517 F,0,34279,34443,0.1625517,1 F,0,34443,35095,1,0.5662222 F,0,35095,35421,0.5662222,0.4613333 F,0,35421,35584,0.4613333,1 F,0,35584,36073,1,0.6766667 F,0,36073,36399,0.6766667,0.09239999 F,0,36399,36888,0.09239999,0.3226667 F,0,36888,37051,0.3226667,1 F,0,37051,37866,1,0.4666668 C,0,37051,38029,128,255,255,255,128,128 M,0,37051,40801,325,-61,335,25 F,0,37866,38029,0.4666668,1 F,0,38029,38193,1,0.6594514 C,0,38029,39660,255,128,128,128,255,255 F,0,38193,38682,0.6594514,0.08049045 F,0,38682,39008,0.08049045,0.01309424 F,0,39008,39497,0.01309424,0.3386666 F,0,39497,39660,0.3386666,1 F,0,39660,40312,1,0.3855999 C,0,39660,40638,128,255,255,255,128,128 F,0,40312,40475,0.3855999,0.3386666 F,0,40475,40638,0.3386666,1 F,0,40638,40964,1,0.6753278 C,0,40638,42269,255,128,128,128,255,255 M,0,40801,42269,335,25,323,55 F,0,40964,41290,0.6753278,0.435933 F,0,41290,41616,0.435933,0.4855056 F,0,41616,42106,0.4855056,0.5466667 F,0,42106,42269,0.5466667,0.8826667 F,0,42269,42921,0.8826667,0 C,0,42269,43247,128,255,255,255,128,128 M,0,42269,47486,323,55,317,106 F,0,42921,43084,0,0.536 F,0,43084,43247,0.536,1 F,0,43247,43410,1,0.9407408 C,0,43247,44877,255,128,128,128,255,255 F,0,43410,44714,0.9407408,0.5626667 F,0,44714,44877,0.5626667,0.4879999 F,0,44877,45529,0.4879999,0 C,0,44877,45856,128,255,255,255,128,128 F,0,45529,45693,0,0.4186668 F,0,45693,45856,0.4186668,1 F,0,45856,46182,1,0.778963 C,0,45856,47486,255,128,128,128,255,255 F,0,46182,46508,0.778963,0.2844021 F,0,46508,46834,0.2844021,0 F,0,46834,47323,0,0.08266672 F,0,47323,47486,0.08266672,0.6533333 F,0,47486,48138,0.6533333,0.03466665 C,0,47486,48464,128,255,255,255,128,128 M,0,47486,50742,317,106,289,212 F,0,48138,48301,0.03466665,0.4666667 F,0,48301,48464,0.4666667,0.8826666 F,0,48464,49932,0.8826666,0.5893334 C,0,48464,50095,255,128,128,128,255,255 F,0,49932,50095,0.5893334,1 F,0,50095,50910,1,0.4026667 C,0,50095,51073,128,255,255,255,255,255 M,0,50742,52516,289,212,285,230 F,0,50910,51073,0.4026667,1 F,0,51073,52703,1,0 M,0,52516,52703,285,230
Sprite,Foreground,Centre,"sb/particles.png",320,240 R,0,52703,,0 F,0,52703,52809,1,0 M,0,52703,62975,310,784,323,-222 F,0,52809,54660,0,1 F,0,54660,62812,1,0.2053334 F,0,62812,62931,0.2053334,0.008000038
Sprite,Foreground,Centre,"sb/lights.png",320,240 F,0,59225,60203,0.1359999,1 M,0,59225,62975,298,581,314,206 F,0,60203,62812,1,0
Sprite,Foreground,Centre,"Dati BG cause YEH BOIII it cool hue.jpg",0,0 M,0,48608,,9,-70
Sprite,Foreground,Centre,"sb/at ako ang iyong hari.jpg",320,240 F,0,68356,69171,0,0.5464762 M,0,68356,70638,330,238,368,238 F,0,69171,69497,0.5464762,1 F,0,69497,69986,1 F,0,69986,70149,1,0.8879999 F,0,70149,70312,0.8879999,0.6439999 F,0,70312,70596,0.6439999,0.03045389 F,0,70596,70638,0.03045389,0
Sprite,Foreground,Centre,"sb/ikaw nga yung reyna.jpg",320,240 S,0,65747,,1.032 F,0,65747,66399,0.05333344,0.7733334 M,0,65747,67703,331,233,310,228 F,0,66399,67051,0.7733334,1 F,0,67051,67214,1,0.872 F,0,67214,67540,0.872,0.5093333 F,0,67540,67703,0.5093333,0.1573332
Sprite,Foreground,Centre,"sb/ako yung princesang sagip mo palagi.jpg",320,240 S,0,70964,,1.992 F,0,70964,71616,0.01333313,0.2180686 M,0,70964,72260,327,265,335,188 F,0,71616,72106,0.2180686,0.4156007 F,0,72106,72432,0.4156007,1 M,0,72260,75529,335,188,340,197 F,0,72432,72758,1 F,0,72758,73084,1,0.9448563 F,0,73084,73410,0.9448563,0.8842613 F,0,73410,75115,0.8842613,0.3198711 F,0,73410,75366,0.8842613,0.4815238 F,0,75115,75366,0.3198711,0.4815238 F,0,75366,75529,0.4815238,0.03999984
Sprite,Foreground,Centre,"sb/ngunit ngayo'y marami ng.jpg",320,240 M,0,75693,75856,331,231,317,232 F,0,75693,78790,0.0666668,1 M,0,75856,76019,317,232,325,230 M,0,76019,76182,325,230,329,225 M,0,76182,76643,329,225,326,214 M,0,76643,76834,326,214,324,230 M,0,76834,77486,324,230,328,251 M,0,77486,78138,328,251,369,237 M,0,78138,78790,369,237,334,239 M,0,78790,79443,334,239,336,259 F,0,78790,80910,1,0.0666668 M,0,79443,80095,336,259,345,261 M,0,80095,80747,345,261,338,247
Sprite,Foreground,Centre,"sb/ng pag tingin.jpg",320,240 S,0,81236,,1.650667 M,0,81236,82357,323,236,324,216 F,0,81236,84008,0.06133332,0.9580672 F,0,84008,84660,0.9580672,0.2291121 F,0,84660,85475,0.2291121,0.4122505 F,0,85475,85638,0.4122505,0.240167 F,0,85638,85801,0.240167,0.11875 F,0,85801,85964,0.11875,0
Sprite,Foreground,Centre,"sb/1 dararat da dati.jpg",320,240 M,0,86616,,228,225 S,0,86616,,0.6693332 R,0,86616,,-0.4053339 F,0,86616,87432,0,1 F,0,87432,88573,1,0.6266667 F,0,88573,88899,0.6266667,0.007999954
Sprite,Foreground,Centre,"Dati BG cause YEH BOIII it cool hue.jpg",320,240 S,0,94443,94606,0.1253332,0.2320001 R,0,94443,94606,-0.7039999,-0.9386668 F,0,94443,95981,0,1 S,0,94606,94769,0.2320001,0.3386667 R,0,94606,94769,-0.9386668,-1.664 P,0,94769,,H S,0,94769,94932,0.3386667,0.4240001 R,0,94769,94932,-1.664,-2.538666 S,0,94932,95095,0.4240001,0.488 R,0,94932,95095,-2.538666,-3.711999 S,0,95095,95258,0.488,0.5840001 R,0,95095,95258,-3.711999,-4.736 S,0,95258,95421,0.5840001,0.6693333 R,0,95258,95421,-4.736,-5.717333 S,0,95421,95584,0.6693333,0.7013333 R,0,95421,95584,-5.717333,-5.973334 R,0,95584,95747,-5.973334,-6.229333 R,0,95747,95910,-6.229333,-6.293333 F,0,95981,96073,1,0.002666626
Sprite,Foreground,Centre,"Dati BG cause YEH BOIII it cool hue.jpg",320,240 M,0,530,3919,322,248,321,205 F,0,530,31834,0,0.3219718 F,0,530,63138,0.005333252,0.3946668 M,0,3919,5586,321,205,321,249 M,0,5586,63138,321,249,321,257 F,0,31834,38319,0.3219718,0.4074776 F,0,32160,33790,0.7140272,0.1801636 F,0,33790,35095,0.1801636,0.3109457 F,0,35095,38193,0.3109457,0.1648776 F,0,38193,63138,0.1648776,1 F,0,38319,39660,0.4074776,0.01399997 F,0,39660,40312,0.01399997,0.06605435 F,0,40312,40638,0.06605435,0 F,0,40638,40964,0,0.05944239 F,0,40964,41290,0.05944239,0.1361364 F,0,41290,43899,0.1361364,0.2003606 F,0,43899,48138,0.2003606,0.157388 F,0,48138,49443,0.157388,0.2668365 F,0,49443,50747,0.2668365,0.1842789 F,0,50747,51236,0.1842789,0.02731975 F,0,51236,51562,0.02731975,0.349347 F,0,51562,59877,0.349347,0.3900307 F,0,59877,60529,0.3900307,1 F,0,60529,63138,1,0.1466667 F,0,62812,63138,0.07733334,1 S,0,63138,63194,1,1.138667 F,0,63138,63301,0.1466667,1 S,0,63194,63301,1.138667,0.9573333 F,0,63301,63464,1,0.2266668 S,0,63301,63464,0.9573333 S,0,63464,63535,0.9573333,1.128 F,0,63464,63627,0.2266668,0.36 S,0,63535,63581,1.128,0.9573334 S,0,63581,64116,0.9573334 F,0,63627,63790,0.36,1 F,0,63790,64116,1,0.28 S,0,64116,64197,0.9573334,1.149333 F,0,64116,64932,0.28,1 S,0,64197,64279,1.149333,0.968 F,0,64932,65095,1,0
Sprite,Foreground,Centre,"sb/3 dararat da dati.jpg",320,240 M,0,91834,,326,233 S,0,91834,,1.426667 F,0,91834,92323,0,1 F,0,92323,93627,1 F,0,93627,93953,1,0.8853334 F,0,93953,94279,0.8853334,0
Sprite,Foreground,Centre,"sb/2 darararat da dati.jpg",320,240 M,0,89225,,450,206 S,0,89225,,0.4559999 R,0,89225,,0.341333 F,0,89225,89877,0,1 F,0,89877,91182,1,0.552 F,0,91182,91508,0.552,0
//Storyboard Sound Samples
Sample,10964,0,"soft-hitnormal.wav",30
Sample,63790,0,"soft-hitnormal.wav",30
Sample,76019,0,"soft-hitnormal.wav",30
Sample,76508,0,"soft-hitnormal.wav",30
Sample,77160,0,"soft-hitnormal.wav",30
Sample,83682,0,"soft-hitnormal.wav",30
Sample,86779,0,"soft-hitnormal.wav",30
Sample,88410,0,"soft-hitnormal.wav",30
Sample,89388,0,"soft-hitnormal.wav",30
Sample,91019,0,"soft-hitnormal.wav",30
Sample,91997,0,"soft-hitnormal.wav",30
Sample,93627,0,"soft-hitnormal.wav",30
Sample,94279,0,"soft-hitnormal.wav",30

[TimingPoints]
530,652.173913043478,4,2,0,30,1,0
65747,-100,4,2,0,30,0,1
97051,-100,4,2,0,30,0,0

[HitObjects]
402,192,530,5,0,0:0:0:70:D#5S_Eb5S.wav
36,192,530,1,0,0:0:0:30:
109,192,693,1,0,0:0:0:30:
182,192,856,1,0,0:0:0:30:
256,192,1019,1,0,0:0:0:30:
36,192,1182,1,0,0:0:0:30:
182,192,1345,1,0,0:0:0:30:
256,192,1508,1,0,0:0:0:70:A#4S_Bb4S.wav
475,192,1508,1,0,0:0:0:30:
329,192,1671,1,0,0:0:0:30:
109,192,1834,1,0,0:0:0:30:
256,192,1997,1,0,0:0:0:30:
182,192,2160,1,0,0:0:0:30:
256,192,2323,1,0,0:0:0:30:
329,192,2486,1,0,0:0:0:30:
402,192,2649,1,0,0:0:0:30:
109,192,2812,1,0,0:0:0:30:
256,192,2975,1,0,0:0:0:30:
329,192,3138,1,0,0:0:0:70:D6S.wav
475,192,3138,1,0,0:0:0:30:
182,192,3301,1,0,0:0:0:30:
109,192,3464,1,0,0:0:0:30:
36,192,3627,1,0,0:0:0:30:
256,192,3790,1,0,0:0:0:30:
182,192,3953,1,0,0:0:0:30:
402,192,4116,1,0,0:0:0:70:D#6S_Eb6S.wav
109,192,4116,1,0,0:0:0:30:
329,192,4279,1,0,0:0:0:30:
256,192,4443,1,0,0:0:0:30:
402,192,4606,1,0,0:0:0:30:
109,192,4769,1,0,0:0:0:30:
182,192,4932,1,0,0:0:0:30:
329,192,5095,1,0,0:0:0:30:
475,192,5258,1,0,0:0:0:30:
36,192,5421,1,0,0:0:0:30:
182,192,5584,1,0,0:0:0:30:
109,192,5747,1,0,0:0:0:70:D#5S_Eb5S.wav
402,192,5747,1,0,0:0:0:30:
256,192,5910,1,0,0:0:0:30:
329,192,6073,1,0,0:0:0:30:
475,192,6236,1,0,0:0:0:30:
182,192,6399,1,0,0:0:0:30:
256,192,6562,1,0,0:0:0:30:
329,192,6725,1,0,0:0:0:70:A#4S_Bb4S.wav
36,192,6725,1,0,0:0:0:30:
182,192,6888,1,0,0:0:0:30:
109,192,7051,1,0,0:0:0:30:
256,192,7214,1,0,0:0:0:30:
182,192,7377,1,0,0:0:0:30:
329,192,7540,1,0,0:0:0:30:
402,192,7703,1,0,0:0:0:30:
475,192,7866,1,0,0:0:0:30:
256,192,8029,1,0,0:0:0:30:
182,192,8193,1,0,0:0:0:30:
109,192,8356,1,0,0:0:0:70:D6S.wav
402,192,8356,1,0,0:0:0:30:
475,192,8356,1,0,0:0:0:0:
329,192,8519,1,0,0:0:0:30:
256,192,8682,1,0,0:0:0:30:
329,192,8845,1,0,0:0:0:30:
402,192,9008,1,0,0:0:0:30:
36,192,9171,1,0,0:0:0:30:
182,192,9334,1,0,0:0:0:70:D#6S_Eb6S.wav
475,192,9334,1,0,0:0:0:30:
256,192,9334,1,0,0:0:0:0:
329,192,9497,1,0,0:0:0:30:
109,192,9660,1,0,0:0:0:30:
256,192,9823,1,0,0:0:0:30:
402,192,9986,1,0,0:0:0:30:
256,192,10149,1,0,0:0:0:30:
475,192,10312,1,0,0:0:0:30:
329,192,10475,1,0,0:0:0:30:
109,192,10638,1,0,0:0:0:30:
256,192,10801,1,0,0:0:0:30:
182,192,10964,1,0,0:0:0:70:D#5S_Eb5S.wav
36,192,10964,128,0,11616:0:0:0:70:LR_Kick Normal .wav
329,192,11616,1,0,0:0:0:70:LR3_SnapF.wav
475,192,11616,1,0,0:0:0:70:LR_Kick Normal .wav
182,192,11943,128,0,12921:0:0:0:70:A#4S_Bb4S.wav
402,192,12106,1,0,0:0:0:70:LR_Kick Normal .wav
475,192,12106,1,0,0:0:0:30:
329,192,12269,1,0,0:0:0:70:LR_Kick Normal .wav
256,192,12269,1,0,0:0:0:30:
402,192,12921,1,0,0:0:0:70:LR3_SnapF.wav
475,192,12921,1,0,0:0:0:70:LR_Kick Normal .wav
329,192,13573,128,0,14225:0:0:0:70:F4S.wav
256,192,13573,1,0,0:0:0:70:LR_Kick Normal .wav
109,192,13573,1,0,0:0:0:30:
182,192,14225,1,0,0:0:0:70:LR_Kick Normal .wav
36,192,14225,1,0,0:0:0:70:LR3_SnapF.wav
475,192,14551,128,0,15529:0:0:0:70:G4S.wav
109,192,14714,1,0,0:0:0:70:LR_Kick Normal .wav
256,192,14714,1,0,0:0:0:30:
329,192,14877,1,0,0:0:0:70:LR_Kick Normal .wav
402,192,14877,1,0,0:0:0:30:
109,192,15203,128,0,15529:0:0:0:70:F6S.wav
402,192,15529,1,0,0:0:0:70:LR3_SnapF.wav
256,192,15529,1,0,0:0:0:70:LR_Kick Normal .wav
36,192,15693,128,0,16182:0:0:0:70:G6S.wav
182,192,16182,1,0,0:0:0:70:D#6S_Eb6S.wav
402,192,16182,1,0,0:0:0:70:LR_Kick Normal .wav
329,192,16182,128,0,16834:0:0:0:30:
402,192,16834,1,0,0:0:0:70:LR3_SnapF.wav
475,192,16834,1,0,0:0:0:70:LR_Kick Normal .wav
109,192,17160,128,0,18138:0:0:0:70:A#5S_Bb5S.wav
182,192,17323,1,0,0:0:0:70:LR_Kick Normal .wav
329,192,17323,1,0,0:0:0:30:
36,192,17486,1,0,0:0:0:70:LR_Kick Normal .wav
475,192,17486,1,0,0:0:0:30:
256,192,18138,1,0,0:0:0:70:LR_Kick Normal .wav
402,192,18138,1,0,0:0:0:70:LR3_SnapF.wav
402,192,18790,128,0,19443:0:0:0:70:F4S.wav
36,192,18790,1,0,0:0:0:70:LR_Kick Normal .wav
256,192,18790,1,0,0:0:0:30:
329,192,19443,1,0,0:0:0:70:LR_Kick Normal .wav
109,192,19443,1,0,0:0:0:70:LR3_SnapF.wav
182,192,19769,128,0,20747:0:0:0:70:G4S.wav
329,192,19932,1,0,0:0:0:70:LR_Kick Normal .wav
475,192,19932,1,0,0:0:0:30:
109,192,20095,1,0,0:0:0:70:LR_Kick Normal .wav
36,192,20095,1,0,0:0:0:30:
402,192,20421,128,0,20747:0:0:0:70:C6S.wav
256,192,20747,1,0,0:0:0:70:LR_Kick Normal .wav
475,192,20747,1,0,0:0:0:70:LR3_SnapF.wav
329,192,20910,128,0,21236:0:0:0:70:A#5S_Bb5S.wav
256,192,21399,1,0,0:0:0:70:F5S.wav
402,192,21399,1,0,0:0:0:70:LR_Kick Normal .wav
109,192,21399,128,0,22051:0:0:0:30:
182,192,22051,1,0,0:0:0:70:LR3_SnapF.wav
329,192,22051,1,0,0:0:0:70:LR_Kick Normal .wav
402,192,22377,128,0,23356:0:0:0:70:G5S.wav
36,192,22540,1,0,0:0:0:70:LR_Kick Normal .wav
109,192,22540,1,0,0:0:0:30:
182,192,22703,1,0,0:0:0:70:LR_Kick Normal .wav
329,192,22703,1,0,0:0:0:30:
256,192,23356,1,0,0:0:0:70:LR3_SnapF.wav
475,192,23356,1,0,0:0:0:70:LR_Kick Normal .wav
36,192,24008,128,0,24660:0:0:0:70:LR_Kick Normal .wav
329,192,24008,1,0,0:0:0:70:A#5S_Bb5S.wav
109,192,24008,1,0,0:0:0:30:
256,192,24660,1,0,0:0:0:70:LR_Kick Normal .wav
402,192,24660,1,0,0:0:0:70:LR3_SnapF.wav
475,192,24986,128,0,25964:0:0:0:70:G5S.wav
109,192,25149,1,0,0:0:0:70:LR_Kick Normal .wav
182,192,25149,1,0,0:0:0:30:
329,192,25312,1,0,0:0:0:70:LR_Kick Normal .wav
256,192,25312,1,0,0:0:0:30:
36,192,25964,1,0,0:0:0:70:LR_Kick Normal .wav
109,192,25964,1,0,0:0:0:70:LR3_SnapF.wav
256,192,26616,128,0,27269:0:0:0:70:LR_Kick Normal .wav
402,192,26616,1,0,0:0:0:70:D#5S_Eb5S.wav
109,192,26616,1,0,0:0:0:30:
182,192,27269,1,0,0:0:0:70:LR3_SnapF.wav
36,192,27269,1,0,0:0:0:70:LR_Kick Normal .wav
329,192,27595,128,0,28573:0:0:0:70:A#4S_Bb4S.wav
256,192,27758,1,0,0:0:0:70:LR_Kick Normal .wav
109,192,27758,1,0,0:0:0:30:
402,192,27921,1,0,0:0:0:70:LR_Kick Normal .wav
475,192,27921,1,0,0:0:0:30:
109,192,28247,128,0,28573:0:0:0:70:G5S.wav
182,192,28573,1,0,0:0:0:70:LR_Kick Normal .wav
36,192,28573,1,0,0:0:0:70:LR3_SnapF.wav
329,192,29225,128,0,30856:0:0:0:70:G#5S_Ab5S.wav
475,192,30203,128,0,31019:0:0:0:70:A#5S_Bb5S.wav
36,192,30856,1,0,0:0:0:70:A#5S_Bb5S.wav
182,192,31019,1,0,0:0:0:70:C6S.wav
329,192,31182,1,0,0:0:0:70:D6S.wav
475,192,31345,1,0,0:0:0:70:F6S.wav
109,192,31834,1,0,0:0:0:70:D#5S_Eb5S.wav
256,192,31834,1,0,0:0:0:70:LR_Kick Normal .wav
402,192,31834,1,0,0:0:0:0:
182,192,31997,1,0,0:0:0:30:
329,192,32160,1,0,0:0:0:30:
182,192,32323,1,0,0:0:0:30:
256,192,32486,1,0,0:0:0:70:LR4_ClapLRV.wav
475,192,32486,1,0,0:0:0:70:LR_Kick Normal .wav
402,192,32649,1,0,0:0:0:0:
329,192,32812,1,0,0:0:0:70:A#4S_Bb4S.wav
109,192,32812,1,0,0:0:0:70:LR_Kick Normal .wav
182,192,32975,1,0,0:0:0:30:
475,192,32975,1,0,0:0:0:30:
256,192,33138,1,0,0:0:0:30:
36,192,33301,1,0,0:0:0:30:
182,192,33464,1,0,0:0:0:70:LR_Kick Normal .wav
329,192,33464,1,0,0:0:0:70:LR_Kick Normal .wav
36,192,33627,1,0,0:0:0:30:
475,192,33790,1,0,0:0:0:70:LR4_ClapLRV.wav
402,192,33790,1,0,0:0:0:70:LR_Kick Normal .wav
256,192,33953,1,0,0:0:0:30:
109,192,34116,1,0,0:0:0:30:
329,192,34279,1,0,0:0:0:30:
182,192,34443,1,0,0:0:0:50:F4S.wav
36,192,34443,1,0,0:0:0:50:LR_Kick Normal .wav
402,192,34606,1,0,0:0:0:30:
256,192,34769,1,0,0:0:0:30:
402,192,34932,1,0,0:0:0:30:
329,192,35095,1,0,0:0:0:50:LR4_ClapLRV.wav
109,192,35095,1,0,0:0:0:50:LR_Kick Normal .wav
475,192,35258,1,0,0:0:0:0:
182,192,35421,1,0,0:0:0:50:G4S.wav
256,192,35421,1,0,0:0:0:50:LR_Kick Normal .wav
36,192,35584,1,0,0:0:0:50:LR_Kick Normal .wav
329,192,35584,1,0,0:0:0:30:
256,192,35747,1,0,0:0:0:30:
402,192,35910,1,0,0:0:0:30:
109,192,36073,1,0,0:0:0:50:LR_Kick Normal .wav
329,192,36073,1,0,0:0:0:30:
182,192,36236,1,0,0:0:0:30:
256,192,36399,1,0,0:0:0:50:LR4_ClapLRV.wav
36,192,36399,1,0,0:0:0:50:LR_Kick Normal .wav
402,192,36562,1,0,0:0:0:30:
182,192,36725,1,0,0:0:0:30:
329,192,36888,1,0,0:0:0:30:
109,192,37051,1,0,0:0:0:50:LR_Kick Normal .wav
36,192,37051,1,0,0:0:0:70:D#5S_Eb5S.wav
182,192,37214,1,0,0:0:0:30:
329,192,37377,1,0,0:0:0:30:
182,192,37540,1,0,0:0:0:30:
402,192,37703,1,0,0:0:0:70:LR4_ClapLRV.wav
475,192,37703,1,0,0:0:0:70:LR_Kick Normal .wav
256,192,37866,1,0,0:0:0:0:
329,192,38029,1,0,0:0:0:70:A#4S_Bb4S.wav
182,192,38029,1,0,0:0:0:70:LR_Kick Normal .wav
109,192,38193,1,0,0:0:0:70:LR_Kick Normal .wav
36,192,38193,1,0,0:0:0:30:
256,192,38356,1,0,0:0:0:30:
402,192,38519,1,0,0:0:0:30:
182,192,38682,1,0,0:0:0:70:LR_Kick Normal .wav
109,192,38682,1,0,0:0:0:30:
402,192,38845,1,0,0:0:0:30:
256,192,39008,1,0,0:0:0:70:LR4_ClapLRV.wav
36,192,39008,1,0,0:0:0:70:LR_Kick Normal .wav
329,192,39171,1,0,0:0:0:30:
182,192,39334,1,0,0:0:0:30:
109,192,39497,1,0,0:0:0:30:
329,192,39660,1,0,0:0:0:70:F4S.wav
475,192,39660,1,0,0:0:0:30:
182,192,39823,1,0,0:0:0:30:
36,192,39986,1,0,0:0:0:30:
182,192,40149,1,0,0:0:0:30:
109,192,40312,1,0,0:0:0:70:LR4_ClapLRV.wav
402,192,40312,1,0,0:0:0:70:LR_Kick Normal .wav
256,192,40475,1,0,0:0:0:0:
329,192,40638,1,0,0:0:0:70:G4S.wav
475,192,40638,1,0,0:0:0:70:LR_Kick Normal .wav
182,192,40801,1,0,0:0:0:70:LR_Kick Normal .wav
36,192,40801,1,0,0:0:0:30:
256,192,40964,1,0,0:0:0:30:
402,192,41127,1,0,0:0:0:30:
109,192,41290,1,0,0:0:0:70:LR_Kick Normal .wav
36,192,41290,1,0,0:0:0:30:
256,192,41453,1,0,0:0:0:30:
402,192,41616,1,0,0:0:0:30:
182,192,41616,1,0,0:0:0:30:
329,192,41779,1,0,0:0:0:30:
109,192,41943,1,0,0:0:0:30:
182,192,42106,1,0,0:0:0:30:
256,192,42269,1,0,0:0:0:70:D#5S_Eb5S.wav
36,192,42269,1,0,0:0:0:70:LR_Kick Normal .wav
402,192,42432,1,0,0:0:0:30:
182,192,42595,1,0,0:0:0:30:
402,192,42758,1,0,0:0:0:30:
109,192,42921,1,0,0:0:0:70:LR4_ClapLRV.wav
36,192,42921,1,0,0:0:0:70:LR_Kick Normal .wav
329,192,43084,1,0,0:0:0:30:
182,192,43247,1,0,0:0:0:70:LR_Kick Normal .wav
256,192,43247,1,0,0:0:0:70:A#4S_Bb4S.wav
402,192,43410,1,0,0:0:0:70:LR_Kick Normal .wav
475,192,43410,1,0,0:0:0:30:
329,192,43573,1,0,0:0:0:30:
109,192,43736,1,0,0:0:0:30:
329,192,43899,1,0,0:0:0:30:
475,192,43899,1,0,0:0:0:30:
182,192,44062,1,0,0:0:0:30:
256,192,44225,1,0,0:0:0:70:LR4_ClapLRV.wav
36,192,44225,1,0,0:0:0:70:LR_Kick Normal .wav
402,192,44388,1,0,0:0:0:0:
182,192,44551,1,0,0:0:0:30:
109,192,44714,1,0,0:0:0:30:
256,192,44877,1,0,0:0:0:70:LR_Kick Normal .wav
329,192,44877,1,0,0:0:0:70:F4S.wav
182,192,45040,1,0,0:0:0:30:
36,192,45203,1,0,0:0:0:30:
182,192,45366,1,0,0:0:0:30:
475,192,45529,1,0,0:0:0:70:LR4_ClapLRV.wav
402,192,45529,1,0,0:0:0:70:LR_Kick Normal .wav
36,192,45693,1,0,0:0:0:30:
329,192,45856,1,0,0:0:0:70:LR_Kick Normal .wav
256,192,45856,1,0,0:0:0:70:G4S.wav
402,192,46019,1,0,0:0:0:30:
475,192,46019,1,0,0:0:0:30:
182,192,46182,1,0,0:0:0:30:
109,192,46345,1,0,0:0:0:30:
329,192,46508,1,0,0:0:0:70:LR_Kick Normal .wav
402,192,46508,1,0,0:0:0:30:
109,192,46671,1,0,0:0:0:30:
256,192,46834,1,0,0:0:0:70:LR4_ClapLRV.wav
475,192,46834,1,0,0:0:0:70:LR_Kick Normal .wav
182,192,46997,1,0,0:0:0:30:
329,192,47160,1,0,0:0:0:30:
402,192,47323,1,0,0:0:0:30:
182,192,47486,1,0,0:0:0:70:LR_Kick Normal .wav
36,192,47486,1,0,0:0:0:70:D#5S_Eb5S.wav
329,192,47649,1,0,0:0:0:30:
109,192,47812,1,0,0:0:0:30:
329,192,47975,1,0,0:0:0:30:
182,192,48138,1,0,0:0:0:30:
475,192,48138,1,0,0:0:0:30:
36,192,48301,1,0,0:0:0:30:
256,192,48464,1,0,0:0:0:70:LR_Kick Normal .wav
329,192,48464,1,0,0:0:0:70:A#4S_Bb4S.wav
109,192,48627,1,0,0:0:0:70:LR_Kick Normal .wav
402,192,48627,1,0,0:0:0:30:
182,192,48790,1,0,0:0:0:30:
329,192,48953,1,0,0:0:0:30:
256,192,49116,1,0,0:0:0:70:LR_Kick Normal .wav
109,192,49116,1,0,0:0:0:30:
402,192,49279,1,0,0:0:0:30:
182,192,49443,1,0,0:0:0:70:LR4_ClapLRV.wav
329,192,49443,1,0,0:0:0:70:LR_Kick Normal .wav
109,192,49606,1,0,0:0:0:0:
475,192,49769,1,0,0:0:0:30:
256,192,49932,1,0,0:0:0:30:
329,192,50095,1,0,0:0:0:70:G#5S_Ab5S.wav
402,192,50095,1,0,0:0:0:70:LR_Kick Normal .wav
36,192,50258,1,0,0:0:0:30:
182,192,50421,1,0,0:0:0:30:
36,192,50584,1,0,0:0:0:30:
256,192,50747,1,0,0:0:0:70:LR4_ClapLRV.wav
475,192,50747,1,0,0:0:0:70:LR_Kick Normal .wav
109,192,50910,1,0,0:0:0:30:
329,192,51073,1,0,0:0:0:70:LR_Kick Normal .wav
182,192,51073,1,0,0:0:0:70:A#5S_Bb5S.wav
402,192,51236,1,0,0:0:0:70:LR_Kick Normal .wav
475,192,51236,1,0,0:0:0:30:
36,192,51399,1,0,0:0:0:30:
256,192,51562,1,0,0:0:0:30:
109,192,51725,1,0,0:0:0:70:LR_Kick Normal .wav
402,192,51725,1,0,0:0:0:30:
256,192,51888,1,0,0:0:0:30:
402,192,52051,1,0,0:0:0:70:LR4_ClapLRV.wav
182,192,52051,1,0,0:0:0:70:LR_Kick Normal .wav
329,192,52214,1,0,0:0:0:30:
475,192,52377,1,0,0:0:0:30:
109,192,52540,1,0,0:0:0:30:
36,192,52703,1,0,0:0:0:70:LR_Kick Normal .wav
256,192,52703,1,0,0:0:0:70:SVF_D#4ss.ogg
402,192,52703,128,0,53029:0:0:0:0:
402,192,53356,128,0,53682:0:0:0:70:LR4_ClapLRV.wav
329,192,53356,1,0,0:0:0:70:SVF_D#4ss.ogg
36,192,53356,1,0,0:0:0:0:
329,192,53845,1,0,0:0:0:70:LR_Kick Normal .wav
475,192,53845,1,0,0:0:0:30:
109,192,54008,128,0,54334:0:0:0:70:LR_Kick Normal .wav
402,192,54008,1,0,0:0:0:70:SVF_G4ss.ogg
256,192,54008,1,0,0:0:0:0:
109,192,54660,128,0,54986:0:0:0:70:LR4_ClapLRV.wav
182,192,54660,1,0,0:0:0:70:SVF_D#4ss.ogg
402,192,54660,1,0,0:0:0:0:
329,192,54986,128,0,55312:0:0:0:70:SVF_F4ss.ogg
475,192,55312,128,0,55638:0:0:0:70:SVF_F4ss.ogg
182,192,55312,1,0,0:0:0:0:
36,192,55312,1,0,0:0:0:0:
329,192,55638,128,0,55964:0:0:0:70:SVF_D#4ss.ogg
475,192,55964,128,0,56290:0:0:0:70:LR4_ClapLRV.wav
109,192,55964,1,0,0:0:0:70:SVF_F4ss.ogg
402,192,55964,1,0,0:0:0:0:
329,192,56290,128,0,56616:0:0:0:70:SVF_D#4ss.ogg
182,192,56453,1,0,0:0:0:70:LR_Kick Normal .wav
36,192,56453,1,0,0:0:0:30:
475,192,56616,128,0,56943:0:0:0:70:LR_Kick Normal .wav
256,192,56616,1,0,0:0:0:70:SVF_F4ss.ogg
109,192,56616,1,0,0:0:0:0:
329,192,56943,128,0,57269:0:0:0:70:SVF_D#4ss.ogg
109,192,57269,1,0,0:0:0:70:LR4_ClapLRV.wav
402,192,57269,1,0,0:0:0:70:SVF_A#4.ogg
182,192,57269,128,0,57432:0:0:0:0:
182,192,57595,128,0,57758:0:0:0:70:SVF_A#4.ogg
329,192,57921,1,0,0:0:0:70:LR_Kick Normal .wav
36,192,57921,1,0,0:0:0:70:SVF_D#4ss.ogg
475,192,57921,128,0,58247:0:0:0:0:
475,192,58573,128,0,58899:0:0:0:70:LR4_ClapLRV.wav
36,192,58573,1,0,0:0:0:70:SVF_D#4ss.ogg
256,192,58573,1,0,0:0:0:0:
256,192,59062,1,0,0:0:0:70:LR_Kick Normal .wav
329,192,59062,1,0,0:0:0:30:
36,192,59225,128,0,59551:0:0:0:70:LR_Kick Normal .wav
182,192,59225,128,0,59388:0:0:0:70:SVF_G4ss.ogg
402,192,59225,1,0,0:0:0:0:
182,192,59551,128,0,59714:0:0:0:70:SVF_G4ss.ogg
36,192,59877,128,0,60203:0:0:0:70:LR4_ClapLRV.wav
256,192,59877,128,0,60040:0:0:0:70:SVF_D#4ss.ogg
402,192,59877,1,0,0:0:0:0:
475,192,59877,1,0,0:0:0:70:LR_Kick Normal .wav
329,192,60203,128,0,60366:0:0:0:70:SVF_F4ss.ogg
475,192,60203,128,0,60366:0:0:0:0:
109,192,60529,128,0,60856:0:0:0:70:LR_Kick Normal .wav
256,192,60529,1,0,0:0:0:70:SVF_G#4ss.ogg
402,192,60529,1,0,0:0:0:0:
182,192,60856,1,0,0:0:0:70:LR_Kick Normal .wav
329,192,61019,1,0,0:0:0:70:LR_Kick Normal .wav
256,192,61182,128,0,61508:0:0:0:70:LR4_ClapLRV.wav
475,192,61182,1,0,0:0:0:70:SVF_A#4.ogg
402,192,61182,1,0,0:0:0:70:LR_Kick Normal .wav
329,192,61508,1,0,0:0:0:70:LR_Kick Normal .wav
182,192,61671,1,0,0:0:0:70:LR_Kick Normal .wav
36,192,61671,1,0,0:0:0:0:
402,192,61834,128,0,62160:0:0:0:70:LR_Kick Normal .wav
109,192,61834,1,0,0:0:0:70:SVF_D#5ss.ogg
256,192,61834,1,0,0:0:0:0:
182,192,62160,1,0,0:0:0:70:LR_Kick Normal .wav
109,192,62486,1,0,0:0:0:70:LR4_ClapLRV.wav
36,192,62486,128,0,62812:0:0:0:70:SVF_F5.ogg
475,192,62486,128,0,62595:0:0:0:0:
402,192,62595,128,0,62703:0:0:0:0:
329,192,62703,128,0,62812:0:0:0:0:
256,192,62812,128,0,63138:0:0:0:0:
329,192,63138,1,0,0:0:0:70:LR_Kick Normal .wav
475,192,63138,1,0,0:0:0:70:LR_Drum Finish.wav
109,192,63138,1,0,0:0:0:30:
329,192,63464,1,0,0:0:0:70:LR_Kick Normal .wav
475,192,63464,1,0,0:0:0:70:LR_Drum Finish.wav
109,192,63464,1,0,0:0:0:30:
256,192,63790,1,0,0:0:0:0:
182,192,64116,1,0,0:0:0:70:LR_Kick Normal .wav
475,192,64116,1,0,0:0:0:30:
329,192,64116,1,0,0:0:0:70:SVF_A#4.ogg
36,192,64116,1,0,0:0:0:70:LR_Drum Finish.wav
329,192,64932,1,0,0:0:0:70:LR_Kick Normal .wav
182,192,64932,1,0,0:0:0:30:
256,192,65095,1,0,0:0:0:70:LR_Kick Normal .wav
36,192,65095,128,0,65747:0:0:0:30:
475,192,65095,128,0,65747:0:0:0:70:LR4_ClapLRV.wav
109,192,65747,128,0,65910:0:0:0:70:LR_Kick Normal .wav
256,192,65747,1,0,0:0:0:70:LR_Drum Finish.wav
402,192,65747,1,0,0:0:0:70:SVF_D#4ss.ogg
109,192,66073,128,0,66236:0:0:0:70:LR_Kick Normal .wav
329,192,66073,1,0,0:0:0:70:SVF_D#4ss.ogg
182,192,66399,128,0,66562:0:0:0:70:LR4_ClapLRV.wav
402,192,66399,1,0,0:0:0:30:
475,192,66399,1,0,0:0:0:70:SVF_D#4ss.ogg
329,192,66725,128,0,66888:0:0:0:70:LR_Kick Normal .wav
36,192,66725,1,0,0:0:0:70:SVF_F4ss.ogg
402,192,67051,128,0,67214:0:0:0:70:LR_Kick Normal .wav
109,192,67051,1,0,0:0:0:30:
256,192,67051,1,0,0:0:0:70:SVF_F4ss.ogg
402,192,67377,128,0,67540:0:0:0:70:LR_Kick Normal .wav
109,192,67377,1,0,0:0:0:70:SVF_F4ss.ogg
182,192,67703,128,0,67866:0:0:0:70:LR_Kick Normal .wav
329,192,67703,1,0,0:0:0:70:LR4_ClapLRV.wav
475,192,67703,1,0,0:0:0:70:SVF_F4ss.ogg
182,192,68029,128,0,68193:0:0:0:70:LR_Kick Normal .wav
475,192,68029,1,0,0:0:0:70:SVF_F4ss.ogg
109,192,68356,128,0,68519:0:0:0:70:LR_Kick Normal .wav
329,192,68356,1,0,0:0:0:70:SVF_A#4.ogg
402,192,68356,1,0,0:0:0:30:
36,192,68682,128,0,68845:0:0:0:70:LR_Kick Normal .wav
256,192,68682,1,0,0:0:0:70:SVF_A#5.ogg
329,192,69008,128,0,69171:0:0:0:70:LR4_ClapLRV.wav
402,192,69008,1,0,0:0:0:70:LR_Kick Normal .wav
109,192,69008,1,0,0:0:0:70:SVF_F5.ogg
475,192,69334,128,0,69497:0:0:0:70:LR_Kick Normal .wav
256,192,69334,1,0,0:0:0:70:SVF_D#5ss.ogg
109,192,69660,128,0,69823:0:0:0:70:LR_Kick Normal .wav
182,192,69660,1,0,0:0:0:70:SVF_D#5ss.ogg
402,192,69660,1,0,0:0:0:30:
109,192,69986,128,0,70149:0:0:0:70:LR_Kick Normal .wav
402,192,69986,1,0,0:0:0:70:SVF_D#5ss.ogg
329,192,70312,128,0,70475:0:0:0:70:LR4_ClapLRV.wav
475,192,70312,1,0,0:0:0:70:LR_Kick Normal .wav
36,192,70312,1,0,0:0:0:70:SVF_G5ss.ogg
329,192,70638,128,0,70801:0:0:0:70:SVF_G5ss.ogg
182,192,70638,1,0,0:0:0:0:
402,192,70964,128,0,71127:0:0:0:70:LR_Kick Normal .wav
109,192,70964,1,0,0:0:0:70:SVF_D#4ss.ogg
256,192,70964,1,0,0:0:0:30:
402,192,71290,128,0,71453:0:0:0:70:LR_Kick Normal .wav
182,192,71290,1,0,0:0:0:70:SVF_D#4ss.ogg
329,192,71616,128,0,71779:0:0:0:70:LR_Kick Normal .wav
109,192,71616,1,0,0:0:0:70:SVF_D#4ss.ogg
36,192,71616,1,0,0:0:0:30:
182,192,71943,128,0,72106:0:0:0:70:LR_Kick Normal .wav
475,192,71943,1,0,0:0:0:70:SVF_F4ss.ogg
109,192,72269,128,0,72432:0:0:0:70:LR_Kick Normal .wav
402,192,72269,1,0,0:0:0:70:SVF_F4ss.ogg
256,192,72269,1,0,0:0:0:30:
109,192,72595,128,0,72758:0:0:0:70:LR_Kick Normal .wav
402,192,72595,1,0,0:0:0:70:SVF_F4ss.ogg
329,192,72921,128,0,73084:0:0:0:70:LR_Kick Normal .wav
182,192,72921,1,0,0:0:0:70:LR4_ClapLRV.wav
36,192,72921,1,0,0:0:0:70:SVF_F4ss.ogg
329,192,73247,128,0,73410:0:0:0:70:LR_Kick Normal .wav
36,192,73247,1,0,0:0:0:70:SVF_F4ss.ogg
402,192,73573,128,0,73736:0:0:0:70:LR_Kick Normal .wav
182,192,73573,1,0,0:0:0:70:SVF_A#4.ogg
109,192,73573,1,0,0:0:0:30:
475,192,73899,128,0,74062:0:0:0:70:LR_Kick Normal .wav
256,192,73899,1,0,0:0:0:70:SVF_A#5.ogg
182,192,74225,128,0,74388:0:0:0:70:LR4_ClapLRV.wav
109,192,74225,1,0,0:0:0:70:LR_Kick Normal .wav
402,192,74225,1,0,0:0:0:70:SVF_F5.ogg
36,192,74551,128,0,74714:0:0:0:70:LR_Kick Normal .wav
256,192,74551,1,0,0:0:0:70:SVF_D#5ss.ogg
402,192,74877,128,0,75040:0:0:0:70:LR_Kick Normal .wav
329,192,74877,1,0,0:0:0:70:SVF_D#5ss.ogg
109,192,74877,1,0,0:0:0:30:
402,192,75203,128,0,75366:0:0:0:70:LR_Kick Normal .wav
109,192,75203,1,0,0:0:0:70:SVF_D#5ss.ogg
182,192,75529,128,0,75693:0:0:0:70:LR4_ClapLRV.wav
36,192,75529,1,0,0:0:0:70:SVF_G5ss.ogg
475,192,75529,1,0,0:0:0:0:
182,192,75856,128,0,76019:0:0:0:30:
475,192,75856,1,0,0:0:0:70:SVF_G5ss.ogg
402,192,76019,1,0,0:0:0:70:LR_Kick Normal .wav
329,192,76182,1,0,0:0:0:70:LR_Kick Normal .wav
256,192,76182,1,0,0:0:0:70:LR_Drum Finish.wav
36,192,76182,128,0,76345:0:0:0:70:SVF_A#4.ogg
182,192,76508,128,0,76671:0:0:0:70:LR_Kick Normal .wav
475,192,76508,1,0,0:0:0:70:SVF_A#4.ogg
36,192,76834,128,0,76997:0:0:0:70:LR_Kick Normal .wav
256,192,76834,1,0,0:0:0:70:SVF_A#4.ogg
109,192,76834,1,0,0:0:0:0:
475,192,77160,128,0,77323:0:0:0:70:LR_Kick Normal .wav
329,192,77160,1,0,0:0:0:70:SVF_D#5ss.ogg
329,192,77486,128,0,77649:0:0:0:70:LR_Kick Normal .wav
182,192,77486,1,0,0:0:0:70:SVF_D#5ss.ogg
36,192,77486,1,0,0:0:0:0:
475,192,77812,128,0,77975:0:0:0:70:LR_Kick Normal .wav
36,192,77812,1,0,0:0:0:70:SVF_D#5ss.ogg
109,192,78138,128,0,78301:0:0:0:70:LR_Kick Normal .wav
256,192,78138,1,0,0:0:0:70:LR4_ClapLRV.wav
329,192,78138,1,0,0:0:0:70:SVF_D#5ss.ogg
402,192,78464,128,0,78627:0:0:0:70:LR_Kick Normal .wav
182,192,78464,1,0,0:0:0:70:SVF_D#5ss.ogg
36,192,78790,128,0,78953:0:0:0:70:LR_Kick Normal .wav
256,192,78790,1,0,0:0:0:70:SVF_A#4.ogg
109,192,78790,1,0,0:0:0:30:
329,192,79116,128,0,79279:0:0:0:70:LR_Kick Normal .wav
402,192,79116,1,0,0:0:0:70:SVF_A#5.ogg
475,192,79443,128,0,79606:0:0:0:70:LR4_ClapLRV.wav
256,192,79443,1,0,0:0:0:70:LR_Kick Normal .wav
36,192,79443,1,0,0:0:0:70:SVF_F5.ogg
182,192,79769,128,0,79932:0:0:0:70:LR_Kick Normal .wav
109,192,79769,1,0,0:0:0:70:SVF_D#5ss.ogg
36,192,80095,128,0,80258:0:0:0:70:LR_Kick Normal .wav
329,192,80095,1,0,0:0:0:70:SVF_D#5ss.ogg
475,192,80095,1,0,0:0:0:30:
256,192,80421,128,0,80584:0:0:0:70:LR_Kick Normal .wav
109,192,80421,1,0,0:0:0:70:SVF_D#5ss.ogg
402,192,80747,128,0,80910:0:0:0:70:LR_Kick Normal .wav
329,192,80747,1,0,0:0:0:70:LR4_ClapLRV.wav
182,192,80747,1,0,0:0:0:70:SVF_G5ss.ogg
109,192,81073,128,0,81236:0:0:0:70:LR_Kick Normal .wav
475,192,81073,1,0,0:0:0:70:SVF_G5ss.ogg
329,192,81399,128,0,81725:0:0:0:70:LR_Kick Normal .wav
182,192,81399,1,0,0:0:0:70:SVF_A#4.ogg
36,192,81399,1,0,0:0:0:30:
402,192,81725,128,0,82051:0:0:0:70:LR_Kick Normal .wav
36,192,81725,1,0,0:0:0:70:SVF_A#4.ogg
475,192,82051,128,0,82377:0:0:0:70:LR4_ClapLRV.wav
109,192,82051,1,0,0:0:0:70:LR_Kick Normal .wav
256,192,82051,1,0,0:0:0:70:SVF_A#4.ogg
36,192,82377,1,0,0:0:0:70:LR_Kick Normal .wav
329,192,82377,128,0,82540:0:0:0:70:SVF_D#5ss.ogg
475,192,82540,128,0,82703:0:0:0:70:LR_Kick Normal .wav
109,192,82540,1,0,0:0:0:30:
182,192,82703,128,0,83029:0:0:0:70:LR_Kick Normal .wav
256,192,82703,1,0,0:0:0:70:SVF_D#5ss.ogg
402,192,82703,1,0,0:0:0:30:
109,192,83029,128,0,83356:0:0:0:70:LR_Kick Normal .wav
402,192,83029,1,0,0:0:0:30:
36,192,83356,128,0,83682:0:0:0:70:LR_Kick Normal .wav
329,192,83356,1,0,0:0:0:70:SVF_D#5ss.ogg
256,192,83356,1,0,0:0:0:30:
182,192,83682,128,0,83845:0:0:0:70:LR_Kick Normal .wav
402,192,83682,1,0,0:0:0:70:SVF_D#5ss.ogg
475,192,83845,128,0,84008:0:0:0:70:LR_Kick Normal .wav
36,192,83845,128,0,84008:0:0:0:0:
329,192,84008,128,0,84334:0:0:0:70:LR_Kick Normal .wav
256,192,84008,1,0,0:0:0:70:SVF_F5.ogg
109,192,84008,1,0,0:0:0:0:
402,192,84334,128,0,84660:0:0:0:70:LR_Kick Normal .wav
182,192,84334,1,0,0:0:0:70:SVF_F5.ogg
475,192,84660,128,0,84986:0:0:0:70:LR4_ClapLRV.wav
256,192,84660,1,0,0:0:0:70:SVF_F5.ogg
36,192,84660,1,0,0:0:0:0:
182,192,84986,128,0,85475:0:0:0:70:SVF_G#5ss.ogg
329,192,84986,128,0,85149:0:0:0:0:
402,192,85149,128,0,85312:0:0:0:70:SVF_G5ss.ogg
475,192,85312,128,0,85475:0:0:0:70:SVF_F5.ogg
36,192,85638,128,0,86127:0:0:0:70:SVF_D#5ss.ogg
256,192,85638,128,0,85801:0:0:0:0:
182,192,85964,128,0,86616:0:0:0:70:SVF_A#4.ogg
36,192,86616,128,0,86779:0:0:0:70:LR_Drum Finish.wav
256,192,86616,1,0,0:0:0:70:LR_Kick Normal .wav
475,192,86616,128,0,86779:0:0:0:70:SVF_A#4.ogg
402,192,86779,128,0,86943:0:0:0:70:LR_Kick Normal .wav
36,192,86943,128,0,87106:0:0:0:70:LR_Kick Normal .wav
329,192,86943,128,0,87106:0:0:0:70:SVF_A#4.ogg
109,192,87269,128,0,87432:0:0:0:70:LR_Kick Normal .wav
329,192,87269,1,0,0:0:0:70:LR4_ClapLRV.wav
475,192,87269,128,0,87432:0:0:0:70:SVF_A#4.ogg
182,192,87595,128,0,87758:0:0:0:70:SVF_D#5ss.ogg
402,192,87595,1,0,0:0:0:0:
256,192,87921,128,0,88084:0:0:0:70:LR_Kick Normal .wav
475,192,87921,128,0,88410:0:0:0:70:SVF_D#5ss.ogg
109,192,87921,1,0,0:0:0:0:
256,192,88247,128,0,88410:0:0:0:0:
36,192,88247,1,0,0:0:0:70:SVF_D#5ss.ogg
329,192,88410,128,0,88736:0:0:0:70:LR_Kick Normal .wav
109,192,88573,128,0,88736:0:0:0:70:SVF_D#5ss.ogg
402,192,88573,1,0,0:0:0:0:
475,192,88573,1,0,0:0:0:70:LR_Kick Normal .wav
109,192,88899,128,0,89062:0:0:0:70:SVF_D#5ss.ogg
329,192,88899,1,0,0:0:0:0:
475,192,89225,128,0,89388:0:0:0:70:LR_Kick Normal .wav
256,192,89225,1,0,0:0:0:30:
36,192,89225,128,0,89388:0:0:0:70:SVF_A#4.ogg
109,192,89388,128,0,89551:0:0:0:70:LR_Kick Normal .wav
475,192,89551,128,0,89714:0:0:0:70:LR_Kick Normal .wav
182,192,89551,128,0,89714:0:0:0:70:SVF_A#5.ogg
182,192,89877,1,0,0:0:0:70:LR4_ClapLRV.wav
402,192,89877,128,0,90040:0:0:0:70:LR_Kick Normal .wav
36,192,89877,128,0,90040:0:0:0:70:SVF_F5.ogg
329,192,90203,128,0,90366:0:0:0:70:SVF_D#5ss.ogg
109,192,90203,1,0,0:0:0:0:
256,192,90529,128,0,90693:0:0:0:70:LR_Kick Normal .wav
36,192,90529,128,0,91019:0:0:0:70:SVF_D#5ss.ogg
402,192,90529,1,0,0:0:0:0:
256,192,90856,128,0,91019:0:0:0:70:SVF_D#5ss.ogg
475,192,90856,1,0,0:0:0:0:
182,192,91019,128,0,91345:0:0:0:70:LR_Kick Normal .wav
402,192,91182,128,0,91345:0:0:0:70:SVF_G5ss.ogg
109,192,91182,1,0,0:0:0:70:LR_Kick Normal .wav
36,192,91182,1,0,0:0:0:0:
402,192,91508,128,0,91671:0:0:0:70:SVF_G5ss.ogg
182,192,91508,1,0,0:0:0:0:
475,192,91834,128,0,91997:0:0:0:70:LR_Kick Normal .wav
36,192,91834,1,0,0:0:0:30:
109,192,91834,128,0,91997:0:0:0:70:SVF_A#4.ogg
182,192,91997,128,0,92160:0:0:0:70:LR_Kick Normal .wav
475,192,92160,128,0,92323:0:0:0:70:LR_Kick Normal .wav
256,192,92160,128,0,92323:0:0:0:70:SVF_A#4.ogg
329,192,92486,128,0,92649:0:0:0:70:LR_Kick Normal .wav
256,192,92486,1,0,0:0:0:70:LR4_ClapLRV.wav
36,192,92486,128,0,92649:0:0:0:70:SVF_A#4.ogg
329,192,92812,128,0,92975:0:0:0:70:SVF_D#5ss.ogg
182,192,92812,1,0,0:0:0:0:
36,192,93138,128,0,93301:0:0:0:30:
475,192,93138,128,0,93627:0:0:0:70:SVF_D#5ss.ogg
402,192,93138,1,0,0:0:0:70:LR_Kick Normal .wav
36,192,93464,128,0,93627:0:0:0:70:SVF_D#5ss.ogg
256,192,93464,1,0,0:0:0:0:
329,192,93627,128,0,93953:0:0:0:30:
182,192,93790,128,0,93953:0:0:0:70:SVF_D#5ss.ogg
402,192,93790,1,0,0:0:0:0:
109,192,93790,1,0,0:0:0:70:LR_Kick Normal .wav
182,192,94116,128,0,94279:0:0:0:70:SVF_D#5ss.ogg
329,192,94116,1,0,0:0:0:0:
109,192,94279,1,0,0:0:0:70:LR_Kick Normal .wav
36,192,94443,128,0,94769:0:0:0:70:LR_Kick Normal .wav
256,192,94443,128,0,94606:0:0:0:70:SVF_A#4.ogg
475,192,94443,1,0,0:0:0:0:
109,192,94769,128,0,95095:0:0:0:70:LR_Kick Normal .wav
329,192,94769,128,0,94932:0:0:0:70:SVF_A#5.ogg
182,192,95095,128,0,95421:0:0:0:70:LR4_ClapLRV.wav
402,192,95095,128,0,95258:0:0:0:70:SVF_F5.ogg
36,192,95095,1,0,0:0:0:0:
475,192,95421,128,0,96073:0:0:0:70:LR_Kick Normal .wav
256,192,95421,128,0,95584:0:0:0:70:SVF_D#5ss.ogg
329,192,96073,128,0,96562:0:0:0:70:LR_Kick Normal .wav
182,192,96073,128,0,96236:0:0:0:30:
109,192,96399,128,0,96725:0:0:0:0:
256,192,96725,128,0,97051:0:0:0:0:
36,192,96888,128,0,97051:0:0:0:0:
182,192,97051,1,0,0:0:0:70:LR_Kick Normal .wav
329,192,97051,1,0,0:0:0:70:LR_Drum Finish.wav
475,192,97051,1,0,0:0:0:0:
