osu file format v14

[General]
AudioFilename: audio.mp3
AudioLeadIn: 0
PreviewTime: -1
Countdown: 0
SampleSet: Normal
StackLeniency: 0.2
Mode: 0
LetterboxInBreaks: 0
WidescreenStoryboard: 0

[Editor]
Bookmarks: 59867
DistanceSpacing: 0.1
BeatDivisor: 6
GridSize: 32
TimelineZoom: 1.1

[Metadata]
Title:R3 Maggot Box
TitleUnicode:R3 Maggot Box
Artist:Saltssaumure
ArtistUnicode:Saltssaumure
Creator:Saltssaumure
Version:Slow Spin
Source:
Tags:necro fantasia r3 music box touhou yukari you spin me right round like a maggot team fortress 2 tf2 soldier stblackst extremely unusual troubles
BeatmapID:1683427
BeatmapSetID:802052

[Difficulty]
HPDrainRate:0
CircleSize:7
OverallDifficulty:7
ApproachRate:8
SliderMultiplier:0.8
SliderTickRate:1

[Events]
//Background and Video events
//Break Periods
//Storyboard Layer 0 (Background)
//Storyboard Layer 1 (Fail)
//Storyboard Layer 2 (Pass)
//Storyboard Layer 3 (Foreground)
//Storyboard Sound Samples

[TimingPoints]
1742,468.75,4,1,0,48,1,0
3148,-992.78999000999,4,1,0,30,0,0
61803,520.381613183001,4,1,0,25,1,0
62323,587.084148727984,4,1,0,19,1,0
62910,683.760683760684,4,1,0,18,1,0
63594,632.911392405063,4,1,0,11,1,0
64227,117.1875,4,1,0,100,1,1
64227,-25,4,1,0,100,0,1
65252,-25,4,1,0,5,0,1
65428,-25,4,1,0,100,0,1
65535,-25,4,1,0,5,0,1
65750,-25,4,1,0,100,0,1
65848,-25,4,1,0,5,0,1
65984,-25,4,1,0,5,0,0

[Colours]
Combo1 : 255,255,255
Combo2 : 0,0,0

[HitObjects]
255,26,3148,5,0,0:0:0:0:
255,26,3148,6,0,P|255:361|256:26,1,1050
246,26,3616,5,0,0:0:0:0:
238,26,4085,1,0,0:0:0:0:
230,27,4554,1,0,0:0:0:0:
222,29,5023,1,0,0:0:0:0:
215,30,5491,1,0,0:0:0:0:
207,33,5960,1,0,0:0:0:0:
199,35,6429,1,0,0:0:0:0:
192,38,6898,1,0,0:0:0:0:
184,41,7366,1,0,0:0:0:0:
177,45,7835,1,0,0:0:0:0:
170,49,8304,1,0,0:0:0:0:
163,53,8773,1,0,0:0:0:0:
157,58,9241,1,0,0:0:0:0:
150,62,9710,1,0,0:0:0:0:
144,68,10179,1,0,0:0:0:0:
138,73,10648,1,0,0:0:0:0:
132,79,11116,5,0,0:0:0:0:
127,85,11585,1,0,0:0:0:0:
122,91,12054,1,0,0:0:0:0:
117,98,12523,1,0,0:0:0:0:
113,104,12991,1,0,0:0:0:0:
109,111,13460,1,0,0:0:0:0:
105,118,13929,1,0,0:0:0:0:
102,126,14398,1,0,0:0:0:0:
99,133,14866,1,0,0:0:0:0:
96,141,15335,1,0,0:0:0:0:
94,149,15804,1,0,0:0:0:0:
92,156,16273,1,0,0:0:0:0:
90,164,16741,1,0,0:0:0:0:
89,172,17210,1,0,0:0:0:0:
88,180,17679,1,0,0:0:0:0:
88,188,18148,1,0,0:0:0:0:
88,196,18616,5,0,0:0:0:0:
88,204,19085,1,0,0:0:0:0:
89,212,19554,1,0,0:0:0:0:
90,220,20023,1,0,0:0:0:0:
91,228,20491,1,0,0:0:0:0:
93,236,20960,1,0,0:0:0:0:
95,244,21429,1,0,0:0:0:0:
98,251,21898,1,0,0:0:0:0:
101,259,22366,1,0,0:0:0:0:
104,266,22835,1,0,0:0:0:0:
108,273,23304,1,0,0:0:0:0:
112,280,23773,1,0,0:0:0:0:
117,287,24241,1,0,0:0:0:0:
121,294,24710,1,0,0:0:0:0:
126,300,25179,1,0,0:0:0:0:
132,306,25648,1,0,0:0:0:0:
137,312,26116,5,0,0:0:0:0:
143,317,26585,1,0,0:0:0:0:
149,323,27054,1,0,0:0:0:0:
155,328,27523,1,0,0:0:0:0:
162,332,27991,1,0,0:0:0:0:
169,337,28460,1,0,0:0:0:0:
176,341,28929,1,0,0:0:0:0:
183,344,29398,1,0,0:0:0:0:
190,347,29866,1,0,0:0:0:0:
198,350,30335,1,0,0:0:0:0:
206,353,30804,1,0,0:0:0:0:
213,355,31273,1,0,0:0:0:0:
221,357,31741,1,0,0:0:0:0:
229,358,32210,1,0,0:0:0:0:
237,359,32679,1,0,0:0:0:0:
245,360,33148,1,0,0:0:0:0:
253,360,33616,5,0,0:0:0:0:
261,360,34085,1,0,0:0:0:0:
269,360,34554,1,0,0:0:0:0:
277,359,35023,1,0,0:0:0:0:
285,358,35491,1,0,0:0:0:0:
293,356,35960,1,0,0:0:0:0:
301,354,36429,1,0,0:0:0:0:
309,352,36898,1,0,0:0:0:0:
316,349,37366,1,0,0:0:0:0:
324,346,37835,1,0,0:0:0:0:
331,342,38304,1,0,0:0:0:0:
338,338,38773,1,0,0:0:0:0:
345,334,39241,1,0,0:0:0:0:
352,330,39710,1,0,0:0:0:0:
358,325,40179,1,0,0:0:0:0:
364,320,40648,1,0,0:0:0:0:
370,315,41116,5,0,0:0:0:0:
376,309,41585,1,0,0:0:0:0:
381,303,42054,1,0,0:0:0:0:
386,297,42523,1,0,0:0:0:0:
391,290,42991,1,0,0:0:0:0:
396,284,43460,1,0,0:0:0:0:
400,277,43929,1,0,0:0:0:0:
404,270,44398,1,0,0:0:0:0:
407,262,44866,1,0,0:0:0:0:
411,255,45335,1,0,0:0:0:0:
413,247,45804,1,0,0:0:0:0:
416,240,46273,1,0,0:0:0:0:
418,232,46741,1,0,0:0:0:0:
420,224,47210,1,0,0:0:0:0:
421,216,47679,1,0,0:0:0:0:
422,208,48148,1,0,0:0:0:0:
422,200,48616,5,0,0:0:0:0:
422,192,49085,1,0,0:0:0:0:
422,184,49554,1,0,0:0:0:0:
422,176,50023,1,0,0:0:0:0:
421,168,50491,1,0,0:0:0:0:
419,160,50960,1,0,0:0:0:0:
417,152,51429,1,0,0:0:0:0:
415,144,51898,1,0,0:0:0:0:
413,137,52366,1,0,0:0:0:0:
410,129,52835,1,0,0:0:0:0:
407,122,53304,1,0,0:0:0:0:
403,115,53773,1,0,0:0:0:0:
399,108,54241,1,0,0:0:0:0:
395,101,54710,1,0,0:0:0:0:
390,94,55179,1,0,0:0:0:0:
385,88,55648,1,0,0:0:0:0:
380,82,56116,5,0,0:0:0:0:
375,76,56585,1,0,0:0:0:0:
369,70,57054,1,0,0:0:0:0:
363,65,57523,1,0,0:0:0:0:
356,60,57991,1,0,0:0:0:0:
350,55,58460,1,0,0:0:0:0:
343,51,58929,1,0,0:0:0:0:
336,47,59398,1,0,0:0:0:0:
329,43,59866,1,0,0:0:0:0:
322,39,60335,1,0,0:0:0:0:
314,36,60804,1,0,0:0:0:0:
307,34,61273,1,0,0:0:0:0:
299,31,61742,1,0,0:0:0:0:
291,30,62323,1,0,0:0:0:0:
283,28,62910,1,0,0:0:0:0:
275,27,63593,1,0,0:0:0:0:
292,33,64226,5,8,0:0:0:0:
47,278,65164,6,0,B|65:310|60:354|60:354|105:313|105:313|124:332|132:354|132:354|167:269,1,280
158,180,65428,2,0,B|248:175|248:175|206:176|206:176|227:124|227:124|166:272|166:272|164:289|169:302|188:308|188:308|211:311|229:287,1,440
324,100,65750,2,0,B|384:95|384:95|461:87|467:73|472:52|472:52|473:36|461:25|461:25|450:15|431:18|431:18|414:24|407:38|407:38|345:199|332:216|332:216|321:233|296:238|296:238|268:241|251:221|251:221|235:200|242:175|242:175|272:164|295:180,1,640
