osu file format v14

[General]
AudioFilename: audio.mp3
AudioLeadIn: 0
PreviewTime: -1
Countdown: 0
SampleSet: Soft
StackLeniency: 0.3
Mode: 0
LetterboxInBreaks: 0
WidescreenStoryboard: 1

[Editor]
Bookmarks: 10603,20137,38080,56024,73968,91912,114903,132847,150791,186679,195667
DistanceSpacing: 0.8
BeatDivisor: 4
GridSize: 32
TimelineZoom: 1.6

[Metadata]
Title:min ~Sleep~
TitleUnicode:min ~Sleep~
Artist:Sally
ArtistUnicode:Sally
Creator:revurii
Version:nut
Source:東方神霊廟 ~ Ten Desires.
Tags:chata
BeatmapID:1504672
BeatmapSetID:711674

[Difficulty]
HPDrainRate:7
CircleSize:4
OverallDifficulty:8.6
ApproachRate:9
SliderMultiplier:3
SliderTickRate:1

[Events]
//Background and Video events
0,0,"kyouko_.png",0,0
//Break Periods
2,11785,14339
2,16271,17143
//Storyboard Layer 0 (Background)
//Storyboard Layer 1 (Fail)
//Storyboard Layer 2 (Pass)
//Storyboard Layer 3 (Foreground)
//Storyboard Sound Samples

[TimingPoints]
1632,560.747663551402,4,2,0,60,1,0
10603,-76.9230769230769,4,2,0,60,0,0
17893,-76.9230769230769,4,2,0,10,0,0
18174,-76.9230769230769,4,2,0,11,0,0
18454,-76.9230769230769,4,2,0,13,0,0
18734,-76.9230769230769,4,2,0,16,0,0
19015,-76.9230769230769,4,2,0,20,0,0
19295,-76.9230769230769,4,2,0,25,0,0
19435,-76.9230769230769,4,2,0,5,0,0
19575,-76.9230769230769,4,2,0,25,0,0
20137,560.747663551402,4,2,0,40,1,0
20697,-200,4,2,0,40,0,0
21959,-66.6666666666667,4,2,0,40,0,0
22379,-100,4,2,0,40,0,0
22940,-133.333333333333,4,2,0,40,0,0
27426,-83.3333333333333,4,2,0,40,0,0
27987,-166.666666666667,4,2,0,40,0,0
28408,-100,4,2,0,40,0,0
28688,-66.6666666666667,4,2,0,40,0,0
29108,-100,4,2,0,40,0,0
29669,-200,4,2,0,40,0,0
30931,-66.6666666666667,4,2,0,40,0,0
31351,-100,4,2,0,40,0,0
31912,-133.333333333333,4,2,0,40,0,0
36398,-83.3333333333333,4,2,0,40,0,0
36959,-166.666666666667,4,2,0,40,0,0
37379,-100,4,2,0,40,0,0
37660,-66.6666666666667,4,2,0,40,0,0
38080,-181.818181818181,4,2,0,15,0,0
96960,560.747663551402,4,2,0,40,1,0
193425,560.747663551402,4,2,0,40,1,0

[Colours]
Combo1 : 255,64,128
Combo2 : 0,160,128
Combo3 : 255,224,192

[HitObjects]
81,251,10603,6,0,P|100:295|107:344,1,97.4999955368044
128,347,11024,6,0,P|157:308|195:278,1,97.4999955368044
187,258,11445,6,0,P|138:252|93:233,1,97.4999955368044
431,251,15089,6,0,P|412:295|405:344,1,97.4999955368044
384,347,15510,6,0,P|355:308|317:278,1,97.4999955368044
325,258,15931,6,0,P|374:252|419:233,1,97.4999955368044
256,192,17893,12,0,19435,0:0:0:0:
289,344,19575,5,0,0:0:0:0:
289,344,19669,2,0,L|257:347,5,32.4999985122681
232,181,20136,6,0,B|261:147|261:147|319:176|310:248|263:270,1,194.999991073609
266,268,20557,1,0,0:0:0:0:
174,227,20697,6,0,P|156:194|160:157,1,75
161,158,21118,1,0,0:0:0:0:
333,195,21398,1,0,0:0:0:0:
333,195,21538,1,0,0:0:0:0:
215,326,21819,1,0,0:0:0:0:
163,243,21959,6,0,B|128:236|98:259|98:295|98:295|120:329|120:375|35:383|14:341|32:304|86:303|90:330,1,225.000008583069
64,251,22309,1,0,0:0:0:0:
58,242,22379,6,0,B|27:186|67:136|67:136|107:84|71:31,1,225
213,49,22940,2,0,B|177:36|177:36|170:82|215:120|262:95,1,168.750006437302
426,32,23641,5,0,0:0:0:0:
426,32,23781,1,0,0:0:0:0:
497,77,24062,1,0,0:0:0:0:
497,77,24202,2,0,P|514:128|487:176,1,112.500004291535
409,168,24622,6,0,L|426:303,1,112.500004291535
415,358,25043,2,0,L|424:291,1,56.2500021457673
424,97,25464,6,0,P|372:137|310:107,1,112.500004291535
282,69,25884,1,0,0:0:0:0:
282,69,26024,1,0,0:0:0:0:
158,186,26305,1,0,0:0:0:0:
158,186,26445,1,0,0:0:0:0:
119,20,26725,1,0,0:0:0:0:
119,20,26865,6,0,P|148:66|202:78,1,112.500004291535
282,69,27286,1,0,0:0:0:0:
125,114,27426,6,0,P|158:85|202:78,1,89.9999972534181
296,142,27707,2,0,P|303:184|287:226,1,89.9999972534181
203,280,27987,6,0,L|135:270,1,44.999998626709
158,273,28267,1,0,0:0:0:0:
219,177,28408,2,0,B|172:186|172:186|152:166,1,75
100,10,28688,6,0,B|128:31|167:27|188:-11|188:-11|151:55|202:104,1,225.000008583069
131,171,29038,1,0,0:0:0:0:
116,164,29108,6,0,B|55:140|-4:153|-4:153|22:161,1,150
20,162,29529,1,0,0:0:0:0:
77,41,29669,6,0,P|109:39|150:28,1,75
150,27,30090,1,0,0:0:0:0:
282,158,30370,1,0,0:0:0:0:
282,158,30510,2,0,P|271:194|268:231,1,75
228,94,30931,6,0,B|259:179|221:272|221:272|225:238|212:215,1,225.000008583069
144,253,31281,1,0,0:0:0:0:
144,253,31351,6,0,P|50:249|88:335,1,225
215,288,31912,2,0,B|242:278|274:290|289:314|289:314|303:338|333:349|362:338,1,168.750006437302
438,182,32613,1,0,0:0:0:0:
438,182,32753,1,0,0:0:0:0:
507,232,33034,1,0,0:0:0:0:
507,232,33174,2,0,P|530:282|498:342,1,112.500004291535
431,315,33594,6,0,P|372:318|319:324,1,112.500004291535
341,239,34015,2,0,P|368:241|397:243,1,56.2500021457673
408,44,34436,6,0,P|383:91|330:87,1,112.500004291535
296,21,34856,1,0,0:0:0:0:
296,21,34996,1,0,0:0:0:0:
320,199,35277,1,0,0:0:0:0:
320,199,35417,1,0,0:0:0:0:
365,137,35697,1,0,0:0:0:0:
365,137,35837,6,0,L|477:127,1,112.500004291535
508,53,36258,1,0,0:0:0:0:
473,221,36398,6,0,B|442:239|411:229|411:229|393:209,1,89.9999972534181
344,39,36679,2,0,B|375:56|381:88|381:88|374:113,1,89.9999972534181
301,177,36959,6,0,L|241:189,1,44.999998626709
257,185,37239,1,0,0:0:0:0:
317,314,37379,2,0,B|271:305|271:305|246:319,1,75
115,223,37660,6,0,B|80:220|71:186|92:150|157:152|181:205|168:290|103:309,1,225.000008583069
127,295,38080,6,0,L|82:303,2,41.2500012588501
14,220,38501,1,0,0:0:0:0:
14,220,38641,1,0,0:0:0:0:
91,225,38781,1,0,0:0:0:0:
97,135,38922,1,0,0:0:0:0:
21,147,39062,1,0,0:0:0:0:
96,119,39202,6,0,L|90:66,1,41.2500012588501
166,84,39482,1,0,0:0:0:0:
90,57,39622,1,0,0:0:0:0:
165,161,39763,6,0,L|159:214,1,41.2500012588501
346,249,40043,2,0,L|350:289,1,41.2500012588501
489,359,40323,5,0,0:0:0:0:
410,351,40464,1,0,0:0:0:0:
489,359,40604,2,0,L|449:363,1,41.2500012588501
398,197,40884,1,0,0:0:0:0:
432,126,41024,2,0,P|470:114|507:131,1,82.5000025177003
476,205,41445,5,0,0:0:0:0:
398,197,41585,1,0,0:0:0:0:
476,205,41725,1,0,0:0:0:0:
398,197,41865,1,0,0:0:0:0:
507,131,42006,6,0,L|496:78,1,41.2500012588501
304,68,42286,2,0,L|312:27,1,41.2500012588501
236,0,42566,5,0,0:0:0:0:
273,227,42847,1,0,0:0:0:0:
236,0,43127,1,0,0:0:0:0:
194,69,43267,2,0,L|153:77,1,41.2500012588501
92,27,43548,1,0,0:0:0:0:
147,107,43688,6,0,L|138:147,1,41.2500012588501,0|0,2:0|2:0,2:0:0:0:
87,205,43968,1,0,0:0:0:0:
10,192,44108,1,0,0:0:0:0:
68,31,44249,6,0,L|27:39,2,41.2500012588501
145,45,44669,1,0,0:0:0:0:
32,123,44809,5,0,0:0:0:0:
138,147,44950,1,0,0:0:0:0:
48,212,45090,1,0,0:0:0:0:
48,212,45230,6,0,L|88:203,2,41.2500012588501
94,276,45651,1,0,0:0:0:0:
22,249,45791,1,0,0:0:0:0:
105,169,45931,6,0,P|144:162|177:186,1,82.5000025177003
177,186,46351,1,0,0:0:0:0:
265,80,46492,5,0,0:0:0:0:
252,156,46632,1,0,0:0:0:0:
342,93,46772,1,0,0:0:0:0:
327,170,46912,1,0,0:0:0:0:
382,305,47052,6,0,P|423:311|467:280,1,82.5000025177003
