osu file format v14

[General]
AudioFilename: audio.mp3
AudioLeadIn: 0
PreviewTime: 118263
Countdown: 0
SampleSet: Soft
StackLeniency: 0.5
Mode: 0
LetterboxInBreaks: 0
WidescreenStoryboard: 0

[Editor]
Bookmarks: 5463,14463,21663,28863,36063,46863,61263,68463,75663,82863,90063,97263,104463,111663,118863,149463,155763,156963,163863,178263,185463,192663,199863,207063,237663,243663,248463
DistanceSpacing: 1.3
BeatDivisor: 4
GridSize: 32
TimelineZoom: 0.8

[Metadata]
Title:Utakata
TitleUnicode:泡沫
Artist:Sally
ArtistUnicode:サリー
Creator:eiri-
Version:Normal
Source:東方輝針城 ~ Double Dealing Character.
Tags:Ayyri honne BlastTheKidd Irohas MugiwaraSekai Kalibe Alexsander Enerugi Enerugii toybot vikala Seija Kijin 鬼人 正邪 Japanese Video Game Pop Rock J-Pop J-Rock JPop JRock Comiket 85 C85 空中に沈む輝針城 The Shining Needle Castle Sinking in the Air Kishinjou TH14 Touhou Team Shanghai Alice ZUN 東方Project NSY IZNA Stage 5 SA-008 DDC バチ Bachi
BeatmapID:3003360
BeatmapSetID:1097858

[Difficulty]
HPDrainRate:3
CircleSize:2.7
OverallDifficulty:4
ApproachRate:4
SliderMultiplier:1.59999990463257
SliderTickRate:1

[Events]
//Background and Video events
0,0,"Seija 586.jpg",0,0
//Break Periods
//Storyboard Layer 0 (Background)
//Storyboard Layer 1 (Fail)
//Storyboard Layer 2 (Pass)
//Storyboard Layer 3 (Foreground)
//Storyboard Layer 4 (Overlay)
//Storyboard Sound Samples

[TimingPoints]
5463,600,3,2,2,80,1,0
5463,-100,3,2,2,80,0,0
5763,-100,3,2,2,60,0,0
6063,-100,3,2,2,60,0,0
6363,-100,3,2,2,65,0,0
6663,-100,3,2,2,65,0,0
6963,-100,3,2,2,70,0,0
7263,-100,3,2,2,70,0,0
7563,-100,3,2,2,75,0,0
7863,-100,3,2,2,75,0,0
8163,-100,3,2,2,80,0,0
8463,-100,3,2,2,70,0,0
8763,-100,3,2,2,60,0,0
9063,-100,3,2,2,50,0,0
13863,-100,3,2,2,40,0,0
14463,-100,3,2,1,50,0,0
46863,-100,3,2,2,80,0,1
61263,-100,3,2,1,60,0,0
90063,-100,3,2,1,65,0,0
104463,-100,3,2,1,70,0,0
108063,-100,3,2,1,75,0,0
111663,-100,3,2,2,80,0,0
111963,-100,3,2,2,60,0,0
112263,-100,3,2,2,60,0,0
112563,-100,3,2,2,65,0,0
112863,-100,3,2,2,65,0,0
113163,-100,3,2,2,70,0,0
113463,-100,3,2,2,70,0,0
113763,-100,3,2,2,75,0,0
114063,-100,3,2,2,75,0,0
114363,-100,3,2,2,80,0,0
114663,-100,3,2,2,70,0,0
114963,-100,3,2,2,60,0,0
115263,-100,3,2,2,50,0,0
117663,-100,3,2,2,60,0,0
118263,-100,3,2,2,70,0,0
118863,-100,3,2,2,80,0,1
149463,-100,3,2,2,60,0,0
155763,-100,3,2,2,90,0,1
156963,-100,3,2,1,60,0,0
163863,-100,3,2,2,80,0,1
178263,-100,3,2,2,70,0,0
192663,-100,3,2,2,73,0,0
196263,-100,3,2,2,75,0,0
199863,-100,3,2,2,80,0,0
200163,-100,3,2,2,60,0,0
200463,-100,3,2,2,60,0,0
200763,-100,3,2,2,65,0,0
201063,-100,3,2,2,65,0,0
201363,-100,3,2,2,70,0,0
201663,-100,3,2,2,70,0,0
201963,-100,3,2,2,75,0,0
202263,-100,3,2,2,75,0,0
202563,-100,3,2,2,80,0,0
202863,-100,3,2,2,70,0,0
203163,-100,3,2,2,60,0,0
203463,-100,3,2,2,50,0,0
205863,-100,3,2,2,60,0,0
206163,-100,3,2,2,65,0,0
206463,-100,3,2,2,70,0,0
206763,-100,3,2,2,75,0,0
207063,-100,3,2,2,80,0,1
237663,-100,3,2,2,70,0,0
243663,-100,3,2,2,80,0,0
244263,-100,3,2,2,70,0,0
244863,-100,3,2,2,60,0,0
245463,-100,3,2,2,50,0,0
246063,-100,3,2,2,40,0,0
246663,-100,3,2,2,30,0,0
247263,-100,3,2,2,20,0,0
247863,-100,3,2,2,10,0,0
248463,-100,3,2,2,5,0,0

[Colours]
Combo1 : 241,160,211
Combo2 : 240,187,155
Combo3 : 242,215,121
Combo4 : 238,145,147

[HitObjects]
64,320,5463,5,6,1:2:0:0:
160,359,5763,2,0,L|265:347,1,79.9999952316285,2|2,1:2|1:2,0:0:0:0:
305,269,6363,2,0,L|200:257,2,79.9999952316285,6|2|2,1:2|1:2|1:2,0:0:0:0:
401,308,7263,2,0,L|506:296,2,79.9999952316285,6|2|2,1:2|1:2|1:2,0:0:0:0:
375,206,8163,1,6,1:2:0:0:
274,231,8463,1,2,1:2:0:0:
249,130,8763,1,2,1:2:0:0:
148,155,9063,6,0,B|157:103|223:77|271:129|277:179|245:218|189:220|144:277|199:338,1,319.999980926514,14|0,0:0|1:0,0:0:0:0:
269,372,10563,1,8,0:0:0:0:
269,372,13863,2,0,P|317:356|361:355,1,79.9999952316285,2|2,0:1|0:1,0:0:0:0:
448,374,14463,6,0,P|495:348|471:239,1,159.999990463257,10|8,0:0|0:0,0:0:0:0:
397,204,15363,2,0,P|350:178|374:69,1,159.999990463257,2|0,1:2|0:0,0:0:0:0:
448,34,16263,1,2,0:0:0:0:
136,15,17163,2,0,L|145:109,2,79.9999952316285,2|10|2,1:2|0:0|0:0,0:0:0:0:
239,2,18063,6,0,P|312:29|307:126,1,159.999990463257,10|8,0:0|0:0,0:0:0:0:
232,156,18963,1,2,1:2:0:0:
455,374,19863,2,0,P|494:340|407:317,1,159.999990463257,2|10,0:0|0:0,0:0:0:0:
329,325,20763,2,0,P|260:312|155:305,1,159.999990463257,2|2,1:2|0:1,0:0:0:0:
59,128,21963,6,0,P|80:162|90:225,1,79.9999952316285,2|10,0:0|0:0,0:0:0:0:
181,249,22563,2,0,P|242:224|224:125,1,159.999990463257,2|2,1:2|0:0,0:0:0:0:
397,2,23763,2,0,P|376:36|366:99,1,79.9999952316285,10|2,0:0|0:0,0:0:0:0:
275,123,24363,2,0,P|214:98|232:-1,1,159.999990463257,2|2,1:2|0:0,0:0:0:0:
359,163,25563,6,0,B|404:138|404:138|515:163,1,159.999990463257,2|2,0:0|1:2,0:0:0:0:
455,250,26463,2,0,L|469:345,1,79.9999952316285,2|2,0:0|0:0,0:0:0:0:
372,373,27063,2,0,P|328:339|151:331,1,239.999985694885,2|2,0:0|0:1,0:0:0:0:
53,294,28263,1,10,0:0:0:0:
243,209,28863,6,0,B|269:165|269:165|242:50,1,159.999990463257,10|10,0:0|0:0,0:0:0:0:
147,98,29763,2,0,P|92:82|50:82,2,79.9999952316285,2|2|2,1:2|0:0|0:0,0:0:0:0:
139,202,30663,1,2,0:0:0:0:
410,355,31563,2,0,L|398:257,1,79.9999952316285,2|10,1:2|0:0,0:0:0:0:
472,200,32163,1,2,0:0:0:0:
418,110,32463,6,0,P|389:59|279:83,1,159.999990463257,10|8,0:0|0:0,0:0:0:0:
241,149,33363,2,0,P|212:200|102:176,1,159.999990463257,2|0,1:2|0:0,0:0:0:0:
64,109,34263,2,0,P|115:89|126:44,2,79.9999952316285,2|8|10,0:0|0:0|0:0,0:0:0:0:
39,7,35163,1,2,1:2:0:0:
245,27,35763,1,2,0:1:0:0:
158,216,36363,6,0,P|112:196|68:194,1,79.9999952316285,2|10,0:0|0:0,0:0:0:0:
26,280,36963,2,0,B|59:321|59:321|176:305,1,159.999990463257,2|0,1:2|0:0,0:0:0:0:
354,216,38163,2,0,P|400:196|444:194,1,79.9999952316285,10|2,0:0|0:0,0:0:0:0:
486,280,38763,2,0,B|453:321|453:321|336:305,1,159.999990463257,2|2,1:2|0:0,0:0:0:0:
260,116,39963,6,0,B|282:80|282:80|310:220,1,159.999990463257,2|2,0:0|1:2,0:0:0:0:
234,272,40863,2,0,L|140:253,1,79.9999952316285,2|2,0:0|0:0,0:0:0:0:
69,315,41463,2,0,B|21:254|21:254|67:186|67:186|36:114|36:114|74:66|53:10,1,319.999980926514,2|10,0:0|0:0,0:0:0:0:
266,13,43263,2,0,B|292:29|292:29|280:145,2,119.999992847443,10|2|2,0:0|0:0|1:2,0:0:0:0:
179,71,44463,1,14,0:0:0:0:
493,362,46263,2,0,L|480:265,1,79.9999952316285,2|2,0:1|0:1,0:0:0:0:
392,230,46863,6,0,B|290:244|290:244|285:236|285:236|123:260,2,239.999985694885,14|2|2,0:0|1:2|0:0,0:0:0:0:
480,175,48963,1,8,0:0:0:0:
414,94,49263,2,0,P|362:72|326:158,1,159.999990463257,2|10,1:2|0:0,0:0:0:0:
154,22,50463,6,0,B|182:74|182:74|163:103|163:103|154:261,2,239.999985694885,14|2|2,0:0|1:2|0:0,0:0:0:0:
50,14,52563,1,8,0:0:0:0:
16,112,52863,2,0,P|66:136|77:175,1,79.9999952316285,2|2,1:2|0:1,0:0:0:0:
37,253,53463,1,10,0:0:0:0:
236,311,54063,6,0,B|283:283|283:283|81:327,2,239.999985694885,14|2|10,0:0|1:2|0:0,0:0:0:0:
314,378,56163,1,10,0:0:0:0:
409,335,56463,2,0,P|472:301|452:213,1,159.999990463257,2|10,1:2|0:0,0:0:0:0:
366,37,57663,6,0,B|298:65|298:65|223:21|223:21|142:53,2,239.999985694885,14|2|10,0:0|1:2|0:0,0:0:0:0:
465,67,59763,1,10,0:0:0:0:
401,149,60063,1,10,0:0:0:0:
482,214,60363,2,0,L|494:316,2,79.9999952316285,2|2|10,1:2|1:2|0:0,0:0:0:0:
504,112,61263,5,14,0:0:0:0:
195,156,62163,2,0,P|163:107|43:124,1,159.999990463257,2|2,1:2|0:0,0:0:0:0:
15,191,63063,2,0,P|94:217|146:359,1,239.999985694885,2|0,0:0|1:0,0:0:0:0:
249,373,64263,1,10,0:0:0:0:
434,279,64863,6,0,L|442:180,1,79.9999952316285,10|0,0:0|0:0,0:0:0:0:
390,108,65463,2,0,P|332:96|321:191,1,159.999990463257,10|2,0:0|0:0,0:0:0:0:
346,273,66363,2,0,B|311:311|311:311|175:286,2,159.999990463257,2|8|0,0:0|0:0|1:0,0:0:0:0:
61,145,68463,6,0,P|91:219|169:184,1,159.999990463257,10|8,0:0|0:0,0:0:0:0:
228,128,69363,2,0,L|215:32,2,79.9999952316285,2|2|2,1:2|0:0|0:0,0:0:0:0:
307,195,70263,2,0,L|294:291,1,79.9999952316285,2|10,0:0|0:0,0:0:0:0:
365,351,70863,1,10,0:0:0:0:
505,197,71463,2,0,P|459:166|484:132,1,79.9999952316285,10|2,0:0|0:0,0:0:0:0:
483,48,72063,6,0,P|421:29|376:173,1,239.999985694885,10|0,0:0|1:0,0:0:0:0:
293,237,73263,1,2,0:0:0:0:
86,193,73863,1,10,0:0:0:0:
179,146,74163,2,0,P|207:106|186:53,2,79.9999952316285,8|8|0,0:0|0:0|1:0,0:0:0:0:
91,88,75063,1,8,0:0:0:0:
286,17,75663,6,0,P|380:66|437:41,1,159.999990463257,10|8,0:0|0:0,0:0:0:0:
502,119,76563,2,0,P|474:172|433:179,1,79.9999952316285,2|2,1:2|0:0,0:0:0:0:
356,161,77163,1,2,0:0:0:0:
274,225,77463,2,0,B|256:180|256:180|65:229,1,239.999985694885,2|0,0:0|1:0,0:0:0:0:
136,307,78663,1,10,0:0:0:0:
333,373,79263,6,0,P|355:305|425:246,1,159.999990463257,10|10,0:0|0:0,0:0:0:0:
442,40,80463,2,0,P|482:82|477:119,1,79.9999952316285,2|2,0:0|0:0,0:0:0:0:
299,200,81363,2,0,P|228:188|116:188,1,159.999990463257,8|2,0:0|1:2,0:0:0:0:
41,151,82263,2,0,P|4:188|6:227,1,79.9999952316285,10|2,0:0|0:1,0:0:0:0:
83,278,82863,6,0,P|154:295|154:400,1,159.999990463257,10|8,0:0|0:0,0:0:0:0:
262,320,83763,2,0,P|314:342|325:370,2,79.9999952316285,2|2|2,1:2|0:0|0:0,0:0:0:0:
230,220,84663,2,0,P|232:149|273:71,1,159.999990463257,2|10,0:0|0:0,0:0:0:0:
76,15,85863,2,0,P|37:52|-4:48,1,79.9999952316285,10|2,0:0|0:0,0:0:0:0:
1,156,86463,6,0,P|21:213|192:202,1,239.999985694885,10|0,0:0|1:0,0:0:0:0:
278,197,87663,2,0,B|311:234|311:234|282:348,1,159.999990463257,2|10,0:0|0:0,0:0:0:0:
383,372,88563,1,10,0:0:0:0:
500,202,89163,2,0,L|493:110,2,79.9999952316285,10|10|2,0:0|0:0|1:1,0:0:0:0:
408,252,90063,6,0,P|329:225|243:222,1,159.999990463257,14|8,0:0|0:0,0:0:0:0:
161,270,90963,2,0,P|183:312|160:362,2,79.9999952316285,2|2|2,1:2|0:0|0:0,0:0:0:0:
94,189,91863,2,0,P|31:153|58:52,1,159.999990463257,10|2,0:0|1:2,0:0:0:0:
123,19,92763,2,0,P|189:41|283:33,1,159.999990463257,2|2,1:2|0:1,0:0:0:0:
381,17,93663,6,0,B|433:37|433:37|418:143,1,159.999990463257,14|10,0:0|0:0,0:0:0:0:
316,163,94563,2,0,B|264:183|264:183|279:289,1,159.999990463257,2|2,1:2|0:0,0:0:0:0:
381,309,95463,1,10,0:0:0:0:
182,372,96063,2,0,L|168:257,1,79.9999952316285,2|0,1:2|1:0,0:0:0:0:
104,213,96663,1,8,0:0:0:0:
183,146,96963,1,8,0:0:0:0:
137,52,97263,6,0,P|173:103|282:84,1,159.999990463257,14|8,0:0|0:0,0:0:0:0:
362,133,98163,2,0,L|353:233,2,79.9999952316285,2|2|2,1:2|0:0|0:0,0:0:0:0:
434,57,99063,2,0,P|499:85|476:178,1,159.999990463257,10|2,0:0|1:2,0:0:0:0:
418,235,99963,2,0,P|353:263|376:356,1,159.999990463257,2|2,1:2|0:1,0:0:0:0:
259,373,100863,6,0,P|212:326|112:327,1,159.999990463257,14|10,0:0|0:0,0:0:0:0:
136,219,101763,2,0,P|183:172|283:173,1,159.999990463257,2|2,1:2|0:0,0:0:0:0:
363,217,102663,1,8,0:0:0:0:
492,53,103263,2,0,L|400:65,1,79.9999952316285,6|0,1:2|1:0,0:0:0:0:
316,24,103863,1,10,0:0:0:0:
233,87,104163,1,2,1:2:0:0:
141,37,104463,6,0,P|175:95|186:206,1,159.999990463257,6|10,0:0|0:0,0:0:0:0:
70,357,105663,2,0,P|27:339|35:301,1,79.9999952316285,2|2,0:0|0:0,0:0:0:0:
126,276,106263,2,0,P|197:284|222:385,1,159.999990463257,10|2,0:0|1:2,0:0:0:0:
437,370,107463,2,0,L|454:276,1,79.9999952316285,10|2,0:0|0:1,0:0:0:0:
510,205,108063,6,0,P|434:243|393:116,1,239.999985694885,14|0,0:0|1:0,0:0:0:0:
440,42,109263,2,0,P|408:12|357:10,1,79.9999952316285,2|2,0:0|0:0,0:0:0:0:
287,64,109863,2,0,P|181:41|94:41,1,159.999990463257,10|0,0:0|1:0,0:0:0:0:
11,210,111063,2,0,B|46:201|46:201|64:277,1,79.9999952316285,10|2,0:0|0:1,0:0:0:0:
28,344,111663,5,6,1:2:0:0:
128,371,111963,2,0,L|233:359,1,79.9999952316285,2|2,1:2|1:2,0:0:0:0:
273,281,112563,2,0,L|168:269,2,79.9999952316285,6|2|2,1:2|1:2|1:2,0:0:0:0:
369,320,113463,2,0,L|474:308,2,79.9999952316285,6|2|2,1:2|1:2|1:2,0:0:0:0:
343,218,114363,1,6,1:2:0:0:
242,243,114663,1,2,1:2:0:0:
217,142,114963,1,2,1:2:0:0:
116,167,115263,6,0,P|190:173|191:250,1,159.999990463257,6|8,1:2|0:0,0:0:0:0:
241,338,116163,1,0,1:0:0:0:
287,29,117063,1,8,0:0:0:0:
195,78,117363,1,8,0:0:0:0:
273,145,117663,2,0,P|355:134|443:130,1,159.999990463257,0|10,1:0|0:0,0:0:0:0:
501,326,118863,6,0,P|474:266|378:291,1,159.999990463257,14|8,0:0|0:0,0:0:0:0:
306,334,119763,2,0,P|252:302|252:258,2,79.9999952316285,2|10|2,1:2|0:0|0:0,0:0:0:0:
359,244,120663,2,0,P|368:172|345:61,1,159.999990463257,10|8,0:0|0:0,0:0:0:0:
289,4,121563,1,2,1:2:0:0:
95,81,122163,1,10,0:0:0:0:
158,163,122463,6,0,P|94:197|91:295,1,159.999990463257,10|8,0:0|0:0,0:0:0:0:
154,352,123363,1,2,1:2:0:0:
305,316,123813,1,0,1:0:0:0:
452,365,124263,2,0,P|489:310|482:190,1,159.999990463257,10|10,0:0|0:0,0:0:0:0:
403,165,125163,2,0,L|391:255,2,79.9999952316285,2|10|10,1:2|0:0|0:0,0:0:0:0:
383,62,126063,5,14,0:0:0:0:
282,89,126363,2,0,P|219:69|176:70,1,79.9999952316285,2|10,0:0|0:0,0:0:0:0:
119,9,126963,2,0,P|171:66|142:168,1,159.999990463257,2|10,1:2|0:0,0:0:0:0:
342,247,128163,2,0,P|405:227|448:228,1,79.9999952316285,2|10,0:0|0:0,0:0:0:0:
505,167,128763,2,0,P|453:224|482:326,1,159.999990463257,2|10,1:2|0:0,0:0:0:0:
382,370,129663,5,14,0:0:0:0:
282,339,129963,2,0,P|250:297|252:257,1,79.9999952316285,2|10,0:0|0:0,0:0:0:0:
287,174,130563,2,0,P|358:153|472:147,1,159.999990463257,2|10,1:2|0:0,0:0:0:0:
508,64,131463,2,0,B|483:18|483:18|368:51,1,159.999990463257,10|8,0:0|0:0,0:0:0:0:
276,28,132363,1,2,1:2:0:0:
367,214,132963,1,10,0:0:0:0:
289,283,133263,6,0,P|239:235|125:238,1,159.999990463257,14|10,0:0|0:0,0:0:0:0:
50,251,134163,2,0,P|12:227|3:184,2,79.9999952316285,2|10|2,1:2|0:0|0:0,0:0:0:0:
111,166,135063,1,10,0:0:0:0:
317,138,135663,1,10,0:0:0:0:
393,208,135963,2,0,L|386:312,2,79.9999952316285,2|2|2,1:2|0:0|0:0,0:0:0:0:
481,153,136863,6,0,P|480:90|388:78,1,159.999990463257,10|10,0:0|0:0,0:0:0:0:
305,22,137763,2,0,P|285:100|200:108,1,159.999990463257,2|2,1:2|0:0,0:0:0:0:
116,81,138663,1,10,0:0:0:0:
160,284,139263,1,2,0:0:0:0:
74,343,139563,2,0,P|53:276|1:185,1,159.999990463257,2|10,1:2|0:0,0:0:0:0:
54,103,140463,5,14,0:0:0:0:
155,130,140763,2,0,P|218:110|261:111,1,79.9999952316285,2|10,0:0|0:0,0:0:0:0:
318,50,141363,2,0,P|266:107|295:209,1,159.999990463257,2|2,1:2|0:0,0:0:0:0:
482,201,142563,2,0,P|419:221|376:220,1,79.9999952316285,2|2,0:0|0:0,0:0:0:0:
319,281,143163,2,0,P|371:224|342:122,1,159.999990463257,2|10,1:2|0:0,0:0:0:0:
307,58,144063,5,14,0:0:0:0:
206,30,144363,2,0,P|174:72|176:112,1,79.9999952316285,2|10,0:0|0:0,0:0:0:0:
211,195,144963,2,0,P|282:216|396:222,1,159.999990463257,2|2,1:2|0:0,0:0:0:0:
461,268,145863,2,0,B|471:310|449:331|449:331|382:314|339:377,1,159.999990463257,10|2,0:0|0:0,0:0:0:0:
264,315,146763,1,6,1:2:0:0:
63,371,147363,1,10,0:0:0:0:
26,273,147663,6,0,P|76:225|190:228,1,159.999990463257,14|10,0:0|0:0,0:0:0:0:
265,241,148563,1,2,1:2:0:0:
325,325,148863,2,0,P|363:301|372:258,1,79.9999952316285,10|10,0:0|0:0,0:0:0:0:
351,167,149463,5,14,0:0:0:0:
145,199,150063,1,8,0:0:0:0:
500,18,151563,1,8,0:0:0:0:
411,317,152463,2,0,P|355:296|309:297,1,79.9999952316285,8|0,0:0|1:0,0:0:0:0:
235,326,153063,5,8,0:0:0:0:
273,121,153663,1,8,0:0:0:0:
66,149,154263,1,8,0:0:0:0:
470,245,155463,1,8,0:0:0:0:
387,307,155763,6,0,L|292:290,1,79.9999952316285,6|6,1:2|1:2,0:0:0:0:
218,345,156363,2,0,L|123:362,2,79.9999952316285,6|2|0,1:2|0:0|0:0,0:0:0:0:
164,255,157263,5,8,0:0:0:0:
503,14,158763,1,8,0:0:0:0:
512,224,159663,2,0,P|456:203|410:204,1,79.9999952316285,8|0,0:0|1:0,0:0:0:0:
336,233,160263,5,2,1:1:0:0:
303,27,160863,1,10,0:0:0:0:
43,352,162063,1,8,0:0:0:0:
144,372,162363,1,8,0:0:0:0:
115,166,162963,2,0,P|78:149|39:143,2,79.9999952316285,2|8|2,0:1|0:0|1:1,0:0:0:0:
176,82,163863,6,0,P|237:114|232:217,1,159.999990463257,14|10,0:0|0:0,0:0:0:0:
156,254,164763,1,8,0:0:0:0:
246,305,165063,2,0,P|285:310|322:325,1,79.9999952316285,2|8,1:2|0:0,0:0:0:0:
415,372,165663,2,0,P|474:353|509:352,1,79.9999952316285,2|8,1:2|0:0,0:0:0:0:
488,247,166263,1,2,1:2:0:0:
412,175,166563,2,0,P|353:156|318:155,2,79.9999952316285,2|2|10,1:2|1:2|0:0,0:0:0:0:
507,133,167463,6,0,P|487:63|392:19,1,159.999990463257,14|10,0:0|0:0,0:0:0:0:
314,46,168363,1,2,1:2:0:0:
105,19,168963,1,10,0:0:0:0:
184,85,169263,2,0,L|165:187,1,79.9999952316285,14|0,0:0|1:0,0:0:0:0:
6,293,170163,2,0,L|25:395,2,79.9999952316285,10|10|10,0:0|0:0|0:0,0:0:0:0:
45,196,171063,5,14,0:0:0:0:
131,253,171363,2,0,P|205:236|244:237,1,79.9999952316285,2|2,1:2|1:2,0:0:0:0:
289,301,171963,2,0,P|354:287|362:199,1,159.999990463257,10|10,0:0|0:0,0:0:0:0:
313,114,172863,1,10,0:0:0:0:
499,22,173463,1,10,0:0:0:0:
488,125,173763,2,0,P|441:108|398:106,2,79.9999952316285,8|2|8,0:0|1:2|0:0,0:0:0:0:
500,228,174663,6,0,P|469:283|365:271,1,159.999990463257,14|10,0:0|0:0,0:0:0:0:
280,314,175563,2,0,P|269:243|176:173,1,159.999990463257,14|10,0:0|0:0,0:0:0:0:
109,216,176463,2,0,P|67:191|59:146,2,79.9999952316285,14|2|2,0:0|1:2|1:2,0:0:0:0:
141,117,177363,2,0,L|126:15,2,79.9999952316285,2|8|10,1:2|0:0|0:0,0:0:0:0:
236,158,178263,5,14,0:0:0:0:
463,371,179163,2,0,P|494:329|482:285,2,79.9999952316285,2|2|10,1:2|0:0|0:0,0:0:0:0:
360,353,180063,2,0,P|326:314|210:281,1,159.999990463257,10|10,0:0|0:0,0:0:0:0:
134,329,180963,2,0,P|71:301|78:201,1,159.999990463257,2|2,1:2|0:1,0:0:0:0:
40,116,181863,6,0,P|80:168|184:167,1,159.999990463257,14|10,0:0|0:0,0:0:0:0:
254,115,182763,2,0,P|301:163|285:262,1,159.999990463257,2|10,1:2|0:0,0:0:0:0:
221,325,183663,1,10,0:0:0:0:
423,371,184263,1,10,0:0:0:0:
496,296,184563,2,0,P|489:241|470:207,2,79.9999952316285,0|10|10,1:0|0:0|0:0,0:0:0:0:
423,371,185463,6,0,P|362:349|254:337,1,159.999990463257,14|8,0:0|0:0,0:0:0:0:
202,255,186363,2,0,P|243:197|281:191,1,79.9999952316285,2|2,1:2|0:0,0:0:0:0:
347,163,186963,1,10,0:0:0:0:
295,72,187263,2,0,P|243:35|143:34,1,159.999990463257,10|10,0:0|0:0,0:0:0:0:
48,6,188163,2,0,P|114:52|117:149,1,159.999990463257,2|2,1:2|0:1,0:0:0:0:
61,208,189063,6,0,B|18:222|18:222|48:343,1,159.999990463257,14|10,0:0|0:0,0:0:0:0:
141,372,189963,2,0,P|205:355|305:351,1,159.999990463257,2|10,1:2|0:0,0:0:0:0:
391,304,190863,1,10,0:0:0:0:
196,230,191463,2,0,L|213:131,1,79.9999952316285,6|2,1:2|1:2,0:0:0:0:
189,48,192063,1,10,0:0:0:0:
290,26,192363,1,10,0:0:0:0:
310,129,192663,6,0,P|377:99|479:103,1,159.999990463257,14|2,0:0|0:0,0:0:0:0:
390,293,193863,2,0,P|342:256|308:246,1,79.9999952316285,2|2,0:0|0:0,0:0:0:0:
240,187,194463,2,0,P|278:223|276:342,1,159.999990463257,10|2,0:0|1:2,0:0:0:0:
82,372,195663,2,0,P|44:336|28:280,1,79.9999952316285,10|2,0:0|0:1,0:0:0:0:
59,210,196263,6,0,B|150:226|112:156|228:177,1,159.999990463257,14|8,0:0|0:0,0:0:0:0:
298,120,197163,1,2,1:2:0:0:
338,215,197463,2,0,P|304:261|296:306,1,79.9999952316285,2|2,0:0|0:0,0:0:0:0:
370,356,198063,2,0,B|428:371|428:371|439:322|464:258,1,159.999990463257,10|2,0:0|1:2,0:0:0:0:
512,79,199263,2,0,P|488:35|435:30,1,79.9999952316285,10|2,0:0|1:1,0:0:0:0:
420,121,199863,5,6,1:2:0:0:
320,148,200163,2,0,L|215:136,1,79.9999952316285,2|2,1:2|1:2,0:0:0:0:
175,58,200763,2,0,L|280:46,2,79.9999952316285,6|2|2,1:2|1:2|1:2,0:0:0:0:
79,97,201663,2,0,L|-26:85,2,79.9999952316285,6|2|2,1:2|1:2|1:2,0:0:0:0:
159,162,202563,1,6,1:2:0:0:
260,187,202863,1,2,1:2:0:0:
285,86,203163,1,2,1:2:0:0:
386,111,203463,6,0,P|312:117|311:194,1,159.999990463257,6|8,1:2|0:0,0:0:0:0:
261,282,204363,1,0,1:0:0:0:
99,14,205263,1,8,0:0:0:0:
7,63,205563,1,8,0:0:0:0:
85,130,205863,2,0,P|167:119|255:115,1,159.999990463257,0|10,1:0|0:0,0:0:0:0:
313,311,207063,6,0,P|286:251|190:276,1,159.999990463257,14|8,0:0|0:0,0:0:0:0:
106,298,207963,2,0,P|52:266|52:222,2,79.9999952316285,2|10|2,1:2|0:0|0:0,0:0:0:0:
132,197,208863,2,0,P|165:111|224:63,1,159.999990463257,10|10,0:0|0:0,0:0:0:0:
312,31,209763,1,2,1:2:0:0:
335,237,210363,1,10,0:0:0:0:
413,168,210663,6,0,P|477:202|480:300,1,159.999990463257,10|8,0:0|0:0,0:0:0:0:
417,357,211563,1,2,1:2:0:0:
290,266,212013,1,0,1:0:0:0:
171,367,212463,2,0,P|124:311|12:279,1,159.999990463257,10|10,0:0|0:0,0:0:0:0:
103,192,213363,2,0,L|90:100,2,79.9999952316285,2|10|10,1:2|0:0|0:0,0:0:0:0:
201,225,214263,5,14,0:0:0:0:
269,147,214563,2,0,P|332:127|375:128,1,79.9999952316285,2|10,0:0|0:0,0:0:0:0:
432,67,215163,2,0,P|380:124|409:226,1,159.999990463257,2|10,1:2|0:0,0:0:0:0:
219,323,216363,2,0,P|156:303|113:304,1,79.9999952316285,2|10,0:0|0:0,0:0:0:0:
56,243,216963,2,0,P|108:300|79:402,1,159.999990463257,2|10,1:2|0:0,0:0:0:0:
7,331,217863,5,14,0:0:0:0:
4,227,218163,2,0,P|27:186|15:136,1,79.9999952316285,2|10,0:0|0:0,0:0:0:0:
14,50,218763,2,0,P|61:105|152:88,1,159.999990463257,2|10,1:2|0:0,0:0:0:0:
221,163,219663,2,0,B|246:117|246:117|361:150,1,159.999990463257,10|8,0:0|0:0,0:0:0:0:
451,124,220563,1,2,1:2:0:0:
470,332,221163,1,10,0:0:0:0:
373,371,221463,6,0,P|322:332|347:225,1,159.999990463257,14|10,0:0|0:0,0:0:0:0:
423,202,222363,2,0,P|461:178|470:135,2,79.9999952316285,2|10|2,1:2|0:0|0:0,0:0:0:0:
362,117,223263,1,10,0:0:0:0:
165,185,223863,1,10,0:0:0:0:
89,255,224163,2,0,L|96:359,2,79.9999952316285,2|2|2,1:2|0:0|0:0,0:0:0:0:
2,200,225063,6,0,P|3:137|95:125,1,159.999990463257,10|10,0:0|0:0,0:0:0:0:
185,90,225963,2,0,P|205:168|290:176,1,159.999990463257,2|2,1:2|0:0,0:0:0:0:
374,149,226863,1,10,0:0:0:0:
312,347,227463,1,2,0:0:0:0:
412,373,227763,2,0,P|391:306|339:215,1,159.999990463257,2|10,1:2|0:0,0:0:0:0:
356,123,228663,5,14,0:0:0:0:
255,150,228963,2,0,P|192:130|149:131,1,79.9999952316285,2|10,0:0|0:0,0:0:0:0:
92,70,229563,2,0,P|144:127|115:229,1,159.999990463257,2|2,1:2|0:0,0:0:0:0:
332,293,230763,2,0,P|269:313|226:312,1,79.9999952316285,2|2,0:0|0:0,0:0:0:0:
169,373,231363,2,0,P|221:316|192:214,1,159.999990463257,2|10,1:2|0:0,0:0:0:0:
162,146,232263,5,14,0:0:0:0:
61,118,232563,2,0,P|29:160|31:200,1,79.9999952316285,2|10,0:0|0:0,0:0:0:0:
66,283,233163,2,0,P|137:304|251:310,1,159.999990463257,2|2,1:2|0:0,0:0:0:0:
316,266,234063,2,0,B|304:203|304:203|251:179|212:219,1,159.999990463257,10|2,0:0|0:0,0:0:0:0:
153,132,234963,1,6,1:2:0:0:
354,78,235563,1,10,0:0:0:0:
270,16,235863,6,0,P|222:66|225:180,1,159.999990463257,14|10,0:0|0:0,0:0:0:0:
238,255,236763,1,2,1:2:0:0:
322,315,237063,2,0,P|298:353|255:362,1,79.9999952316285,10|10,0:0|0:0,0:0:0:0:
164,341,237663,6,0,L|67:353,2,79.9999952316285,6|6|6,1:2|1:2|1:2,0:0:0:0:
357,265,238863,2,0,L|454:277,1,79.9999952316285,6|6,1:2|1:2,0:0:0:0:
418,172,239463,2,0,L|515:160,2,79.9999952316285,6|6|6,1:2|1:2|1:2,0:0:0:0:
218,229,240663,6,0,L|121:241,1,79.9999952316285,6|6,1:2|1:2,0:0:0:0:
157,136,241263,2,0,L|60:124,2,79.9999952316285,6|6|6,1:2|1:2|1:2,0:0:0:0:
362,101,242463,2,0,L|459:113,1,79.9999952316285,6|10,1:2|0:0,0:0:0:0:
380,195,243063,2,0,L|300:185,1,79.9999952316285,6|10,1:2|0:0,0:0:0:0:
318,279,243663,5,6,1:2:0:0:
256,192,243813,12,0,248463,0:0:0:0:
