osu file format v14

[General]
AudioFilename: audio.mp3
AudioLeadIn: 0
PreviewTime: 229664
Countdown: 0
SampleSet: Soft
StackLeniency: 0.7
Mode: 0
LetterboxInBreaks: 0
WidescreenStoryboard: 0

[Editor]
Bookmarks: 2330,16552,30775,44997,59219,73441,79664,87664,101886,116108,130330,158775,169441,172108,172997,187219,226330,229886,286775,290775,304997,319108
DistanceSpacing: 1.1
BeatDivisor: 4
GridSize: 4
TimelineZoom: 2.2

[Metadata]
Title:Remind
TitleUnicode:Remind
Artist:Sally
ArtistUnicode:サリー
Creator:Reya
Version:Ghost Girl in the Netherworld Tower
Source:東方神霊廟 ~ Ten Desires.
Tags:Chata yuyuko saigyouji shinreibyou ten desires night sakura of dead spirits c80 ZUN Guitar Bass Programming Mix Wani 東方Project Touhou
BeatmapID:1075888
BeatmapSetID:505751

[Difficulty]
HPDrainRate:6
CircleSize:4
OverallDifficulty:9.3
ApproachRate:9.5
SliderMultiplier:1.8
SliderTickRate:1

[Events]
//Background and Video events
0,0,"zxc.png",0,0
//Break Periods
//Storyboard Layer 0 (Background)
//Storyboard Layer 1 (Fail)
//Storyboard Layer 2 (Pass)
//Storyboard Layer 3 (Foreground)
//Storyboard Sound Samples

[TimingPoints]
553,222.222222222222,4,2,1,60,1,0
553,-100,4,2,1,60,0,0
1886,-153.846153846153,4,2,1,40,0,0
2330,-100,4,2,1,50,0,0
5830,-100,4,2,1,5,0,0
5886,-100,4,2,1,50,0,0
9386,-100,4,2,1,5,0,0
9441,-100,4,2,1,50,0,0
12941,-100,4,2,1,5,0,0
12997,-100,4,2,1,50,0,0
34275,-100,4,2,1,5,0,0
34330,-100,4,2,1,50,0,0
44997,-125,4,2,1,50,0,0
48497,-125,4,2,1,5,0,0
48552,-125,4,2,1,50,0,0
61164,-125,4,2,1,5,0,0
61219,-125,4,2,1,50,0,0
66275,-125,4,2,1,5,0,0
66330,-125,4,2,1,50,0,0
69830,-125,4,2,1,5,0,0
69886,-125,4,2,1,50,0,0
71164,-125,4,2,1,5,0,0
71219,-125,4,2,1,50,0,0
73441,-200,4,2,1,40,0,0
80552,-125,4,2,1,50,0,0
84108,-100,4,2,1,60,0,0
87664,-83.3333333333333,4,2,1,70,0,1
101886,-200,4,2,1,40,0,0
130330,-125,4,2,1,50,0,0
142941,-125,4,2,1,5,0,0
142997,-125,4,2,1,50,0,0
149386,-125,4,2,1,5,0,0
149441,-125,4,2,1,50,0,0
151608,-125,4,2,1,5,0,0
151664,-125,4,2,1,50,0,0
158775,-200,4,2,1,50,0,0
162275,-200,4,2,1,5,0,0
162330,-200,4,2,1,50,0,0
164052,-200,4,2,1,5,0,0
164108,-200,4,2,1,50,0,0
169441,-133.333333333333,4,2,1,60,0,0
170497,-133.333333333333,4,2,1,5,0,0
170552,-133.333333333333,4,2,1,60,0,0
170719,-133.333333333333,4,2,1,5,0,0
170775,-133.333333333333,4,2,1,60,0,0
170941,-133.333333333333,4,2,1,5,0,0
170997,-133.333333333333,4,2,1,60,0,0
172997,-90.9090909090909,4,2,1,70,0,1
180052,-90.9090909090909,4,2,1,5,0,1
180108,-90.9090909090909,4,2,1,70,0,1
187219,-125,4,2,1,50,0,0
190719,-125,4,2,1,5,0,0
190775,-125,4,2,1,50,0,0
203386,-125,4,2,1,5,0,0
203441,-125,4,2,1,50,0,0
208497,-125,4,2,1,5,0,0
208552,-125,4,2,1,50,0,0
213386,-125,4,2,1,5,0,0
213441,-125,4,2,1,50,0,0
215664,-153.846153846154,4,2,1,40,0,0
222775,-100,4,2,1,50,0,0
226330,-100,4,2,1,60,0,0
229886,-83.3333333333333,4,2,1,70,0,1
243219,-83.3333333333333,4,2,1,60,0,0
244108,-83.3333333333333,4,2,1,70,0,1
258330,-200,4,2,1,40,0,0
289219,-200,4,2,1,5,0,0
289664,-200,4,2,1,20,0,0
290775,222.222222222222,4,2,1,60,1,0
290775,-100,4,2,1,60,0,0
294275,-100,4,2,1,5,0,0
294330,-100,4,2,1,60,0,0
297830,-100,4,2,1,5,0,0
297886,-100,4,2,1,60,0,0
301386,-100,4,2,1,5,0,0
301441,-100,4,2,1,60,0,0
302941,-100,4,2,1,5,0,0
302997,-100,4,2,1,60,0,0
308497,-100,4,2,1,5,0,0
308552,-100,4,2,1,60,0,0
312052,-100,4,2,1,5,0,0
312108,-100,4,2,1,60,0,0

[Colours]
Combo1 : 111,0,221
Combo2 : 62,62,255
Combo3 : 128,128,255
Combo4 : 0,0,179
Combo5 : 255,128,255
Combo6 : 153,51,255
Combo7 : 253,0,253

[HitObjects]
100,147,553,6,0,B|86:104|86:104|102:56,1,90,2|2,0:0|0:0,0:0:0:0:
196,150,775,1,8,0:0:0:0:
152,230,886,1,8,0:0:0:0:
204,302,997,2,0,L|308:306,1,90,2|2,0:0|0:0,0:0:0:0:
382,247,1219,1,10,0:0:0:0:
382,247,1330,1,10,0:0:0:0:
462,377,1441,6,0,P|474:333|462:285,1,90,0|8,0:0|0:0,0:0:0:0:
294,133,1664,2,0,P|282:177|294:225,1,90,8|2,0:0|0:0,0:0:0:0:
440,55,1886,2,0,B|398:81|344:55|344:55|293:30|242:52,1,204.749990627289,2|0,0:0|0:0,0:0:0:0:
216,92,2330,22,0,L|120:88,1,90,6|2,0:0|0:0,0:0:0:0:
44,128,2552,2,0,B|32:84|32:84|48:36,1,90,10|2,0:0|0:0,0:0:0:0:
162,170,2775,2,0,B|137:206|157:254|157:254|177:298|157:346,1,180,2|8,0:0|0:0,0:0:0:0:
84,296,3108,6,0,L|284:292,1,180,2|2,0:0|0:0,0:0:0:0:
332,232,3441,1,8,0:0:0:0:
412,296,3552,1,2,0:0:0:0:
396,154,3664,2,0,P|324:130|235:210,1,180,2|10,0:0|0:0,0:0:0:0:
332,232,3997,1,2,0:0:0:0:
192,100,4108,6,0,B|149:88|149:88|93:104,1,90,4|2,0:0|0:0,0:0:0:0:
152,240,4330,2,0,L|344:231,1,180,10|2,0:0|0:0,0:0:0:0:
420,312,4664,1,2,0:0:0:0:
508,164,4775,1,10,0:0:0:0:
326,61,4886,6,0,B|299:143|299:143|334:237,1,180,2|2,0:0|0:0,0:0:0:0:
400,144,5219,1,10,0:0:0:0:
220,92,5330,2,0,B|150:95|150:95|110:71|110:71|46:75,1,180,2|0,0:0|0:0,0:0:0:0:
144,276,5664,2,0,P|168:236|88:220,1,135,10|0,0:0|0:0,0:0:0:0:
92,218,5886,54,0,L|278:222,1,180,6|10,0:0|0:0,0:0:0:0:
340,280,6219,1,2,0:0:0:0:
432,184,6330,2,0,B|445:139|445:139|427:75,1,90,2|0,0:0|0:0,0:0:0:0:
352,140,6552,1,10,0:0:0:0:
340,280,6664,6,0,P|384:308|504:248,1,180,2|2,0:0|0:0,0:0:0:0:
352,140,6997,2,0,L|256:144,1,90,10|0,0:0|0:0,0:0:0:0:
128,204,7219,2,0,P|179:209|237:330,1,180,2|8,0:0|0:0,0:0:0:0:
108,348,7552,1,2,0:0:0:0:
21,243,7664,6,0,B|8:200|8:200|22:148,1,90,6|2,0:0|0:0,0:0:0:0:
152,36,7886,1,10,0:0:0:0:
108,116,7997,1,10,0:0:0:0:
164,188,8108,2,0,L|260:184,1,90,2|2,0:0|0:0,0:0:0:0:
440,112,8330,1,10,0:0:0:0:
484,192,8441,1,10,0:0:0:0:
428,264,8552,6,0,B|384:273|384:273|330:255,1,90,6|2,0:0|0:0,0:0:0:0:
316,72,8775,2,0,B|345:105|345:105|357:161,1,90,10|2,0:0|0:0,0:0:0:0:
206,256,8997,2,0,B|220:213|220:213|262:175,1,90,6|2,0:0|0:0,0:0:0:0:
268,348,9219,2,0,L|128:340,1,135,10|0,0:0|0:0,0:0:0:0:
88,360,9441,54,0,B|108:312|88:268|88:268|69:221|92:180,1,180,6|8,0:0|0:0,0:0:0:0:
196,28,9775,1,2,0:0:0:0:
110,87,9886,2,0,P|149:125|267:102,1,180,2|8,0:0|0:0,0:0:0:0:
196,28,10219,1,2,0:0:0:0:
300,208,10330,6,0,L|400:204,1,90,2|2,0:0|0:0,0:0:0:0:
476,156,10552,2,0,B|489:113|489:113|472:62,1,90,10|2,0:0|0:0,0:0:0:0:
372,32,10775,2,0,B|268:64|292:0|180:32,1,180,2|10,0:0|0:0,0:0:0:0:
129,104,11108,1,0,0:0:0:0:
39,146,11219,6,0,P|27:99|47:50,1,90,4|2,0:0|0:0,0:0:0:0:
129,104,11441,2,0,L|117:304,1,180,10|2,0:0|0:0,0:0:0:0:
76,364,11775,1,2,0:0:0:0:
12,252,11886,1,10,0:0:0:0:
208,176,11997,6,0,B|312:176|264:236|376:236,1,180,2|2,0:0|0:0,0:0:0:0:
448,188,12330,1,10,0:0:0:0:
396,33,12441,2,0,P|330:22|248:121,1,180,2|2,0:0|0:0,0:0:0:0:
390,267,12775,2,0,B|412:206|412:206|386:131,1,135,8|0,0:0|0:0,0:0:0:0:
346,120,12997,54,0,L|150:128,1,180,6|8,0:0|0:0,0:0:0:0:
88,172,13330,1,2,0:0:0:0:
16,120,13441,2,0,B|1:77|1:77|16:28,1,90,2|2,0:0|0:0,0:0:0:0:
166,127,13664,2,0,B|181:170|181:170|166:219,1,90,10|2,0:0|0:0,0:0:0:0:
4,264,13886,6,0,L|104:268,1,90,2|0,0:0|0:0,0:0:0:0:
152,336,14108,2,0,P|232:359|312:292,1,180,10|2,0:0|0:0,0:0:0:0:
268,224,14441,1,0,0:0:0:0:
468,324,14552,1,10,0:0:0:0:
384,376,14664,1,10,0:0:0:0:
441,229,14775,6,0,B|464:140|464:140|434:49,1,180,6|10,0:0|0:0,0:0:0:0:
360,100,15108,1,2,0:0:0:0:
360,100,15219,2,0,L|256:96,1,90,2|0,0:0|0:0,0:0:0:0:
104,24,15441,1,10,0:0:0:0:
160,92,15552,1,2,0:0:0:0:
116,172,15664,6,0,L|12:168,1,90,2|2,0:0|0:0,0:0:0:0:
187,313,15886,2,0,B|200:267|200:267|187:217,1,90,10|8,0:0|0:0,0:0:0:0:
116,172,16108,1,2,0:0:0:0:
284,248,16219,1,2,0:0:0:0:
188,28,16330,1,2,0:0:0:0:
116,172,16441,1,10,0:0:0:0:
292,160,16552,54,0,L|480:152,1,180,6|8,0:0|0:0,0:0:0:0:
372,56,16886,1,2,0:0:0:0:
284,248,16997,2,0,P|240:293|116:260,1,180,2|8,0:0|0:0,0:0:0:0:
68,152,17330,1,2,0:0:0:0:
156,108,17441,6,0,B|169:154|169:154|156:203,1,90,0|2,0:0|0:0,0:0:0:0:
56,56,17664,2,0,L|248:60,1,180,10|0,0:0|0:0,0:0:0:0:
292,132,17997,1,2,0:0:0:0:
376,104,18108,2,0,P|390:62|369:6,1,90,10|0,0:0|0:0,0:0:0:0:
200,152,18330,6,0,L|208:248,1,90,6|0,0:0|0:0,0:0:0:0:
276,300,18552,2,0,B|372:300|336:364|440:364,1,180,10|2,0:0|0:0,0:0:0:0:
492,292,18886,1,2,0:0:0:0:
369,141,18997,1,10,0:0:0:0:
429,64,19108,6,0,P|462:109|406:229,1,180,2|2,0:0|0:0,0:0:0:0:
280,136,19441,2,0,L|188:132,1,90,10|2,0:0|0:0,0:0:0:0:
108,96,19664,2,0,B|120:52|120:52|106:1,1,90,2|0,0:0|0:0,0:0:0:0:
16,144,19886,1,10,0:0:0:0:
72,224,19997,1,2,0:0:0:0:
0,284,20108,54,0,P|55:268|152:344,1,180,6|8,0:0|0:0,0:0:0:0:
192,224,20441,1,2,0:0:0:0:
340,174,20552,2,0,P|285:158|188:234,1,180,2|8,0:0|0:0,0:0:0:0:
287,262,20886,1,2,0:0:0:0:
440,216,20997,6,0,B|451:171|451:171|436:124,1,90,0|2,0:0|0:0,0:0:0:0:
248,42,21219,2,0,B|234:83|234:83|245:128,1,90,10|0,0:0|0:0,0:0:0:0:
340,174,21441,2,0,L|156:178,1,180,2|8,0:0|0:0,0:0:0:0:
71,135,21775,1,2,0:0:0:0:
71,135,21886,6,0,P|59:92|72:50,1,90,6|2,0:0|0:0,0:0:0:0:
43,231,22108,2,0,P|75:263|118:275,1,90,10|8,0:0|0:0,0:0:0:0:
270,293,22330,2,0,P|239:325|195:336,1,90,2|2,0:0|0:0,0:0:0:0:
363,271,22552,2,0,P|376:228|364:185,1,90,10|10,0:0|0:0,0:0:0:0:
276,136,22775,6,0,P|328:163|432:108,1,180,6|10,0:0|0:0,0:0:0:0:
344,68,23108,1,2,0:0:0:0:
184,192,23219,2,0,B|173:236|173:236|188:288,1,90,6|0,0:0|0:0,0:0:0:0:
272,236,23441,1,10,0:0:0:0:
272,236,23552,1,2,0:0:0:0:
191,95,23664,54,0,L|7:87,1,180,6|8,0:0|0:0,0:0:0:0:
93,178,23997,1,2,0:0:0:0:
256,34,24108,2,0,B|350:34|314:94|428:98,1,180,2|8,0:0|0:0,0:0:0:0:
496,36,24441,1,2,0:0:0:0:
344,168,24552,6,0,P|331:211|348:260,1,90,2|0,0:0|0:0,0:0:0:0:
456,288,24775,2,0,P|360:272|292:345,1,180,10|8,0:0|0:0,0:0:0:0:
168,360,25108,1,2,0:0:0:0:
168,360,25219,2,0,L|163:262,1,90,8|0,0:0|0:0,0:0:0:0:
73,110,25441,6,0,B|58:67|58:67|73:18,1,90,6|0,0:0|0:0,0:0:0:0:
156,153,25664,2,0,P|116:193|-6:159,1,180,10|2,0:0|0:0,0:0:0:0:
73,110,25997,1,2,0:0:0:0:
232,217,26108,1,10,0:0:0:0:
161,74,26219,6,0,L|149:258,1,180,2|0,0:0|0:0,0:0:0:0:
76,364,26552,2,0,P|62:323|78:271,1,90,10|0,0:0|0:0,0:0:0:0:
232,217,26775,2,0,L|332:221,1,90,2|2,0:0|0:0,0:0:0:0:
456,92,26997,1,10,0:0:0:0:
372,36,27108,1,2,0:0:0:0:
402,175,27219,54,0,B|426:215|402:267|402:267|382:307|408:354,1,180,6|8,0:0|0:0,0:0:0:0:
484,304,27552,1,2,0:0:0:0:
321,220,27664,2,0,L|232:217,1,90,2|0,0:0|0:0,0:0:0:0:
20,276,27886,1,10,0:0:0:0:
68,352,27997,1,10,0:0:0:0:
68,352,28108,6,0,L|157:348,1,90,10|0,0:0|0:0,0:0:0:0:
285,299,28330,2,0,P|325:235|260:124,1,180,10|0,0:0|0:0,0:0:0:0:
116,76,28664,1,2,0:0:0:0:
227,218,28775,1,10,0:0:0:0:
352,88,28886,1,2,0:0:0:0:
228,8,28997,6,0,B|215:54|215:54|227:102,1,90,6|0,0:0|0:0,0:0:0:0:
406,206,29219,2,0,L|218:218,1,180,10|2,0:0|0:0,0:0:0:0:
68,320,29552,1,2,0:0:0:0:
153,366,29664,2,0,B|167:320|167:320|152:260,1,90,10|0,0:0|0:0,0:0:0:0:
56,100,29886,5,2,0:0:0:0:
4,176,29997,1,2,0:0:0:0:
64,244,30108,2,0,L|256:232,1,180,10|0,0:0|0:0,0:0:0:0:
424,280,30441,1,10,0:0:0:0:
312,176,30552,1,2,0:0:0:0:
244,312,30664,1,10,0:0:0:0:
483,360,30775,54,0,P|514:314|463:192,1,180,2|10,0:0|0:0,0:0:0:0:
432,104,31108,1,2,0:0:0:0:
432,104,31219,2,0,L|425:292,1,180,2|8,0:0|0:0,0:0:0:0:
364,348,31552,1,2,0:0:0:0:
256,240,31664,6,0,P|212:244|148:288,1,90,0|2,0:0|0:0,0:0:0:0:
10,174,31886,2,0,L|118:178,1,90,8|2,0:0|0:0,0:0:0:0:
96,347,32108,2,0,B|69:265|69:265|103:166,1,180,2|10,0:0|0:0,0:0:0:0:
148,32,32441,1,2,0:0:0:0:
264,124,32552,6,0,L|156:120,1,90,4|2,0:0|0:0,0:0:0:0:
220,253,32775,2,0,B|292:257|292:257|324:278|324:278|401:283,1,180,10|2,0:0|0:0,0:0:0:0:
502,168,33108,1,2,0:0:0:0:
346,83,33219,1,10,0:0:0:0:
427,39,33330,6,0,B|451:79|427:131|427:131|407:171|433:218,1,180,2|2,0:0|0:0,0:0:0:0:
492,352,33664,2,0,P|506:305|484:248,1,90,10|2,0:0|0:0,0:0:0:0:
340,228,33886,1,0,0:0:0:0:
392,300,33997,1,0,0:0:0:0:
340,372,34108,2,0,L|192:364,1,135,10|0,0:0|0:0,0:0:0:0:
168,340,34330,54,0,B|153:296|153:296|169:243,1,90,6|0,0:0|0:0,0:0:0:0:
348,96,34552,2,0,L|340:192,1,90,10|2,0:0|0:0,0:0:0:0:
256,224,34775,2,0,B|216:248|164:224|164:224|124:204|77:230,1,180,2|10,0:0|0:0,0:0:0:0:
28,292,35108,1,2,0:0:0:0:
210,159,35219,6,0,P|220:101|202:63,1,90,0|2,0:0|0:0,0:0:0:0:
136,116,35441,2,0,L|128:304,1,180,10|2,0:0|0:0,0:0:0:0:
188,360,35775,1,0,0:0:0:0:
188,360,35886,2,0,P|231:373|280:357,1,90,8|2,0:0|0:0,0:0:0:0:
339,168,36108,5,6,0:0:0:0:
291,244,36219,1,2,0:0:0:0:
351,312,36330,2,0,L|447:308,1,90,10|10,0:0|0:0,0:0:0:0:
508,212,36552,2,0,B|520:168|520:168|504:116,1,90,2|2,0:0|0:0,0:0:0:0:
392,44,36775,1,10,0:0:0:0:
384,132,36886,1,10,0:0:0:0:
372,220,36997,6,0,L|268:224,1,90,6|2,0:0|0:0,0:0:0:0:
133,130,37219,2,0,B|120:87|120:87|133:34,1,90,10|2,0:0|0:0,0:0:0:0:
121,214,37441,2,0,B|90:246|90:246|37:262,1,90,6|2,0:0|0:0,0:0:0:0:
205,182,37664,2,0,B|248:192|248:192|288:229,1,90,10|0,0:0|0:0,0:0:0:0:
380,336,37886,54,0,L|392:152,1,180,6|8,0:0|0:0,0:0:0:0:
440,80,38219,1,2,0:0:0:0:
356,52,38330,2,0,B|316:28|264:52|264:52|224:72|177:46,1,180,2|8,0:0|0:0,0:0:0:0:
84,100,38664,1,2,0:0:0:0:
183,49,38775,6,0,B|196:93|196:93|185:136,1,90,2|2,0:0|0:0,0:0:0:0:
88,216,38997,2,0,L|280:236,1,180,10|10,0:0|0:0,0:0:0:0:
348,288,39330,1,0,0:0:0:0:
348,288,39441,2,0,P|363:248|348:184,1,90,10|2,0:0|0:0,0:0:0:0:
184,136,39664,6,0,B|171:91|171:91|183:49,1,90,4|2,0:0|0:0,0:0:0:0:
262,192,39886,2,0,B|229:224|229:224|175:238,1,90,10|0,0:0|0:0,0:0:0:0:
268,104,40108,2,0,B|308:80|360:104|360:104|400:124|447:98,1,180,2|10,0:0|0:0,0:0:0:0:
488,24,40441,1,2,0:0:0:0:
368,200,40552,6,0,P|356:245|372:293,1,90,0|2,0:0|0:0,0:0:0:0:
444,244,40775,1,10,0:0:0:0:
348,368,40886,1,2,0:0:0:0:
348,368,40997,2,0,L|252:364,1,90,0|2,0:0|0:0,0:0:0:0:
116,140,41219,1,8,0:0:0:0:
64,216,41330,1,0,0:0:0:0:
120,288,41441,54,0,L|304:280,1,180,6|8,0:0|0:0,0:0:0:0:
456,276,41775,1,2,0:0:0:0:
392,212,41886,2,0,B|380:168|380:168|396:112,1,90,2|2,0:0|0:0,0:0:0:0:
472,172,42108,1,10,0:0:0:0:
378,331,42219,1,2,0:0:0:0:
248,196,42330,6,0,P|189:181|91:271,1,180,2|10,0:0|0:0,0:0:0:0:
152,320,42664,1,0,0:0:0:0:
328,252,42775,2,0,L|332:152,1,90,2|0,0:0|0:0,0:0:0:0:
175,34,42997,1,10,0:0:0:0:
203,154,43108,1,10,0:0:0:0:
80,197,43219,6,0,P|45:175|2:127,1,90,6|0,0:0|0:0,0:0:0:0:
202,153,43441,2,0,P|228:116|244:74,1,90,10|2,0:0|0:0,0:0:0:0:
124,133,43664,2,0,P|120:88|127:43,1,90,2|0,0:0|0:0,0:0:0:0:
206,230,43886,2,0,P|250:228|294:217,1,90,10|2,0:0|0:0,0:0:0:0:
328,116,44108,5,2,0:0:0:0:
445,273,44219,1,2,0:0:0:0:
355,358,44330,2,0,B|343:312|343:312|358:259,1,90,10|8,0:0|0:0,0:0:0:0:
512,179,44552,1,2,0:0:0:0:
328,116,44664,1,2,0:0:0:0:
354,271,44775,1,2,0:0:0:0:
436,100,44886,1,10,0:0:0:0:
232,156,44997,6,0,B|152:176|164:128|88:148,1,144,6|8,0:0|0:0,0:0:0:0:
44,84,45330,1,2,0:0:0:0:
44,84,45441,2,0,L|36:228,1,144,2|8,0:0|0:0,0:0:0:0:
110,353,45775,6,0,P|138:305|96:200,1,144,2|2,0:0|0:0,0:0:0:0:
176,164,46108,2,0,L|268:168,1,72,10|0,0:0|0:0,0:0:0:0:
378,246,46330,2,0,B|322:243|322:243|298:259|298:259|236:258,1,144,2|10,0:0|0:0,0:0:0:0:
352,340,46664,1,0,0:0:0:0:
352,340,46775,6,0,L|444:344,1,72,2|0,0:0|0:0,0:0:0:0:
492,304,46997,2,0,P|516:240|483:167,1,144,10|2,0:0|0:0,0:0:0:0:
424,128,47330,1,2,0:0:0:0:
424,128,47441,2,0,L|428:48,1,72,10|2,0:0|0:0,0:0:0:0:
272,98,47664,70,0,P|273:134|293:166,1,72,0|2,0:0|0:0,0:0:0:0:
326,240,47886,2,0,P|356:221|374:190,1,72,10|2,0:0|0:0,0:0:0:0:
423,127,48108,2,0,P|392:111|356:111,1,72,2|0,0:0|0:0,0:0:0:0:
230,229,48330,2,0,B|158:233|158:233|118:213,1,108,10|0,0:0|0:0,0:0:0:0:
117,189,48552,6,0,P|138:234|82:330,1,144,6|8,0:0|0:0,0:0:0:0:
55,248,48886,1,2,0:0:0:0:
55,248,48997,2,0,L|72:88,1,144,2|8,0:0|0:0,0:0:0:0:
124,48,49330,1,2,0:0:0:0:
208,136,49441,6,0,P|244:132|300:96,1,72,0|2,0:0|0:0,0:0:0:0:
372,96,49664,2,0,P|357:129|360:195,1,72,10|0,0:0|0:0,0:0:0:0:
280,212,49886,2,0,P|316:200|416:272,1,144,2|8,0:0|0:0,0:0:0:0:
312,368,50219,1,2,0:0:0:0:
312,368,50330,70,0,L|228:364,1,72,2|2,0:0|0:0,0:0:0:0:
119,292,50552,2,0,P|94:220|129:142,1,144,10|2,0:0|0:0,0:0:0:0:
183,78,50886,1,2,0:0:0:0:
183,78,50997,1,10,0:0:0:0:
183,78,51108,6,0,B|267:102|251:54|323:82,1,144,10|0,0:0|0:0,0:0:0:0:
427,144,51441,2,0,P|455:124|491:80,1,72,10|2,0:0|0:0,0:0:0:0:
405,222,51664,2,0,P|408:257|419:291,1,72,2|0,0:0|0:0,0:0:0:0:
342,163,51886,2,0,P|310:149|275:141,1,72,10|2,0:0|0:0,0:0:0:0:
129,229,52108,6,0,B|105:309|157:297|129:373,1,144,6|8,0:0|0:0,0:0:0:0:
25,293,52441,1,2,0:0:0:0:
69,164,52552,2,0,P|105:144|209:188,1,144,2|8,0:0|0:0,0:0:0:0:
275,295,52886,70,0,L|427:291,1,144,2|0,0:0|0:0,0:0:0:0:
480,244,53219,2,0,B|487:208|487:208|476:168,1,72,10|0,0:0|0:0,0:0:0:0:
389,46,53441,2,0,P|364:103|410:175,1,144,2|8,0:0|0:0,0:0:0:0:
445,103,53775,1,2,0:0:0:0:
308,216,53886,6,0,L|224:212,1,72,2|0,0:0|0:0,0:0:0:0:
180,144,54108,2,0,P|151:183|180:280,1,144,10|2,0:0|0:0,0:0:0:0:
236,212,54441,1,2,0:0:0:0:
252,356,54552,1,10,0:0:0:0:
252,356,54664,1,2,0:0:0:0:
252,356,54775,6,0,L|340:344,1,72,2|0,0:0|0:0,0:0:0:0:
416,304,54997,2,0,P|448:320|516:324,1,72,10|0,0:0|0:0,0:0:0:0:
383,208,55219,2,0,P|354:227|330:255,1,72,2|2,0:0|0:0,0:0:0:0:
482,227,55441,2,0,P|479:192|467:158,1,72,10|2,0:0|0:0,0:0:0:0:
322,23,55664,70,0,L|315:173,1,144,6|8,0:0|0:0,0:0:0:0:
383,208,55997,1,2,0:0:0:0:
383,208,56108,2,0,B|307:188|327:240|239:220,1,144,2|10,0:0|0:0,0:0:0:0:
168,170,56441,6,0,P|152:217|201:301,1,144,10|0,0:0|0:0,0:0:0:0:
247,364,56775,2,0,L|243:212,1,144,10|0,0:0|0:0,0:0:0:0:
240,40,57108,1,2,0:0:0:0:
91,117,57219,1,10,0:0:0:0:
166,172,57330,1,2,0:0:0:0:
166,172,57441,6,0,P|131:204|21:176,1,144,2|10,0:0|0:0,0:0:0:0:
91,117,57775,1,0,0:0:0:0:
243,220,57886,2,0,B|235:258|235:258|247:300,1,72,2|2,0:0|0:0,0:0:0:0:
316,352,58108,2,0,L|400:348,1,72,10|0,0:0|0:0,0:0:0:0:
512,172,58330,70,0,P|472:180|432:212,1,72,6|2,0:0|0:0,0:0:0:0:
408,268,58552,2,0,L|416:112,1,144,10|0,0:0|0:0,0:0:0:0:
460,60,58886,1,10,0:0:0:0:
336,160,58997,1,10,0:0:0:0:
244,36,59108,1,2,0:0:0:0:
144,120,59219,6,0,P|100:133|13:81,1,144,6|10,0:0|0:0,0:0:0:0:
96,40,59552,1,2,0:0:0:0:
78,207,59664,2,0,L|71:289,1,72,2|0,0:0|0:0,0:0:0:0:
0,316,59886,1,8,0:0:0:0:
0,316,59997,6,0,B|84:316|44:368|132:368,1,144,2|2,0:0|0:0,0:0:0:0:
294,224,60330,2,0,P|316:254|333:311,1,72,8|2,0:0|0:0,0:0:0:0:
206,194,60552,2,0,P|168:198|110:183,1,72,2|0,0:0|0:0,0:0:0:0:
275,148,60774,2,0,P|289:113|331:70,1,72,10|2,0:0|0:0,0:0:0:0:
470,286,60997,70,0,P|435:289|413:227,1,108
437,220,61219,2,0,L|289:224,1,144,10|2,0:0|0:0,0:0:0:0:
224,160,61552,1,2,0:0:0:0:
154,327,61664,1,10,0:0:0:0:
115,247,61775,6,0,P|167:239|239:303,1,144,2|2,0:0|0:0,0:0:0:0:
36,288,62108,2,0,B|26:251|26:251|36:216,1,72,10|2,0:0|0:0,0:0:0:0:
170,35,62330,2,0,L|166:111,1,72,0|0,0:0|0:0,0:0:0:0:
226,179,62552,2,0,P|260:186|312:172,1,72,10|0,0:0|0:0,0:0:0:0:
416,92,62775,6,0,B|421:148|421:148|409:176|409:176|414:236,1,144,6|10,0:0|0:0,0:0:0:0:
484,268,63108,1,2,0:0:0:0:
422,351,63219,2,0,P|353:370|281:333,1,144,2|10,0:0|0:0,0:0:0:0:
204,264,63552,1,2,0:0:0:0:
204,264,63664,70,0,L|116:260,1,72,0|2,0:0|0:0,0:0:0:0:
76,208,63886,2,0,B|65:174|65:174|76:132,1,72,10|0,0:0|0:0,0:0:0:0:
176,44,64108,2,0,P|188:80|196:120,1,72,2|0,0:0|0:0,0:0:0:0:
312,172,64330,2,0,P|319:136|331:102,1,72,8|2,0:0|0:0,0:0:0:0:
396,56,64552,6,0,L|476:52,1,72,2|2,0:0|0:0,0:0:0:0:
380,208,64775,2,0,P|310:176|236:208,1,144,10|2,0:0|0:0,0:0:0:0:
172,308,65108,1,2,0:0:0:0:
252,348,65219,2,0,B|261:312|261:312|249:272,1,72,10|10,0:0|0:0,0:0:0:0:
172,161,65441,6,0,P|149:180|105:192,1,72,2|2,0:0|0:0,0:0:0:0:
121,36,65664,2,0,P|149:45|181:77,1,72,10|2,0:0|0:0,0:0:0:0:
39,141,65886,2,0,P|33:112|45:68,1,72,2|2,0:0|0:0,0:0:0:0:
172,161,66108,2,0,L|164:289,1,108,10|0,0:0|0:0,0:0:0:0:
132,292,66330,70,0,B|208:292|184:340|264:340,1,144,6|8,0:0|0:0,0:0:0:0:
344,283,66664,1,2,0:0:0:0:
344,283,66775,2,0,L|351:139,1,144,2|8,0:0|0:0,0:0:0:0:
300,44,67108,1,2,0:0:0:0:
400,20,67219,6,0,P|432:36|468:76,1,72,2|2,0:0|0:0,0:0:0:0:
350,139,67441,2,0,B|262:123|290:179|194:159,1,144,10|2,0:0|0:0,0:0:0:0:
156,104,67775,1,0,0:0:0:0:
43,185,67886,2,0,P|32:226|52:274,1,72,10|0,0:0|0:0,0:0:0:0:
187,375,68108,6,0,P|198:334|178:286,1,72,0|2,0:0|0:0,0:0:0:0:
123,267,68330,2,0,L|275:275,1,144,10|2,0:0|0:0,0:0:0:0:
332,320,68664,1,2,0:0:0:0:
432,228,68775,1,10,0:0:0:0:
354,117,68886,1,2,0:0:0:0:
354,117,68997,70,0,P|338:157|330:193,1,72,0|2,0:0|0:0,0:0:0:0:
212,60,69219,2,0,P|254:53|289:42,1,72,10|2,0:0|0:0,0:0:0:0:
224,208,69441,2,0,P|197:174|170:149,1,72,0|2,0:0|0:0,0:0:0:0:
52,220,69664,2,0,B|35:274|35:274|55:333,1,108,8|0,0:0|0:0,0:0:0:0:
76,351,69886,6,0,L|232:347,1,144,6|8,0:0|0:0,0:0:0:0:
371,271,70219,1,2,0:0:0:0:
298,232,70330,2,0,B|281:272|300:308|300:308|319:350|295:390,1,144,2|10,0:0|0:0,0:0:0:0:
208,256,70664,1,2,0:0:0:0:
208,256,70775,6,0,B|174:265|174:265|128:252,1,72,2|0,0:0|0:0,0:0:0:0:
36,67,70997,2,0,P|72:63|84:131,1,108,10|0,0:0|0:0,0:0:0:0:
64,151,71219,2,0,B|72:207|72:207|56:239|56:239|64:303,1,144,2|10,0:0|0:0,0:0:0:0:
120,348,71552,1,10,0:0:0:0:
208,256,71664,70,0,B|292:280|268:224|352:248,1,144,2|10,0:0|0:0,0:0:0:0:
412,292,71997,1,2,0:0:0:0:
472,240,72108,2,0,B|480:204|480:204|468:160,1,72,2|0,0:0|0:0,0:0:0:0:
312,116,72330,2,0,B|339:140|339:140|373:149,1,72,10|2,0:0|0:0,0:0:0:0:
496,44,72552,6,0,B|460:55|460:55|436:80,1,72,2|2,0:0|0:0,0:0:0:0:
347,246,72775,2,0,L|191:238,1,144,10|2,0:0|0:0,0:0:0:0:
0,218,73108,1,2,0:0:0:0:
88,113,73219,1,2,0:0:0:0:
214,165,73330,1,10,0:0:0:0:
126,269,73441,6,0,P|114:309|128:360,1,90,14|0,0:0|0:0,0:0:0:0:
200,376,73775,1,2,0:0:0:0:
200,376,73886,2,0,L|296:372,1,90,2|2,0:0|0:0,0:0:0:0:
499,282,74330,69,8,0:0:0:0:
371,366,74552,1,0,0:0:0:0:
259,262,74775,1,2,0:0:0:0:
387,182,74997,1,10,0:0:0:0:
387,182,75108,1,2,0:0:0:0:
387,182,75219,6,0,P|401:138|388:96,1,90,10|0,0:0|0:0,0:0:0:0:
320,64,75552,1,2,0:0:0:0:
320,64,75664,2,0,L|224:68,1,90,2|0,0:0|0:0,0:0:0:0:
172,20,75997,1,2,0:0:0:0:
116,72,76108,6,0,B|103:114|103:114|120:167,1,90,10|2,0:0|0:0,0:0:0:0:
92,228,76441,2,0,L|-4:224,2,90,2|2|2,0:0|0:0|0:0,0:0:0:0:
156,368,76997,70,0,P|171:323|156:280,1,90,10|0,0:0|0:0,0:0:0:0:
196,216,77330,1,2,0:0:0:0:
196,216,77441,2,0,L|285:219,1,90,2|0,0:0|0:0,0:0:0:0:
344,268,77775,1,2,0:0:0:0:
456,234,77886,6,0,P|468:192|452:134,2,90,10|0|0,0:0|0:0|0:0,0:0:0:0:
388,270,78441,1,2,0:0:0:0:
388,270,78552,2,0,L|329:267,1,45,10|2,0:0|0:0,0:0:0:0:
233,133,78775,6,0,B|189:142|189:142|141:185,1,90,10|0,0:0|0:0,0:0:0:0:
113,237,79108,1,2,0:0:0:0:
113,237,79219,2,0,L|109:337,1,90,2|0,0:0|0:0,0:0:0:0:
184,372,79552,1,0,0:0:0:0:
340,252,79664,70,0,P|335:227|326:200,1,45,10|2,0:0|0:0,0:0:0:0:
246,191,79886,2,0,P|228:206|213:222,1,45,2|2,0:0|0:0,0:0:0:0:
238,303,80108,2,0,P|259:312|281:316,1,45,0|2,0:0|0:0,0:0:0:0:
340,252,80330,2,0,P|335:227|326:200,1,45,2|2,0:0|0:0,0:0:0:0:
135,138,80552,6,0,L|51:143,2,72,12|2|8,0:0|0:0|0:0,0:0:0:0:
209,36,80886,1,2,0:0:0:0:
340,224,80997,2,0,L|423:229,2,72,8|2|8,0:0|0:0|0:0,0:0:0:0:
265,122,81331,1,2,0:0:0:0:
168,216,81441,6,0,B|157:255|157:255|169:303,1,72,12|2,0:0|0:0,0:0:0:0:
235,335,81664,2,0,P|179:315|103:359,1,144,10|0,0:0|0:0,0:0:0:0:
22,297,81997,1,2,0:0:0:0:
22,297,82108,2,0,P|12:264|22:221,1,72,10|2,0:0|0:0,0:0:0:0:
164,146,82330,70,0,P|174:179|164:222,1,72,12|2,0:0|0:0,0:0:0:0:
92,104,82552,2,0,L|244:108,1,144,2|2,0:0|0:0,0:0:0:0:
364,44,82886,1,2,0:0:0:0:
272,184,82997,1,10,0:0:0:0:
432,112,83108,6,0,P|459:169|424:260,1,144,2|0,0:0|0:0,0:0:0:0:
376,292,83441,2,0,L|300:284,1,72,10|2,0:0|0:0,0:0:0:0:
284,136,83664,2,0,L|315:205,1,72,2|0,0:0|0:0,0:0:0:0:
188,292,83886,2,0,L|232:230,1,72,10|2,0:0|0:0,0:0:0:0:
52,260,84108,6,0,P|43:303|58:346,1,90,14|2,0:0|0:0,0:0:0:0:
16,171,84330,2,0,P|45:138|87:124,1,90,8|2,0:0|0:0,0:0:0:0:
228,94,84552,2,0,P|195:64|152:56,1,90,10|2,0:0|0:0,0:0:0:0:
323,106,84774,2,0,P|337:148|328:191,1,90,8|10,0:0|0:0,0:0:0:0:
188,277,84997,70,0,P|174:235|183:192,1,90,14|2,0:0|0:0,0:0:0:0:
283,289,85219,2,0,P|316:319|359:328,1,90,8|2,0:0|0:0,0:0:0:0:
495,212,85441,2,0,P|466:245|424:259,1,90,10|2,0:0|0:0,0:0:0:0:
459,123,85663,2,0,P|468:80|454:38,1,90,8|2,0:0|0:0,0:0:0:0:
256,152,85886,6,0,B|230:195|252:239|252:239|278:283|250:339,1,180,6|8,0:0|0:0,0:0:0:0:
176,284,86219,1,2,0:0:0:0:
328,200,86330,2,0,B|372:212|372:212|420:200,1,90,14|0,0:0|0:0,0:0:0:0:
496,44,86552,2,0,B|452:32|452:32|404:44,1,90,10|0,0:0|0:0,0:0:0:0:
280,124,86775,5,6,0:0:0:0:
328,200,86886,1,2,0:0:0:0:
284,276,86997,2,0,L|184:272,1,90,10|0,0:0|0:0,0:0:0:0:
64,28,87219,1,6,0:0:0:0:
16,104,87330,1,2,0:0:0:0:
60,180,87441,2,0,L|160:176,1,90,10|0,0:0|0:0,0:0:0:0:
284,60,87664,6,0,P|360:48|450:159,1,215.999993408203,6|8,0:0|0:0,0:0:0:0:
268,308,87997,1,2,0:0:0:0:
347,362,88108,2,0,B|375:309|346:258|346:258|314:204|346:138,1,215.999993408203,2|8,0:0|0:0,0:0:0:0:
284,60,88441,1,2,0:0:0:0:
128,192,88552,6,0,B|77:221|17:186,1,107.999996704102,0|2,0:0|0:0,0:0:0:0:
178,99,88775,2,0,P|225:150|173:290,1,215.999993408203,10|0,0:0|0:0,0:0:0:0:
128,192,89108,1,2,0:0:0:0:
284,60,89219,2,0,B|335:44|335:44|399:62,1,107.999996704102,10|0,0:0|0:0,0:0:0:0:
464,136,89441,6,0,L|452:248,1,107.999996704102,6|0,0:0|0:0,0:0:0:0:
255,302,89664,2,0,B|306:268|370:293|370:293|403:345|472:339,1,215.999993408203,10|2,0:0|0:0,0:0:0:0:
452,243,89997,1,2,0:0:0:0:
314,371,90108,1,10,0:0:0:0:
172,248,90219,6,0,P|128:192|192:56,1,215.999993408203,2|2,0:0|0:0,0:0:0:0:
272,24,90552,1,10,0:0:0:0:
310,170,90664,2,0,B|413:205|413:205|530:158,1,215.999993408203,2|0,0:0|0:0,0:0:0:0:
407,16,90997,2,0,L|411:130,1,107.999996704102,10|2,0:0|0:0,0:0:0:0:
491,362,91219,54,0,P|507:314|483:246,1,107.999996704102,6|0,0:0|0:0,0:0:0:0:
310,170,91441,2,0,B|186:170|242:238|106:238,1,215.999993408203,8|2,0:0|0:0,0:0:0:0:
36,128,91775,1,0,0:0:0:0:
140,41,91886,2,0,B|154:94|154:94|141:145,1,107.999996704102,8|2,0:0|0:0,0:0:0:0:
111,237,92108,6,0,P|160:236|220:276,1,107.999996704102,0|2,0:0|0:0,0:0:0:0:
317,384,92330,2,0,L|309:160,1,215.999993408203,10|2,0:0|0:0,0:0:0:0:
372,80,92664,1,0,0:0:0:0:
468,231,92775,2,0,B|484:182|484:182|465:115,1,107.999996704102,8|2,0:0|0:0,0:0:0:0:
259,68,92997,6,0,L|143:76,1,107.999996704102,6|2,0:0|0:0,0:0:0:0:
0,238,93219,2,0,L|116:246,1,107.999996704102,10|8,0:0|0:0,0:0:0:0:
55,52,93441,2,0,B|38:103|38:103|55:160,1,107.999996704102,2|2,0:0|0:0,0:0:0:0:
200,300,93664,2,0,L|317:308,1,107.999996704102,10|10,0:0|0:0,0:0:0:0:
455,132,93886,6,0,P|421:91|376:63,1,107.999996704102,6|0,0:0|0:0,0:0:0:0:
208,201,94108,2,0,P|221:148|253:106,1,107.999996704102,10|2,0:0|0:0,0:0:0:0:
326,231,94331,2,0,P|339:180|331:126,1,107.999996704102,6|0,0:0|0:0,0:0:0:0:
146,50,94553,2,0,P|196:30|249:29,1,107.999996704102,10|2,0:0|0:0,0:0:0:0:
423,216,94775,54,0,B|203:200,1,215.999993408203,6|8,0:0|0:0,0:0:0:0:
80,188,95108,1,2,0:0:0:0:
256,288,95219,2,0,P|250:357|149:308,1,215.999993408203,2|8,0:0|0:0,0:0:0:0:
359,124,95552,1,2,0:0:0:0:
359,124,95664,6,0,B|411:141|411:141|463:124,1,107.999996704102,2|0,0:0|0:0,0:0:0:0:
311,35,95886,2,0,P|267:82|355:228,1,215.999993408203,10|2,0:0|0:0,0:0:0:0:
472,241,96219,1,0,0:0:0:0:
380,375,96330,2,0,B|366:324|366:324|386:256,1,107.999996704102,8|2,0:0|0:0,0:0:0:0:
359,124,96552,5,6,0:0:0:0:
323,209,96663,1,2,0:0:0:0:
240,251,96774,1,10,0:0:0:0:
150,229,96885,1,2,0:0:0:0:
95,155,96997,2,0,B|119:204|87:258|87:258|58:309|86:362,1,215.999993408203,2|10,0:0|0:0,0:0:0:0:
13,97,97330,6,0,P|81:57|193:133,1,215.999993408203,2|0,0:0|0:0,0:0:0:0:
372,264,97664,2,0,B|448:188,1,107.999996704102,10|0,0:0|0:0,0:0:0:0:
216,128,97886,2,0,L|249:247,1,107.999996704102,2|2,0:0|0:0,0:0:0:0:
412,72,98108,2,0,L|299:43,1,107.999996704102,10|2,0:0|0:0,0:0:0:0:
134,144,98330,54,0,P|86:235|143:322,1,215.999993408203,6|8,0:0|0:0,0:0:0:0:
190,229,98664,1,2,0:0:0:0:
224,360,98775,2,0,L|344:356,1,107.999996704102,2|0,0:0|0:0,0:0:0:0:
512,256,98997,1,10,0:0:0:0:
417,368,99108,1,10,0:0:0:0:
305,271,99219,6,0,B|289:219|289:219|305:159,1,107.999996704102,10|0,0:0|0:0,0:0:0:0:
388,104,99441,2,0,P|320:160|208:124,1,215.999993408203,10|0,0:0|0:0,0:0:0:0:
236,40,99775,1,2,0:0:0:0:
136,172,99886,1,10,0:0:0:0:
8,64,99997,1,2,0:0:0:0:
136,172,100108,6,0,B|148:228|148:228|129:291,1,107.999996704102,6|0,0:0|0:0,0:0:0:0:
248,336,100330,2,0,B|282:299|282:299|337:281,1,107.999996704102,10|0,0:0|0:0,0:0:0:0:
323,157,100553,2,0,B|274:146|274:146|232:108,1,107.999996704102,2|2,0:0|0:0,0:0:0:0:
136,172,100775,2,0,B|148:228|148:228|129:291,1,107.999996704102,10|0,0:0|0:0,0:0:0:0:
24,284,100997,6,0,B|74:269|119:313|119:313|160:360|226:345,1,215.999993408203,6|10,0:0|0:0,0:0:0:0:
295,292,101330,1,2,0:0:0:0:
275,202,101442,1,2,0:0:0:0:
450,258,101552,1,10,0:0:0:0:
382,320,101663,1,10,0:0:0:0:
344,140,101774,1,2,0:0:0:0:
430,169,101886,6,0,P|454:111|424:30,1,135,12|2,0:0|0:0,0:0:0:0:
360,64,102330,2,0,L|264:60,1,90,2|2,0:0|0:0,0:0:0:0:
120,24,102775,2,0,B|95:70|120:113|120:113|144:156|116:209,1,180,8|2,0:0|0:0,0:0:0:0:
24,312,103441,1,2,0:0:0:0:
168,364,103664,6,0,B|179:321|179:321|168:277,1,90,2|2,0:0|0:0,0:0:0:0:
300,200,104108,2,0,B|289:243|289:243|300:287,1,90,2|2,0:0|0:0,0:0:0:0:
360,336,104441,1,8,0:0:0:0:
360,336,104552,6,0,L|468:332,1,90,8|2,0:0|0:0,0:0:0:0:
512,192,104997,1,2,0:0:0:0:
449,51,105219,2,0,L|260:43,1,180,10|2,0:0|0:0,0:0:0:0:
204,80,105775,1,2,0:0:0:0:
204,80,105886,2,0,P|189:125|208:176,1,90,2|2,0:0|0:0,0:0:0:0:
328,248,106330,70,0,L|428:244,1,90,8|0,0:0|0:0,0:0:0:0:
312,136,106775,1,8,0:0:0:0:
248,276,106997,2,0,P|212:308|116:300,1,135,2|2,0:0|0:0,0:0:0:0:
72,260,107441,2,0,B|59:218|59:218|73:169,1,90,2|2,0:0|0:0,0:0:0:0:
300,64,107997,1,2,0:0:0:0:
300,64,108108,6,0,L|396:60,1,90,8|8,0:0|0:0,0:0:0:0:
496,204,108552,2,0,P|460:232|360:216,1,135,8|2,0:0|0:0,0:0:0:0:
336,160,108997,6,0,L|321:307,1,135,14|0,0:0|0:0,0:0:0:0:
270,351,109441,2,0,P|237:360|182:344,1,90,2|2,0:0|0:0,0:0:0:0:
53,145,109886,1,8,0:0:0:0:
1,269,110108,1,0,0:0:0:0:
97,365,110330,1,0,0:0:0:0:
149,241,110552,1,2,0:0:0:0:
149,241,110775,70,0,B|161:195|161:195|148:144,1,90,2|2,0:0|0:0,0:0:0:0:
268,56,111219,2,0,L|376:60,1,90,8|2,0:0|0:0,0:0:0:0:
420,100,111552,1,10,0:0:0:0:
420,100,111664,6,0,P|434:143|420:192,1,90,10|0,0:0|0:0,0:0:0:0:
276,140,112108,1,2,0:0:0:0:
376,256,112330,2,0,P|314:247|248:300,1,135,8|0,0:0|0:0,0:0:0:0:
208,348,112775,2,0,L|108:344,1,90,8|8,0:0|0:0,0:0:0:0:
24,224,113219,1,2,0:0:0:0:
128,112,113441,6,0,B|148:176|148:176|128:248,1,135,10|2,0:0|0:0,0:0:0:0:
68,288,113886,1,8,0:0:0:0:
200,368,114108,2,0,L|296:364,1,90,2|0,0:0|0:0,0:0:0:0:
348,316,114441,1,2,0:0:0:0:
348,316,114552,2,0,L|444:312,1,90,0|2,0:0|0:0,0:0:0:0:
328,204,114997,2,0,L|276:206,1,45,2|2,0:0|0:0,0:0:0:0:
228,152,115219,70,0,P|214:109|233:59,1,90,2|8,0:0|0:0,0:0:0:0:
399,158,115664,2,0,P|413:201|394:251,1,90,2|8,0:0|0:0,0:0:0:0:
268,320,116108,6,0,L|128:316,1,135,14|2,0:0|0:0,0:0:0:0:
68,280,116552,2,0,P|54:240|72:188,1,90,2|2,0:0|0:0,0:0:0:0:
133,58,116997,2,0,B|111:106|136:149|136:149|160:192|132:245,1,180,8|0,0:0|0:0,0:0:0:0:
216,100,117664,1,2,0:0:0:0:
216,100,117886,6,0,B|262:111|262:111|318:99,1,90,2|0,0:0|0:0,0:0:0:0:
448,52,118330,2,0,P|461:101|445:150,1,90,2|0,0:0|0:0,0:0:0:0:
396,192,118664,1,10,0:0:0:0:
396,192,118775,70,0,L|404:288,1,90,10|2,0:0|0:0,0:0:0:0:
256,328,119219,1,2,0:0:0:0:
108,281,119441,2,0,L|124:99,1,180,8|2,0:0|0:0,0:0:0:0:
176,44,119997,1,2,0:0:0:0:
176,44,120108,2,0,B|221:34|221:34|272:48,1,90,0|2,0:0|0:0,0:0:0:0:
388,136,120552,6,0,L|384:240,1,90,10|0,0:0|0:0,0:0:0:0:
444,368,120997,1,10,0:0:0:0:
320,280,121219,2,0,P|259:266|199:311,1,135,10|0,0:0|0:0,0:0:0:0:
148,360,121664,2,0,L|52:356,1,90,10|10,0:0|0:0,0:0:0:0:
140,140,122219,5,2,0:0:0:0:
140,140,122330,2,0,B|129:96|129:96|144:44,1,90,8|8,0:0|0:0,0:0:0:0:
268,136,122775,2,0,P|308:164|400:148,1,135,10|0,0:0|0:0,0:0:0:0:
440,100,123219,70,0,P|412:140|436:228,1,135,14|2,0:0|0:0,0:0:0:0:
484,276,123664,2,0,B|495:320|495:320|482:372,1,90,2|2,0:0|0:0,0:0:0:0:
278,346,124108,1,8,0:0:0:0:
186,246,124330,1,0,0:0:0:0:
314,198,124552,1,0,0:0:0:0:
406,298,124775,1,2,0:0:0:0:
278,346,124997,6,0,B|262:302|262:302|276:252,1,90,2|0,0:0|0:0,0:0:0:0:
400,176,125441,2,0,L|404:76,1,90,2|0,0:0|0:0,0:0:0:0:
352,32,125775,1,10,0:0:0:0:
352,32,125886,6,0,P|308:22|260:36,1,90,10|2,0:0|0:0,0:0:0:0:
168,152,126330,1,2,0:0:0:0:
168,152,126552,2,8,L|180:296,1,135,10|8,0:0|0:0,0:0:0:0:
224,352,126997,2,0,P|271:363|319:346,1,90,8|8,0:0|0:0,0:0:0:0:
376,212,127441,1,2,0:0:0:0:
308,60,127664,70,0,P|284:112|308:184,1,135,10|0,0:0|0:0,0:0:0:0:
376,212,128108,1,10,0:0:0:0:
376,212,128330,2,0,L|380:308,1,90,2|0,0:0|0:0,0:0:0:0:
324,356,128664,1,10,0:0:0:0:
324,356,128775,6,0,B|282:369|282:369|230:356,1,90,10|2,0:0|0:0,0:0:0:0:
144,260,129219,2,0,L|140:212,1,45,2|2,0:0|0:0,0:0:0:0:
96,152,129441,6,0,P|51:163|4:148,1,90,2|8,0:0|0:0,0:0:0:0:
170,35,129886,1,8,0:0:0:0:
218,95,129997,1,8,0:0:0:0:
218,171,130108,1,8,0:0:0:0:
178,235,130219,1,8,0:0:0:0:
110,263,130330,70,0,P|170:247|248:312,1,144,6|8,0:0|0:0,0:0:0:0:
160,342,130664,1,2,0:0:0:0:
20,300,130775,2,0,B|-4:228|-4:228|28:133,1,144,2|8,0:0|0:0,0:0:0:0:
116,88,131108,6,0,B|201:108|180:55|273:84,1,144,2|2,0:0|0:0,0:0:0:0:
328,148,131441,2,0,P|356:88|320:8,1,144,10|2,0:0|0:0,0:0:0:0:
230,170,131775,1,0,0:0:0:0:
230,170,131886,2,0,L|234:254,1,72,10|0,0:0|0:0,0:0:0:0:
390,360,132108,6,0,P|401:324|387:279,1,72,2|0,0:0|0:0,0:0:0:0:
330,232,132330,2,0,P|365:257|469:233,1,144,10|2,0:0|0:0,0:0:0:0:
400,167,132664,1,2,0:0:0:0:
308,320,132775,2,0,L|236:316,1,72,10|2,0:0|0:0,0:0:0:0:
115,295,132997,70,0,P|122:341|165:376,1,72,0|2,0:0|0:0,0:0:0:0:
54,227,133219,2,0,P|70:195|100:176,1,72,10|2,0:0|0:0,0:0:0:0:
220,114,133441,2,0,P|176:96|124:117,1,72,2|0,0:0|0:0,0:0:0:0:
308,94,133663,2,0,P|327:123|329:159,1,72,10|0,0:0|0:0,0:0:0:0:
256,208,133886,6,0,L|408:204,1,144,6|8,0:0|0:0,0:0:0:0:
472,156,134219,1,2,0:0:0:0:
472,156,134330,2,0,P|431:209|460:288,1,144,2|8,0:0|0:0,0:0:0:0:
510,227,134664,1,2,0:0:0:0:
432,84,134775,6,0,B|395:93|395:93|343:77,1,72,0|2,0:0|0:0,0:0:0:0:
292,32,134997,2,0,L|136:44,1,144,10|2,0:0|0:0,0:0:0:0:
76,92,135330,1,0,0:0:0:0:
172,192,135441,2,0,P|184:156|172:116,1,72,8|2,0:0|0:0,0:0:0:0:
22,185,135664,69,2,0:0:0:0:
66,257,135775,1,2,0:0:0:0:
6,325,135886,2,0,P|64:311|142:373,1,144,10|2,0:0|0:0,0:0:0:0:
232,252,136219,1,2,0:0:0:0:
172,192,136330,2,0,P|169:154|190:114,1,72,10|10,0:0|0:0,0:0:0:0:
252,72,136552,6,0,B|332:48|320:108|404:84,1,144,0|10,0:0|0:0,0:0:0:0:
456,28,136886,1,2,0:0:0:0:
456,28,136997,2,0,P|430:73|468:169,1,144,2|10,0:0|0:0,0:0:0:0:
512,220,137330,1,2,0:0:0:0:
432,348,137441,6,0,L|264:340,1,144,6|8,0:0|0:0,0:0:0:0:
220,288,137775,1,2,0:0:0:0:
220,288,137886,2,0,P|209:252|237:195,1,72,2|0,0:0|0:0,0:0:0:0:
334,80,138108,1,8,0:0:0:0:
294,156,138219,1,2,0:0:0:0:
346,224,138330,70,0,B|381:232|381:232|428:220,1,72
334,80,138552,2,0,L|174:88,1,144,10|2,0:0|0:0,0:0:0:0:
116,40,138886,1,0,0:0:0:0:
34,194,138997,1,8,0:0:0:0:
98,263,139108,6,0,P|127:205|89:120,1,144,2|0,0:0|0:0,0:0:0:0:
20,316,139441,2,0,L|172:320,1,144,10|2,0:0|0:0,0:0:0:0:
232,264,139775,1,2,0:0:0:0:
311,372,139886,2,0,B|322:336|322:336|311:290,1,72,10|2,0:0|0:0,0:0:0:0:
166,236,140108,6,0,P|202:256|266:264,1,72,0|0,0:0|0:0,0:0:0:0:
121,160,140330,2,0,P|90:177|64:202,1,72,10|0,0:0|0:0,0:0:0:0:
218,159,140552,2,0,P|217:124|208:89,1,72,2|2,0:0|0:0,0:0:0:0:
166,236,140775,2,0,P|202:256|266:264,1,72,10|2,0:0|0:0,0:0:0:0:
320,348,140997,70,0,L|308:192,1,144,6|8,0:0|0:0,0:0:0:0:
402,57,141330,1,2,0:0:0:0:
402,57,141441,2,0,P|426:101|346:117,1,144,2|10,0:0|0:0,0:0:0:0:
256,40,141775,1,10,0:0:0:0:
256,40,141886,6,0,L|172:44,1,72,0|0,0:0|0:0,0:0:0:0:
52,112,142108,2,0,P|106:105|178:185,1,144,10|0,0:0|0:0,0:0:0:0:
124,224,142441,1,2,0:0:0:0:
168,292,142552,2,0,L|252:296,1,72,10|2,0:0|0:0,0:0:0:0:
320,352,142775,6,0,P|336:312|320:240,1,108,2|0,0:0|0:0,0:0:0:0:
300,220,142997,2,0,P|359:236|444:176,1,144,10|2,0:0|0:0,0:0:0:0:
456,124,143330,1,2,0:0:0:0:
367,16,143441,2,0,B|359:53|359:53|372:110,1,72,10|0,0:0|0:0,0:0:0:0:
300,220,143664,70,0,B|308:183|308:183|295:126,1,72,6|2,0:0|0:0,0:0:0:0:
211,73,143886,2,0,B|168:65|144:92|144:92|113:122|72:109,1,144,10|0,0:0|0:0,0:0:0:0:
12,72,144219,1,10,0:0:0:0:
88,192,144330,1,10,0:0:0:0:
36,252,144441,1,2,0:0:0:0:
88,312,144552,6,0,B|172:332|156:280|240:304,1,144,6|10,0:0|0:0,0:0:0:0:
298,374,144886,1,2,0:0:0:0:
298,374,144997,2,0,B|322:308|322:308|302:236,1,144,2|8,0:0|0:0,0:0:0:0:
220,212,145330,1,2,0:0:0:0:
431,312,145441,5,0,0:0:0:0:
467,236,145552,1,2,0:0:0:0:
411,168,145664,2,0,L|331:172,1,72,8|2,0:0|0:0,0:0:0:0:
101,168,145886,2,0,L|181:172,1,72,2|0,0:0|0:0,0:0:0:0:
348,88,146108,2,0,P|360:48|356:4,1,72,10|2,0:0|0:0,0:0:0:0:
152,18,146330,70,0,P|152:53|164:88,1,72
264,204,146552,2,0,L|256:352,1,144,10|2,0:0|0:0,0:0:0:0:
344,276,146886,1,2,0:0:0:0:
344,276,146997,2,0,L|421:278,1,72,10|2,0:0|0:0,0:0:0:0:
472,140,147219,6,0,P|480:100|480:68,1,72,0|2,0:0|0:0,0:0:0:0:
337,33,147441,2,0,P|354:65|364:100,1,72,10|2,0:0|0:0,0:0:0:0:
252,116,147664,2,0,P|223:86|196:69,1,72,0|0,0:0|0:0,0:0:0:0:
88,167,147886,2,0,P|123:171|158:183,1,72,10|0,0:0|0:0,0:0:0:0:
256,232,148108,6,0,B|231:304|287:296|263:372,1,144,6|10,0:0|0:0,0:0:0:0:
455,225,148441,1,2,0:0:0:0:
455,225,148552,2,0,P|404:210|327:269,1,144,2|10,0:0|0:0,0:0:0:0:
408,292,148886,1,2,0:0:0:0:
476,144,148997,70,0,B|484:105|484:105|472:56,1,72,0|2,0:0|0:0,0:0:0:0:
396,40,149219,2,0,L|276:44,1,108,10|0,0:0|0:0,0:0:0:0:
248,28,149441,2,0,P|224:72|256:172,1,144,2|8,0:0|0:0,0:0:0:0:
376,276,149775,1,2,0:0:0:0:
312,214,149886,6,0,P|291:251|293:303,1,72,2|2,0:0|0:0,0:0:0:0:
357,364,150108,2,0,P|399:363|443:335,1,72,10|0,0:0|0:0,0:0:0:0:
464,249,150330,2,0,P|447:217|418:195,1,72,2|2,0:0|0:0,0:0:0:0:
279,279,150552,2,0,P|285:240|306:206,1,72,10|10,0:0|0:0,0:0:0:0:
426,185,150775,6,0,P|459:209|478:245,1,72,2|2,0:0|0:0,0:0:0:0:
433,359,150997,2,0,P|396:374|357:373,1,72,10|2,0:0|0:0,0:0:0:0:
264,274,151219,2,0,P|269:234|290:201,1,72,2|2,0:0|0:0,0:0:0:0:
448,116,151441,2,0,P|440:72|376:84,1,108,10|0,0:0|0:0,0:0:0:0:
364,100,151664,70,0,L|216:104,1,144,6|8,0:0|0:0,0:0:0:0:
144,60,151997,1,2,0:0:0:0:
84,120,152108,2,0,P|72:160|80:196,1,72,2|0,0:0|0:0,0:0:0:0:
242,293,152330,2,0,P|254:253|246:217,1,72,8|2,0:0|0:0,0:0:0:0:
170,168,152552,5,2,0:0:0:0:
158,256,152664,1,2,0:0:0:0:
146,340,152775,2,0,L|70:344,1,72,10|0,0:0|0:0,0:0:0:0:
248,223,152997,2,0,L|289:286,1,72,2|0,0:0|0:0,0:0:0:0:
96,192,153219,2,0,L|130:124,1,72,10|0,0:0|0:0,0:0:0:0:
256,64,153441,6,0,B|292:72|292:72|332:64,1,72,0|2,0:0|0:0,0:0:0:0:
444,48,153664,2,0,B|419:75|419:75|407:108,1,72,10|0,0:0|0:0,0:0:0:0:
364,216,153886,2,0,B|352:180|352:180|329:154,1,72,2|2,0:0|0:0,0:0:0:0:
220,216,154108,1,10,0:0:0:0:
268,288,154219,1,2,0:0:0:0:
228,364,154330,70,0,L|128:360,1,72,0|2,0:0|0:0,0:0:0:0:
80,316,154552,2,0,B|56:240|108:256|76:164,1,144,10|0,0:0|0:0,0:0:0:0:
28,104,154886,1,2,0:0:0:0:
164,174,154997,2,0,P|204:170|248:146,1,72,8|0,0:0|0:0,0:0:0:0:
320,36,155219,6,0,L|311:206,1,144,6|8,0:0|0:0,0:0:0:0:
438,248,155552,1,2,0:0:0:0:
438,248,155664,2,0,P|462:216|382:180,1,144,2|10,0:0|0:0,0:0:0:0:
264,259,155997,1,2,0:0:0:0:
264,259,156108,6,0,B|254:296|254:296|268:339,1,72,2|0,0:0|0:0,0:0:0:0:
339,229,156330,2,0,L|179:221,1,144,10|2,0:0|0:0,0:0:0:0:
124,272,156664,1,0,0:0:0:0:
24,172,156775,2,0,P|12:136|20:92,1,72,10|10,0:0|0:0,0:0:0:0:
121,45,156997,70,0,B|114:105|114:105|121:139|121:139|113:205,1,144,2|10,0:0|0:0,0:0:0:0:
56,248,157330,1,2,0:0:0:0:
164,357,157441,1,2,0:0:0:0:
144,275,157552,1,0,0:0:0:0:
204,211,157664,2,0,L|288:211,1,72,10|2,0:0|0:0,0:0:0:0:
473,319,157886,5,2,0:0:0:0:
409,375,157997,1,2,0:0:0:0:
337,331,158108,2,0,B|327:295|327:295|339:250,1,72,10|0,0:0|0:0,0:0:0:0:
375,111,158330,1,2,0:0:0:0:
439,55,158441,1,2,0:0:0:0:
511,99,158552,2,0,B|521:135|521:135|509:180,1,72,2|10,0:0|0:0,0:0:0:0:
406,224,158775,6,0,L|262:212,1,135,12|2,0:0|0:0,0:0:0:0:
202,252,159219,2,0,P|191:289|211:345,1,90,2|2,0:0|0:0,0:0:0:0:
344,132,159664,69,10,0:0:0:0:
212,52,159886,2,0,B|168:62|168:62|116:48,2,90,2|2|10,0:0|0:0|0:0,0:0:0:0:
280,12,160441,1,8,0:0:0:0:
344,132,160552,6,0,B|351:179|351:179|343:216|343:216|352:268,1,135,8|2,0:0|0:0,0:0:0:0:
404,320,160997,2,0,P|452:333|500:312,1,90,2|2,0:0|0:0,0:0:0:0:
268,176,161441,5,8,0:0:0:0:
168,292,161664,2,0,P|136:304|116:308,1,45,2|2,0:0|0:0,0:0:0:0:
24,224,161886,2,0,P|56:236|76:240,1,45,2|2,0:0|0:0,0:0:0:0:
127,173,162108,2,0,L|132:97,1,67.5,2|0,0:0|0:0,0:0:0:0:
116,72,162330,70,0,P|148:96|248:72,1,135,12|2,0:0|0:0,0:0:0:0:
296,32,162775,2,0,L|392:36,1,90,2|2,0:0|0:0,0:0:0:0:
463,218,163219,5,8,0:0:0:0:
331,138,163441,2,0,P|299:146|251:178,1,90,2|2,0:0|0:0,0:0:0:0:
176,351,163886,2,0,L|172:275,1,67.5,10|0,0:0|0:0,0:0:0:0:
160,260,164108,6,0,P|116:277|56:261,1,90,8|2,0:0|0:0,0:0:0:0:
16,216,164441,1,2,0:0:0:0:
16,216,164552,2,0,B|3:172|3:172|20:120,1,90,2|2,0:0|0:0,0:0:0:0:
132,32,164997,70,0,L|188:36,1,45,10|0,0:0|0:0,0:0:0:0:
236,84,165219,2,0,P|256:83|287:73,1,45,2|0,0:0|0:0,0:0:0:0:
372,20,165441,2,0,P|361:39|356:61,1,45,2|0,0:0|0:0,0:0:0:0:
358,169,165664,2,0,P|345:150|329:134,1,45,2|0,0:0|0:0,0:0:0:0:
232,160,165886,6,0,L|239:294,1,135,12|2,0:0|0:0,0:0:0:0:
196,356,166330,2,0,P|153:368|110:357,1,90,2|2,0:0|0:0,0:0:0:0:
28,251,166664,1,2,0:0:0:0:
84,199,166775,6,0,L|92:91,1,90,10|0,0:0|0:0,0:0:0:0:
224,32,167219,2,0,L|230:121,1,90,10|0,0:0|0:0,0:0:0:0:
324,244,167664,70,0,P|376:276|460:252,1,135,8|2,0:0|0:0,0:0:0:0:
496,204,168108,2,0,B|508:161|508:161|496:110,1,90,2|10,0:0|0:0,0:0:0:0:
372,32,168552,6,0,L|376:84,1,45,10|2,0:0|0:0,0:0:0:0:
319,194,168775,2,0,L|315:142,1,45,2|2,0:0|0:0,0:0:0:0:
235,78,168997,1,8,0:0:0:0:
259,342,169219,1,8,0:0:0:0:
259,342,169441,6,0,L|120:332,1,135.000005149842,14|2,0:0|0:0,0:0:0:0:
40,352,169775,1,2,0:0:0:0:
40,352,169886,2,0,P|17:295|46:219,1,135.000005149842,2|8,0:0|0:0,0:0:0:0:
136,148,170219,1,2,0:0:0:0:
200,208,170330,70,0,B|239:206|239:206|262:215|262:215|314:211,1,101.250003862381,2|0,0:0|0:0,0:0:0:0:
336,188,170552,2,0,P|350:149|331:80,1,101.250003862381,10|0,0:0|0:0,0:0:0:0:
304,64,170775,2,0,L|192:68,1,101.250003862381,2|0,0:0|0:0,0:0:0:0:
164,88,170997,1,10,0:0:0:0:
44,52,171108,1,10,0:0:0:0:
121,157,171219,6,0,P|142:208|116:294,1,135.000005149842,10|0,0:0|0:0,0:0:0:0:
40,256,171552,1,2,0:0:0:0:
128,376,171664,2,0,L|272:368,1,135.000005149842,10|8,0:0|0:0,0:0:0:0:
339,257,171997,1,2,0:0:0:0:
412,312,172108,6,0,B|420:344|420:344|412:388,2,67.5000025749208,2|2|2,0:0|0:0|0:0,0:0:0:0:
379,109,172441,1,2,0:0:0:0:
390,195,172552,2,0,P|423:186|456:151,1,67.5000025749208,2|2,0:0|0:0,0:0:0:0:
300,75,172775,2,0,P|291:107|297:140,1,67.5000025749208,2|2,0:0|0:0,0:0:0:0:
372,24,172997,6,0,B|260:24|308:88|180:88,1,198.000006042481,6|8,0:0|0:0,0:0:0:0:
111,39,173330,1,2,0:0:0:0:
65,198,173441,2,0,P|-7:234|3:154,1,198.000006042481,2|8,0:0|0:0,0:0:0:0:
111,39,173775,1,2,0:0:0:0:
111,39,173886,6,0,B|95:87|95:87|111:135,1,99.0000030212403,0|2,0:0|0:0,0:0:0:0:
292,214,174108,2,0,P|211:198|124:286,1,198.000006042481,10|2,0:0|0:0,0:0:0:0:
229,352,174441,1,0,0:0:0:0:
340,282,174552,2,0,L|440:290,1,99.0000030212403,10|0,0:0|0:0,0:0:0:0:
508,220,174775,6,0,B|520:172|520:172|505:111,1,99.0000030212403,2|0,0:0|0:0,0:0:0:0:
416,88,174997,2,0,L|200:100,1,198.000006042481,10|2,0:0|0:0,0:0:0:0:
128,60,175330,1,2,0:0:0:0:
0,163,175441,1,10,0:0:0:0:
151,226,175552,6,0,P|183:166|115:54,1,198.000006042481,2|2,0:0|0:0,0:0:0:0:
81,150,175886,1,10,0:0:0:0:
232,276,175997,2,0,B|308:268|308:268|344:283|344:283|434:271,1,198.000006042481,2|0,0:0|0:0,0:0:0:0:
504,220,176330,2,0,P|515:172|500:120,1,99.0000030212403,10|0,0:0|0:0,0:0:0:0:
345,57,176552,53,6,0:0:0:0:
401,141,176664,1,0,0:0:0:0:
333,213,176775,2,0,L|129:201,1,198.000006042481,8|2,0:0|0:0,0:0:0:0:
5,153,177108,1,0,0:0:0:0:
94,31,177219,2,0,B|108:81|108:81|92:127,1,99.0000030212403,8|2,0:0|0:0,0:0:0:0:
21,340,177441,6,0,B|7:290|7:290|23:244,1,99.0000030212403,0|2,0:0|0:0,0:0:0:0:
92,125,177664,2,0,P|152:102|268:177,1,198.000006042481,10|2,0:0|0:0,0:0:0:0:
252,356,177997,1,0,0:0:0:0:
162,308,178108,2,0,P|148:265|164:209,1,99.0000030212403,8|2,0:0|0:0,0:0:0:0:
484,148,178330,6,0,P|498:191|482:247,1,99.0000030212403,2|2,0:0|0:0,0:0:0:0:
336,324,178552,1,0,0:0:0:0:
392,104,178664,1,10,0:0:0:0:
368,216,178775,2,0,B|260:224,1,99.0000030212403,2|2,0:0|0:0,0:0:0:0:
96,276,178997,1,10,0:0:0:0:
147,93,179108,1,10,0:0:0:0:
95,178,179219,6,0,B|47:193|47:193|-13:182,1,99.0000030212403,0|0,0:0|0:0,0:0:0:0:
147,93,179441,2,0,B|183:127|183:127|204:184,1,99.0000030212403,10|2,0:0|0:0,0:0:0:0:
40,96,179664,2,0,B|51:46|51:46|90:0,1,99.0000030212403,2|0,0:0|0:0,0:0:0:0:
212,253,179886,2,0,P|176:269|164:185,1,148.50000453186,10|0,0:0|0:0,0:0:0:0:
200,173,180108,54,0,B|308:205|288:137|396:169,1,198.000006042481,6|8,0:0|0:0,0:0:0:0:
456,244,180441,1,2,0:0:0:0:
456,244,180552,2,0,P|488:197|423:74,1,198.000006042481,2|8,0:0|0:0,0:0:0:0:
348,248,180886,1,2,0:0:0:0:
348,248,180997,6,0,B|335:297|335:297|352:352,1,99.0000030212403,0|0,0:0|0:0,0:0:0:0:
162,343,181219,2,0,B|177:297|177:297|164:248,1,99.0000030212403,10|0,0:0|0:0,0:0:0:0:
38,156,181441,2,0,P|78:196|219:157,1,198.000006042481,2|8,0:0|0:0,0:0:0:0:
268,96,181775,1,2,0:0:0:0:
268,96,181886,6,0,B|281:48|281:48|268:-1,1,99.0000030212403,0|0,0:0|0:0,0:0:0:0:
424,192,182108,2,0,B|411:240|411:240|424:289,1,99.0000030212403,10|0,0:0|0:0,0:0:0:0:
479,118,182330,2,0,P|432:101|384:109,1,99.0000030212403,2|2,0:0|0:0,0:0:0:0:
168,252,182552,2,0,P|216:260|262:243,1,99.0000030212403,10|2,0:0|0:0,0:0:0:0:
172,61,182775,6,0,B|145:106|167:157|167:157|191:210|161:265,1,198.000006042481,0|10,0:0|0:0,0:0:0:0:
80,204,183108,1,0,0:0:0:0:
248,116,183219,2,0,B|325:120|325:120|361:148|361:148|444:152,1,198.000006042481,2|10,0:0|0:0,0:0:0:0:
508,80,183552,1,2,0:0:0:0:
386,292,183664,54,0,B|340:280|340:280|304:244,1,99.0000030212403,6|0,0:0|0:0,0:0:0:0:
103,254,183886,2,0,B|137:220|137:220|186:207,1,99.0000030212403,8|2,0:0|0:0,0:0:0:0:
277,28,184108,2,0,B|290:75|290:75|277:124,1,99.0000030212403,2|0,0:0|0:0,0:0:0:0:
186,207,184330,1,10,0:0:0:0:
124,76,184441,1,10,0:0:0:0:
277,28,184552,6,0,P|300:64|356:104,1,99.0000030212403
386,292,184775,2,0,P|343:293|280:322,1,99.0000030212403,10|0,0:0|0:0,0:0:0:0:
103,254,184997,2,0,P|122:216|129:147,1,99.0000030212403,0|2,0:0|0:0,0:0:0:0:
260,192,185219,1,10,0:0:0:0:
152,328,185330,1,2,0:0:0:0:
32,192,185441,6,0,P|20:152|32:88,2,99.0000030212403,2|0|10,0:0|0:0|0:0,0:0:0:0:
152,328,185775,1,0,0:0:0:0:
271,199,185886,2,0,L|375:191,1,99.0000030212403,2|2,0:0|0:0,0:0:0:0:
467,346,186108,2,0,L|363:338,1,99.0000030212403,10|0,0:0|0:0,0:0:0:0:
458,141,186330,6,0,B|473:191|473:191|457:243,1,99.0000030212403,6|2,0:0|0:0,0:0:0:0:
288,384,186552,2,0,B|274:337|274:337|290:285,1,99.0000030212403,10|0,0:0|0:0,0:0:0:0:
348,124,186775,1,0,0:0:0:0:
232,220,186886,1,10,0:0:0:0:
376,268,186997,1,10,0:0:0:0:
248,124,187108,1,2,0:0:0:0:
155,295,187219,6,0,P|110:322|14:299,1,144,6|8,0:0|0:0,0:0:0:0:
60,220,187552,1,2,0:0:0:0:
60,220,187664,2,0,B|36:156|80:148|56:72,1,144,2|8,0:0|0:0,0:0:0:0:
293,24,187997,6,0,P|321:68|249:76,1,144,2|2,0:0|0:0,0:0:0:0:
164,24,188330,2,0,B|157:80|157:80|172:118|172:118|164:184,1,144,10|2,0:0|0:0,0:0:0:0:
102,236,188664,1,0,0:0:0:0:
287,372,188775,2,0,B|296:335|296:335|287:296,1,72,10|0,0:0|0:0,0:0:0:0:
102,236,188997,6,0,B|94:269|94:269|103:306,1,72,2|0,0:0|0:0,0:0:0:0:
203,260,189219,2,0,L|358:252,1,144,10|2,0:0|0:0,0:0:0:0:
428,200,189552,1,2,0:0:0:0:
428,200,189664,2,0,P|436:164|428:128,1,72,10|2,0:0|0:0,0:0:0:0:
282,123,189886,70,0,P|308:147|342:158,1,72,0|2,0:0|0:0,0:0:0:0:
415,40,190108,2,0,P|381:50|354:74,1,72,10|2,0:0|0:0,0:0:0:0:
428,200,190330,2,0,P|436:164|428:128,1,72,2|0,0:0|0:0,0:0:0:0:
273,40,190552,2,0,L|145:48,1,108,10|0,0:0|0:0,0:0:0:0:
124,24,190775,6,0,B|154:101|88:92|128:168,1,144,6|8,0:0|0:0,0:0:0:0:
184,224,191108,1,2,0:0:0:0:
184,224,191219,2,0,P|136:195|41:228,1,144,2|8,0:0|0:0,0:0:0:0:
163,347,191552,1,2,0:0:0:0:
163,347,191664,6,0,L|239:343,1,72,0|2,0:0|0:0,0:0:0:0:
383,228,191886,2,0,P|408:266|386:364,1,144,10|2,0:0|0:0,0:0:0:0:
286,264,192219,1,0,0:0:0:0:
286,264,192330,2,0,L|290:184,1,72,8|2,0:0|0:0,0:0:0:0:
376,26,192552,69,2,0:0:0:0:
424,98,192664,1,2,0:0:0:0:
364,162,192775,2,0,B|288:182|296:134|220:154,1,144,10|2,0:0|0:0,0:0:0:0:
138,170,193108,1,2,0:0:0:0:
138,170,193219,2,0,P|110:182|58:182,1,72,10|10,0:0|0:0,0:0:0:0:
120,38,193441,6,0,P|144:56|170:101,1,72,0|0,0:0|0:0,0:0:0:0:
15,120,193664,2,0,P|18:89|44:44,1,72,10|2,0:0|0:0,0:0:0:0:
138,170,193886,2,0,P|110:182|58:182,1,72,2|0,0:0|0:0,0:0:0:0:
124,316,194108,2,0,L|214:319,1,72,10|0,0:0|0:0,0:0:0:0:
280,272,194330,6,0,P|332:260|412:336,1,144,6|8,0:0|0:0,0:0:0:0:
323,351,194664,1,2,0:0:0:0:
212,210,194775,2,0,B|192:144|192:144|216:60,1,144,2|8,0:0|0:0,0:0:0:0:
292,20,195108,1,2,0:0:0:0:
344,96,195219,70,0,L|420:100,1,72
484,164,195441,2,0,P|508:118|475:26,1,144,10|2,0:0|0:0,0:0:0:0:
415,99,195775,1,0,0:0:0:0:
441,258,195886,2,0,B|477:266|477:266|518:257,1,72,8|2,0:0|0:0,0:0:0:0:
334,174,196108,6,0,B|298:166|298:166|257:175,1,72,2|0,0:0|0:0,0:0:0:0:
198,242,196330,2,0,P|153:271|57:251,1,144,10|2,0:0|0:0,0:0:0:0:
156,89,196664,1,2,0:0:0:0:
156,89,196775,2,0,P|166:130|151:171,1,72,10|2,0:0|0:0,0:0:0:0:
8,196,196997,6,0,P|-2:155|13:114,1,72,0|0,0:0|0:0,0:0:0:0:
83,45,197219,2,0,L|231:49,1,144,10|2,0:0|0:0,0:0:0:0:
378,134,197552,1,2,0:0:0:0:
378,134,197664,2,0,B|388:98|388:98|376:60,1,72,10|0,0:0|0:0,0:0:0:0:
294,146,197886,70,0,B|322:230|266:218|298:294,1,144,6|8,0:0|0:0,0:0:0:0:
360,356,198219,1,2,0:0:0:0:
360,356,198330,2,0,P|312:327|216:356,1,144,2|10,0:0|0:0,0:0:0:0:
156,288,198664,1,10,0:0:0:0:
156,288,198775,6,0,L|72:292,1,72,0|0,0:0|0:0,0:0:0:0:
12,232,198997,2,0,B|-8:164|-8:164|16:84,1,144,10|0,0:0|0:0,0:0:0:0:
100,24,199330,1,2,0:0:0:0:
189,91,199441,1,10,0:0:0:0:
189,91,199552,1,2,0:0:0:0:
189,91,199664,6,0,L|176:248,1,144,2|10,0:0|0:0,0:0:0:0:
200,320,199997,1,0,0:0:0:0:
112,368,200108,2,0,P|100:332|112:284,2,72,2|2|10,0:0|0:0|0:0,0:0:0:0:
287,330,200441,1,0,0:0:0:0:
287,330,200552,70,0,L|295:250,1,72,6|2,0:0|0:0,0:0:0:0:
476,212,200775,2,0,L|483:283,1,72,10|0,0:0|0:0,0:0:0:0:
303,169,200997,2,0,L|311:89,1,72,0|10,0:0|0:0,0:0:0:0:
492,51,201220,2,0,L|499:122,1,72,10|2,0:0|0:0,0:0:0:0:
417,327,201441,6,0,P|373:352|281:324,1,144,6|10,0:0|0:0,0:0:0:0:
320,240,201775,1,2,0:0:0:0:
320,240,201886,2,0,L|176:248,1,144,2|8,0:0|0:0,0:0:0:0:
20,276,202219,6,0,P|-7:213|35:130,1,144,2|2,0:0|0:0,0:0:0:0:
120,26,202552,2,0,L|112:106,1,72,8|2,0:0|0:0,0:0:0:0:
264,118,202775,2,0,L|205:75,1,72,2|0,0:0|0:0,0:0:0:0:
111,199,202997,2,0,L|176:169,1,72,10|2,0:0|0:0,0:0:0:0:
388,83,203219,70,0,P|396:35|328:43,1,108
312,51,203441,2,0,L|320:203,1,144,10|2,0:0|0:0,0:0:0:0:
272,276,203775,1,2,0:0:0:0:
390,332,203886,2,0,P|399:297|384:251,1,72,10|2,0:0|0:0,0:0:0:0:
229,202,204108,6,0,L|141:206,1,72,0|2,0:0|0:0,0:0:0:0:
60,64,204330,2,0,L|148:68,1,72,10|2,0:0|0:0,0:0:0:0:
235,106,204552,2,0,B|243:70|243:70|235:30,1,72,0|0,0:0|0:0,0:0:0:0:
72,172,204775,2,0,B|65:206|65:206|73:242,1,72,10|0,0:0|0:0,0:0:0:0:
160,328,204997,6,0,L|324:320,1,144,6|10,0:0|0:0,0:0:0:0:
405,177,205330,1,2,0:0:0:0:
451,256,205441,2,0,P|394:270|318:202,1,144,2|10,0:0|0:0,0:0:0:0:
328,64,205775,1,2,0:0:0:0:
328,64,205886,70,0,B|338:101|338:101|324:148,1,72,0|2,0:0|0:0,0:0:0:0:
236,208,206108,2,0,L|84:200,1,144,10|2,0:0|0:0,0:0:0:0:
24,136,206441,1,0,0:0:0:0:
76,308,206552,2,0,L|156:296,1,72,8|2,0:0|0:0,0:0:0:0:
306,269,206775,6,0,P|319:309|359:342,1,72,2|2,0:0|0:0,0:0:0:0:
447,335,206997,2,0,P|474:303|482:251,1,72,10|0,0:0|0:0,0:0:0:0:
433,179,207219,2,0,P|397:170|362:177,1,72,2|2,0:0|0:0,0:0:0:0:
332,336,207441,2,0,P|306:305|295:266,1,72,10|10,0:0|0:0,0:0:0:0:
360,162,207664,6,0,P|400:154|439:163,1,72,2|2,0:0|0:0,0:0:0:0:
508,280,207886,2,0,P|494:317|467:346,1,72,10|2,0:0|0:0,0:0:0:0:
324,346,208108,2,0,P|297:314|286:275,1,72,2|2,0:0|0:0,0:0:0:0:
315,104,208330,2,0,P|276:80|243:136,1,108,10|0,0:0|0:0,0:0:0:0:
264,164,208552,70,0,L|108:152,1,144,6|8,0:0|0:0,0:0:0:0:
44,96,208886,1,2,0:0:0:0:
44,96,208997,2,0,B|33:61|33:61|46:17,1,72,2|0,0:0|0:0,0:0:0:0:
120,152,209219,2,0,B|131:187|131:187|118:231,1,72,8|2,0:0|0:0,0:0:0:0:
32,192,209441,5,2,0:0:0:0:
92,344,209552,1,2,0:0:0:0:
92,344,209664,2,0,L|248:336,1,144,10|2,0:0|0:0,0:0:0:0:
320,292,209997,1,0,0:0:0:0:
320,292,210108,2,0,L|324:372,1,72,10|0,0:0|0:0,0:0:0:0:
235,243,210330,6,0,B|225:207|225:207|240:157,1,72,0|2,0:0|0:0,0:0:0:0:
308,116,210552,2,0,B|384:140|368:76|464:112,1,144,10|2,0:0|0:0,0:0:0:0:
414,180,210886,1,2,0:0:0:0:
228,90,210997,2,0,P|216:50|220:2,1,72,10|2,0:0|0:0,0:0:0:0:
414,180,211219,70,0,P|413:215|402:249,1,72,0|2,0:0|0:0,0:0:0:0:
132,289,211441,2,0,P|155:315|187:334,1,72,10|2,0:0|0:0,0:0:0:0:
345,322,211664,2,0,P|314:340|278:347,1,72,0|2,0:0|0:0,0:0:0:0:
109,133,211886,2,0,P|98:167|98:203,1,72,8|0,0:0|0:0,0:0:0:0:
266,36,212108,6,0,B|261:93|261:93|275:127|275:127|266:184,1,144,6|8,0:0|0:0,0:0:0:0:
186,144,212441,1,2,0:0:0:0:
346,77,212552,2,0,P|409:62|482:121,1,144,2|10,0:0|0:0,0:0:0:0:
428,176,212886,1,2,0:0:0:0:
493,307,212997,6,0,B|501:271|501:271|490:229,1,72,2|0,0:0|0:0,0:0:0:0:
328,326,213219,2,0,P|353:342|385:278,1,108,10|0,0:0|0:0,0:0:0:0:
373,254,213441,2,0,L|229:258,1,144,2|10,0:0|0:0,0:0:0:0:
104,360,213775,1,10,0:0:0:0:
16,232,213886,70,0,B|-16:168|44:172|12:88,1,144,2|10,0:0|0:0,0:0:0:0:
76,32,214219,1,2,0:0:0:0:
76,32,214330,2,0,L|160:40,1,72,2|0,0:0|0:0,0:0:0:0:
254,158,214552,2,0,B|262:118|262:118|254:78,1,72,10|2,0:0|0:0,0:0:0:0:
133,192,214775,5,2,0:0:0:0:
149,276,214886,1,2,0:0:0:0:
169,360,214997,2,0,L|253:356,1,72,10|0,0:0|0:0,0:0:0:0:
443,239,215219,1,2,0:0:0:0:
282,291,215330,1,2,0:0:0:0:
382,155,215441,1,2,0:0:0:0:
382,324,215552,1,10,0:0:0:0:
282,187,215664,6,0,B|268:132|268:132|280:68,1,116.999994644165,14|0,0:0|0:0,0:0:0:0:
220,24,215997,1,2,0:0:0:0:
220,24,216108,2,0,L|102:27,1,116.999994644165,2|2,0:0|0:0,0:0:0:0:
0,124,216552,70,0,P|-4:156|4:184,1,58.4999973220826,8|0,0:0|0:0,0:0:0:0:
68,220,216775,2,0,L|64:340,1,116.999994644165,0|2,0:0|0:0,0:0:0:0:
256,288,217219,1,10,0:0:0:0:
256,288,217330,1,2,0:0:0:0:
256,288,217441,6,0,B|303:271|338:310|338:310|372:346|417:333,1,175.499991966248,10|2,0:0|0:0,0:0:0:0:
468,280,217886,2,0,B|480:225|480:225|464:164,1,116.999994644165,2|0,0:0|0:0,0:0:0:0:
344,72,218330,5,10,0:0:0:0:
344,72,218441,2,0,P|320:100|252:80,1,116.999994644165,0|2,0:0|0:0,0:0:0:0:
184,40,218775,2,0,L|125:42,1,58.4999973220826
44,48,218997,1,8,0:0:0:0:
8,184,219219,70,0,P|52:220|164:196,1,175.499991966248,10|2,0:0|0:0,0:0:0:0:
208,140,219664,2,0,L|332:148,1,116.999994644165,2|0,0:0|0:0,0:0:0:0:
464,208,220108,5,10,0:0:0:0:
464,208,220219,2,0,P|490:161|460:88,1,116.999994644165,0|0,0:0|0:0,0:0:0:0:
409,150,220552,2,0,L|417:274,1,116.999994644165,0|10,0:0|0:0,0:0:0:0:
300,360,220997,6,0,P|241:366|178:341,1,116.999994644165,10|0,0:0|0:0,0:0:0:0:
144,284,221330,1,2,0:0:0:0:
144,284,221441,2,0,B|129:228|129:228|152:152,1,116.999994644165,2|0,0:0|0:0,0:0:0:0:
304,124,221886,69,10,0:0:0:0:
304,124,221997,2,0,L|428:116,1,116.999994644165,2|2,0:0|0:0,0:0:0:0:
476,64,222330,2,0,P|455:118|480:188,1,116.999994644165,0|2,0:0|0:0,0:0:0:0:
469,173,222664,1,2,0:0:0:0:
432,296,222775,6,0,B|332:304,2,90,12|2|8,0:0|0:0|0:0,0:0:0:0:
296,184,223108,1,2,0:0:0:0:
140,352,223219,2,0,B|240:360,2,90,8|2|8,0:0|0:0|0:0,0:0:0:0:
27,231,223552,1,2,0:0:0:0:
103,185,223664,6,0,P|116:222|102:280,1,90,12|2,0:0|0:0,0:0:0:0:
12,96,223886,2,0,B|116:96|64:160|192:160,1,180,10|0,0:0|0:0,0:0:0:0:
248,93,224219,1,2,0:0:0:0:
272,273,224330,2,0,P|213:264|181:239,1,90,10|2,0:0|0:0,0:0:0:0:
344,128,224552,70,0,P|403:137|435:162,1,90,2|2,0:0|0:0,0:0:0:0:
351,236,224775,2,0,L|339:48,1,180,2|2,0:0|0:0,0:0:0:0:
256,20,225108,1,2,0:0:0:0:
200,88,225219,2,0,B|155:101|155:101|100:84,1,90,10|2,0:0|0:0,0:0:0:0:
0,88,225441,6,0,B|33:120|33:120|46:176,1,90,0|0,0:0|0:0,0:0:0:0:
96,268,225664,2,0,B|107:222|107:222|149:183,1,90,10|2,0:0|0:0,0:0:0:0:
200,88,225886,2,0,B|155:101|155:101|100:84,1,90,2|0,0:0|0:0,0:0:0:0:
256,24,226108,1,10,0:0:0:0:
320,152,226219,1,2,0:0:0:0:
455,69,226330,6,0,P|460:114|440:153,1,90,14|2,0:0|0:0,0:0:0:0:
468,243,226552,2,0,P|431:270|387:272,1,90,8|2,0:0|0:0,0:0:0:0:
306,331,226775,2,0,P|265:313|241:277,1,90,10|2,0:0|0:0,0:0:0:0:
149,254,226997,2,0,P|143:211|163:171,1,90,8|10,0:0|0:0,0:0:0:0:
56,69,227219,70,0,P|49:113|70:153,1,90,14|2,0:0|0:0,0:0:0:0:
43,243,227441,2,0,P|79:270|124:272,1,90,8|2,0:0|0:0,0:0:0:0:
204,332,227664,2,0,P|245:313|270:276,1,90,10|2,0:0|0:0,0:0:0:0:
362,254,227886,2,0,P|367:210|347:171,1,90,8|2,0:0|0:0,0:0:0:0:
256,34,228108,6,0,B|282:77|260:121|260:121|234:165|262:221,1,180,6|8,0:0|0:0,0:0:0:0:
283,342,228441,1,2,0:0:0:0:
165,184,228552,2,0,P|121:173|55:200,1,90,14|0,0:0|0:0,0:0:0:0:
196,341,228775,2,0,P|240:352|306:325,1,90,10|0,0:0|0:0,0:0:0:0:
380,116,228997,5,6,0:0:0:0:
332,192,229108,1,2,0:0:0:0:
392,260,229219,2,0,L|488:256,1,90,10|0,0:0|0:0,0:0:0:0:
236,36,229441,1,6,0:0:0:0:
284,112,229552,1,2,0:0:0:0:
224,180,229663,2,0,L|128:176,1,90,10|0,0:0|0:0,0:0:0:0:
221,337,229886,6,0,B|265:365|325:333|325:333|375:308|429:334,1,215.999993408203,6|8,0:0|0:0,0:0:0:0:
512,185,230219,1,2,0:0:0:0:
448,97,230330,2,0,P|392:77|260:185,1,215.999993408203,2|8,0:0|0:0,0:0:0:0:
173,369,230664,1,2,0:0:0:0:
105,285,230775,6,0,B|88:234|88:234|105:177,1,107.999996704102,0|2,0:0|0:0,0:0:0:0:
271,28,230997,2,0,L|261:251,1,215.999993408203,10|0,0:0|0:0,0:0:0:0:
404,357,231330,1,2,0:0:0:0:
449,280,231441,2,0,P|393:268|333:300,1,107.999996704102,10|0,0:0|0:0,0:0:0:0:
274,358,231664,5,6,0:0:0:0:
178,170,231775,1,0,0:0:0:0:
79,222,231886,2,0,P|127:270|271:230,1,215.999993408203,10|2,0:0|0:0,0:0:0:0:
268,164,232219,1,2,0:0:0:0:
400,272,232330,1,10,0:0:0:0:
464,122,232441,6,0,B|406:90|347:123|347:123|318:167|262:163,1,215.999993408203,2|2,0:0|0:0,0:0:0:0:
188,92,232775,1,10,0:0:0:0:
79,222,232886,2,0,P|151:226|202:368,1,215.999993408203,2|0,0:0|0:0,0:0:0:0:
5,273,233219,2,0,B|-10:222|-10:222|9:157,1,107.999996704102,10|2,0:0|0:0,0:0:0:0:
192,32,233441,54,0,L|184:156,1,107.999996704102,6|0,0:0|0:0,0:0:0:0:
300,320,233664,2,0,P|390:338|381:246,1,215.999993408203,8|2,0:0|0:0,0:0:0:0:
280,216,233997,1,0,0:0:0:0:
200,356,234108,2,0,B|148:370|148:370|84:354,1,107.999996704102,8|2,0:0|0:0,0:0:0:0:
20,280,234330,6,0,P|3:230|20:172,1,107.999996704102,0|2,0:0|0:0,0:0:0:0:
92,76,234552,2,0,B|308:84,1,215.999993408203,10|2,0:0|0:0,0:0:0:0:
412,48,234886,1,0,0:0:0:0:
262,205,234997,2,0,L|299:337,1,107.999996704102,8|2,0:0|0:0,0:0:0:0:
475,263,235219,6,0,B|489:211|489:211|474:158,1,107.999996704102,6|2,0:0|0:0,0:0:0:0:
267,16,235441,2,0,B|253:68|253:68|268:121,1,107.999996704102,10|8,0:0|0:0,0:0:0:0:
366,166,235664,2,0,L|476:158,1,107.999996704102,2|2,0:0|0:0,0:0:0:0:
416,324,235886,2,0,L|306:332,1,107.999996704102,10|10,0:0|0:0,0:0:0:0:
79,320,236108,6,0,P|35:293|-5:243,1,107.999996704102,6|0,0:0|0:0,0:0:0:0:
202,276,236330,2,0,P|234:233|246:181,1,107.999996704102,10|2,0:0|0:0,0:0:0:0:
123,256,236553,2,0,P|115:210|131:147,1,107.999996704102,6|0,0:0|0:0,0:0:0:0:
205,353,236775,2,0,P|258:352|308:332,1,107.999996704102,10|2,0:0|0:0,0:0:0:0:
475,255,236997,54,0,P|419:239|307:343,1,215.999993408203,6|8,0:0|0:0,0:0:0:0:
417,353,237330,1,2,0:0:0:0:
328,161,237441,2,0,B|244:169|244:169|212:201|212:201|100:213,1,215.999993408203,2|8,0:0|0:0,0:0:0:0:
36,152,237775,1,2,0:0:0:0:
36,152,237886,6,0,P|19:102|40:48,1,107.999996704102,2|0,0:0|0:0,0:0:0:0:
132,104,238108,2,0,L|116:336,1,215.999993408203,10|2,0:0|0:0,0:0:0:0:
196,380,238441,1,0,0:0:0:0:
196,380,238552,2,0,P|248:368|304:300,1,107.999996704102,8|2,0:0|0:0,0:0:0:0:
428,209,238775,6,0,L|320:216,1,107.999996704102,6|0,0:0|0:0,0:0:0:0:
491,288,238997,2,0,P|528:198|419:108,1,215.999993408203,10|2,0:0|0:0,0:0:0:0:
320,216,239330,1,2,0:0:0:0:
400,360,239441,1,10,0:0:0:0:
236,220,239552,6,0,B|108:196|148:276|20:252,1,215.999993408203,2|0,0:0|0:0,0:0:0:0:
214,112,239886,2,0,P|258:88|318:12,1,107.999996704102,10|0,0:0|0:0,0:0:0:0:
334,260,240108,2,0,P|291:233|195:219,1,107.999996704102,2|2,0:0|0:0,0:0:0:0:
406,96,240330,2,0,P|404:146|440:236,1,107.999996704102,10|2,0:0|0:0,0:0:0:0:
352,352,240552,54,0,L|124:340,1,215.999993408203,6|8,0:0|0:0,0:0:0:0:
28,360,240886,1,2,0:0:0:0:
120,240,240997,2,0,B|80:132|168:152|120:24,1,215.999993408203,2|10,0:0|0:0,0:0:0:0:
28,84,241330,1,10,0:0:0:0:
208,191,241441,6,0,P|260:183|320:143,1,107.999996704102,10|0,0:0|0:0,0:0:0:0:
386,4,241664,2,0,P|367:54|368:107,1,107.999996704102,10|0,0:0|0:0,0:0:0:0:
462,250,241886,2,0,P|429:209|382:182,1,107.999996704102,0|2,0:0|0:0,0:0:0:0:
280,304,242108,1,10,0:0:0:0:
184,125,242219,1,2,0:0:0:0:
9,218,242330,6,0,P|49:265|208:219,1,215.999993408203,6|10,0:0|0:0,0:0:0:0:
256,32,242664,1,0,0:0:0:0:
104,76,242775,2,0,B|88:130|88:130|108:186,1,107.999996704102,2|2,0:0|0:0,0:0:0:0:
280,304,242997,2,0,B|296:250|296:250|276:194,1,107.999996704102,10|0,0:0|0:0,0:0:0:0:
348,116,243219,6,0,L|464:120,1,107.999996704102,2|2,0:0|0:0,0:0:0:0:
280,304,243441,2,0,L|164:300,1,107.999996704102,10|0,0:0|0:0,0:0:0:0:
12,192,243664,1,0,0:0:0:0:
96,356,243775,1,10,0:0:0:0:
172,208,243886,1,10,0:0:0:0:
4,304,243997,1,2,0:0:0:0:
116,127,244108,54,0,B|170:95|231:130|231:130|263:178|327:178,1,215.999993408203,2|10,0:0|0:0,0:0:0:0:
484,108,244441,1,2,0:0:0:0:
412,28,244552,2,0,P|379:79|467:211,1,215.999993408203,2|8,0:0|0:0,0:0:0:0:
484,108,244886,1,2,0:0:0:0:
509,261,244997,6,0,B|521:318|521:318|505:369,1,107.999996704102,0|2,0:0|0:0,0:0:0:0:
352,248,245219,2,0,L|116:264,1,215.999993408203,8|2,0:0|0:0,0:0:0:0:
44,316,245552,1,0,0:0:0:0:
176,164,245664,2,0,P|192:114|169:50,1,107.999996704102,10|2,0:0|0:0,0:0:0:0:
2,136,245886,6,0,P|-14:186|9:250,1,107.999996704102,4|2,0:0|0:0,0:0:0:0:
106,111,246108,2,0,B|222:143|198:63|318:99,1,215.999993408203,10|2,0:0|0:0,0:0:0:0:
482,202,246441,1,2,0:0:0:0:
388,48,246552,1,10,0:0:0:0:
263,175,246664,6,0,P|226:235|300:384,1,215.999993408203,2|2,0:0|0:0,0:0:0:0:
343,267,246997,1,10,0:0:0:0:
263,175,247108,2,0,B|152:148|176:240|56:216,1,215.999993408203,2|0,0:0|0:0,0:0:0:0:
92,116,247441,1,10,0:0:0:0:
225,266,247552,1,0,0:0:0:0:
358,137,247664,54,0,B|374:87|374:87|358:25,1,107.999996704102,6|0,0:0|0:0,0:0:0:0:
263,175,247886,2,0,P|351:147|452:236,1,215.999993408203,10|2,0:0|0:0,0:0:0:0:
386,354,248219,1,0,0:0:0:0:
386,354,248330,2,0,L|276:347,1,107.999996704102,10|2,0:0|0:0,0:0:0:0:
52,256,248552,6,0,P|36:304|56:368,1,107.999996704102,0|2,0:0|0:0,0:0:0:0:
176,284,248775,2,0,B|204:230|175:174|175:174|150:112|200:54,1,215.999993408203,10|2,0:0|0:0,0:0:0:0:
280,24,249108,1,0,0:0:0:0:
403,165,249219,2,0,P|451:149|507:101,1,107.999996704102,8|2,0:0|0:0,0:0:0:0:
384,60,249441,5,6,0:0:0:0:
284,200,249552,1,2,0:0:0:0:
423,344,249664,2,0,P|437:299|423:237,1,107.999996704102,10|10,0:0|0:0,0:0:0:0:
256,172,249886,2,0,L|256:292,1,107.999996704102,2|2,0:0|0:0,0:0:0:0:
89,344,250108,2,0,P|74:292|87:240,1,107.999996704102,10|10,0:0|0:0,0:0:0:0:
204,31,250330,6,0,P|258:32|308:52,1,107.999996704102,6|0,0:0|0:0,0:0:0:0:
123,126,250552,2,0,P|114:179|128:232,1,107.999996704102,10|2,0:0|0:0,0:0:0:0:
202,107,250775,2,0,P|233:150|246:203,1,107.999996704102,6|2,0:0|0:0,0:0:0:0:
79,63,250997,2,0,P|33:92|0:133,1,107.999996704102,10|2,0:0|0:0,0:0:0:0:
246,203,251219,54,0,B|360:236|340:156|464:200,1,215.999993408203,6|8,0:0|0:0,0:0:0:0:
400,284,251552,1,2,0:0:0:0:
229,109,251664,2,0,P|153:179|200:286,1,215.999993408203,2|8,0:0|0:0,0:0:0:0:
294,368,251997,1,2,0:0:0:0:
294,368,252108,6,0,L|287:251,1,107.999996704102,2|2,0:0|0:0,0:0:0:0:
229,109,252330,2,0,P|159:184|62:153,1,215.999993408203,10|2,0:0|0:0,0:0:0:0:
176,32,252664,1,0,0:0:0:0:
296,172,252775,2,0,L|412:164,1,107.999996704102,10|0,0:0|0:0,0:0:0:0:
496,108,252997,6,0,B|510:56|510:56|492:0,1,107.999996704102,4|2,0:0|0:0,0:0:0:0:
296,172,253219,2,0,B|282:224|282:224|300:280,1,107.999996704102,10|0,0:0|0:0,0:0:0:0:
444,311,253441,2,0,P|381:282|255:379,1,215.999993408203,2|10,0:0|0:0,0:0:0:0:
69,264,253775,1,2,0:0:0:0:
160,204,253886,6,0,B|175:151|175:151|160:92,1,107.999996704102,0|2,0:0|0:0,0:0:0:0:
344,148,254108,2,0,B|290:161|290:161|247:204,1,107.999996704102,10|2,0:0|0:0,0:0:0:0:
212,20,254330,2,0,B|250:59|250:59|308:76,1,107.999996704102,0|2,0:0|0:0,0:0:0:0:
428,20,254552,1,8,0:0:0:0:
492,192,254664,1,0,0:0:0:0:
344,148,254775,54,0,P|299:220|358:345,1,215.999993408203,6|8,0:0|0:0,0:0:0:0:
415,242,255108,1,2,0:0:0:0:
293,73,255219,2,0,B|173:113|197:25|69:69,1,215.999993408203,2|10,0:0|0:0,0:0:0:0:
16,148,255552,1,2,0:0:0:0:
132,260,255664,6,0,P|148:212|128:148,1,107.999996704102,2|0,0:0|0:0,0:0:0:0:
30,302,255886,2,0,B|93:267|154:311|154:311|182:358|238:351,1,215.999993408203,10|2,0:0|0:0,0:0:0:0:
404,260,256219,1,0,0:0:0:0:
323,313,256330,2,0,P|304:251|333:197,1,107.999996704102,10|10,0:0|0:0,0:0:0:0:
506,140,256552,6,0,P|502:60|386:80,1,215.999993408203,6|10,0:0|0:0,0:0:0:0:
406,176,256886,1,2,0:0:0:0:
406,176,256997,2,0,B|278:200|322:128|190:152,1,215.999993408203,2|10,0:0|0:0,0:0:0:0:
85,282,257330,6,0,P|113:330|129:234,1,215.999993408203,2|2,0:0|0:0,0:0:0:0:
38,93,257664,1,10,0:0:0:0:
5,184,257775,1,8,0:0:0:0:
196,150,257886,1,2,0:0:0:0:
133,76,257997,1,2,0:0:0:0:
67,258,258109,1,2,0:0:0:0:
162,241,258219,1,10,0:0:0:0:
16,52,258330,6,0,P|-5:115|21:177,1,135,12|2,0:0|0:0,0:0:0:0:
88,140,258774,2,0,L|177:136,1,90,2|2,0:0|0:0,0:0:0:0:
300,36,259219,2,0,B|325:82|300:125|300:125|276:168|297:208,1,180,8|2,0:0|0:0,0:0:0:0:
452,244,259885,1,2,0:0:0:0:
353,374,260108,6,0,B|342:331|342:331|353:287,1,90,2|2,0:0|0:0,0:0:0:0:
196,180,260552,2,0,B|207:223|207:223|196:267,1,90,2|2,0:0|0:0,0:0:0:0:
140,324,260885,1,8,0:0:0:0:
140,324,260996,6,0,L|50:320,1,90,8|2,0:0|0:0,0:0:0:0:
0,184,261441,1,2,0:0:0:0:
63,51,261663,2,0,P|99:79|228:32,1,180,10|2,0:0|0:0,0:0:0:0:
296,24,262219,1,2,0:0:0:0:
296,24,262330,2,0,L|303:127,1,90,2|2,0:0|0:0,0:0:0:0:
184,248,262774,70,0,L|94:244,1,90,8|0,0:0|0:0,0:0:0:0:
212,160,263219,1,8,0:0:0:0:
252,312,263441,2,0,P|305:350|371:343,1,135,2|2,0:0|0:0,0:0:0:0:
424,284,263885,2,0,B|437:242|437:242|424:197,1,90,2|2,0:0|0:0,0:0:0:0:
204,80,264441,1,2,0:0:0:0:
204,80,264552,6,0,L|114:76,1,90,8|8,0:0|0:0,0:0:0:0:
64,216,264996,2,0,P|128:234|199:194,1,135,8|0,0:0|0:0,0:0:0:0:
240,152,265441,6,0,L|232:292,1,135,14|0,0:0|0:0,0:0:0:0:
272,356,265885,2,0,P|315:364|357:350,1,90,2|2,0:0|0:0,0:0:0:0:
432,152,266330,1,8,0:0:0:0:
328,268,266552,1,0,0:0:0:0:
484,296,266774,1,0,0:0:0:0:
432,152,266997,1,2,0:0:0:0:
328,268,267219,70,0,B|316:222|316:222|326:180,1,90,2|2,0:0|0:0,0:0:0:0:
436,68,267663,2,0,L|346:71,1,90,8|2,0:0|0:0,0:0:0:0:
280,24,267996,1,10,0:0:0:0:
280,23,268108,6,0,P|266:65|276:108,1,90,10|0,0:0|0:0,0:0:0:0:
400,224,268552,1,2,0:0:0:0:
304,348,268774,2,0,P|238:356|184:318,1,135,8|0,0:0|0:0,0:0:0:0:
164,244,269219,2,0,L|74:240,1,90,8|8,0:0|0:0,0:0:0:0:
116,88,269663,1,2,0:0:0:0:
256,144,269885,6,0,B|276:208|276:208|257:273,1,135,10|2,0:0|0:0,0:0:0:0:
184,318,270330,1,8,0:0:0:0:
332,368,270552,2,0,L|421:364,1,90,2|0,0:0|0:0,0:0:0:0:
480,312,270885,1,2,0:0:0:0:
480,312,270996,2,0,P|492:274|471:215,1,90,0|2,0:0|0:0,0:0:0:0:
332,172,271441,2,0,L|376:173,1,45,2|2,0:0|0:0,0:0:0:0:
440,128,271663,70,0,B|451:85|451:85|436:28,1,90,2|8,0:0|0:0,0:0:0:0:
256,128,272108,2,0,B|245:171|245:171|260:228,1,90,2|8,0:0|0:0,0:0:0:0:
348,344,272552,6,0,L|213:340,1,135,14|2,0:0|0:0,0:0:0:0:
144,304,272996,2,0,P|129:261|142:219,1,90,2|2,0:0|0:0,0:0:0:0:
216,80,273441,2,0,B|194:128|219:171|219:171|243:214|221:252,1,180,8|0,0:0|0:0,0:0:0:0:
293,122,274108,1,2,0:0:0:0:
293,122,274330,6,0,B|339:133|339:133|380:124,1,90,2|0,0:0|0:0,0:0:0:0:
500,228,274774,2,0,P|512:270|503:314,1,90,2|0,0:0|0:0,0:0:0:0:
436,352,275108,1,10,0:0:0:0:
436,352,275219,70,0,L|346:344,1,90,10|2,0:0|0:0,0:0:0:0:
224,248,275663,1,2,0:0:0:0:
364,180,275885,2,0,P|398:100|355:15,1,180,8|2,0:0|0:0,0:0:0:0:
296,64,276441,1,2,0:0:0:0:
296,64,276552,2,0,B|196:68,1,90,0|2,0:0|0:0,0:0:0:0:
64,136,276996,6,0,B|54:178|54:178|67:225,1,90,10|0,0:0|0:0,0:0:0:0:
152,356,277441,1,10,0:0:0:0:
276,260,277663,2,0,P|340:246|393:284,1,135,10|0,0:0|0:0,0:0:0:0:
468,252,278108,2,0,L|471:162,1,90,10|10,0:0|0:0,0:0:0:0:
236,80,278663,5,2,0:0:0:0:
236,80,278774,2,0,B|192:91|192:91|149:78,1,90,8|8,0:0|0:0,0:0:0:0:
8,164,279219,2,0,P|-13:228|11:294,1,135,10|0,0:0|0:0,0:0:0:0:
80,260,279663,70,0,L|236:272,1,135,14|2,0:0|0:0,0:0:0:0:
284,312,280108,2,0,B|295:268|295:268|284:224,1,90,2|2,0:0|0:0,0:0:0:0:
164,124,280552,5,8,0:0:0:0:
320,144,280774,1,0,0:0:0:0:
200,44,280996,1,0,0:0:0:0:
228,200,281218,1,2,0:0:0:0:
92,120,281441,6,0,B|78:165|78:165|94:206,1,90,2|0,0:0|0:0,0:0:0:0:
188,332,281885,2,0,L|277:328,1,90,2|0,0:0|0:0,0:0:0:0:
361,342,282219,1,10,0:0:0:0:
361,342,282330,70,0,P|371:298|360:255,1,90,10|2,0:0|0:0,0:0:0:0:
232,124,282774,1,2,0:0:0:0:
232,124,282996,2,8,L|220:258,1,135,10|8,0:0|0:0,0:0:0:0:
188,332,283441,2,0,P|144:343|101:331,1,90,8|8,0:0|0:0,0:0:0:0:
28,192,283885,1,2,0:0:0:0:
164,108,284108,6,0,B|238:125|220:75|300:100,1,135,10|0,0:0|0:0,0:0:0:0:
352,152,284552,1,10,0:0:0:0:
352,152,284774,2,0,L|348:241,1,90,2|0,0:0|0:0,0:0:0:0:
384,312,285108,1,10,0:0:0:0:
384,312,285219,6,0,B|426:325|426:325|470:313,1,90,10|2,0:0|0:0,0:0:0:0:
264,220,285663,2,0,L|260:264,1,45,2|2,0:0|0:0,0:0:0:0:
200,316,285885,70,0,P|156:304|113:316,1,90,2|8,0:0|0:0,0:0:0:0:
17,184,286330,1,8,0:0:0:0:
22,228,286441,1,8,0:0:0:0:
28,273,286552,1,8,0:0:0:0:
33,317,286663,1,8,0:0:0:0:
39,362,286774,5,0,3:0:0:0:
124,212,286997,1,0,3:0:0:0:
120,220,287219,1,0,3:0:0:0:
116,228,287441,1,0,3:0:0:0:
256,192,287497,12,0,289219,0:0:0:0:
60,128,289664,85,0,0:0:0:0:
53,149,290108,1,0,0:0:0:0:
47,171,290552,1,0,0:0:0:0:
41,195,290775,38,0,P|96:181|185:259,1,180,6|10,0:0|0:0,0:0:0:0:
116,308,291108,1,2,0:0:0:0:
252,182,291219,2,0,B|344:162|328:230|432:206,1,180,2|8,0:0|0:0,0:0:0:0:
490,145,291552,1,2,0:0:0:0:
420,40,291663,6,0,P|380:64|308:80,1,90,0|2,0:0|0:0,0:0:0:0:
252,182,291886,2,0,L|52:174,1,180,8|2,0:0|0:0,0:0:0:0:
28,293,292219,1,0,0:0:0:0:
108,339,292330,2,0,B|121:295|121:295|108:251,1,90,10|2,0:0|0:0,0:0:0:0:
64,38,292552,5,4,0:0:0:0:
8,110,292663,1,2,0:0:0:0:
72,174,292775,2,0,B|164:154|148:222|252:198,1,180,10|2,0:0|0:0,0:0:0:0:
320,152,293108,1,2,0:0:0:0:
440,244,293219,1,10,0:0:0:0:
415,56,293330,6,0,P|351:37|243:120,1,180,2|2,0:0|0:0,0:0:0:0:
244,199,293663,1,10,0:0:0:0:
86,166,293775,2,0,P|150:147|258:230,1,180,2|0,0:0|0:0,0:0:0:0:
103,357,294108,2,0,P|63:333|115:285,1,135,10|0,0:0|0:0,0:0:0:0:
148,304,294330,54,0,L|237:307,1,90,6|0,0:0|0:0,0:0:0:0:
376,236,294552,2,0,P|415:174|351:59,1,180,10|2,0:0|0:0,0:0:0:0:
304,32,294886,1,0,0:0:0:0:
186,155,294997,2,0,L|82:151,1,90,10|2,0:0|0:0,0:0:0:0:
16,108,295219,6,0,P|7:62|31:13,1,90,0|2,0:0|0:0,0:0:0:0:
207,74,295441,2,0,B|185:119|210:168|210:168|232:207|209:256,1,180,10|2,0:0|0:0,0:0:0:0:
128,280,295775,1,0,0:0:0:0:
224,364,295886,2,0,L|324:360,1,90,8|2,0:0|0:0,0:0:0:0:
448,264,296108,6,0,B|462:219|462:219|448:164,1,90,6|2,0:0|0:0,0:0:0:0:
345,40,296330,1,10,0:0:0:0:
333,128,296441,1,10,0:0:0:0:
317,216,296552,2,0,L|221:224,1,90,2|2,0:0|0:0,0:0:0:0:
82,34,296775,1,10,0:0:0:0:
34,110,296886,1,10,0:0:0:0:
78,186,296997,6,0,P|126:178|174:154,1,90,6|2,0:0|0:0,0:0:0:0:
272,68,297219,2,0,L|257:268,1,180,10|6,0:0|0:0,0:0:0:0:
116,344,297552,1,2,0:0:0:0:
116,344,297663,2,0,P|57:357|47:297,1,135,10|0,0:0|0:0,0:0:0:0:
79,270,297886,54,0,B|57:227|80:187|80:187|110:132|79:78,1,180,6|8,0:0|0:0,0:0:0:0:
20,36,298219,1,2,0:0:0:0:
176,154,298330,2,0,P|247:141|284:27,1,180,2|8,0:0|0:0,0:0:0:0:
208,16,298663,1,2,0:0:0:0:
363,126,298775,6,0,B|373:170|373:170|360:216,1,90,2|2,0:0|0:0,0:0:0:0:
270,246,298997,2,0,P|336:231|424:319,1,180,10|2,0:0|0:0,0:0:0:0:
300,365,299330,1,0,0:0:0:0:
300,365,299441,2,0,L|204:357,1,90,10|0,0:0|0:0,0:0:0:0:
28,227,299663,6,0,P|13:273|29:317,1,90,4|2,0:0|0:0,0:0:0:0:
150,230,299886,1,10,0:0:0:0:
94,158,299997,1,0,0:0:0:0:
158,94,300108,2,0,L|346:102,1,180,2|10,0:0|0:0,0:0:0:0:
408,44,300441,6,0,P|368:88|422:201,1,180,2|2,0:0|0:0,0:0:0:0:
476,244,300775,2,0,L|472:352,1,90,10|2,0:0|0:0,0:0:0:0:
294,271,300997,2,0,B|278:229|278:229|294:184,1,90,0|2,0:0|0:0,0:0:0:0:
345,349,301219,2,0,P|276:364|214:318,1,135,8|0,0:0|0:0,0:0:0:0:
204,292,301441,54,0,L|104:288,1,90,6|0,0:0|0:0,0:0:0:0:
4,135,301663,2,0,P|56:119|148:231,1,180,8|2,0:0|0:0,0:0:0:0:
56,215,301997,1,2,0:0:0:0:
196,94,302108,1,10,0:0:0:0:
252,162,302219,1,2,0:0:0:0:
332,118,302330,6,0,B|377:108|377:108|434:123,1,90,2|0,0:0|0:0,0:0:0:0:
300,284,302552,2,0,B|255:294|255:294|198:279,1,90,10|0,0:0|0:0,0:0:0:0:
41,58,302775,2,0,P|9:99|54:189,1,135,2|0,0:0|0:0,0:0:0:0:
69,192,302997,2,0,L|169:180,1,90,10|10,0:0|0:0,0:0:0:0:
384,192,303219,5,6,0:0:0:0:
429,270,303330,1,0,0:0:0:0:
369,338,303441,2,0,L|269:326,1,90,10|2,0:0|0:0,0:0:0:0:
158,181,303663,1,2,0:0:0:0:
113,103,303774,1,0,0:0:0:0:
173,35,303885,2,0,L|273:47,1,90,10|2,0:0|0:0,0:0:0:0:
360,216,304108,6,0,B|260:228,1,90,2|2,0:0|0:0,0:0:0:0:
14,162,304330,1,10,0:0:0:0:
144,278,304441,1,8,0:0:0:0:
113,103,304552,1,2,0:0:0:0:
44,265,304663,1,2,0:0:0:0:
194,183,304775,1,2,0:0:0:0:
14,162,304886,1,10,0:0:0:0:
144,277,304997,54,0,B|236:249|220:329|320:301,1,180,6|8,0:0|0:0,0:0:0:0:
376,124,305330,1,2,0:0:0:0:
314,49,305441,2,0,P|282:93|334:213,1,180,2|8,0:0|0:0,0:0:0:0:
470,348,305775,1,2,0:0:0:0:
470,348,305886,6,0,B|482:303|482:303|470:256,1,90,0|2,0:0|0:0,0:0:0:0:
404,200,306108,2,0,L|188:216,1,180,10|0,0:0|0:0,0:0:0:0:
128,160,306441,1,2,0:0:0:0:
16,244,306552,2,0,P|3:293|16:336,1,90,10|0,0:0|0:0,0:0:0:0:
128,160,306775,6,0,P|141:111|128:68,1,90,6|0,0:0|0:0,0:0:0:0:
60,16,306997,2,0,P|112:64|232:32,1,180,10|2,0:0|0:0,0:0:0:0:
292,8,307330,1,2,0:0:0:0:
458,178,307441,1,10,0:0:0:0:
370,92,307552,6,0,B|346:180|346:180|382:284,1,180,2|2,0:0|0:0,0:0:0:0:
340,348,307886,2,0,L|240:344,1,90,10|2,0:0|0:0,0:0:0:0:
172,172,308108,2,0,L|272:176,1,90,2|0,0:0|0:0,0:0:0:0:
108,319,308330,2,0,P|52:327|52:255,1,135,10|0,0:0|0:0,0:0:0:0:
80,235,308552,54,0,B|92:190|92:190|79:131,1,90,6|0,0:0|0:0,0:0:0:0:
0,47,308775,2,0,P|31:95|151:75,1,180,8|2,0:0|0:0,0:0:0:0:
216,36,309108,1,0,0:0:0:0:
216,36,309219,2,0,L|324:44,1,90,8|2,0:0|0:0,0:0:0:0:
431,163,309441,6,0,P|447:115|431:67,1,90,0|2,0:0|0:0,0:0:0:0:
358,119,309663,2,0,B|333:163|360:208|360:208|386:257|349:308,1,180,10|2,0:0|0:0,0:0:0:0:
288,348,309997,1,0,0:0:0:0:
162,242,310108,2,0,P|122:258|82:290,1,90,8|2,0:0|0:0,0:0:0:0:
16,125,310330,6,0,P|49:151|97:170,1,90,6|2,0:0|0:0,0:0:0:0:
187,89,310552,2,0,P|169:48|164:4,1,90,10|8,0:0|0:0,0:0:0:0:
356,24,310775,2,0,P|329:57|310:105,1,90,2|2,0:0|0:0,0:0:0:0:
398,179,310997,2,0,P|439:161|484:156,1,90,10|10,0:0|0:0,0:0:0:0:
452,324,311219,6,0,L|348:320,1,90,6|0,0:0|0:0,0:0:0:0:
198,358,311441,2,0,B|175:313|200:272|200:272|225:227|198:173,1,180,10|6,0:0|0:0,0:0:0:0:
106,47,311775,1,0,0:0:0:0:
106,47,311886,2,0,P|62:55|110:123,1,135,10|0,0:0|0:0,0:0:0:0:
118,143,312108,54,0,B|181:138|181:138|221:158|221:158|310:151,1,180,6|8,0:0|0:0,0:0:0:0:
434,83,312441,1,2,0:0:0:0:
434,83,312552,2,0,P|403:40|284:71,1,180,2|8,0:0|0:0,0:0:0:0:
373,201,312886,1,2,0:0:0:0:
373,201,312997,6,0,B|385:247|385:247|369:295,1,90,2|0,0:0|0:0,0:0:0:0:
300,340,313219,2,0,L|116:332,1,180,10|2,0:0|0:0,0:0:0:0:
52,283,313552,1,0,0:0:0:0:
52,283,313663,2,0,P|34:338|50:382,1,90,8|2,0:0|0:0,0:0:0:0:
214,248,313886,6,0,B|225:203|225:203|214:148,1,90,6|0,0:0|0:0,0:0:0:0:
15,52,314108,2,0,B|4:97|4:97|15:152,1,90,10|0,0:0|0:0,0:0:0:0:
135,201,314330,2,0,B|183:221|222:200|222:200|262:175|315:197,1,180,2|10,0:0|0:0,0:0:0:0:
362,276,314663,6,0,P|398:228|362:116,1,180,2|0,0:0|0:0,0:0:0:0:
179,34,314997,2,0,P|143:70|115:126,1,90,10|0,0:0|0:0,0:0:0:0:
43,170,315219,2,0,P|92:183|154:179,1,90,2|2,0:0|0:0,0:0:0:0:
231,222,315441,2,0,P|217:172|183:120,1,90,10|2,0:0|0:0,0:0:0:0:
79,327,315663,54,0,B|187:319,1,90,6|0,0:0|0:0,0:0:0:0:
399,175,315886,1,8,0:0:0:0:
302,148,315997,1,2,0:0:0:0:
360,344,316108,1,2,0:0:0:0:
430,273,316219,1,0,0:0:0:0:
231,222,316330,1,10,0:0:0:0:
260,316,316441,1,10,0:0:0:0:
333,246,316552,6,0,L|411:170,1,90,10|0,0:0|0:0,0:0:0:0:
476,72,316775,2,0,B|376:52|412:120|284:92,1,180,10|0,0:0|0:0,0:0:0:0:
164,28,317108,1,2,0:0:0:0:
76,140,317219,2,0,P|63:182|84:232,1,90,10|2,0:0|0:0,0:0:0:0:
246,358,317441,6,0,B|257:312|257:312|244:264,1,90,6|0,0:0|0:0,0:0:0:0:
332,224,317663,2,0,B|373:235|373:235|407:267,1,90,10|0,0:0|0:0,0:0:0:0:
384,84,317886,2,0,B|339:97|339:97|308:127,1,90,2|2,0:0|0:0,0:0:0:0:
220,99,318107,2,0,B|208:57|208:57|219:11,1,90,10|0,0:0|0:0,0:0:0:0:
308,127,318330,6,0,L|104:140,1,180,2|10,0:0|0:0,0:0:0:0:
32,64,318663,1,0,0:0:0:0:
108,248,318775,1,8,0:0:0:0:
0,164,318886,1,10,0:0:0:0:
166,50,318997,1,10,0:0:0:0:
88,328,319108,53,10,0:0:0:0:
