osu file format v14

[General]
AudioFilename: audio.mp3
AudioLeadIn: 0
PreviewTime: 79700
Countdown: 0
SampleSet: Soft
StackLeniency: 0.4
Mode: 0
LetterboxInBreaks: 0
WidescreenStoryboard: 1

[Editor]
DistanceSpacing: 0.4
BeatDivisor: 4
GridSize: 4
TimelineZoom: 3.499999

[Metadata]
Title:Destr0yer
TitleUnicode:Destr0yer
Artist:Sakuzyo feat. Nikki Simmons
ArtistUnicode:削除 feat. Nikki Simmons
Creator:Sakura Blossom
Version:I forgive you~
Source:BMS
Tags:Destroy, Sakura Blossom, Nikki Simmons, Sakuzyo
BeatmapID:1862130
BeatmapSetID:890751

[Difficulty]
HPDrainRate:5
CircleSize:4
OverallDifficulty:8
ApproachRate:9.2
SliderMultiplier:2.1
SliderTickRate:1

[Events]
//Background and Video events
0,0,"671201351_preview_b02ece343e4549c97fac12795292665aa7c0b3ff.jpg",0,0
Video,0,"G2R2018 Destr0yer (feat. Nikki Simmons).mp4"
//Break Periods
2,120700,125367
//Storyboard Layer 0 (Background)
//Storyboard Layer 1 (Fail)
//Storyboard Layer 2 (Pass)
//Storyboard Layer 3 (Foreground)
//Storyboard Layer 4 (Overlay)
//Storyboard Sound Samples

[TimingPoints]
34,666.666666666667,4,2,2,30,1,0
10700,-200,4,2,2,35,0,0
13367,-55.5555555555556,4,2,2,70,0,0
34700,-76.9230769230769,4,2,2,35,0,0
50034,-153.846153846154,4,2,2,35,0,0
50700,-76.9230769230769,4,2,2,35,0,0
51867,-40,4,2,2,45,0,0
52034,-76.9230769230769,4,2,2,35,0,0
52867,-40,4,2,2,35,0,0
53367,-76.9230769230769,4,2,2,35,0,0
57200,-40,4,2,2,70,0,0
57367,-76.9230769230769,4,2,2,70,0,0
57700,-58.8235294117647,4,2,2,70,0,0
58367,-40,4,2,2,70,0,0
58700,-100,4,2,2,47,0,0
69367,-83.3333333333333,4,2,2,65,0,0
80034,-25,4,2,2,70,0,0
81700,-100,4,2,2,65,0,0
84700,-33.3333333333333,4,2,2,65,0,0
85117,-100,4,2,2,65,0,0
85367,-33.3333333333333,4,2,2,65,0,0
86034,-100,4,2,2,65,0,0
89700,-33.3333333333333,4,2,2,65,0,0
90700,-100,4,2,2,65,0,0
92700,-1000,4,2,2,65,0,0
94700,-100,4,2,2,65,0,0
95367,-33.3333333333333,4,2,2,65,0,0
96700,-100,4,2,2,65,0,0
100700,-55.5555555555556,4,2,2,65,0,0
103367,-153.846153846154,4,2,2,70,0,1
103700,-76.9230769230769,4,2,2,70,0,1
104034,-55.5555555555556,4,2,2,70,0,1
120700,-55.5555555555556,4,2,2,70,0,0
125367,-55.5555555555556,4,2,2,70,0,0
130700,-200,4,2,2,35,0,0
133367,-55.5555555555556,4,2,2,70,0,0
136034,-200,4,2,2,70,0,0
137784,-55.5555555555556,4,2,2,70,0,0
141367,-76.9230769230769,4,2,2,70,0,0
141700,-40,4,2,2,70,0,0
142700,-100,4,2,2,70,0,0
143700,-55.5555555555556,4,2,2,70,0,0
154367,-16.6666666666667,4,2,2,70,0,0

[Colours]
Combo1 : 64,0,128
Combo2 : 147,255,255
Combo3 : 255,128,0
Combo4 : 60,60,60
Combo5 : 255,0,128

[HitObjects]
256,192,8034,12,0,10367,0:0:0:0:
256,192,10700,6,0,L|256:200,48,6.5625,0|0|0|0|0|0|0|0|0|0|0|0|0|0|0|0|0|0|0|0|0|0|0|0|0|0|0|0|0|0|0|0|0|0|0|0|0|0|0|0|0|0|0|0|0|0|0|0|8,0:0|0:0|0:0|0:0|0:0|0:0|0:0|0:0|0:0|0:0|0:0|0:0|0:0|0:0|0:0|0:0|0:0|0:0|0:0|0:0|0:0|0:0|0:0|0:0|0:0|0:0|0:0|0:0|0:0|0:0|0:0|0:0|0:0|0:0|0:0|0:0|0:0|0:0|0:0|0:0|0:0|0:0|0:0|0:0|0:0|0:0|0:0|0:0|0:0,0:0:0:0:
213,132,12867,6,0,L|206:174,2,26.25,0|0|0,0:0|0:0|0:0,0:0:0:0:
93,261,13367,6,0,P|150:214|278:236,1,188.999994232178,2|0,0:0|0:0,0:0:0:0:
276,311,13867,1,0,0:0:0:0:
299,148,14034,2,0,P|362:161|435:109,1,141.749995674133,8|0,0:0|0:0,0:0:0:0:
441,126,14367,2,0,L|450:24,1,94.499997116089,0|0,0:0|0:0,0:0:0:0:
408,234,14700,6,0,P|467:236|511:284,1,94.499997116089,2|0,0:0|0:0,0:0:0:0:
494,255,14950,1,0,0:0:0:0:
494,255,15034,1,0,0:0:0:0:
326,364,15200,1,0,0:0:0:0:
326,364,15284,1,0,0:0:0:0:
326,364,15367,1,8,0:0:0:0:
156,172,15534,1,0,0:0:0:0:
14,263,15700,2,0,P|73:267|109:243,1,94.499997116089,0|0,0:0|0:0,0:0:0:0:
300,151,16034,6,0,L|127:135,1,141.749995674133,2|0,0:0|0:0,0:0:0:0:
140,148,16367,2,0,P|125:93|140:44,1,94.499997116089,0|0,0:0|0:0,0:0:0:0:
385,2,16700,2,0,P|400:57|385:106,1,94.499997116089,8|0,0:0|0:0,0:0:0:0:
228,34,17034,1,0,0:0:0:0:
41,93,17200,1,0,0:0:0:0:
262,168,17367,5,2,0:0:0:0:
237,17,17534,1,0,0:0:0:0:
186,218,17700,2,0,P|171:263|185:313,1,94.499997116089,0|0,0:0|0:0,0:0:0:0:
190,318,17950,1,0,0:0:0:0:
200,327,18034,2,0,L|304:313,1,94.499997116089,8|0,0:0|0:0,0:0:0:0:
512,268,18367,2,0,L|350:247,1,141.749995674133,0|0,0:0|0:0,0:0:0:0:
356,258,18700,5,2,0:0:0:0:
497,185,18867,2,0,P|513:126|499:81,1,94.499997116089,0|0,0:0|0:0,0:0:0:0:
429,130,19200,1,0,0:0:0:0:
270,230,19367,2,0,L|177:243,2,94.499997116089,8|0|0,0:0|0:0|0:0,0:0:0:0:
0,117,19867,6,0,B|108:92|80:170|189:144,1,188.999994232178,0|0,0:0|0:0,0:0:0:0:
64,365,20367,2,0,P|104:311|92:225,1,141.749995674133,0|0,0:0|0:0,0:0:0:0:
91,227,20700,2,0,L|194:241,1,94.499997116089,8|0,0:0|0:0,0:0:0:0:
232,360,21034,2,0,P|276:363|326:327,1,94.499997116089,0|0,0:0|0:0,0:0:0:0:
295,122,21367,6,0,P|272:158|276:219,1,94.499997116089,2|0,0:0|0:0,0:0:0:0:
404,321,21700,1,0,0:0:0:0:
350,184,21867,1,0,0:0:0:0:
477,77,22034,2,0,L|465:184,2,94.499997116089,8|0|0,0:0|0:0|0:0,0:0:0:0:
381,2,22534,6,0,B|343:25|343:25|167:2,1,188.999994232178,0|0,0:0|0:0,0:0:0:0:
7,110,23034,2,0,L|163:89,1,141.749995674133,0|0,0:0|0:0,0:0:0:0:
147,91,23367,2,0,L|135:165,1,47.2499985580445,8|0,0:0|0:0,0:0:0:0:
179,295,23534,6,0,B|184:332,1,23.6249992790222,0|0,0:0|0:0,0:0:0:0:
184,290,23617,6,0,B|189:327,1,23.6249992790222,0|0,0:0|0:0,0:0:0:0:
189,285,23700,6,0,P|224:232|209:127,1,141.749995674133,0|0,0:0|0:0,0:0:0:0:
223,155,24034,6,0,L|442:177,1,188.999994232178,2|0,0:0|0:0,0:0:0:0:
336,78,24534,1,0,0:0:0:0:
483,282,24700,2,0,P|519:209|493:130,1,141.749995674133,8|0,0:0|0:0,0:0:0:0:
500,140,25034,2,0,L|515:31,1,94.499997116089,0|0,0:0|0:0,0:0:0:0:
392,248,25367,5,2,0:0:0:0:
236,155,25534,1,0,0:0:0:0:
313,295,25700,2,0,P|296:350|307:391,1,94.499997116089,0|0,0:0|0:0,0:0:0:0:
178,235,26034,1,8,0:0:0:0:
11,316,26200,2,0,L|128:296,2,94.499997116089,0|0|0,0:0|0:0|0:0,0:0:0:0:
192,362,26700,6,0,P|204:271|165:226,1,141.749995674133,2|0,0:0|0:0,0:0:0:0:
166,226,27034,2,0,P|141:170|158:106,1,94.499997116089,0|0,0:0|0:0,0:0:0:0:
349,70,27367,2,0,P|374:126|357:190,2,94.499997116089,8|0|0,0:0|0:0|0:0,0:0:0:0:
256,28,27867,1,0,0:0:0:0:
380,256,28034,5,2,0:0:0:0:
488,101,28200,1,0,0:0:0:0:
304,209,28367,2,0,B|289:253|289:253|309:315,1,94.499997116089,0|0,0:0|0:0,0:0:0:0:
477,365,28700,1,8,0:0:0:0:
303,298,28867,2,0,B|235:310|235:310|208:342|208:342|124:362,1,188.999994232178,0|0,0:0|0:0,0:0:0:0:
116,240,29367,5,2,0:0:0:0:
169,102,29534,2,0,P|196:161|173:217,1,94.499997116089,0|0,0:0|0:0,0:0:0:0:
12,122,29867,1,0,0:0:0:0:
152,7,30034,2,0,P|203:14|250:56,2,94.499997116089,8|0|0,0:0|0:0|0:0,0:0:0:0:
15,132,30534,6,0,L|-1:331,1,188.999994232178,0|0,0:0|0:0,0:0:0:0:
194,379,31034,2,0,P|211:306|171:227,1,141.749995674133,0|0,0:0|0:0,0:0:0:0:
180,234,31367,2,0,P|136:215|81:216,1,94.499997116089,8|0,0:0|0:0,0:0:0:0:
275,200,31700,1,0,0:0:0:0:
319,215,31783,1,0,0:0:0:0:
366,211,31866,1,0,0:0:0:0:
408,190,31949,1,0,0:0:0:0:
438,154,32034,6,0,L|451:50,1,94.499997116089,2|0,0:0|0:0,0:0:0:0:
206,19,32367,1,0,0:0:0:0:
246,202,32534,1,0,0:0:0:0:
35,97,32700,2,0,P|81:74|126:76,2,94.499997116089,8|0|0,0:0|0:0|0:0,0:0:0:0:
101,329,33200,6,0,P|138:248|83:145,1,188.999994232178,0|0,0:0|0:0,0:0:0:0:
0,361,33700,2,0,L|172:339,1,141.749995674133,0|0,0:0|0:0,0:0:0:0:
190,288,34034,6,0,P|214:320|218:353,1,47.2499985580445,8|0,0:0|0:0,0:0:0:0:
293,316,34200,2,0,P|288:364|276:385,1,47.2499985580445,0|0,0:0|0:0,0:0:0:0:
117,175,34367,6,0,P|122:127|134:106,1,47.2499985580445,0|0,0:0|0:0,0:0:0:0:
0,54,34534,2,0,P|34:27|56:21,1,47.2499985580445,0|0,0:0|0:0,0:0:0:0:
196,162,34700,6,0,L|344:149,1,136.499993751526,0|0,0:0|0:0,0:0:0:0:
404,170,35200,1,0,0:0:0:0:
460,119,35367,2,0,P|465:56|405:-12,1,136.499993751526,0|0,0:0|0:0,0:0:0:0:
404,170,35867,1,0,0:0:0:0:
381,98,36034,6,0,P|342:78|304:85,1,68.2499968757631,0|0,0:0|0:0,0:0:0:0:
249,164,36367,2,0,L|237:257,1,68.2499968757631,0|0,0:0|0:0,0:0:0:0:
7,29,36700,1,8,0:0:0:0:
7,29,37367,6,0,L|16:113,1,68.2499968757631,2|0,0:0|0:0,0:0:0:0:
120,134,37700,2,0,L|112:66,1,68.2499968757631,0|0,0:0|0:0,0:0:0:0:
67,209,38034,2,0,P|112:224|161:216,1,68.2499968757631,2|0,0:3|0:0,0:0:0:0:
210,133,38367,1,0,0:0:0:0:
90,312,38534,6,0,P|150:275|216:285,1,136.499993751526
319,375,39034,1,2,0:0:0:0:
371,298,39200,1,0,0:0:0:0:
508,315,39367,2,0,P|490:258|465:234,1,68.2499968757631
298,177,39700,2,0,L|287:306,1,102.374995313645,0|0,0:0|0:0,0:0:0:0:
289,279,40034,6,0,P|250:248|217:241,1,68.2499968757631,2|0,0:0|0:0,0:0:0:0:
217,322,40367,2,0,P|172:335|149:359,1,68.2499968757631,0|0,0:0|0:0,0:0:0:0:
0,217,40700,2,0,L|71:227,2,68.2499968757631,2|0|0,0:3|0:0|0:0,0:0:0:0:
127,163,41200,1,0,0:0:0:0:
231,313,41367,6,0,P|229:264|213:233,1,68.2499968757631,0|0,0:0|0:0,0:0:0:0:
281,71,41700,2,0,P|283:120|299:151,1,68.2499968757631,2|0,0:0|0:0,0:0:0:0:
430,246,42034,2,0,L|437:170,1,68.2499968757631,2|0,0:3|0:0,0:0:0:0:
352,197,42367,2,0,L|345:264,1,68.2499968757631,0|0,0:0|0:0,0:0:0:0:
496,374,42700,6,0,P|507:331|503:299,2,68.2499968757631,2|0|2,0:0|0:0|0:0,0:0:0:0:
414,353,43200,1,0,0:0:0:0:
241,366,43367,2,0,L|159:376,2,68.2499968757631,2|0|0,0:3|0:0|0:0,0:0:0:0:
6,297,44034,6,0,P|61:299|116:265,1,102.374995313645,0|0,0:0|0:0,0:0:0:0:
111,275,44367,2,0,P|121:234|118:204,1,68.2499968757631,2|0,0:0|0:0,0:0:0:0:
40,145,44700,2,0,L|32:222,1,68.2499968757631
32,212,45034,1,0,0:0:0:0:
192,168,45367,6,0,P|157:135|128:126,1,68.2499968757631,2|0,0:0|0:0,0:0:0:0:
68,43,45700,2,0,P|21:59|-8:83,1,68.2499968757631,0|0,0:0|0:0,0:0:0:0:
261,85,46034,2,0,L|340:71,2,68.2499968757631,2|0|0,0:3|0:0|0:0,0:0:0:0:
404,116,46534,6,0,P|455:84|487:-7,1,136.499993751526,2|0,0:0|0:0,0:0:0:0:
312,175,47034,2,0,P|359:194|389:225,1,68.2499968757631,2|0,0:0|0:0,0:0:0:0:
218,140,47367,1,0,0:0:0:0:
238,243,47534,1,2,0:0:0:0:
28,358,47700,1,2,0:0:0:0:
66,203,47867,1,0,0:0:0:0:
4,26,48034,6,0,L|13:103,1,68.2499968757631,2|0,0:0|0:0,0:0:0:0:
147,167,48367,2,0,L|156:244,1,68.2499968757631,0|0,0:0|0:0,0:0:0:0:
71,365,48700,2,0,P|26:356|-1:327,2,68.2499968757631,2|0|0,0:3|0:0|0:0,0:0:0:0:
154,326,49200,1,0,0:0:0:0:
324,367,49367,6,2,L|442:355,1,102.374995313645,0|0,0:0|0:0,0:0:0:0:
433,363,49700,2,0,P|483:340|500:311,1,68.2499968757631,2|0,0:0|0:0,0:0:0:0:
371,242,50034,2,0,L|368:282,3,34.1249984378815,0|0|0|0,0:0|0:0|0:0|0:0,0:0:0:0:
506,232,50700,6,0,L|494:145,1,68.2499968757631,2|0,0:0|0:0,0:0:0:0:
318,104,51034,2,0,L|308:171,1,68.2499968757631,0|0,0:0|0:0,0:0:0:0:
203,343,51367,2,0,P|182:284|196:196,1,136.499993751526,2|0,0:3|0:0,0:0:0:0:
9,76,51867,6,2,P|49:69|54:39,1,65.625,2|0,0:0|0:0,0:0:0:0:
55,49,52034,6,2,L|152:55,1,68.2499968757631,2|0,0:0|0:0,0:0:0:0:
248,11,52367,2,0,P|263:57|254:93,1,68.2499968757631,2|0,0:0|0:0,0:0:0:0:
201,137,52700,1,2,0:3:0:0:
486,105,52867,6,2,P|452:76|413:88,1,65.625,2|0,0:0|0:0,0:0:0:0:
277,214,53034,2,2,P|249:226|248:269,1,65.625,2|0,0:0|0:0,0:0:0:0:
66,211,53200,2,2,P|20:185|3:198,1,65.625,2|0,0:0|0:0,0:0:0:0:
101,309,53367,6,0,L|90:386,2,68.2499968757631,2|0|0,0:0|0:0|0:0,0:0:0:0:
162,252,53867,1,0,0:0:0:0:
61,159,54034,1,2,0:3:0:0:
251,82,54200,2,0,P|244:38|228:11,1,68.2499968757631,0|0,0:0|0:0,0:0:0:0:
232,17,54700,6,2,L|217:169,1,136.499993751526,2|2,0:3|0:0,0:0:0:0:
273,298,55200,1,0,0:0:0:0:
369,133,55367,2,0,P|326:107|289:106,2,68.2499968757631,2|0|0,0:3|0:0|0:0,0:0:0:0:
148,130,56034,6,0,L|153:215,1,68.2499968757631,2|0,0:0|0:0,0:0:0:0:
39,306,56367,2,0,P|39:264|51:236,1,68.2499968757631,0|0,0:0|0:0,0:0:0:0:
231,239,56700,2,0,P|185:284|107:277,1,136.499993751526,2|0,0:3|0:0,0:0:0:0:
51,154,57200,6,2,P|28:128|-14:142,1,65.625,2|0,0:0|0:0,0:0:0:0:
0,130,57367,6,2,L|12:49,1,68.2499968757631,2|0,0:0|0:0,0:0:0:0:
163,114,57700,2,0,P|181:168|163:222,1,89.2500017023087,2|0,0:0|0:0,0:0:0:0:
79,304,58034,1,2,0:0:0:0:
312,170,58200,1,2,0:0:0:0:
44,17,58367,6,0,L|15:263,1,196.875,4|0,0:0|0:0,0:0:0:0:
20,212,58700,6,0,P|55:180|129:182,1,105,6|0,0:0|0:0,0:0:0:0:
63,384,59367,2,0,L|77:260,1,105,2|2,0:0|0:0,0:0:0:0:
192,224,60034,2,0,L|203:328,1,105,2|2,0:0|0:0,0:0:0:0:
284,230,60534,1,0,0:0:0:0:
428,285,60700,2,0,P|445:332|422:402,1,105,2|0,0:0|0:0,0:0:0:0:
493,149,61367,6,0,L|369:130,1,105,2|0,0:0|0:0,0:0:0:0:
194,54,62034,2,0,P|248:64|298:25,1,105,2|0,0:0|0:0,0:0:0:0:
26,92,62700,2,0,P|63:119|71:193,1,105,2|2,0:0|0:0,0:0:0:0:
34,248,63200,1,0,0:0:0:0:
116,378,63367,2,0,L|219:361,1,105,2|0,0:0|0:0,0:0:0:0:
232,366,64034,5,2,3:2:0:0:
147,272,64200,1,2,3:0:0:0:
396,359,64367,1,0,3:0:0:0:
456,294,64700,6,0,P|458:245|419:182,1,105,2|0,0:0|0:0,0:0:0:0:
269,26,65367,2,0,L|254:143,1,105,2|2,0:0|0:0,0:0:0:0:
186,81,65867,1,0,0:0:0:0:
120,188,66034,2,0,L|135:305,1,105,2|2,0:0|0:0,0:0:0:0:
95,373,66534,6,0,P|138:341|205:348,1,105,2|0,0:0|0:0,0:0:0:0:
262,375,67034,2,0,L|385:365,1,105,2|0,0:0|0:0,0:0:0:0:
374,371,67700,1,2,0:0:0:0:
505,327,67867,6,0,P|468:303|398:297,1,105,2|2,0:0|0:0,0:0:0:0:
374,371,68367,1,2,0:0:0:0:
330,141,68534,2,0,L|320:266,1,105,2|0,0:0|0:0,0:0:0:0:
251,358,69034,2,0,P|240:325|237:302,1,52.5,0|0,0:0|0:0,0:0:0:0:
29,258,69367,6,0,L|92:249,1,62.9999980773926,2|0,0:0|0:0,0:0:0:0:
108,149,69700,2,0,L|45:158,1,62.9999980773926
188,191,70034,2,0,P|197:143|188:113,1,62.9999980773926,2|0,0:0|0:0,0:0:0:0:
113,19,70367,2,0,L|119:62,3,31.4999990386963,0|0|0|0,0:0|0:0|0:0|0:0,0:0:0:0:
125,58,70700,6,0,P|164:59|204:38,1,62.9999980773926,2|0,0:0|0:0,0:0:0:0:
289,11,71034,2,0,P|326:19|348:39,1,62.9999980773926,2|0,0:0|0:0,0:0:0:0:
368,125,71367,2,0,L|357:201,1,62.9999980773926,2|0,0:0|0:0,0:0:0:0:
460,253,71700,2,0,L|457:214,3,31.4999990386963,0|0|0|0,0:0|0:0|0:0|0:0,0:0:0:0:
467,260,72034,6,0,P|468:302|459:334,1,62.9999980773926,2|0,0:0|0:0,0:0:0:0:
345,359,72367,2,0,P|344:317|353:285,1,62.9999980773926,0|0,0:0|0:0,0:0:0:0:
130,230,72700,2,0,P|129:272|138:304,1,62.9999980773926,2|0,0:0|0:0,0:0:0:0:
252,329,73033,2,0,P|253:287|244:255,1,62.9999980773926,0|0,0:0|0:0,0:0:0:0:
62,345,73367,6,0,L|-4:354,1,62.9999980773926,2|0,0:0|0:0,0:0:0:0:
55,194,73700,2,0,L|63:119,1,62.9999980773926,2|0,0:0|0:0,0:0:0:0:
112,272,74034,1,2,0:0:0:0:
214,372,74200,1,2,0:0:0:0:
205,365,74283,1,2,0:0:0:0:
197,359,74366,1,2,0:0:0:0:
187,355,74449,1,2,0:0:0:0:
177,352,74533,1,2,0:0:0:0:
166,351,74616,1,2,0:0:0:0:
156,351,74700,6,0,L|164:271,1,62.9999980773926,2|0,0:0|0:0,0:0:0:0:
239,208,75034,2,0,L|245:263,3,31.4999990386963,0|0|0|0,0:0|0:0|0:0|0:0,0:0:0:0:
235,198,75367,2,0,P|270:183|299:182,1,62.9999980773926,2|0,0:0|0:0,0:0:0:0:
374,333,75700,2,0,L|368:388,3,31.4999990386963,0|0|0|0,0:0|0:0|0:0|0:0,0:0:0:0:
381,326,76034,5,2,0:0:0:0:
382,318,76117,1,0,0:0:0:0:
383,310,76200,1,0,0:0:0:0:
383,302,76283,1,0,0:0:0:0:
382,294,76367,1,2,0:0:0:0:
380,287,76450,1,0,0:0:0:0:
378,279,76533,1,0,0:0:0:0:
375,272,76617,1,0,0:0:0:0:
371,265,76700,6,0,P|332:241|299:239,1,62.9999980773926,0|0,0:0|0:0,0:0:0:0:
237,338,77034,2,0,L|232:383,3,31.4999990386963,0|0|0|0,0:0|0:0|0:0|0:0,0:0:0:0:
256,192,77367,12,0,79617,0:0:0:0:
157,147,80034,6,2,B|12:58|12:58|134:5|134:5|85:277|85:277|431:144|431:144|212:42|212:42|267:186|267:186|364:254|364:254|485:212|485:212|370:388|370:388|270:314|270:314|340:354,1,1995,6|0,0:0|0:0,0:0:0:0:
328,347,81700,6,0,L|320:389,3,26.25,0|0|0|0,0:0|0:0|0:0|0:0,0:0:0:0:
179,352,82034,6,0,L|172:324,1,26.25,8|0,0:0|0:0,0:0:0:0:
337,212,82200,2,0,L|333:238,1,26.25,0|0,0:0|0:0,0:0:0:0:
245,291,82367,2,0,L|238:263,1,26.25,2|0,0:0|0:0,0:0:0:0:
449,346,82533,2,0,L|445:372,1,26.25,0|0,0:0|0:0,0:0:0:0:
51,258,82700,5,2,0:0:0:0:
68,246,82784,1,0,0:0:0:0:
108,244,82867,1,0,0:0:0:0:
150,275,82950,1,0,0:0:0:0:
208,312,83034,5,0,0:0:0:0:
207,290,83118,1,0,0:0:0:0:
225,253,83201,1,0,0:0:0:0:
272,233,83284,1,0,0:0:0:0:
319,181,83367,5,0,0:0:0:0:
323,199,83450,1,0,0:0:0:0:
332,238,83534,1,0,0:0:0:0:
345,291,83617,1,0,0:0:0:0:
398,344,83700,5,2,0:0:0:0:
403,324,83783,1,0,0:0:0:0:
412,285,83867,1,0,0:0:0:0:
424,232,83950,1,0,0:0:0:0:
479,162,84034,6,0,L|439:168,1,26.25,2|0,0:0|0:0,0:0:0:0:
315,104,84200,2,0,L|355:110,1,26.25,2|0,0:0|0:0,0:0:0:0:
415,38,84367,2,0,L|375:44,1,26.25,2|0,0:0|0:0,0:0:0:0:
211,144,84533,2,0,L|251:150,1,26.25,2|0,0:0|0:0,0:0:0:0:
266,366,84700,6,2,B|276:306|243:249|209:239|209:239|188:217|188:217|157:244|157:244|139:230|139:230|93:248|42:212,1,315.000012016297,2|0,0:0|0:0,0:0:0:0:
61,217,85117,6,0,L|53:175,2,26.25,0|0|0,0:0|0:0|0:0,0:0:0:0:
0,260,85367,6,2,P|112:231|196:110,1,236.250009012223,2|0,0:0|0:0,0:0:0:0:
286,119,85700,2,2,B|216:140|161:66|187:70|150:9|62:34,1,236.250009012223,2|0,0:0|0:0,0:0:0:0:
73,37,86034,6,0,L|67:100,1,52.5,8|0,0:0|0:0,0:0:0:0:
38,209,86367,5,2,0:0:0:0:
63,219,86450,1,0,0:0:0:0:
104,226,86534,1,0,0:0:0:0:
161,203,86617,1,0,0:0:0:0:
203,153,86700,5,2,0:0:0:0:
183,171,86784,1,0,0:0:0:0:
169,210,86867,1,0,0:0:0:0:
184,271,86950,1,0,0:0:0:0:
236,314,87034,5,2,0:0:0:0:
265,254,87117,1,0,0:0:0:0:
268,187,87200,1,0,0:0:0:0:
254,121,87284,1,0,0:0:0:0:
225,59,87367,6,8,L|201:61,6,13.125,8|8|8|8|8|8|8,0:3|0:3|0:3|0:3|0:3|0:3|0:3,0:3:0:0:
448,122,87700,2,0,L|468:124,6,13.125,0|0|0|0|0|0|0,0:0|0:0|0:0|0:0|0:0|0:0|0:0,0:0:0:0:
291,255,88034,5,2,0:0:0:0:
48,202,88200,1,0,0:0:0:0:
48,202,88284,1,0,0:0:0:0:
48,202,88367,1,0,0:0:0:0:
110,196,88450,1,0,0:0:0:0:
171,211,88533,1,0,0:0:0:0:
232,254,88616,1,0,0:0:0:0:
232,254,88700,5,8,0:0:0:0:
232,254,88784,1,0,0:0:0:0:
214,183,88867,1,0,0:0:0:0:
223,123,88950,1,0,0:0:0:0:
257,73,89033,1,0,0:0:0:0:
257,73,89117,1,0,0:0:0:0:
257,73,89200,1,0,0:0:0:0:
201,113,89284,1,0,0:0:0:0:
181,36,89367,6,2,L|158:30,6,13.125
115,22,89700,6,2,P|160:22|194:-11,1,78.7500030040742,2|0,0:0|0:0,0:0:0:0:
280,154,89867,2,2,P|314:201|295:247,1,78.7500030040742,2|0,0:0|0:0,0:0:0:0:
355,82,90034,5,8,0:0:0:0:
272,302,90200,1,0,0:0:0:0:
103,133,90367,2,2,B|93:103|55:71|22:104,2,105.000004005432
170,210,90700,6,0,L|162:260,1,26.25,2|0,0:0|0:0,0:0:0:0:
272,302,90867,2,0,L|267:276,1,26.25,2|0,0:0|0:0,0:0:0:0:
234,124,91034,2,0,L|226:174,1,26.25
109,325,91201,2,0,L|104:299,1,26.25,0|0,0:0|0:0,0:0:0:0:
220,384,91367,5,8,0:0:0:0:
26,266,91534,1,0,0:0:0:0:
322,187,91700,5,2,0:0:0:0:
298,176,91784,1,0,0:0:0:0:
248,176,91867,1,0,0:0:0:0:
195,221,91950,1,0,0:0:0:0:
162,289,92034,5,2,0:0:0:0:
173,266,92118,1,0,0:0:0:0:
173,215,92201,1,0,0:0:0:0:
131,162,92284,1,0,0:0:0:0:
60,130,92367,5,2,0:0:0:0:
84,140,92451,1,0,0:0:0:0:
134,140,92534,1,0,0:0:0:0:
187,98,92617,1,0,0:0:0:0:
216,27,92700,6,0,L|214:10,1,15.75,14|0,0:0|0:0,0:0:0:0:
353,91,93367,5,2,0:0:0:0:
334,77,93451,1,0,0:0:0:0:
289,75,93534,1,0,0:0:0:0:
242,110,93617,1,0,0:0:0:0:
218,176,93700,5,2,0:0:0:0:
230,156,93784,1,0,0:0:0:0:
232,111,93867,1,0,0:0:0:0:
196,65,93950,1,0,0:0:0:0:
127,38,94034,5,2,0:0:0:0:
129,58,94117,1,0,0:0:0:0:
135,102,94201,1,0,0:0:0:0:
143,163,94284,1,0,0:0:0:0:
175,238,94367,5,2,0:0:0:0:
174,258,94450,1,0,0:0:0:0:
167,303,94534,1,0,0:0:0:0:
159,363,94617,1,0,0:0:0:0:
84,339,94700,6,0,L|76:303,1,26.25,2|0,0:0|0:0,0:0:0:0:
247,214,94867,2,0,L|252:239,1,26.25,2|0,0:0|0:0,0:0:0:0:
77,330,95034,2,0,L|69:294,1,26.25,2|0,0:0|0:0,0:0:0:0:
240,205,95201,2,0,L|245:230,1,26.25,2|0,0:0|0:0,0:0:0:0:
34,224,95367,6,2,B|51:215|51:215|83:216,6,39.3750015020371
69,120,95700,6,2,B|88:146|132:144|167:118,1,78.7500030040742,2|0,0:0|0:0,0:0:0:0:
344,14,95867,2,2,B|379:1|417:52|402:129,1,78.7500030040742,2|0,0:0|0:0,0:0:0:0:
507,127,96034,6,0,B|484:88|419:63|375:101|375:101|351:151|293:163,1,236.250009012223,2|0,0:0|0:0,0:0:0:0:
263,299,96367,2,0,P|300:158|276:67,1,236.250009012223,2|0,0:0|0:0,0:0:0:0:
268,63,96700,6,0,L|209:52,1,52.5,8|0,0:0|0:0,0:0:0:0:
36,144,97034,5,2,0:0:0:0:
55,142,97117,1,0,0:0:0:0:
100,135,97201,1,0,0:0:0:0:
160,127,97284,1,0,0:0:0:0:
231,118,97367,5,2,0:0:0:0:
233,138,97450,1,0,0:0:0:0:
240,183,97534,1,0,0:0:0:0:
248,243,97617,1,0,0:0:0:0:
258,313,97700,5,2,0:0:0:0:
262,241,97783,1,0,0:0:0:0:
267,170,97866,1,0,0:0:0:0:
272,98,97949,1,0,0:0:0:0:
285,14,98034,6,8,L|267:17,6,13.125,8|8|8|8|8|8|8,0:3|0:3|0:3|0:3|0:3|0:3|0:3,0:3:0:0:
466,79,98367,2,0,L|484:82,6,13.125,0|0|0|0|0|0|0,0:0|0:0|0:0|0:0|0:0|0:0|0:0,0:0:0:0:
355,209,98700,5,2,0:0:0:0:
421,249,98867,2,0,P|430:209|429:203,1,26.25,2|0,0:0|0:0,0:0:0:0:
355,209,99034,5,2,0:0:0:0:
356,131,99201,2,0,P|316:143|312:147,1,26.25,2|0,0:0|0:0,0:0:0:0:
355,209,99367,5,8,0:0:0:0:
286,247,99534,2,0,P|316:274|321:276,1,26.25,2|0,0:0|0:0,0:0:0:0:
355,209,99700,5,2,0:0:0:0:
381,341,99867,2,0,L|387:373,1,26.25,2|0,0:0|0:0,0:0:0:0:
216,298,100034,5,2,0:0:0:0:
434,228,100200,1,8,0:0:0:0:
198,137,100367,1,2,0:0:0:0:
141,375,100534,1,0,0:0:0:0:
278,124,100700,2,0,B|297:81|297:81|282:35,1,94.499997116089,8|0,0:0|0:0,0:0:0:0:
274,18,100950,1,0,0:0:0:0:
266,0,101034,2,0,L|311:11,1,47.2499985580445,8|0,0:0|0:0,0:0:0:0:
512,148,101200,2,0,L|466:136,1,47.2499985580445,0|0,0:0|0:0,0:0:0:0:
157,222,101367,5,2,0:0:0:0:
76,270,101534,2,0,P|65:222|67:214,1,47.2499985580445,0|0,0:0|0:0,0:0:0:0:
157,222,101701,5,2,0:0:0:0:
155,127,101868,2,0,P|202:141|207:146,1,47.2499985580445,0|0,0:0|0:0,0:0:0:0:
157,222,102034,5,2,0:0:0:0:
240,268,102201,2,0,P|202:300|196:303,1,47.2499985580445,0|0,0:0|0:0,0:0:0:0:
157,222,102367,5,2,0:0:0:0:
132,338,102534,2,0,L|122:386,1,47.2499985580445,0|0,0:0|0:0,0:0:0:0:
157,222,102700,5,0,0:0:0:0:
69,142,102867,2,0,L|32:109,1,47.2499985580445,0|0,0:0|0:0,0:0:0:0:
157,222,103034,5,2,0:0:0:0:
196,214,103117,1,0,0:0:0:0:
237,206,103200,1,0,0:0:0:0:
277,198,103283,1,0,0:0:0:0:
318,190,103367,6,0,P|311:216|312:231,1,34.1249984378815,0|0,0:0|0:0,0:0:0:0:
373,277,103700,6,0,P|405:226|386:161,1,102.374995313645,0|0,0:0|0:0,0:0:0:0:
401,186,104034,6,2,L|379:387,1,188.999994232178,6|0,0:0|0:0,0:0:0:0:
480,265,104534,1,0,0:0:0:0:
442,109,104700,2,0,P|374:102|320:157,1,141.749995674133,8|0,0:0|0:0,0:0:0:0:
318,157,105034,2,0,P|272:182|223:179,1,94.499997116089,0|0,0:0|0:0,0:0:0:0:
0,25,105367,6,2,L|220:44,1,188.999994232178,2|0,0:0|0:0,0:0:0:0:
409,34,105867,2,0,B|434:73|434:73|418:146,1,94.499997116089,0|8,0:0|0:0,0:0:0:0:
259,227,106200,2,0,B|233:187|233:187|249:114,1,94.499997116089,0|0,0:0|0:0,0:0:0:0:
341,89,106534,1,0,0:0:0:0:
415,277,106700,6,2,B|307:252|336:337|209:301,1,188.999994232178,2|0,0:0|0:0,0:0:0:0:
147,260,107200,1,0,0:0:0:0:
8,374,107367,2,0,P|36:314|22:209,1,141.749995674133,8|0,0:0|0:0,0:0:0:0:
29,231,107700,2,0,L|46:124,1,94.499997116089,0|0,0:0|0:0,0:0:0:0:
254,182,108034,6,2,B|243:104|243:104|224:73|224:73|209:-33,1,188.999994232178,2|0,0:0|0:0,0:0:0:0:
341,207,108534,2,0,P|237:227|153:294,1,188.999994232178
396,318,109034,1,0,0:0:0:0:
451,99,109200,1,0,0:0:0:0:
491,380,109367,6,2,P|366:340|275:351,1,188.999994232178,2|0,0:0|0:0,0:0:0:0:
123,382,109867,1,0,0:0:0:0:
14,250,110034,2,0,B|56:230|56:230|186:245,1,141.749995674133,8|0,0:0|0:0,0:0:0:0:
173,244,110367,1,0,0:0:0:0:
56,127,110534,1,0,0:0:0:0:
244,190,110700,6,2,P|261:254|240:304,1,94.499997116089,2|0,0:0|0:0,0:0:0:0:
131,372,111034,1,0,0:0:0:0:
149,146,111200,2,0,L|160:38,1,94.499997116089,0|8,0:0|0:0,0:0:0:0:
83,252,111534,1,0,0:0:0:0:
241,116,111700,1,0,0:0:0:0:
28,43,111867,1,0,0:0:0:0:
316,65,112034,6,2,P|387:78|477:4,1,188.999994232178,2|0,0:0|0:0,0:0:0:0:
234,21,112534,1,0,0:0:0:0:
34,127,112700,2,0,P|105:117|209:205,1,188.999994232178,8|0,0:0|0:0,0:0:0:0:
197,180,113117,1,0,0:0:0:0:
197,180,113200,1,0,0:0:0:0:
197,180,113284,1,0,0:0:0:0:
197,180,113367,5,2,0:0:0:0:
187,140,113450,1,0,0:0:0:0:
215,111,113533,1,0,0:0:0:0:
254,120,113616,1,0,0:0:0:0:
268,157,113700,5,2,0:0:0:0:
313,192,113783,1,0,0:0:0:0:
367,175,113866,1,0,0:0:0:0:
386,122,113949,1,0,0:0:0:0:
355,74,114034,5,10,0:0:0:0:
319,121,114117,1,0,0:0:0:0:
302,176,114200,1,0,0:0:0:0:
306,234,114283,1,0,0:0:0:0:
332,287,114367,5,2,0:0:0:0:
301,237,114450,1,0,0:0:0:0:
254,203,114533,1,2,0:0:0:0:
197,189,114616,1,0,0:0:0:0:
140,198,114700,6,2,L|160:-2,1,188.999994232178,14|0,0:0|0:0,0:0:0:0:
51,197,115200,1,0,0:0:0:0:
286,384,115367,2,0,P|244:329|151:315,1,141.749995674133,8|0,0:0|0:0,0:0:0:0:
166,314,115700,1,2,0:0:0:0:
326,162,115867,6,0,B|370:175|370:175|542:146,1,188.999994232178,2|0,0:0|0:0,0:0:0:0:
244,0,116367,2,0,P|227:58|239:108,1,94.499997116089,2|2,0:0|0:0,0:0:0:0:
168,286,116700,2,0,L|20:300,1,141.749995674133,8|0,0:0|0:0,0:0:0:0:
14,293,117034,1,0,0:0:0:0:
251,347,117200,1,0,0:0:0:0:
279,171,117367,6,2,L|448:188,1,141.749995674133,2|0,0:0|0:0,0:0:0:0:
431,193,117700,2,0,P|458:136|443:88,1,94.499997116089,0|0,0:0|0:0,0:0:0:0:
99,77,118034,1,8,0:0:0:0:
168,258,118200,1,2,0:0:0:0:
37,156,118367,1,0,0:0:0:0:
174,23,118534,1,0,0:0:0:0:
291,107,118700,5,2,0:3:0:0:
291,107,118784,1,2,0:3:0:0:
291,107,118867,1,2,0:3:0:0:
291,107,118950,1,2,0:3:0:0:
291,107,119034,1,2,0:3:0:0:
386,28,119200,1,0,0:0:0:0:
288,262,119367,1,8,0:0:0:0:
493,207,119534,5,2,0:3:0:0:
409,197,119618,1,2,0:3:0:0:
341,207,119701,1,2,0:3:0:0:
288,219,119784,1,2,0:3:0:0:
247,233,119868,1,2,0:3:0:0:
218,248,119951,1,2,0:3:0:0:
199,261,120034,5,2,0:3:0:0:
256,192,128034,12,0,130450,0:0:0:0:
256,192,130700,6,0,L|256:200,48,6.5625,0|0|0|0|0|0|0|0|0|0|0|0|0|0|0|0|0|0|0|0|0|0|0|0|0|0|0|0|0|0|0|0|0|0|0|0|0|0|0|0|0|0|0|0|0|0|0|0|8,0:0|0:0|0:0|0:0|0:0|0:0|0:0|0:0|0:0|0:0|0:0|0:0|0:0|0:0|0:0|0:0|0:0|0:0|0:0|0:0|0:0|0:0|0:0|0:0|0:0|0:0|0:0|0:0|0:0|0:0|0:0|0:0|0:0|0:0|0:0|0:0|0:0|0:0|0:0|0:0|0:0|0:0|0:0|0:0|0:0|0:0|0:0|0:0|0:0,0:0:0:0:
241,201,132867,6,0,L|235:175,2,26.25,0|0|0,0:0|0:0|0:0,0:0:0:0:
411,141,133367,6,2,P|340:88|234:104,1,188.999994232178,2|0,0:0|0:0,0:0:0:0:
371,3,133867,1,0,0:0:0:0:
168,12,134034,2,0,L|143:193,1,141.749995674133,8|0,0:0|0:0,0:0:0:0:
151,161,134367,2,0,P|96:172|55:205,1,94.499997116089,0|0,0:0|0:0,0:0:0:0:
266,384,134700,6,2,B|301:281|209:298|244:181,1,188.999994232178,2|0,0:0|0:0,0:0:0:0:
191,340,135200,1,0,0:0:0:0:
337,197,135367,1,8,0:0:0:0:
202,94,135534,2,0,L|211:-6,2,94.499997116089,0|0|0,0:0|0:0|0:0,0:0:0:0:
208,111,135950,1,0,0:0:0:0:
214,128,136034,6,2,B|114:108|114:108|112:104|112:104|108:108|108:108|40:99|40:99|21:134|42:177,1,262.5
65,203,137784,5,0,0:0:0:0:
103,221,137867,1,0,0:0:0:0:
145,221,137950,1,0,0:0:0:0:
185,207,138034,5,10,0:0:0:0:
219,210,138117,1,0,0:0:0:0:
248,231,138200,1,0,0:0:0:0:
262,263,138284,1,0,0:0:0:0:
260,298,138367,2,0,L|420:277,1,141.749995674133,2|0,0:0|0:0,0:0:0:0:
406,274,138700,6,0,P|405:333|376:379,1,94.499997116089,2|2,0:0|0:0,0:0:0:0:
166,329,139034,2,0,P|167:270|196:224,1,94.499997116089,0|0,0:0|0:0,0:0:0:0:
260,298,139367,1,8,0:0:0:0:
33,187,139534,5,0,0:0:0:0:
69,200,139617,1,0,0:0:0:0:
109,202,139700,1,0,0:0:0:0:
147,194,139784,1,0,0:0:0:0:
181,174,139867,1,0,0:0:0:0:
208,146,139950,1,0,0:0:0:0:
227,111,140034,1,2,0:0:0:0:
462,384,140200,5,0,0:0:0:0:
494,330,140284,1,0,0:0:0:0:
487,269,140367,1,0,0:0:0:0:
443,224,140450,1,0,0:0:0:0:
382,217,140534,1,0,0:0:0:0:
328,248,140617,1,0,0:0:0:0:
305,307,140700,6,0,L|316:366,1,47.2499985580445,8|0,0:0|0:0,0:0:0:0:
93,319,140867,2,0,L|84:272,1,47.2499985580445,0|0,0:0|0:0,0:0:0:0:
252,103,141034,2,2,L|234:249,1,141.749995674133,2|0,0:0|0:0,0:0:0:0:
241,96,141367,6,0,L|231:183,1,68.2499968757631,2|0,0:0|0:0,0:0:0:0:
80,309,141700,6,0,P|117:289|151:292,1,65.625,2|0,0:0|0:0,0:0:0:0:
305,358,141867,5,0,0:0:0:0:
305,358,141950,1,0,0:0:0:0:
305,358,142034,1,10,0:0:0:0:
365,382,142117,1,0,0:0:0:0:
429,371,142200,1,0,0:0:0:0:
478,330,142284,1,0,0:0:0:0:
499,268,142367,5,2,0:0:0:0:
497,236,142450,1,0,0:0:0:0:
485,205,142533,1,0,0:0:0:0:
465,179,142617,1,0,0:0:0:0:
439,160,142700,6,0,P|411:167|383:186,1,52.5,2|0,0:0|0:0,0:0:0:0:
167,307,143034,5,2,0:0:0:0:
174,248,143117,1,0,0:0:0:0:
182,189,143200,1,0,0:0:0:0:
190,131,143284,1,0,0:0:0:0:
163,79,143367,5,10,0:0:0:0:
174,143,143450,1,2,0:0:0:0:
185,207,143533,1,2,0:0:0:0:
196,271,143617,1,2,0:0:0:0:
208,336,143700,6,0,L|219:406,1,47.2499985580445,2|0,0:0|0:0,0:0:0:0:
302,178,143867,2,0,L|313:248,1,47.2499985580445,0|0,0:0|0:0,0:0:0:0:
45,191,144034,5,2,0:0:0:0:
45,191,144117,1,0,0:0:0:0:
45,191,144200,1,0,0:0:0:0:
100,209,144283,1,0,0:0:0:0:
158,201,144366,1,2,0:0:0:0:
207,169,144450,1,0,0:0:0:0:
236,118,144533,5,0,0:0:0:0:
270,91,144617,1,0,0:0:0:0:
313,88,144700,2,0,P|343:94|360:106,1,47.2499985580445,8|0,0:0|0:0,0:0:0:0:
512,335,144867,5,0,0:0:0:0:
461,329,144950,1,0,0:0:0:0:
410,323,145033,1,2,0:0:0:0:
360,317,145117,1,0,0:0:0:0:
309,311,145200,2,0,L|241:303,1,47.2499985580445,0|0,0:0|0:0,0:0:0:0:
26,365,145367,5,2,0:0:0:0:
69,346,145450,1,0,0:0:0:0:
103,314,145533,1,0,0:0:0:0:
124,272,145617,1,0,0:0:0:0:
129,225,145700,5,2,0:0:0:0:
130,190,145783,1,0,0:0:0:0:
121,156,145866,1,0,0:0:0:0:
104,125,145950,1,0,0:0:0:0:
80,99,146034,2,0,P|55:81|26:69,1,47.2499985580445,8|0,0:0|0:0,0:0:0:0:
177,81,146200,2,0,P|228:76|281:28,2,94.499997116089,0|0|0,0:0|0:0|0:0,0:0:0:0:
200,0,146700,5,2,0:0:0:0:
287,142,146867,5,0,0:0:0:0:
345,134,146950,1,0,0:0:0:0:
401,152,147033,1,2,0:0:0:0:
444,190,147117,1,0,0:0:0:0:
468,244,147200,5,0,0:0:0:0:
476,286,147284,1,0,0:0:0:0:
472,328,147367,2,0,L|457:396,1,47.2499985580445,10|0,0:0|0:0,0:0:0:0:
234,252,147534,5,0,0:0:0:0:
234,252,147617,1,0,0:0:0:0:
234,252,147700,1,2,0:0:0:0:
239,203,147784,1,0,0:0:0:0:
245,155,147867,1,0,0:0:0:0:
251,107,147950,1,0,0:0:0:0:
257,58,148034,6,0,P|251:17|240:-1,1,47.2499985580445,2|0,0:0|0:0,0:0:0:0:
127,36,148200,2,0,P|133:77|144:95,1,47.2499985580445,0|0,0:0|0:0,0:0:0:0:
342,177,148367,2,0,P|348:136|359:118,1,47.2499985580445,2|0,0:0|0:0,0:0:0:0:
472,155,148533,2,0,P|466:196|455:214,1,47.2499985580445,0|0,0:0|0:0,0:0:0:0:
374,372,148700,5,10,0:0:0:0:
226,314,148867,2,0,P|278:288|327:299,2,94.499997116089,0|0|0,0:0|0:0|0:0,0:0:0:0:
93,368,149367,6,0,L|-3:358,1,94.499997116089,2|0,0:0|0:0,0:0:0:0:
91,253,149700,1,2,0:0:0:0:
118,263,149783,1,0,0:0:0:0:
148,260,149866,1,0,0:0:0:0:
174,244,149950,1,0,0:0:0:0:
185,229,150034,2,0,L|174:128,1,94.499997116089,10|0,0:0|0:0,0:0:0:0:
426,0,150367,6,0,L|416:93,1,94.499997116089,2|0,0:0|0:0,0:0:0:0:
378,162,150617,1,0,0:0:0:0:
390,168,150700,2,0,P|436:168|475:143,1,94.499997116089,2|0,0:0|0:0,0:0:0:0:
283,384,151034,5,2,0:0:0:0:
299,327,151117,1,0,0:0:0:0:
298,268,151200,1,0,0:0:0:0:
276,213,151284,1,0,0:0:0:0:
236,166,151367,2,0,P|181:140|131:152,1,94.499997116089,10|0,0:0|0:0,0:0:0:0:
0,325,151700,5,2,0:0:0:0:
55,342,151783,1,0,0:0:0:0:
113,330,151866,1,0,0:0:0:0:
157,292,151950,1,0,0:0:0:0:
178,237,152034,6,0,L|188:338,1,94.499997116089,2|0,0:0|0:0,0:0:0:0:
326,182,152367,2,0,L|317:276,1,94.499997116089,2|0,0:0|0:0,0:0:0:0:
30,12,152700,2,0,L|39:112,1,94.499997116089,2|0,0:0|0:0,0:0:0:0:
476,17,153034,5,2,0:0:0:0:
444,66,153117,1,0,0:0:0:0:
391,91,153200,1,0,0:0:0:0:
333,86,153284,1,0,0:0:0:0:
286,52,153367,1,2,0:0:0:0:
0,301,153534,5,0,0:0:0:0:
0,301,153617,1,0,0:0:0:0:
0,301,153700,5,2,0:0:0:0:
55,281,153783,1,0,0:0:0:0:
112,292,153866,1,0,0:0:0:0:
156,330,153950,1,0,0:0:0:0:
172,384,154034,5,2,0:0:0:0:
150,316,154117,1,0,0:0:0:0:
153,246,154200,1,0,0:0:0:0:
184,182,154284,1,0,0:0:0:0:
234,133,154367,6,2,B|293:116|307:65|307:65|363:89|363:89|363:79|363:79|409:71|436:37|436:37|528:37|577:152|523:212|485:223|485:223|449:230|449:230|439:234|439:234|376:221,1,630.000024032594,2|2,0:0|0:0,0:0:0:0:
256,192,154784,12,0,157034,0:0:0:0:
