osu file format v14

[General]
AudioFilename: audio.mp3
AudioLeadIn: 0
PreviewTime: 74492
Countdown: 0
SampleSet: Soft
StackLeniency: 0.7
Mode: 0
LetterboxInBreaks: 0
WidescreenStoryboard: 0

[Editor]
DistanceSpacing: 0.25
BeatDivisor: 8
GridSize: 4
TimelineZoom: 1.3

[Metadata]
Title:Destr0yer
TitleUnicode:Destr0yer
Artist:Sakuzyo feat. Nikki Simmons
ArtistUnicode:削除 feat. Nikki Simmons
Creator:Flower
Version:D
Source:BMS
Tags:destroyer bms of fighters g2r2018
BeatmapID:1967698
BeatmapSetID:942355

[Difficulty]
HPDrainRate:5.5
CircleSize:4.3
OverallDifficulty:9
ApproachRate:9.5
SliderMultiplier:3.2
SliderTickRate:1

[Events]
//Background and Video events
0,0,"destroyer.jpg",0,0
Video,0,"destr0yer video.AVI"
//Break Periods
//Storyboard Layer 0 (Background)
//Storyboard Layer 1 (Fail)
//Storyboard Layer 2 (Pass)
//Storyboard Layer 3 (Foreground)
//Storyboard Sound Samples
Sample,67034,0,"soft-hitclap62.wav",70
Sample,67367,0,"soft-hitwhistle63.wav",70
Sample,68700,0,"drum-hitfinish63.wav",70

[TimingPoints]
34,666.666666666667,4,2,88,60,1,0
10700,-16.666666666667,4,1,88,80,0,0
10950,-100,4,1,89,60,0,0
13367,-83.3333333333333,4,1,2,80,0,0
23367,-71.4285714285714,4,1,2,80,0,0
24034,-83.3333333333333,4,1,2,80,0,0
31367,-66.6666666666667,4,1,2,80,0,0
32034,-83.3333333333333,4,1,2,80,0,0
34034,-62.5,4,1,2,80,0,0
34700,-200,4,2,90,20,0,0
36700,-66.6666666666667,4,2,90,50,0,0
37367,-100,4,2,90,40,0,0
46700,-100,4,2,90,45,0,0
47034,-100,4,2,90,50,0,0
47367,-100,4,2,90,55,0,0
50700,-200,4,2,90,55,0,0
53367,-100,4,2,90,55,0,0
56034,-100,4,2,90,57,0,0
57367,-100,4,2,90,59,0,0
58700,-200,4,2,60,70,0,0
61367,-200,4,2,61,70,0,0
64034,-200,4,2,62,70,0,0
67367,-200,4,2,63,70,0,0
69367,-100,4,2,60,70,0,0
72034,-100,4,2,61,70,0,0
74700,-100,4,2,64,70,0,0
80034,-16.666666666667,4,1,2,60,0,0
82034,-200,4,1,2,60,0,0
84034,-66.6666666666667,4,1,2,60,0,0
84700,-33.3333333333333,4,1,2,60,0,0
85034,-40,4,1,2,60,0,0
85367,-66.6666666666667,4,1,2,60,0,0
87367,-33.3333333333333,4,1,2,60,0,0
88034,-200,4,1,2,60,0,0
89367,-25,4,1,2,60,0,0
90034,-66.6666666666667,4,1,2,60,0,0
92367,-50,4,1,2,60,0,0
92700,-33.3333333333333,4,1,2,60,0,0
93367,-111.111111111111,4,1,2,60,0,0
94367,-200,4,1,2,60,0,0
94700,-66.6666666666667,4,1,2,60,0,0
95367,-25,4,1,2,60,0,0
95700,-50,4,1,2,60,0,0
96034,-66.6666666666667,4,1,2,60,0,0
97367,-50,4,1,2,60,0,0
98034,-33.3333333333333,4,1,2,60,0,0
98700,-66.6666666666667,4,1,2,60,0,0
120034,-66.6666666666667,4,1,2,60,0,0
120700,-66.6666666666667,4,2,2,40,0,0
130700,-16.666666666667,4,1,2,60,0,0
130950,-66.6666666666667,4,1,2,60,0,0
133367,-50,4,1,2,60,0,0
154700,-66.6666666666667,4,1,2,60,0,0
155034,-153.846153846154,4,1,2,60,0,0

[Colours]
Combo1 : 129,146,173
Combo2 : 21,67,123

[HitObjects]
256,328,34,6,0,B|271:320|271:320|417:363|417:363|450:349,1,200,4|0,0:0|0:0,0:0:0:0:
445,350,700,1,8,0:0:0:0:
256,192,2034,12,2,4589,0:0:0:0:
256,192,4700,12,0,6700,0:0:0:0:
256,192,8200,12,0,10450,0:0:0:0:
484,198,10700,6,0,B|-2:184,1,480.000018310548,2|0,0:0|0:0,0:0:0:0:
256,192,10950,12,0,12534,2:0:0:0:
116,332,12700,6,2,B|124:324|124:324|164:352|164:352|196:352,1,80,8|0,0:0|0:0,0:0:0:0:
244,316,13034,2,2,L|376:332,1,120,0|0,2:0|0:0,0:0:0:0:
384,344,13367,5,4,0:3:0:0:
326,115,13534,2,0,L|360:256,1,143.999995605469,8|0,0:3|0:0,0:0:0:0:
359,254,13867,1,0,0:0:0:0:
452,180,14034,1,8,0:0:0:0:
470,297,14200,1,0,0:0:0:0:
266,328,14367,1,0,0:0:0:0:
359,254,14534,1,0,0:0:0:0:
356,263,14617,1,0,0:0:0:0:
353,272,14700,5,4,0:3:0:0:
164,352,14867,2,0,L|265:337,1,95.9999970703126,2|0,0:0|0:0,0:0:0:0:
339,359,15200,1,0,0:3:0:0:
15,213,15367,1,8,0:0:0:0:
260,261,15534,1,2,0:0:0:0:
61,354,15700,1,2,0:0:0:0:
231,241,15867,1,0,0:0:0:0:
23,136,16034,5,4,0:3:0:0:
6,286,16200,2,0,P|74:253|76:176,1,143.999995605469,8|0,0:3|0:0,0:0:0:0:
82,190,16534,1,0,0:0:0:0:
40,35,16700,1,8,0:0:0:0:
112,117,16867,1,0,0:0:0:0:
203,61,17034,1,0,0:0:0:0:
47,52,17200,1,0,0:0:0:0:
367,72,17367,6,0,L|252:94,1,95.9999970703126,4|2,0:3|0:0,0:0:0:0:
433,115,17700,1,0,0:0:0:0:
241,157,17867,2,0,P|201:107|203:70,1,95.9999970703126,2|8,0:0|0:0,0:0:0:0:
444,37,18200,1,2,0:0:0:0:
272,90,18367,1,2,0:0:0:0:
489,168,18534,1,0,0:0:0:0:
456,312,18700,6,0,L|432:200,1,95.9999970703126,4|0,0:3|0:0,0:0:0:0:
300,356,19034,2,0,L|400:356,1,95.9999970703126,0|4,0:0|0:3,0:0:0:0:
244,304,19367,1,8,0:0:0:0:
176,368,19534,1,0,0:0:0:0:
24,296,19700,1,0,0:0:0:0:
200,240,19867,1,0,0:0:0:0:
168,240,19950,1,0,0:0:0:0:
140,240,20034,5,4,0:0:0:0:
64,184,20200,1,2,0:0:0:0:
108,324,20367,1,2,0:0:0:0:
232,24,20534,2,0,P|220:52|220:80,1,47.9999985351563
292,72,20700,2,0,B|316:88|316:88|340:68|340:68|388:68,1,95.9999970703126,8|2,0:0|0:0,0:0:0:0:
448,112,21034,1,0,0:0:0:0:
156,112,21200,1,2,0:0:0:0:
492,24,21367,6,0,L|384:52,1,95.9999970703126,4|8,0:3|0:3,0:0:0:0:
408,172,21700,2,0,P|432:192|444:212,1,47.9999985351563
456,276,21867,2,0,P|480:268|504:240,1,47.9999985351563
376,240,22034,2,0,B|344:240|344:240|324:260|324:260|288:240,1,95.9999970703126,8|0,0:0|0:0,0:0:0:0:
376,316,22367,1,0,0:0:0:0:
292,36,22534,1,0,0:0:0:0:
304,364,22700,5,4,0:3:0:0:
240,304,22867,1,2,0:0:0:0:
40,324,23034,2,0,B|68:308|68:308|108:344|108:344|168:344,1,143.999995605469
148,24,23367,6,0,L|160:100,1,55.9999982910157
240,304,23534,2,0,L|228:228,1,55.9999982910157
232,104,23700,2,0,L|223:48,1,55.9999982910157
156,216,23867,2,0,L|164:271,1,55.9999982910157
304,136,24034,5,4,0:3:0:0:
304,340,24200,2,0,L|456:360,1,143.999995605469,8|0,0:3|0:3,0:3:0:0:
446,358,24534,2,0,L|420:260,1,95.9999970703126,0|8,0:0|0:0,0:0:0:0:
304,340,24867,1,0,0:0:0:0:
396,176,25034,1,0,0:0:0:0:
352,260,25200,1,0,0:0:0:0:
80,356,25367,5,4,0:3:0:0:
0,228,25534,1,2,0:0:0:0:
268,236,25700,1,0,0:0:0:0:
92,352,25867,1,0,0:0:0:0:
104,348,25950,1,0,0:0:0:0:
116,344,26034,1,8,0:0:0:0:
300,304,26200,1,2,0:0:0:0:
44,292,26367,1,2,0:0:0:0:
268,236,26534,1,0,0:0:0:0:
340,16,26700,5,4,0:3:0:0:
340,240,26867,2,0,L|364:96,1,143.999995605469,8|0,0:3|0:0,0:0:0:0:
363,97,27200,2,0,L|444:172,1,95.9999970703126,0|8,0:0|0:0,0:0:0:0:
276,120,27534,1,0,0:0:0:0:
472,68,27700,1,0,0:0:0:0:
434,163,27867,1,0,0:0:0:0:
422,151,27950,1,0,0:0:0:0:
410,142,28034,5,4,0:3:0:0:
408,360,28200,1,2,0:0:0:0:
448,268,28367,1,0,0:0:0:0:
272,316,28534,2,0,L|380:288,1,95.9999970703126,0|8,0:0|0:0,0:0:0:0:
340,216,28867,2,0,L|316:120,1,95.9999970703126,2|2,0:0|0:0,0:0:0:0:
292,40,29200,1,2,0:0:0:0:
184,356,29367,5,4,0:3:0:0:
208,356,29534,1,0,0:0:0:0:
36,292,29700,1,0,0:0:0:0:
12,292,29867,1,4,0:3:0:0:
152,160,30034,1,8,0:0:0:0:
176,160,30200,1,0,0:0:0:0:
36,84,30367,1,0,0:0:0:0:
96,240,30534,1,0,0:0:0:0:
84,232,30617,1,0,0:0:0:0:
72,224,30700,6,0,B|112:224|112:224|128:232|128:232|172:232,1,95.9999970703126,4|2,0:3|0:0,0:0:0:0:
216,284,31034,1,2,0:0:0:0:
144,8,31200,2,0,P|160:32|164:56,1,47.9999985351563
235,76,31367,6,0,L|311:72,1,60.0000022888184
379,64,31534,2,0,L|455:60,1,60.0000022888184
235,156,31700,2,0,L|159:160,1,60.0000022888184
91,168,31867,2,0,L|15:172,1,60.0000022888184
292,214,32034,5,4,0:3:0:0:
455,235,32200,1,0,0:0:0:0:
305,342,32367,1,0,0:0:0:0:
468,363,32534,1,4,0:3:0:0:
251,282,32700,5,8,0:0:0:0:
381,335,32867,1,0,0:0:0:0:
347,55,33034,1,0,0:0:0:0:
364,195,33200,1,0,0:0:0:0:
381,335,33367,5,4,0:3:0:0:
370,224,33534,2,0,B|366:193|366:193|352:169|352:169|348:132,1,95.9999970703126,2|0,0:0|0:0,0:0:0:0:
343,7,33867,2,0,L|347:68,1,47.9999985351563
360,300,34034,6,0,P|331:318|286:329,1,64
161,333,34200,2,0,P|126:331|83:314,1,64
282,215,34367,6,0,P|253:225|204:217,1,64
146,197,34534,2,0,P|118:183|89:143,1,64
176,52,34700,5,2,0:0:0:0:
223,67,34867,1,0,0:0:0:0:
270,82,35034,1,0,0:0:0:0:
476,192,35200,1,2,0:0:0:0:
429,207,35367,1,0,0:0:0:0:
382,222,35534,1,0,0:0:0:0:
221,322,35700,1,0,0:0:0:0:
268,337,35867,1,0,0:0:0:0:
315,352,36034,2,0,P|312:330|303:301,1,40,2|0,0:0|0:0,0:0:0:0:
214,193,36367,2,0,P|220:172|222:140,1,40,0|2,0:0|0:0,0:0:0:0:
259,73,36700,6,0,B|268:55|268:55|271:40|271:19|271:19|310:74|306:183|277:262|221:323|221:323|212:300|217:277,1,420.000016021729,4|0,0:0|0:0,0:0:0:0:
214,275,37367,6,0,L|385:291,1,160,2|0,0:0|0:0,0:0:0:0:
453,298,37867,1,0,0:0:0:0:
389,150,38034,2,0,L|417:235,2,80,8|0|0,0:0|0:0|0:0,0:0:0:0:
21,43,38700,6,0,B|97:10|105:78|186:42,1,160,0|2,0:0|0:0,0:0:0:0:
249,26,39200,1,0,0:0:0:0:
249,26,39700,1,0,0:0:0:0:
226,111,39867,1,0,0:0:0:0:
183,273,40034,6,0,L|203:196,1,80,2|0,0:0|0:0,0:0:0:0:
107,304,40367,1,0,0:0:0:0:
179,354,40534,2,0,B|247:375|268:328|346:345,1,160
494,355,41034,1,0,0:0:0:0:
417,312,41200,1,0,0:0:0:0:
475,171,41367,6,0,L|460:266,1,80
387,179,41700,2,0,L|402:84,1,80,2|0,0:0|0:0,0:0:0:0:
487,182,42034,2,0,L|472:277,1,80,8|0,0:0|0:0,0:0:0:0:
328,245,42367,1,0,0:0:0:0:
254,293,42534,1,0,0:0:0:0:
343,257,42700,5,2,0:0:0:0:
303,141,42867,1,0,0:0:0:0:
380,188,43034,5,0,0:0:0:0:
244,188,43200,1,0,0:0:0:0:
168,232,43367,5,8,0:0:0:0:
32,232,43534,1,0,0:0:0:0:
303,141,43700,5,0,0:0:0:0:
244,188,43867,1,0,0:0:0:0:
328,76,44034,6,0,L|308:176,1,80
292,256,44367,1,2,0:0:0:0:
481,287,44534,2,0,P|404:279|368:212,1,160
360,348,45034,1,0,0:0:0:0:
452,212,45200,1,0,0:0:0:0:
276,332,45367,6,0,B|220:332|220:332|184:348|184:348|104:348,1,160,2|0,0:0|0:0,0:0:0:0:
16,184,45867,1,0,0:0:0:0:
16,184,46367,1,0,0:0:0:0:
52,264,46534,1,0,0:0:0:0:
96,200,46700,6,0,P|116:204|136:216,1,40
116,204,46867,2,0,P|133:214|148:232,1,40
134,214,47034,2,0,P|146:229|154:251,1,40,2|0,0:0|0:0,0:0:0:0:
146,229,47200,2,0,P|152:248|152:271,1,40
144,288,47367,5,8,0:0:0:0:
356,352,47534,2,0,B|288:368|268:328|196:344,1,160,2|0,0:0|0:0,0:0:0:0:
176,356,48034,6,0,L|260:352,1,80,2|0,0:0|0:0,0:0:0:0:
324,280,48367,2,0,L|408:276,1,80
212,32,48700,6,0,P|208:72|176:112,1,80,8|8,0:0|0:0,0:0:0:0:
264,152,49034,2,0,P|296:184|336:196,1,80
56,276,49367,5,8,0:0:0:0:
80,284,49534,1,0,0:0:0:0:
100,292,49700,1,2,0:0:0:0:
392,328,49867,1,8,0:0:0:0:
368,336,50034,1,0,0:0:0:0:
348,344,50200,1,0,0:0:0:0:
152,356,50367,1,0,0:0:0:0:
172,364,50534,1,0,0:0:0:0:
261,144,50700,6,0,P|321:148|405:184,1,140,2|0,0:0|0:0,0:0:0:0:
331,151,51367,6,0,P|387:171|450:227,1,140,8|0,0:0|0:0,0:0:0:0:
394,177,52034,6,0,P|446:221|475:314,1,160,0|8,0:0|0:0,0:0:0:0:
29,326,53367,6,0,L|139:311,1,80,2|0,0:0|0:0,0:0:0:0:
166,262,53700,2,0,B|176:235|176:235|176:215|176:215|187:175,1,80
251,223,54034,1,8,0:0:0:0:
304,361,54200,1,8,0:0:0:0:
356,296,54367,2,0,P|423:291|473:344,1,120,2|0,0:0|0:0,0:0:0:0:
486,352,54700,5,8,0:0:0:0:
510,260,54867,1,0,0:0:0:0:
436,111,55034,1,2,0:0:0:0:
499,70,55200,1,0,0:0:0:0:
460,183,55367,2,0,L|362:191,1,80,8|0,0:0|0:0,0:0:0:0:
176,174,55700,2,0,L|274:166,1,80,0|2,0:0|0:0,0:0:0:0:
304,28,56034,6,0,P|315:77|300:129,1,80,2|0,0:0|0:0,0:0:0:0:
263,246,56367,2,0,P|226:280|173:293,1,80,2|2,0:0|0:0,0:0:0:0:
0,348,56700,2,0,B|62:344|62:344|93:355|93:355|172:349,1,160,8|2,0:0|0:0,0:0:0:0:
304,312,57200,2,0,P|328:315|348:334,1,40,0|0,3:0|3:0,0:0:0:0:
354,343,57367,5,0,3:0:0:0:
383,197,57534,1,0,1:0:0:0:
198,290,57700,1,2,0:0:0:0:
169,144,57867,1,0,1:0:0:0:
429,75,58034,1,8,1:2:0:0:
400,221,58200,2,0,P|378:183|383:125,1,80,0|0,1:2|3:0,0:0:0:0:
256,344,58700,5,4,0:2:0:0:
256,344,59367,1,4,0:2:0:0:
213,269,59700,1,8,0:2:0:0:
256,128,60034,1,2,0:1:0:0:
204,88,60367,1,2,0:3:0:0:
228,108,60534,1,4,0:3:0:0:
256,128,60700,1,8,0:3:0:0:
256,24,61367,5,4,0:2:0:0:
256,24,62034,1,4,0:2:0:0:
256,248,62700,1,8,0:2:0:0:
364,184,63034,1,2,0:3:0:0:
388,156,63200,1,4,0:3:0:0:
408,132,63367,1,8,0:3:0:0:
108,296,64034,5,4,0:2:0:0:
108,296,64700,1,4,0:2:0:0:
80,120,65367,1,4,0:2:0:0:
40,276,65700,1,2,0:0:0:0:
72,284,65867,1,8,0:0:0:0:
108,296,66034,1,2,0:3:0:0:
425,341,66367,5,2,0:1:0:0:
488,376,66534,2,0,P|496:328|352:336,1,240,4|0,0:1|0:0,0:0:0:0:
256,360,67700,5,4,0:2:0:0:
171,324,67867,2,0,P|184:309|194:272,1,40,0|8,0:0|0:2,0:0:0:0:
192,215,68200,1,0,0:0:0:0:
152,126,68367,1,2,0:3:0:0:
35,44,68534,2,0,B|29:99|29:99|34:117|34:117|28:169,1,120
17,310,69200,1,0,0:0:0:0:
191,252,69367,6,0,L|150:269,1,40,4|0,0:0|0:0,0:0:0:0:
111,283,69534,2,0,L|152:300,1,40
189,320,69700,2,0,L|230:303,1,40
269,289,69867,2,0,L|228:272,1,40
125,198,70034,5,4,0:0:0:0:
122,181,70117,1,0,0:0:0:0:
120,164,70200,1,0,0:0:0:0:
118,148,70284,1,0,0:0:0:0:
115,131,70367,1,0,0:0:0:0:
113,115,70450,1,0,0:0:0:0:
111,98,70534,1,0,0:0:0:0:
108,82,70617,1,0,0:0:0:0:
106,65,70700,5,8,0:0:0:0:
134,81,70784,1,0,0:0:0:0:
165,87,70867,1,0,0:0:0:0:
196,85,70950,1,0,0:0:0:0:
225,73,71034,1,2,0:3:0:0:
249,52,71117,1,0,0:0:0:0:
278,39,71200,1,4,0:3:0:0:
310,37,71284,1,0,0:0:0:0:
341,43,71367,5,8,0:3:0:0:
337,62,71450,1,0,0:0:0:0:
332,81,71534,1,0,0:0:0:0:
328,100,71617,1,0,0:0:0:0:
393,130,71700,5,0,0:0:0:0:
395,149,71784,1,0,0:0:0:0:
397,168,71867,1,0,0:0:0:0:
399,187,71950,1,0,0:0:0:0:
406,265,72034,6,0,L|447:282,1,40,4|0,0:2|0:0,0:0:0:0:
486,296,72200,2,0,L|445:313,1,40
408,333,72367,2,0,L|367:316,1,40
328,302,72534,2,0,L|369:285,1,40
258,134,72700,5,4,0:2:0:0:
234,148,72784,1,0,0:0:0:0:
211,161,72867,1,0,0:0:0:0:
186,174,72950,1,0,0:0:0:0:
166,188,73034,1,0,0:0:0:0:
178,212,73117,1,0,0:0:0:0:
192,235,73200,1,0,0:0:0:0:
204,259,73284,1,0,0:0:0:0:
218,281,73367,1,8,0:2:0:0:
241,267,73450,1,0,0:0:0:0:
266,255,73534,1,0,0:0:0:0:
290,242,73617,1,0,0:0:0:0:
312,228,73700,1,2,0:3:0:0:
299,205,73784,1,0,0:0:0:0:
286,181,73867,1,4,0:3:0:0:
273,158,73950,1,0,0:0:0:0:
258,135,74034,6,0,L|248:82,1,40,8|0,0:3|0:0,0:0:0:0:
176,97,74200,2,0,L|166:44,1,40
94,59,74367,2,0,L|84:6,1,40
109,136,74534,2,0,L|119:189,1,40
83,310,74700,6,0,L|42:293,1,40,2|0,0:1|0:0,0:0:0:0:
3,279,74866,2,0,L|44:262,1,40
81,242,75033,2,0,L|122:259,1,40
161,273,75200,2,0,L|120:290,1,40
335,164,75367,6,0,L|376:181,1,40,2|0,0:1|0:0,0:0:0:0:
201,207,75534,2,0,L|160:190,1,40
395,192,75700,2,0,L|354:209,1,40
136,175,75867,2,0,L|177:158,1,40
360,88,76034,6,0,L|401:71,1,40,2|0,0:2|0:0,0:0:0:0:
296,253,76200,2,0,L|279:212,1,40
171,273,76367,2,0,L|130:290,1,40,2|0,0:2|0:0,0:0:0:0:
235,108,76533,2,0,L|252:149,1,40,4|0,0:2|0:0,0:0:0:0:
411,237,76700,5,8,0:2:0:0:
407,248,76784,1,0,0:0:0:0:
403,259,76867,1,0,0:0:0:0:
399,270,76950,1,0,0:0:0:0:
396,281,77034,1,2,0:3:0:0:
393,292,77117,1,0,0:0:0:0:
390,303,77200,1,0,0:0:0:0:
387,314,77284,1,0,0:0:0:0:
384,325,77367,5,4,0:3:0:0:
366,298,77450,1,0,0:0:0:0:
366,265,77534,1,0,0:0:0:0:
380,236,77617,1,0,0:0:0:0:
406,218,77700,1,0,0:0:0:0:
434,202,77784,1,0,0:0:0:0:
449,174,77867,1,0,0:0:0:0:
454,142,77950,1,0,0:0:0:0:
447,110,78034,1,4,0:3:0:0:
425,91,78117,1,0,0:0:0:0:
401,88,78200,1,0,0:0:0:0:
377,94,78284,1,0,0:0:0:0:
362,112,78367,1,0,0:0:0:0:
360,131,78450,1,0,0:0:0:0:
363,146,78534,1,0,0:0:0:0:
374,156,78617,1,0,0:0:0:0:
385,160,78700,5,4,0:3:0:0:
382,167,78784,1,0,0:0:0:0:
379,174,78867,1,0,0:0:0:0:
376,181,78950,1,0,0:0:0:0:
373,188,79034,1,0,0:0:0:0:
370,195,79117,1,0,0:0:0:0:
368,202,79200,1,0,0:0:0:0:
366,209,79284,1,0,0:0:0:0:
364,216,79367,1,8,0:3:0:0:
362,223,79450,1,0,0:0:0:0:
360,230,79534,1,0,0:0:0:0:
358,237,79617,1,0,0:0:0:0:
490,178,80034,6,0,L|0:176,1,480.000018310548
256,192,80284,12,0,81867,0:0:0:0:
74,229,82034,5,0,0:0:0:0:
237,250,82200,1,0,0:0:0:0:
91,350,82367,1,0,0:0:0:0:
254,371,82533,1,0,0:0:0:0:
323,308,82700,6,0,B|368:314|368:314|391:355|391:355|476:370|476:370|446:326,1,220
447,323,83700,2,0,P|456:300|448:257,1,60
435,237,84034,6,0,L|508:226,1,60.0000022888184
401,170,84200,2,0,L|474:159,1,60.0000022888184
305,209,84367,2,0,L|232:195,1,60.0000022888184
265,130,84534,2,0,L|192:116,1,60.0000022888184
134,58,84700,6,0,P|199:105|39:187,1,360.000013732911
120,148,85034,6,0,B|136:171|136:171|136:216|136:216|114:239,1,100
52,100,85200,2,0,B|36:77|36:77|36:32|36:32|58:9,1,100
134,58,85367,6,0,B|209:70|209:70|242:64|242:64|319:75,1,180.000006866455
320,94,85700,2,0,L|194:77,1,120.000004577637
76,209,86034,2,0,B|49:192|49:192|70:261|70:261|90:269|90:269|109:330,1,180.000006866455
192,347,86367,2,0,L|217:263,1,60.0000022888184
171,169,86534,2,0,L|153:226,1,60.0000022888184
271,344,86700,5,0,0:0:0:0:
276,320,86784,1,0,0:0:0:0:
347,326,86867,1,0,0:0:0:0:
352,302,86950,1,0,0:0:0:0:
423,308,87034,1,0,0:0:0:0:
428,284,87117,1,0,0:0:0:0:
499,290,87200,1,0,0:0:0:0:
504,266,87284,1,0,0:0:0:0:
430,152,87367,6,0,L|285:230,1,120.000004577637
393,93,87534,2,0,L|248:171,1,120.000004577637
264,245,87700,2,0,L|119:323,1,120.000004577637
228,187,87867,2,0,L|83:265,1,120.000004577637
55,279,88034,6,0,B|47:301|47:301|32:266|32:266|50:220|50:220|49:187,1,140
39,177,88700,2,0,P|60:148|57:116,1,60
49,113,89034,2,0,L|54:43,1,60
148,37,89367,6,0,B|390:53|390:53|371:331|371:331|128:314|128:314|150:2,1,960
289,134,90034,6,0,L|284:215,1,60.0000022888184
239,358,90200,2,0,L|244:277,1,60.0000022888184
220,119,90367,2,0,B|216:173|216:173|207:190|207:190|202:256,1,120.000004577637
312,272,90700,6,0,B|354:304|354:304|441:317|441:317|489:363,1,180.000006866455
484,357,91034,2,0,B|480:309|480:309|490:290|490:290|485:233,1,120.000004577637
365,33,91367,2,0,P|412:67|328:120,1,180.000006866455
329,121,91700,6,0,L|340:184,1,60.0000022888184
251,98,91867,2,0,L|262:161,1,60.0000022888184
282,260,92034,2,0,L|293:323,1,60.0000022888184
360,283,92200,2,0,L|371:346,1,60.0000022888184
512,238,92367,6,0,L|425:230,1,80
501,118,92534,2,0,L|414:110,1,80
360,283,92700,6,0,L|198:268,1,120.000004577637
341,211,92867,2,0,L|179:196,1,120.000004577637
322,139,93034,2,0,L|160:124,1,120.000004577637
303,67,93200,2,0,L|141:52,1,120.000004577637
91,163,93367,6,0,B|0:198|0:198|120:234|120:234|207:201|207:201|119:173,1,395.999987915039
154,115,94367,2,0,L|218:135,1,60
284,124,94700,6,0,L|262:57,1,60.0000022888184
327,26,94867,2,0,L|349:93,1,60.0000022888184
370,157,95034,2,0,L|392:224,1,60.0000022888184
303,194,95200,2,0,L|325:261,1,60.0000022888184
303,322,95367,6,0,B|336:324|336:324|351:337|351:337|391:340,7,80
293,333,95700,6,0,P|250:321|212:332,1,80
75,357,95867,2,0,P|118:369|156:358,1,80
113,159,96034,6,0,B|107:213|107:213|128:246|128:246|118:295|118:295|97:264,1,180.000006866455
52,115,96367,2,0,P|98:86|187:152,1,180.000006866455
339,227,96700,2,0,B|275:237|275:237|230:221|230:221|158:233,1,180.000006866455
307,161,97034,2,0,P|381:166|403:263,1,180.000006866455
451,325,97367,6,0,L|372:334,1,80
300,345,97534,2,0,L|221:354,1,80
89,298,97700,2,0,L|168:289,1,80
240,278,97867,2,0,L|319:269,1,80
158,122,98034,6,0,L|113:11,1,120.000004577637
226,150,98200,2,0,L|337:105,1,120.000004577637
199,218,98367,2,0,L|244:329,1,120.000004577637
130,191,98534,2,0,L|19:236,1,120.000004577637
158,122,98700,6,0,L|140:79,1,30.0000011444092
167,105,98784,2,0,L|149:62,1,30.0000011444092
174,85,98867,2,0,L|156:42,1,30.0000011444092
183,68,98951,2,0,L|165:25,1,30.0000011444092
248,93,99034,6,0,L|261:48,1,30.0000011444092
265,85,99118,2,0,L|278:40,1,30.0000011444092
283,75,99201,2,0,L|296:30,1,30.0000011444092
301,68,99285,2,0,L|314:23,1,30.0000011444092
378,89,99367,6,0,P|396:124|394:151,1,60.0000022888184
355,351,99534,2,0,P|337:316|339:289,1,60.0000022888184
419,298,99700,2,0,B|388:280|388:280|283:293|283:293|247:271,1,180.000006866455
304,215,100034,5,0,0:0:0:0:
3,310,100200,1,0,0:0:0:0:
76,347,100367,2,0,B|81:300|81:300|54:220|54:220|60:162,1,180.000006866455
68,66,100700,5,0,0:0:0:0:
80,318,100867,2,0,L|86:258,1,60.0000022888184
152,46,101033,2,0,L|145:105,1,60.0000022888184
148,365,101200,2,0,L|154:305,1,60.0000022888184
218,260,101367,5,0,0:0:0:0:
220,230,101450,1,0,0:0:0:0:
222,200,101533,1,0,0:0:0:0:
225,170,101616,1,0,0:0:0:0:
227,140,101700,1,0,0:0:0:0:
237,105,101784,1,0,0:0:0:0:
263,81,101867,1,0,0:0:0:0:
298,74,101950,1,0,0:0:0:0:
330,90,102034,5,0,0:0:0:0:
348,120,102117,1,0,0:0:0:0:
354,155,102200,1,0,0:0:0:0:
347,190,102284,1,0,0:0:0:0:
322,215,102367,1,0,0:0:0:0:
314,250,102450,1,0,0:0:0:0:
326,284,102534,1,0,0:0:0:0:
357,300,102617,1,0,0:0:0:0:
392,300,102700,5,0,0:0:0:0:
431,271,102784,1,0,0:0:0:0:
436,223,102867,1,0,0:0:0:0:
419,178,102950,1,0,0:0:0:0:
376,154,103034,1,0,0:0:0:0:
328,146,103117,1,0,0:0:0:0:
281,155,103200,1,0,0:0:0:0:
245,188,103284,1,0,0:0:0:0:
89,299,103700,5,0,0:0:0:0:
85,303,103784,1,0,0:0:0:0:
81,307,103867,1,0,0:0:0:0:
77,311,104034,6,0,L|67:167,1,120.000004577637
158,132,104367,2,0,L|167:252,1,120.000004577637
236,321,104700,2,0,B|289:340|289:340|359:323|359:323|421:342,1,180.000006866455
442,348,105034,2,0,L|419:283,1,60.0000022888184
360,248,105200,2,0,L|337:183,1,60.0000022888184
260,229,105367,6,0,L|128:213,2,120.000004577637
322,109,105867,1,0,0:0:0:0:
310,94,105950,1,0,0:0:0:0:
298,79,106034,2,0,P|364:55|408:144,1,180.000006866455
401,150,106367,2,0,L|474:144,1,60.0000022888184
229,121,106534,2,0,L|156:127,1,60.0000022888184
26,152,106700,6,0,B|100:146|100:146|129:159|129:159|215:153,1,180.000006866455
238,166,107034,2,0,P|260:191|270:223,1,60.0000022888184
266,349,107200,2,0,P|244:324|234:292,1,60.0000022888184
57,275,107367,2,0,P|92:211|189:231,1,180.000006866455
316,283,107700,1,0,0:0:0:0:
130,276,107867,1,0,0:0:0:0:
366,344,108034,6,0,B|403:354|403:354|452:346|452:346|494:361,1,120.000004577637
361,176,108367,1,0,0:0:0:0:
425,57,108534,1,0,0:0:0:0:
430,43,108617,1,0,0:0:0:0:
435,29,108700,2,0,B|390:55|366:5|318:28,1,120.000004577637
361,176,109034,1,0,0:0:0:0:
297,314,109200,1,0,0:0:0:0:
64,257,109367,6,0,B|133:253|133:253|176:265|176:265|262:257,1,180.000006866455
264,241,109700,2,0,L|216:129,1,120.000004577637
1,133,110034,2,0,P|77:126|104:30,1,180.000006866455
89,22,110367,1,0,0:0:0:0:
150,176,110534,1,0,0:0:0:0:
31,307,110700,5,0,0:0:0:0:
94,354,110867,1,0,0:0:0:0:
220,271,111034,2,0,B|179:269|179:269|144:285|144:285|84:280,1,120.000004577637
259,351,111367,2,0,P|330:299|417:328,1,180.000006866455
424,346,111700,2,0,L|408:267,1,60.0000022888184
487,292,111867,2,0,L|471:213,1,60.0000022888184
381,214,112034,5,0,0:0:0:0:
356,185,112117,1,0,0:0:0:0:
344,150,112200,1,0,0:0:0:0:
344,113,112283,1,0,0:0:0:0:
358,78,112367,1,0,0:0:0:0:
383,51,112450,1,0,0:0:0:0:
417,34,112533,1,0,0:0:0:0:
454,31,112617,1,0,0:0:0:0:
490,40,112700,5,0,0:0:0:0:
470,87,112783,1,0,0:0:0:0:
433,123,112866,1,0,0:0:0:0:
386,142,112949,1,0,0:0:0:0:
335,142,113033,1,0,0:0:0:0:
288,121,113116,1,0,0:0:0:0:
252,85,113199,1,0,0:0:0:0:
234,37,113283,1,0,0:0:0:0:
159,28,113367,5,0,0:0:0:0:
150,50,113450,1,0,0:0:0:0:
141,72,113534,1,0,0:0:0:0:
132,94,113617,1,0,0:0:0:0:
195,143,113700,5,0,0:0:0:0:
200,166,113784,1,0,0:0:0:0:
205,189,113867,1,0,0:0:0:0:
210,212,113950,1,0,0:0:0:0:
167,282,114034,5,0,0:0:0:0:
130,250,114117,1,0,0:0:0:0:
82,250,114200,1,0,0:0:0:0:
48,284,114284,1,0,0:0:0:0:
47,331,114367,6,0,L|109:341,1,60.0000022888184
195,358,114534,2,0,L|257:368,1,60.0000022888184
476,311,114700,6,0,B|411:303|411:303|357:314|357:314|286:306,1,180.000006866455
353,238,115034,1,0,0:0:0:0:
242,57,115200,1,0,0:0:0:0:
188,113,115367,2,0,P|251:135|321:52,1,180.000006866455
316,24,115700,1,0,0:0:0:0:
226,285,115867,6,0,B|218:215|218:215|195:178|195:178|184:85,1,180.000006866455
122,68,116200,1,0,0:0:0:0:
25,205,116367,1,0,0:0:0:0:
103,354,116534,1,0,0:0:0:0:
336,363,116700,2,0,P|283:313|180:332,1,180.000006866455
176,303,117034,1,0,0:0:0:0:
224,44,117200,1,0,0:0:0:0:
430,128,117367,6,0,B|361:137|361:137|332:170|332:170|252:181,1,180.000006866455
290,100,117700,2,0,L|303:24,1,60.0000022888184
403,210,117867,2,0,L|390:286,1,60.0000022888184
334,321,118034,1,0,0:0:0:0:
485,240,118200,1,0,0:0:0:0:
296,254,118367,1,0,0:0:0:0:
406,349,118534,1,0,0:0:0:0:
118,269,118700,5,0,0:0:0:0:
100,236,118783,1,0,0:0:0:0:
95,199,118866,1,0,0:0:0:0:
102,162,118949,1,0,0:0:0:0:
122,130,119033,1,0,0:0:0:0:
151,107,119116,1,0,0:0:0:0:
186,95,119199,1,0,0:0:0:0:
223,96,119283,1,0,0:0:0:0:
258,109,119366,1,0,0:0:0:0:
0,323,119534,6,0,L|84:314,1,60.0000022888184
255,193,119700,2,0,L|171:202,1,60.0000022888184
380,67,119867,2,0,L|464:58,1,60.0000022888184
512,49,120034,1,0,0:0:0:0:
444,295,120700,5,0,0:0:0:0:
384,358,121367,1,0,0:0:0:0:
363,352,121700,1,0,0:0:0:0:
342,346,122034,1,0,0:0:0:0:
342,346,122700,1,0,0:0:0:0:
444,295,123367,5,0,0:0:0:0:
384,358,124034,1,0,0:0:0:0:
363,352,124367,1,0,0:0:0:0:
342,346,124701,1,0,0:0:0:0:
232,168,126034,5,0,0:0:0:0:
236,172,126700,1,0,0:0:0:0:
240,176,127367,1,0,0:0:0:0:
244,180,128034,1,0,0:0:0:0:
248,184,128700,1,0,0:0:0:0:
252,188,129367,1,0,0:0:0:0:
256,192,130034,1,0,0:0:0:0:
216,274,130700,6,0,P|172:225|296:274,1,480.000018310548
256,192,130950,12,0,132534,0:0:0:0:
165,276,132700,6,0,B|212:276|212:276|239:287|239:287|296:287,1,120.000004577637
306,290,132950,2,0,L|378:281,4,60.0000022888184
509,264,133367,5,0,0:0:0:0:
349,208,133534,2,0,P|428:242|376:357,1,240
350,363,133867,1,0,0:0:0:0:
472,174,134034,2,0,B|476:130|476:130|502:87|502:87|507:15,1,160
424,61,134367,2,0,P|371:46|299:121,1,160
178,285,134700,5,0,0:0:0:0:
377,127,134867,1,0,0:0:0:0:
333,267,135034,1,0,0:0:0:0:
222,145,135200,2,0,P|239:183|228:225,1,80
7,169,135367,2,0,B|52:189|52:189|130:180|130:180|180:198,1,160
175,35,135700,2,0,P|83:54|77:134,1,160
68,108,135950,1,0,0:0:0:0:
68,108,136034,5,0,0:0:0:0:
248,66,136200,1,0,0:0:0:0:
122,254,136367,1,0,0:0:0:0:
301,211,136533,1,0,0:0:0:0:
217,261,136700,5,0,0:0:0:0:
400,339,136867,1,0,0:0:0:0:
367,134,137034,1,0,0:0:0:0:
217,261,137200,5,0,0:0:0:0:
439,200,137367,1,0,0:0:0:0:
271,43,137534,1,0,0:0:0:0:
83,35,137700,5,0,0:0:0:0:
50,63,137784,1,0,0:0:0:0:
38,105,137867,1,0,0:0:0:0:
49,147,137950,1,0,0:0:0:0:
74,183,138034,1,0,0:0:0:0:
100,219,138117,1,0,0:0:0:0:
112,261,138200,1,0,0:0:0:0:
104,304,138284,1,0,0:0:0:0:
76,338,138367,2,0,B|108:306|187:306|188:369|249:371|308:331,1,240
220,201,138700,6,0,L|243:278,1,80
385,353,138867,2,0,L|362:276,1,80
323,176,139034,1,0,0:0:0:0:
305,137,139117,1,0,0:0:0:0:
312,95,139200,1,0,0:0:0:0:
342,65,139284,1,0,0:0:0:0:
384,56,139367,5,0,0:0:0:0:
346,85,139450,1,0,0:0:0:0:
300,94,139533,1,0,0:0:0:0:
254,81,139617,1,0,0:0:0:0:
214,55,139700,1,0,0:0:0:0:
172,31,139783,1,0,0:0:0:0:
125,23,139867,1,0,0:0:0:0:
79,35,139950,1,0,0:0:0:0:
39,61,140033,5,0,0:0:0:0:
45,84,140117,1,0,0:0:0:0:
51,107,140200,1,0,0:0:0:0:
57,130,140284,1,0,0:0:0:0:
128,157,140367,1,0,0:0:0:0:
119,187,140450,1,0,0:0:0:0:
110,218,140534,1,0,0:0:0:0:
102,248,140617,1,0,0:0:0:0:
46,302,140700,6,0,P|88:325|177:268,1,160
474,335,141034,2,0,B|373:325|373:325|342:334|342:334|235:325,1,240
321,252,141367,6,0,B|315:195|315:195|372:107|372:107|384:193,1,240
344,40,141700,6,0,P|382:34|423:57,1,80
321,252,141867,2,0,P|283:258|242:235,1,80
445,121,142034,6,0,L|458:218,1,80
292,175,142200,2,0,L|279:78,1,80
122,19,142367,6,0,L|132:98,1,80
149,211,142534,2,0,L|159:290,1,80
51,229,142700,5,0,0:0:0:0:
87,202,142783,1,0,0:0:0:0:
131,191,142866,1,0,0:0:0:0:
176,197,142950,1,0,0:0:0:0:
216,220,143033,1,0,0:0:0:0:
244,255,143116,1,0,0:0:0:0:
257,299,143200,1,0,0:0:0:0:
252,344,143283,1,0,0:0:0:0:
146,369,143367,6,0,L|160:282,1,80
337,170,143534,2,0,L|323:257,1,80
409,368,143700,2,0,B|449:338|449:338|470:206|470:206|523:158,1,240
429,124,144034,6,0,P|413:101|422:40,1,80
488,75,144200,1,0,0:0:0:0:
454,96,144284,1,0,0:0:0:0:
415,102,144367,1,0,0:0:0:0:
376,92,144450,1,0,0:0:0:0:
345,68,144534,1,0,0:0:0:0:
325,33,144617,1,0,0:0:0:0:
272,91,144700,6,0,P|234:116|185:108,1,80
85,154,144867,1,0,0:0:0:0:
137,158,144950,1,0,0:0:0:0:
177,190,145034,1,0,0:0:0:0:
191,241,145117,1,0,0:0:0:0:
174,290,145200,1,0,0:0:0:0:
131,320,145284,1,0,0:0:0:0:
103,239,145367,6,0,L|21:244,1,80
256,293,145534,2,0,L|338:288,1,80
512,319,145700,2,0,L|433:324,1,80
374,195,145867,2,0,L|292:200,1,80
227,142,146034,5,0,0:0:0:0:
454,197,146200,1,0,0:0:0:0:
283,29,146367,1,0,0:0:0:0:
510,84,146533,1,0,0:0:0:0:
202,65,146700,6,0,P|151:86|116:80,1,80
58,35,146867,1,0,0:0:0:0:
95,72,146950,1,0,0:0:0:0:
114,121,147034,1,0,0:0:0:0:
109,174,147117,1,0,0:0:0:0:
83,220,147200,1,0,0:0:0:0:
40,250,147284,1,0,0:0:0:0:
107,296,147367,6,0,P|146:286|192:299,1,80
239,244,147534,1,0,0:0:0:0:
275,287,147617,1,0,0:0:0:0:
327,310,147700,1,0,0:0:0:0:
383,310,147784,1,0,0:0:0:0:
435,287,147867,1,0,0:0:0:0:
472,243,147950,1,0,0:0:0:0:
487,189,148034,5,0,0:0:0:0:
481,166,148117,1,0,0:0:0:0:
475,142,148200,1,0,0:0:0:0:
469,118,148284,1,0,0:0:0:0:
406,80,148367,5,0,0:0:0:0:
374,73,148450,1,0,0:0:0:0:
342,66,148534,1,0,0:0:0:0:
310,59,148617,1,0,0:0:0:0:
232,41,148700,6,0,L|252:126,1,80
267,196,148867,2,0,L|287:281,1,80
304,354,149034,2,0,L|219:345,1,80
0,261,149200,2,0,L|80:270,1,80
156,237,149367,5,0,0:0:0:0:
213,355,149534,1,0,0:0:0:0:
388,206,149700,1,0,0:0:0:0:
442,220,149784,1,0,0:0:0:0:
478,262,149867,1,0,0:0:0:0:
489,316,149950,1,0,0:0:0:0:
471,369,150034,5,0,0:0:0:0:
499,151,150200,1,0,0:0:0:0:
406,306,150367,1,0,0:0:0:0:
350,301,150450,1,0,0:0:0:0:
305,265,150534,1,0,0:0:0:0:
288,211,150617,1,0,0:0:0:0:
300,156,150700,5,0,0:0:0:0:
423,53,150867,1,0,0:0:0:0:
388,206,151034,1,0,0:0:0:0:
382,150,151117,1,0,0:0:0:0:
353,100,151200,1,0,0:0:0:0:
346,43,151284,1,0,0:0:0:0:
296,13,151367,5,0,0:0:0:0:
164,164,151534,1,0,0:0:0:0:
8,44,151700,1,0,0:0:0:0:
63,52,151784,1,0,0:0:0:0:
117,38,151867,1,0,0:0:0:0:
172,46,151950,1,0,0:0:0:0:
216,26,152034,5,0,0:0:0:0:
212,41,152117,1,0,0:0:0:0:
206,55,152200,1,0,0:0:0:0:
202,70,152284,1,0,0:0:0:0:
235,141,152367,5,0,0:0:0:0:
240,160,152450,1,0,0:0:0:0:
245,179,152534,1,0,0:0:0:0:
251,197,152617,1,0,0:0:0:0:
205,259,152700,5,0,0:0:0:0:
242,273,152784,1,0,0:0:0:0:
281,269,152867,1,0,0:0:0:0:
312,244,152950,1,0,0:0:0:0:
349,229,153034,1,0,0:0:0:0:
388,233,153117,1,0,0:0:0:0:
424,248,153200,1,0,0:0:0:0:
448,279,153284,1,0,0:0:0:0:
454,318,153367,6,0,L|478:226,1,80
399,36,153534,2,0,L|378:113,1,80
312,244,153700,6,0,L|219:255,1,80
113,270,153867,2,0,L|20:281,1,80
278,172,154034,6,0,L|185:183,1,80
79,198,154201,2,0,L|-14:209,1,80
134,121,154367,5,0,0:0:0:0:
240,360,154534,1,0,0:0:0:0:
180,300,154700,6,0,P|264:280|308:308,1,120.000004577637
364,208,155034,6,0,B|316:208|316:208|344:176|344:176|344:64|344:64|316:32|316:32|448:32|448:32|516:60|516:180|448:208|448:208|412:208,1,623.999971435548
