osu file format v14

[General]
AudioFilename: Destr0yer.mp3
AudioLeadIn: 0
PreviewTime: 59761
Countdown: 0
SampleSet: Soft
StackLeniency: 0.7
Mode: 3
LetterboxInBreaks: 0
EpilepsyWarning: 1
SpecialStyle: 0
WidescreenStoryboard: 1

[Editor]
DistanceSpacing: 1.4
BeatDivisor: 4
GridSize: 8
TimelineZoom: 1.7

[Metadata]
Title:Destr0yer
TitleUnicode:Destr0yer
Artist:Sakuzyo feat. Nikki Simmons
ArtistUnicode:削除 feat. Nikki Simmons
Creator:Critical_Star
Version:Normal
Source:BMS
Tags:ASPRGuS yoshimo & Radiosity BMS Of Fighters GO BACK 2 YOUR ROOTS 2018 Climax BEAM G2R2018 Kuo Kyoka
BeatmapID:1831778
BeatmapSetID:875074

[Difficulty]
HPDrainRate:7.5
CircleSize:7
OverallDifficulty:7.3
ApproachRate:5
SliderMultiplier:1.4
SliderTickRate:1

[Events]
//Background and Video events
0,0,"BG.jpg",0,0
Video,1050,"destr0yer video.AVI"
//Break Periods
//Storyboard Layer 0 (Background)
//Storyboard Layer 1 (Fail)
//Storyboard Layer 2 (Pass)
//Storyboard Layer 3 (Foreground)
//Storyboard Sound Samples
Sample,13761,0,"fillsnare.wav",50
Sample,15095,0,"kick.wav",50
Sample,16428,0,"kick.wav",50
Sample,17761,0,"kick.wav",50
Sample,19095,0,"kick.wav",50
Sample,20428,0,"kick.wav",50
Sample,21761,0,"kick.wav",50
Sample,23095,0,"kick.wav",50
Sample,25761,0,"kick.wav",50
Sample,27095,0,"kick.wav",50
Sample,28428,0,"kick.wav",50
Sample,29761,0,"kick.wav",50
Sample,31095,0,"kick.wav",50
Sample,33761,0,"kick.wav",50
Sample,39095,0,"vocal_1bgm1 - Marker #2.wav",100
Sample,39595,0,"vocal_1bgm1 - Marker #3.wav",100
Sample,40761,0,"vocal_1bgm1 - Marker #4.wav",100
Sample,42095,0,"vocal_1bgm1 - Marker #5.wav",100
Sample,42261,0,"vocal_1bgm1 - Marker #6.wav",100
Sample,43095,0,"vocal_1bgm1 - Marker #7.wav",100
Sample,43428,0,"vocal_1bgm1 - Marker #8.wav",100
Sample,43595,0,"vocal_1bgm1 - Marker #9.wav",100
Sample,44428,0,"vocal_1bgm1 - Marker #10.wav",100
Sample,44928,0,"vocal_1bgm1 - Marker #11.wav",100
Sample,45595,0,"vocal_1bgm1 - Marker #12.wav",100
Sample,45761,0,"vocal_1bgm1 - Marker #13.wav",100
Sample,46261,0,"vocal_1bgm1 - Marker #14.wav",100
Sample,47428,0,"vocal_1bgm1 - Marker #15.wav",100
Sample,47595,0,"vocal_1bgm1 - Marker #16.wav",100
Sample,48095,0,"vocal_1bgm1 - Marker #17.wav",100
Sample,48428,0,"vocal_1bgm1 - Marker #18.wav",100
Sample,48595,0,"vocal_1bgm1 - Marker #19.wav",100
Sample,49095,0,"vocal_1bgm1 - Marker #20.wav",100
Sample,49595,0,"vocal_1bgm1 - Marker #21.wav",100
Sample,49761,0,"vocal_1bgm1 - Marker #22.wav",100
Sample,49928,0,"vocal_1bgm1 - Marker #23.wav",100
Sample,50095,0,"vocal_1bgm1 - Marker #24.wav",100
Sample,50261,0,"vocal_1bgm1 - Marker #25.wav",100
Sample,50761,0,"vocal_1bgm1 - Marker #26.wav",100
Sample,51261,0,"vocal_1bgm1 - Marker #27.wav",100
Sample,51595,0,"vocal_1bgm1 - Marker #28.wav",100
Sample,52261,0,"vocal_1bgm1 - Marker #29.wav",100
Sample,52428,0,"vocal_1bgm1 - Marker #30.wav",100
Sample,52928,0,"vocal_1bgm1 - Marker #31.wav",100
Sample,53428,0,"vocal_1bgm1 - Marker #32.wav",100
Sample,53595,0,"vocal_1bgm1 - Marker #33.wav",100
Sample,53761,0,"vocal_1bgm1 - Marker #34.wav",100
Sample,54261,0,"vocal_1bgm1 - Marker #35.wav",100
Sample,54428,0,"vocal_1bgm1 - Marker #36.wav",100
Sample,55095,0,"vocal_1bgm1 - Marker #37.wav",100
Sample,55261,0,"vocal_1bgm1 - Marker #38.wav",100
Sample,55595,0,"vocal_1bgm1 - Marker #39.wav",100
Sample,56095,0,"vocal_1bgm1 - Marker #40.wav",100
Sample,56428,0,"vocal_1bgm1 - Marker #41.wav",100
Sample,56761,0,"vocal_1bgm1 - Marker #42.wav",100
Sample,56928,0,"vocal_1bgm1 - Marker #43.wav",100
Sample,57261,0,"vocal_1bgm1 - Marker #44.wav",100
Sample,57428,0,"vocal_1bgm1 - Marker #45.wav",100
Sample,57761,0,"vocal_1bgm1 - Marker #46.wav",100
Sample,57928,0,"vocal_1bgm1 - Marker #47.wav",100
Sample,58261,0,"vocal_1bgm1 - Marker #48.wav",100
Sample,58595,0,"vocal_1bgm1 - Marker #49.wav",100
Sample,58928,0,"vocal_1bgm1 - Marker #50.wav",100
Sample,59095,0,"vocal_1bgm1 - Marker #51.wav",100
Sample,59261,0,"vocal_1bgm1 - Marker #52.wav",100
Sample,70428,0,"vocal_1bgm1 - Marker #82.wav",100
Sample,71095,0,"vocal_1bgm1 - Marker #83.wav",100
Sample,71595,0,"vocal_1bgm1 - Marker #84.wav",100
Sample,71761,0,"vocal_1bgm1 - Marker #85.wav",100
Sample,72095,0,"vocal_1bgm1 - Marker #86.wav",100
Sample,72261,0,"vocal_1bgm1 - Marker #87.wav",100
Sample,72428,0,"vocal_1bgm1 - Marker #88.wav",100
Sample,73095,0,"vocal_1bgm1 - Marker #89.wav",100
Sample,73761,0,"vocal_1bgm1 - Marker #90.wav",100
Sample,74428,0,"vocal_1bgm1 - Marker #91.wav",100
Sample,74761,0,"vocal_1bgm1 - Marker #92.wav",100
Sample,74928,0,"vocal_1bgm1 - Marker #93.wav",100
Sample,75095,0,"vocal_1bgm1 - Marker #94.wav",100
Sample,75428,0,"vocal_1bgm1 - Marker #95.wav",100
Sample,75595,0,"vocal_1bgm1 - Marker #96.wav",100
Sample,75761,0,"vocal_1bgm1 - Marker #97.wav",100
Sample,76428,0,"vocal_1bgm1 - Marker #98.wav",100
Sample,77095,0,"vocal_1bgm1 - Marker #99.wav",100
Sample,77428,0,"vocal_1bgm1 - Marker #100.wav",100
Sample,77595,0,"vocal_1bgm1 - Marker #101.wav",100
Sample,77928,0,"vocal_1bgm1 - Marker #102.wav",100
Sample,78595,0,"vocal_1bgm1 - Marker #103.wav",100
Sample,83761,0,"vvx_3 - Marker #1.wav",100
Sample,84428,0,"vvx_3 - Marker #2.wav",100
Sample,84761,0,"vvx_3 - Marker #3.wav",100
Sample,85095,0,"vvx_3 - Marker #4.wav",100
Sample,85428,0,"vvx_3 - Marker #5.wav",100
Sample,86095,0,"vvx_3 - Marker #6.wav",100
Sample,86178,0,"vvx_3 - Marker #6.wav",100
Sample,86261,0,"vvx_3 - Marker #6.wav",100
Sample,86345,0,"vvx_3 - Marker #6.wav",100
Sample,86428,0,"vvx_3 - Marker #10.wav",100
Sample,86761,0,"vvx_3 - Marker #11.wav",100
Sample,87095,0,"vvx_3 - Marker #12.wav",100
Sample,87428,0,"vvx_3 - Marker #13.wav",100
Sample,88095,0,"vvx_3 - Marker #14.wav",100
Sample,88428,0,"vvx_3 - Marker #15.wav",100
Sample,88511,0,"vvx_3 - Marker #15.wav",100
Sample,88595,0,"vvx_3 - Marker #15.wav",100
Sample,88678,0,"vvx_3 - Marker #15.wav",100
Sample,88761,0,"vvx_3 - Marker #19.wav",100
Sample,89095,0,"vvx_3 - Marker #20.wav",100
Sample,89761,0,"vvx_3 - Marker #21.wav",100
Sample,90095,0,"vvx_3 - Marker #22.wav",100
Sample,91095,0,"vvx_3 - Marker #23.wav",100
Sample,91428,0,"vvx_3 - Marker #24.wav",100
Sample,92095,0,"vvx_3 - Marker #25.wav",100
Sample,92428,0,"vvx_3 - Marker #26.wav",100
Sample,92761,0,"vvx_3 - Marker #27.wav",100
Sample,93095,0,"vvx_3 - Marker #28.wav",100
Sample,93261,0,"vvx_3 - Marker #29.wav",100
Sample,93345,0,"vvx_3 - Marker #34.wav",100
Sample,93428,0,"vvx_3 - Marker #34.wav",100
Sample,93511,0,"vvx_3 - Marker #34.wav",100
Sample,93595,0,"vvx_3 - Marker #34.wav",100
Sample,93678,0,"vvx_3 - Marker #34.wav",100
Sample,93761,0,"vvx_3 - Marker #35.wav",100
Sample,94428,0,"vvx_3 - Marker #36.wav",100
Sample,95095,0,"vvx_3 - Marker #37.wav",100
Sample,95428,0,"vvx_3 - Marker #38.wav",100
Sample,95761,0,"vvx_3 - Marker #39.wav",100
Sample,96095,0,"vvx_3 - Marker #40.wav",100
Sample,97095,0,"vvx_3 - Marker #41.wav",100
Sample,97428,0,"vvx_3 - Marker #42.wav",100
Sample,97761,0,"vvx_3 - Marker #43.wav",100
Sample,98095,0,"vvx_3 - Marker #44.wav",100
Sample,98761,0,"vvx_3 - Marker #45.wav",100
Sample,99428,0,"vvx_3 - Marker #47.wav",100
Sample,99761,0,"vvx_3 - Marker #48.wav",100
Sample,100095,0,"vvx_3 - Marker #49.wav",100
Sample,100428,0,"vvx_3 - Marker #50.wav",100
Sample,101095,0,"vvx_3 - Marker #51.wav",100
Sample,101595,0,"vvx_3 - Marker #52.wav",100
Sample,102011,0,"kick.wav",50
Sample,102095,0,"vvx_3 - Marker #53.wav",100
Sample,104761,0,"vocal_sabi_x1 - Marker #2.wav",100
Sample,104928,0,"vocal_sabi_x1 - Marker #3.wav",100
Sample,105095,0,"vocal_sabi_x1 - Marker #4.wav",100
Sample,106095,0,"vocal_sabi_x1 - Marker #5.wav",100
Sample,106261,0,"vocal_sabi_x1 - Marker #6.wav",100
Sample,106428,0,"vocal_sabi_x1 - Marker #7.wav",100
Sample,106761,0,"vocal_sabi_x1 - Marker #8.wav",100
Sample,106928,0,"vocal_sabi_x1 - Marker #9.wav",100
Sample,107261,0,"vocal_sabi_x1 - Marker #10.wav",100
Sample,107595,0,"vocal_sabi_x1 - Marker #11.wav",100
Sample,108595,0,"vocal_sabi_x1 - Marker #12.wav",100
Sample,108761,0,"vocal_sabi_x1 - Marker #13.wav",100
Sample,108928,0,"vocal_sabi_x1 - Marker #14.wav",100
Sample,109095,0,"vocal_sabi_x1 - Marker #15.wav",100
Sample,109428,0,"vocal_sabi_x1 - Marker #16.wav",100
Sample,109595,0,"vocal_sabi_x1 - Marker #17.wav",100
Sample,109928,0,"vocal_sabi_x1 - Marker #18.wav",100
Sample,110095,0,"vocal_sabi_x1 - Marker #19.wav",100
Sample,110261,0,"vocal_sabi_x1 - Marker #20.wav",100
Sample,111095,0,"vocal_sabi_x1 - Marker #21.wav",100
Sample,111428,0,"vocal_sabi_x1 - Marker #22.wav",100
Sample,111595,0,"vocal_sabi_x1 - Marker #23.wav",100
Sample,111928,0,"vocal_sabi_x1 - Marker #24.wav",100
Sample,112261,0,"vocal_sabi_x1 - Marker #25.wav",100
Sample,112595,0,"vocal_sabi_x1 - Marker #26.wav",100
Sample,112928,0,"vocal_sabi_x1 - Marker #27.wav",100
Sample,113261,0,"vocal_sabi_x1 - Marker #28.wav",100
Sample,115345,0,"vocal_sabi_x1 - Marker #30.wav",100
Sample,115595,0,"vocal_sabi_x1 - Marker #31.wav",100
Sample,115761,0,"vocal_sabi_x1 - Marker #32.wav",100
Sample,116678,0,"vocal_sabi_x1 - Marker #33.wav",100
Sample,116928,0,"vocal_sabi_x1 - Marker #34.wav",100
Sample,117095,0,"vocal_sabi_x1 - Marker #35.wav",100
Sample,117428,0,"vocal_sabi_x1 - Marker #36.wav",100
Sample,117595,0,"vocal_sabi_x1 - Marker #37.wav",100
Sample,117928,0,"vocal_sabi_x1 - Marker #38.wav",100
Sample,118261,0,"vocal_sabi_x1 - Marker #39.wav",100
Sample,119261,0,"vocal_sabi_x1 - Marker #40.wav",100
Sample,119428,0,"vocal_sabi_x1 - Marker #41.wav",100
Sample,119595,0,"vocal_sabi_x1 - Marker #42.wav",100
Sample,119761,0,"vocal_sabi_x1 - Marker #43.wav",100
Sample,120095,0,"vocal_sabi_x1 - Marker #44.wav",100
Sample,120261,0,"vocal_sabi_x1 - Marker #45.wav",100
Sample,120595,0,"vocal_sabi_x1 - Marker #46.wav",100
Sample,120678,0,"kick.wav",50
Sample,120761,0,"vocal_sabi_x1 - Marker #47.wav",100
Sample,120928,0,"vocal_sabi_x1 - Marker #48.wav",100
Sample,121761,0,"vocal_sabi_x1 - Marker #49.wav",100
Sample,121928,0,"vocal_sabi_x1 - Marker #50.wav",100
Sample,122095,0,"vocal_sabi_x1 - Marker #51.wav",100
Sample,122261,0,"vocal_sabi_x1 - Marker #52.wav",100
Sample,122761,0,"vocal_sabi_x1 - Marker #53.wav",100
Sample,123095,0,"vocal_sabi_x1 - Marker #54.wav",100
Sample,124428,0,"vocal_sabi_x1 - Marker #55.wav",100
Sample,124595,0,"vocal_sabi_x1 - Marker #56.wav",100
Sample,124761,0,"vocal_sabi_x1 - Marker #57.wav",100
Sample,124928,0,"vocal_sabi_x1 - Marker #58.wav",100
Sample,125428,0,"vocal_sabi_x1 - Marker #59.wav",100
Sample,125761,0,"vocal_sabi_x1 - Marker #60.wav",100
Sample,127095,0,"vocal_sabi_x1 - Marker #62.wav",100
Sample,127261,0,"vocal_sabi_x1 - Marker #63.wav",100
Sample,127428,0,"vocal_sabi_x1 - Marker #64.wav",100
Sample,127595,0,"vocal_sabi_x1 - Marker #65.wav",100
Sample,128095,0,"vocal_sabi_x1 - Marker #66.wav",100
Sample,128428,0,"vocal_sabi_x1 - Marker #67.wav",100
Sample,128595,0,"vocal_sabi_x1 - Marker #68.wav",100
Sample,128928,0,"vocal_sabi_x1 - Marker #69.wav",100
Sample,130428,0,"vocal_sabi_x1 - Marker #70.wav",100
Sample,133761,0,"fillsnare.wav",50
Sample,149761,0,"kick.wav",50
Sample,152761,0,"kick.wav",50

[TimingPoints]
1095,666.666666666667,4,2,1,40,1,0
59761,-100,4,2,1,20,0,0
70428,-100,4,2,1,40,0,0
155761,-100,4,2,1,20,0,0
166428,-100,4,2,1,10,0,0

[HitObjects]
36,192,1095,5,0,0:0:0:30:kick.wav
475,192,1095,1,0,0:0:0:50:hit.wav
256,192,1095,1,0,0:0:0:0:
109,192,1761,1,0,0:0:0:30:backsnare.wav
402,192,1761,1,0,0:0:0:0:
256,192,3761,1,0,0:0:0:30:kick.wav
402,192,3761,1,0,0:0:0:0:
182,192,6428,1,0,0:0:0:30:kick.wav
329,192,6428,1,0,0:0:0:0:
475,192,9095,1,0,0:0:0:30:kick.wav
109,192,9095,1,0,0:0:0:0:
109,192,11761,128,0,13761:0:0:0:100:beam1.wav
402,192,11761,128,0,13761:0:0:0:50:kick.wav
256,192,11761,128,0,13761:0:0:0:0:
475,192,14428,1,0,0:0:0:50:kick.wav
36,192,14428,1,0,0:0:0:70:crash.wav
256,192,14428,1,0,0:0:0:0:
109,192,14595,1,0,0:0:0:0:
402,192,14761,1,0,0:0:0:30:hihat.wav
182,192,14928,1,0,0:0:0:0:
329,192,15095,1,0,0:0:0:50:snap.wav
182,192,15261,1,0,0:0:0:0:
402,192,15428,1,0,0:0:0:30:hihat.wav
109,192,15595,1,0,0:0:0:0:
329,192,15761,1,0,0:0:0:50:kick.wav
475,192,15761,1,0,0:0:0:0:
329,192,15928,1,0,0:0:0:0:
36,192,16095,1,0,0:0:0:30:hihat.wav
402,192,16261,1,0,0:0:0:0:
182,192,16428,1,0,0:0:0:50:snap.wav
329,192,16595,1,0,0:0:0:0:
475,192,16761,1,0,0:0:0:30:hihat.wav
109,192,16928,1,0,0:0:0:0:
329,192,17095,1,0,0:0:0:50:kick.wav
475,192,17095,1,0,0:0:0:0:
182,192,17261,1,0,0:0:0:0:
402,192,17428,1,0,0:0:0:30:hihat.wav
109,192,17595,1,0,0:0:0:0:
402,192,17761,1,0,0:0:0:50:snap.wav
182,192,17928,1,0,0:0:0:0:
329,192,18095,1,0,0:0:0:30:hihat.wav
109,192,18261,1,0,0:0:0:0:
475,192,18428,1,0,0:0:0:50:kick.wav
182,192,18428,1,0,0:0:0:0:
475,192,18595,1,0,0:0:0:0:
256,192,18761,1,0,0:0:0:30:hihat.wav
402,192,18928,1,0,0:0:0:0:
182,192,19095,1,0,0:0:0:50:snap.wav
36,192,19261,1,0,0:0:0:0:
256,192,19428,1,0,0:0:0:30:hihat.wav
109,192,19595,1,0,0:0:0:0:
256,192,19761,1,0,0:0:0:50:kick.wav
402,192,19761,1,0,0:0:0:0:
36,192,19928,1,0,0:0:0:0:
475,192,20095,1,0,0:0:0:30:hihat.wav
475,192,20261,1,0,0:0:0:0:
109,192,20428,1,0,0:0:0:50:snap.wav
256,192,20595,1,0,0:0:0:0:
182,192,20761,1,0,0:0:0:30:hihat.wav
329,192,20928,1,0,0:0:0:0:
475,192,21095,1,0,0:0:0:50:kick.wav
36,192,21261,1,0,0:0:0:0:
402,192,21428,1,0,0:0:0:30:hihat.wav
109,192,21595,1,0,0:0:0:0:
256,192,21761,1,0,0:0:0:50:snap.wav
329,192,21928,1,0,0:0:0:0:
182,192,22095,1,0,0:0:0:30:hihat.wav
256,192,22261,1,0,0:0:0:0:
109,192,22428,1,0,0:0:0:50:kick.wav
475,192,22428,1,0,0:0:0:0:
329,192,22595,1,0,0:0:0:0:
36,192,22761,1,0,0:0:0:30:hihat.wav
36,192,22928,1,0,0:0:0:0:
402,192,23095,1,0,0:0:0:50:snap.wav
256,192,23261,1,0,0:0:0:0:
329,192,23428,1,0,0:0:0:30:hihat.wav
182,192,23595,1,0,0:0:0:0:
36,192,23761,1,0,0:0:0:50:kick.wav
475,192,23928,1,0,0:0:0:0:
256,192,24095,1,0,0:0:0:30:hihat.wav
402,192,24261,1,0,0:0:0:0:
36,192,24428,1,0,0:0:0:50:snap.wav
182,192,24428,1,0,0:0:0:50:kick.wav
475,192,24595,1,0,0:0:0:0:
182,192,24761,1,0,0:0:0:30:hihat.wav
329,192,24761,1,0,0:0:0:50:kick.wav
36,192,24928,1,0,0:0:0:0:
329,192,25095,1,0,0:0:0:50:kick.wav
475,192,25095,1,0,0:0:0:70:crash.wav
182,192,25261,1,0,0:0:0:0:
402,192,25428,1,0,0:0:0:30:hihat.wav
182,192,25595,1,0,0:0:0:0:
329,192,25761,1,0,0:0:0:50:snap.wav
329,192,25928,1,0,0:0:0:0:
109,192,26095,1,0,0:0:0:30:hihat.wav
109,192,26261,1,0,0:0:0:0:
256,192,26428,1,0,0:0:0:50:kick.wav
402,192,26428,1,0,0:0:0:0:
182,192,26595,1,0,0:0:0:0:
402,192,26761,1,0,0:0:0:30:hihat.wav
109,192,26928,1,0,0:0:0:0:
256,192,27095,1,0,0:0:0:50:snap.wav
402,192,27261,1,0,0:0:0:0:
256,192,27428,1,0,0:0:0:30:hihat.wav
109,192,27595,1,0,0:0:0:0:
329,192,27761,1,0,0:0:0:50:kick.wav
475,192,27761,1,0,0:0:0:0:
182,192,27928,1,0,0:0:0:0:
402,192,28095,1,0,0:0:0:30:hihat.wav
182,192,28261,1,0,0:0:0:0:
329,192,28428,1,0,0:0:0:50:snap.wav
329,192,28595,1,0,0:0:0:0:
36,192,28761,1,0,0:0:0:30:hihat.wav
36,192,28928,1,0,0:0:0:0:
182,192,29095,1,0,0:0:0:50:kick.wav
402,192,29095,1,0,0:0:0:0:
329,192,29261,1,0,0:0:0:0:
109,192,29428,1,0,0:0:0:30:hihat.wav
182,192,29595,1,0,0:0:0:0:
475,192,29761,1,0,0:0:0:50:snap.wav
109,192,29928,1,0,0:0:0:0:
402,192,30095,1,0,0:0:0:30:hihat.wav
109,192,30261,1,0,0:0:0:0:
256,192,30428,1,0,0:0:0:50:kick.wav
475,192,30428,1,0,0:0:0:0:
36,192,30595,1,0,0:0:0:0:
329,192,30761,1,0,0:0:0:30:hihat.wav
329,192,30928,1,0,0:0:0:0:
109,192,31095,1,0,0:0:0:50:snap.wav
256,192,31261,1,0,0:0:0:0:
402,192,31428,1,0,0:0:0:30:hihat.wav
256,192,31595,1,0,0:0:0:0:
36,192,31761,1,0,0:0:0:50:kick.wav
475,192,31928,1,0,0:0:0:0:
256,192,32095,1,0,0:0:0:30:hihat.wav
475,192,32261,1,0,0:0:0:0:
36,192,32428,1,0,0:0:0:50:snap.wav
182,192,32428,1,0,0:0:0:50:kick.wav
329,192,32595,1,0,0:0:0:0:
182,192,32761,1,0,0:0:0:30:hihat.wav
329,192,32928,1,0,0:0:0:0:
475,192,33095,1,0,0:0:0:50:kick.wav
256,192,33095,1,0,0:0:0:0:
36,192,33261,1,0,0:0:0:0:
182,192,33428,1,0,0:0:0:30:hihat.wav
182,192,33595,1,0,0:0:0:0:
402,192,33761,1,0,0:0:0:50:snap.wav
256,192,33928,1,0,0:0:0:0:
109,192,34095,1,0,0:0:0:30:hihat.wav
256,192,34261,1,0,0:0:0:0:
402,192,34428,1,0,0:0:0:50:kick.wav
109,192,34595,1,0,0:0:0:0:
402,192,34761,1,0,0:0:0:30:hihat.wav
182,192,34928,1,0,0:0:0:0:
329,192,35095,1,0,0:0:0:50:snap.wav
475,192,35095,1,0,0:0:0:50:kick.wav
36,192,35261,1,0,0:0:0:0:
329,192,35428,1,0,0:0:0:30:hihat.wav
182,192,35428,1,0,0:0:0:50:kick.wav
475,192,35595,1,0,0:0:0:0:
182,192,35761,1,0,0:0:0:0:
36,192,35761,1,0,0:0:0:0:
256,192,36428,128,0,37428:0:0:0:0:
256,192,37761,1,0,0:0:0:45:clap.wav
109,192,38428,1,0,0:0:0:35:kick.wav
475,192,38428,1,0,0:0:0:0:
329,192,38595,1,0,0:0:0:0:
36,192,38761,1,0,0:0:0:0:
182,192,38928,1,0,0:0:0:0:
475,192,39095,1,0,0:0:0:50:rim.wav
109,192,39261,1,0,0:0:0:0:
402,192,39428,1,0,0:0:0:0:
329,192,39595,1,0,0:0:0:0:
182,192,39761,1,0,0:0:0:0:
256,192,40095,1,0,0:0:0:35:kick.wav
402,192,40428,1,0,0:0:0:0:
109,192,40761,1,0,0:0:0:0:
182,192,40928,1,0,0:0:0:0:
256,192,41095,1,0,0:0:0:35:kick.wav
475,192,41095,1,0,0:0:0:0:
402,192,41261,1,0,0:0:0:0:
109,192,41428,1,0,0:0:0:0:
329,192,41595,1,0,0:0:0:0:
475,192,41761,1,0,0:0:0:50:rim.wav
182,192,41928,1,0,0:0:0:0:
402,192,42095,1,0,0:0:0:0:
109,192,42261,1,0,0:0:0:35:kick.wav
329,192,42428,1,0,0:0:0:0:
109,192,42761,1,0,0:0:0:35:kick.wav
475,192,43095,1,0,0:0:0:50:rim.wav
182,192,43428,1,0,0:0:0:0:
109,192,43595,1,0,0:0:0:0:
36,192,43761,1,0,0:0:0:35:kick.wav
402,192,43761,1,0,0:0:0:0:
329,192,43928,1,0,0:0:0:0:
109,192,44095,1,0,0:0:0:0:
256,192,44261,1,0,0:0:0:0:
475,192,44428,1,0,0:0:0:50:rim.wav
182,192,44595,1,0,0:0:0:0:
329,192,44761,1,0,0:0:0:0:
182,192,44928,1,0,0:0:0:0:
402,192,45095,1,0,0:0:0:0:
256,192,45428,1,0,0:0:0:35:kick.wav
109,192,45761,1,0,0:0:0:0:
182,192,46095,1,0,0:0:0:0:
256,192,46261,1,0,0:0:0:0:
329,192,46428,1,0,0:0:0:35:kick.wav
475,192,46428,1,0,0:0:0:0:
109,192,46595,1,0,0:0:0:0:
402,192,46761,1,0,0:0:0:0:
182,192,46928,1,0,0:0:0:0:
475,192,47095,1,0,0:0:0:50:rim.wav
256,192,47261,1,0,0:0:0:0:
402,192,47428,1,0,0:0:0:0:
182,192,47595,1,0,0:0:0:35:kick.wav
329,192,47761,1,0,0:0:0:0:
109,192,48095,1,0,0:0:0:35:kick.wav
475,192,48428,1,0,0:0:0:50:rim.wav
109,192,48595,1,0,0:0:0:35:kick.wav
109,192,48761,1,0,0:0:0:35:kick.wav
329,192,48761,1,0,0:0:0:0:
36,192,49095,1,0,0:0:0:35:kick.wav
475,192,49095,1,0,0:0:0:0:
182,192,49261,1,0,0:0:0:0:
329,192,49428,1,0,0:0:0:0:
256,192,49595,1,0,0:0:0:0:
475,192,49761,1,0,0:0:0:50:rim.wav
402,192,49761,1,0,0:0:0:0:
256,192,49928,1,0,0:0:0:0:
109,192,50095,1,0,0:0:0:0:
475,192,50428,1,0,0:0:0:0:
256,192,50761,1,0,0:0:0:35:kick.wav
402,192,50928,1,0,0:0:0:0:
182,192,51095,1,0,0:0:0:0:
109,192,51261,1,0,0:0:0:0:
329,192,51428,1,0,0:0:0:0:
256,192,51761,1,0,0:0:0:35:kick.wav
36,192,51761,1,0,0:0:0:0:
402,192,51928,1,0,0:0:0:0:
182,192,52095,1,0,0:0:0:0:
329,192,52261,1,0,0:0:0:0:
475,192,52428,1,0,0:0:0:50:rim.wav
402,192,52428,1,0,0:0:0:0:
182,192,52761,1,0,0:0:0:0:
109,192,52928,1,0,0:0:0:35:kick.wav
36,192,53095,1,0,0:0:0:0:
329,192,53261,1,0,0:0:0:0:
36,192,53428,1,0,0:0:0:35:kick.wav
329,192,53595,1,0,0:0:0:0:
475,192,53761,1,0,0:0:0:50:rim.wav
402,192,53761,1,0,0:0:0:0:
256,192,53928,1,0,0:0:0:0:
182,192,54095,1,0,0:0:0:0:
36,192,54261,1,0,0:0:0:0:
329,192,54428,1,0,0:0:0:35:kick.wav
475,192,54428,1,0,0:0:0:0:
109,192,54595,1,0,0:0:0:0:
329,192,54761,1,0,0:0:0:0:
182,192,54928,1,0,0:0:0:0:
475,192,55095,1,0,0:0:0:50:rim.wav
402,192,55095,1,0,0:0:0:0:
256,192,55261,1,0,0:0:0:0:
109,192,55428,1,0,0:0:0:0:
402,192,55761,1,0,0:0:0:0:
182,192,56095,1,0,0:0:0:35:kick.wav
329,192,56261,1,0,0:0:0:0:
475,192,56428,1,0,0:0:0:50:rim.wav
402,192,56428,1,0,0:0:0:0:
182,192,56761,1,0,0:0:0:35:kick.wav
402,192,57095,1,0,0:0:0:0:
36,192,57095,1,0,0:0:0:0:
329,192,57261,1,0,0:0:0:0:
109,192,57428,1,0,0:0:0:0:
182,192,57595,1,0,0:0:0:0:
475,192,57761,1,0,0:0:0:50:rim.wav
402,192,57761,1,0,0:0:0:0:
329,192,58095,1,0,0:0:0:0:
256,192,58261,1,0,0:0:0:35:kick.wav
182,192,58428,1,0,0:0:0:0:
36,192,58428,1,0,0:0:0:0:
329,192,58595,1,0,0:0:0:50:snare.wav
475,192,58595,1,0,0:0:0:0:
182,192,58761,1,0,0:0:0:35:kick.wav
36,192,58761,1,0,0:0:0:0:
329,192,58928,1,0,0:0:0:35:kick.wav
475,192,58928,1,0,0:0:0:0:
182,192,59095,1,0,0:0:0:50:snare.wav
109,192,59095,1,0,0:0:0:0:
182,192,59261,1,0,0:0:0:35:kick.wav
109,192,59261,1,0,0:0:0:0:
329,192,59428,1,0,0:0:0:35:kick.wav
402,192,59428,1,0,0:0:0:0:
329,192,59595,1,0,0:0:0:0:
402,192,59595,1,0,0:0:0:0:
36,192,59761,1,0,0:0:0:50:crash.wav
475,192,59761,1,0,0:0:0:0:
475,192,60428,1,0,0:0:0:0:
402,192,60761,1,0,0:0:0:0:
475,192,61095,1,0,0:0:0:0:
329,192,61428,1,0,0:0:0:0:
109,192,61761,1,0,0:0:0:0:
182,192,62095,1,0,0:0:0:0:
329,192,62428,1,0,0:0:0:0:
36,192,62428,1,0,0:0:0:0:
329,192,63095,1,0,0:0:0:0:
329,192,63761,1,0,0:0:0:0:
109,192,64095,1,0,0:0:0:0:
329,192,64428,1,0,0:0:0:0:
182,192,65095,1,0,0:0:0:0:
402,192,65095,1,0,0:0:0:0:
182,192,65761,1,0,0:0:0:0:
182,192,66428,1,0,0:0:0:0:
329,192,66761,1,0,0:0:0:0:
182,192,67095,1,0,0:0:0:0:
256,192,67428,1,0,0:0:0:0:
36,192,67761,1,0,0:0:0:0:
475,192,67761,1,0,0:0:0:0:
182,192,68095,1,0,0:0:0:0:
36,192,68428,1,0,0:0:0:0:
329,192,68761,1,0,0:0:0:0:
36,192,69095,1,0,0:0:0:0:
402,192,69428,1,0,0:0:0:0:
36,192,69761,1,0,0:0:0:0:
475,192,70095,1,0,0:0:0:0:
256,192,70261,1,0,0:0:0:0:
475,192,70428,1,0,0:0:0:0:
36,192,70428,1,0,0:0:0:0:
109,192,70595,1,0,0:0:0:0:
329,192,70761,1,0,0:0:0:0:
402,192,70928,1,0,0:0:0:0:
109,192,71095,1,0,0:0:0:0:
182,192,71261,1,0,0:0:0:0:
402,192,71428,1,0,0:0:0:0:
475,192,71595,1,0,0:0:0:0:
182,192,71761,1,0,0:0:0:0:
109,192,71928,1,0,0:0:0:0:
475,192,72095,1,0,0:0:0:0:
402,192,72261,1,0,0:0:0:0:
109,192,72428,1,0,0:0:0:0:
36,192,72595,1,0,0:0:0:0:
402,192,72761,1,0,0:0:0:0:
329,192,72928,1,0,0:0:0:0:
36,192,73095,1,0,0:0:0:0:
182,192,73261,1,0,0:0:0:0:
329,192,73428,1,0,0:0:0:0:
402,192,73595,1,0,0:0:0:0:
109,192,73761,1,0,0:0:0:0:
256,192,73928,1,0,0:0:0:0:
402,192,74095,1,0,0:0:0:0:
475,192,74261,1,0,0:0:0:0:
256,192,74428,1,0,0:0:0:0:
109,192,74595,1,0,0:0:0:0:
475,192,74761,1,0,0:0:0:0:
402,192,74928,1,0,0:0:0:0:
182,192,75095,1,0,0:0:0:0:
36,192,75261,1,0,0:0:0:0:
402,192,75428,1,0,0:0:0:0:
329,192,75595,1,0,0:0:0:0:
109,192,75761,1,0,0:0:0:0:
182,192,75928,1,0,0:0:0:0:
475,192,76095,1,0,0:0:0:0:
329,192,76261,1,0,0:0:0:0:
182,192,76428,1,0,0:0:0:0:
109,192,76595,1,0,0:0:0:0:
329,192,76761,1,0,0:0:0:0:
475,192,76928,1,0,0:0:0:0:
36,192,77095,1,0,0:0:0:0:
182,192,77261,1,0,0:0:0:0:
402,192,77428,1,0,0:0:0:0:
329,192,77595,1,0,0:0:0:0:
182,192,77761,1,0,0:0:0:0:
36,192,77928,1,0,0:0:0:0:
329,192,78095,1,0,0:0:0:0:
402,192,78261,1,0,0:0:0:0:
36,192,78428,1,0,0:0:0:0:
182,192,78595,1,0,0:0:0:0:
475,192,78761,1,0,0:0:0:0:
329,192,78928,1,0,0:0:0:0:
36,192,79095,1,0,0:0:0:0:
182,192,79261,1,0,0:0:0:0:
475,192,79428,1,0,0:0:0:0:
329,192,79595,1,0,0:0:0:0:
36,192,79761,1,0,0:0:0:0:
182,192,79928,1,0,0:0:0:0:
475,192,80095,1,0,0:0:0:0:
329,192,80261,1,0,0:0:0:0:
36,192,80428,1,0,0:0:0:0:
182,192,80595,1,0,0:0:0:0:
36,192,81095,128,0,83095:0:0:0:50:kick.wav
256,192,81095,128,0,83095:0:0:0:100:beam2.wav
475,192,81095,128,0,83095:0:0:0:0:
182,192,83095,1,0,0:0:0:50:fillsnare.wav
329,192,83261,1,0,0:0:0:50:kick.wav
329,192,83428,1,0,0:0:0:50:kick.wav
182,192,83595,1,0,0:0:0:50:fillsnare.wav
36,192,83761,128,0,84095:0:0:0:50:kick.wav
329,192,83761,1,0,0:0:0:70:crash.wav
402,192,83928,1,0,0:0:0:0:
475,192,84095,128,0,84428:0:0:0:0:
182,192,84095,1,0,0:0:0:0:
109,192,84261,1,0,0:0:0:0:
36,192,84428,128,0,84761:0:0:0:0:
329,192,84428,1,0,0:0:0:0:
402,192,84595,1,0,0:0:0:0:
475,192,84761,128,0,85095:0:0:0:50:kick.wav
182,192,84761,1,0,0:0:0:0:
109,192,84928,1,0,0:0:0:0:
36,192,85095,1,0,0:0:0:50:kick.wav
475,192,85261,1,0,0:0:0:50:kick.wav
36,192,85428,1,0,0:0:0:50:kick.wav
475,192,85595,1,0,0:0:0:50:kick.wav
402,192,85761,128,0,86095:0:0:0:50:kick.wav
109,192,85761,128,0,86095:0:0:0:0:
256,192,86095,1,0,0:0:0:0:
329,192,86261,1,0,0:0:0:0:
402,192,86428,1,0,0:0:0:50:kick.wav
36,192,86428,1,0,0:0:0:0:
475,192,86428,128,0,86761:0:0:0:0:
109,192,86761,128,0,87095:0:0:0:0:
329,192,87095,1,0,0:0:0:70:snare.wav
475,192,87095,1,0,0:0:0:0:
36,192,87428,128,0,88095:0:0:0:50:kick.wav
256,192,87428,1,0,0:0:0:0:
402,192,87428,128,0,88095:0:0:0:0:
182,192,88095,1,0,0:0:0:50:kick.wav
329,192,88095,1,0,0:0:0:0:
475,192,88428,1,0,0:0:0:50:kick.wav
36,192,88428,1,0,0:0:0:70:snare.wav
182,192,88595,1,0,0:0:0:0:
36,192,88761,1,0,0:0:0:0:
182,192,88928,1,0,0:0:0:0:
36,192,89095,128,0,89428:0:0:0:50:kick.wav
329,192,89095,1,0,0:0:0:70:crash.wav
402,192,89261,1,0,0:0:0:0:
475,192,89428,128,0,89761:0:0:0:0:
182,192,89428,1,0,0:0:0:0:
109,192,89595,1,0,0:0:0:0:
36,192,89761,128,0,90095:0:0:0:70:snare.wav
329,192,89761,1,0,0:0:0:0:
402,192,89928,1,0,0:0:0:0:
475,192,90095,128,0,90428:0:0:0:50:kick.wav
182,192,90095,1,0,0:0:0:0:
109,192,90261,1,0,0:0:0:0:
329,192,90428,1,0,0:0:0:50:kick.wav
36,192,90428,1,0,0:0:0:0:
182,192,90761,1,0,0:0:0:0:
329,192,90928,1,0,0:0:0:0:
36,192,91095,1,0,0:0:0:70:snare.wav
475,192,91095,1,0,0:0:0:0:
402,192,91261,1,0,0:0:0:0:
109,192,91261,1,0,0:0:0:0:
256,192,91428,128,0,91761:0:0:0:0:
402,192,91761,128,0,92095:0:0:0:50:kick.wav
475,192,91761,1,0,0:0:0:0:
36,192,91761,1,0,0:0:0:0:
182,192,92095,128,0,92428:0:0:0:0:
109,192,92428,128,0,92761:0:0:0:70:snare.wav
402,192,92428,1,0,0:0:0:0:
475,192,92761,128,0,93428:0:0:0:50:kick.wav
329,192,92761,1,0,0:0:0:0:
109,192,92928,1,0,0:0:0:0:
256,192,93095,1,0,0:0:0:50:kick.wav
109,192,93261,1,0,0:0:0:0:
329,192,93428,1,0,0:0:0:50:kick.wav
475,192,93595,1,0,0:0:0:0:
329,192,93761,1,0,0:0:0:50:kick.wav
36,192,93761,1,0,0:0:0:100:cluster.wav
182,192,93761,1,0,0:0:0:0:
182,192,94428,128,0,94761:0:0:0:50:kick.wav
475,192,94428,1,0,0:0:0:70:crash.wav
402,192,94595,1,0,0:0:0:0:
329,192,94761,128,0,95095:0:0:0:0:
36,192,94761,1,0,0:0:0:0:
109,192,94928,1,0,0:0:0:0:
182,192,95095,128,0,95428:0:0:0:0:
475,192,95095,1,0,0:0:0:0:
402,192,95261,1,0,0:0:0:0:
329,192,95428,128,0,95761:0:0:0:50:kick.wav
36,192,95428,1,0,0:0:0:0:
109,192,95595,1,0,0:0:0:0:
475,192,95761,1,0,0:0:0:50:kick.wav
36,192,95928,1,0,0:0:0:50:kick.wav
475,192,96095,1,0,0:0:0:50:kick.wav
36,192,96261,1,0,0:0:0:0:
402,192,96428,128,0,96761:0:0:0:50:kick.wav
109,192,96428,128,0,96761:0:0:0:0:
256,192,96761,128,0,97095:0:0:0:0:
475,192,97095,128,0,97428:0:0:0:50:kick.wav
182,192,97095,1,0,0:0:0:0:
36,192,97095,1,0,0:0:0:0:
36,192,97428,1,0,0:0:0:50:kick.wav
329,192,97428,128,0,97761:0:0:0:0:
256,192,97761,128,0,98095:0:0:0:70:snare.wav
36,192,97761,1,0,0:0:0:0:
402,192,98095,128,0,98761:0:0:0:0:
182,192,98428,1,0,0:0:0:50:kick.wav
109,192,98595,1,0,0:0:0:0:
329,192,98761,1,0,0:0:0:0:
182,192,98928,1,0,0:0:0:50:kick.wav
36,192,98928,1,0,0:0:0:0:
475,192,99095,1,0,0:0:0:70:snare.wav
329,192,99095,1,0,0:0:0:0:
109,192,99428,1,0,0:0:0:0:
475,192,99761,1,0,0:0:0:70:crash.wav
329,192,99761,1,0,0:0:0:50:kick.wav
36,192,99761,1,0,0:0:0:0:
109,192,99928,1,0,0:0:0:0:
256,192,100095,1,0,0:0:0:50:kick.wav
182,192,100261,1,0,0:0:0:0:
329,192,100428,1,0,0:0:0:70:snare.wav
475,192,100428,1,0,0:0:0:0:
182,192,100595,1,0,0:0:0:50:kick.wav
36,192,100595,1,0,0:0:0:0:
329,192,100761,1,0,0:0:0:50:kick.wav
475,192,100761,1,0,0:0:0:0:
36,192,100928,1,0,0:0:0:0:
402,192,101095,1,0,0:0:0:50:kick.wav
182,192,101095,1,0,0:0:0:0:
256,192,101261,1,0,0:0:0:70:snare.wav
402,192,101428,1,0,0:0:0:50:kick.wav
36,192,101428,1,0,0:0:0:0:
256,192,101761,1,0,0:0:0:70:snare.wav
402,192,101761,1,0,0:0:0:0:
109,192,101928,1,0,0:0:0:50:kick.wav
182,192,102095,1,0,0:0:0:70:snare.wav
329,192,102095,1,0,0:0:0:0:
36,192,102261,1,0,0:0:0:50:kick.wav
109,192,102428,1,0,0:0:0:50:kick.wav
402,192,102428,1,0,0:0:0:0:
329,192,102595,1,0,0:0:0:0:
109,192,102761,1,0,0:0:0:50:kick.wav
402,192,102761,1,0,0:0:0:0:
182,192,102928,1,0,0:0:0:0:
36,192,103095,1,0,0:0:0:70:clap.wav
475,192,103095,1,0,0:0:0:0:
329,192,103261,1,0,0:0:0:0:
109,192,103428,1,0,0:0:0:50:kick.wav
402,192,103428,1,0,0:0:0:0:
256,192,103595,1,0,0:0:0:0:
402,192,103761,1,0,0:0:0:50:kick.wav
109,192,103761,1,0,0:0:0:0:
182,192,103928,1,0,0:0:0:0:
402,192,104095,128,0,104428:0:0:0:0:
109,192,104095,128,0,104428:0:0:0:50:kick.wav
256,192,104761,1,0,0:0:0:50:kick.wav
329,192,105095,1,0,0:0:0:70:crash.wav
475,192,105095,1,0,0:0:0:50:kick.wav
36,192,105095,1,0,0:0:0:0:
109,192,105261,1,0,0:0:0:0:
402,192,105428,1,0,0:0:0:30:hihat.wav
256,192,105595,1,0,0:0:0:0:
329,192,105761,1,0,0:0:0:50:snap.wav
475,192,105761,1,0,0:0:0:50:kick.wav
109,192,105928,1,0,0:0:0:0:
402,192,106095,1,0,0:0:0:30:hihat.wav
256,192,106261,1,0,0:0:0:0:
329,192,106428,1,0,0:0:0:50:kick.wav
475,192,106428,1,0,0:0:0:0:
109,192,106595,1,0,0:0:0:0:
402,192,106761,1,0,0:0:0:30:hihat.wav
256,192,106928,1,0,0:0:0:0:
329,192,107095,1,0,0:0:0:50:snap.wav
475,192,107095,1,0,0:0:0:50:kick.wav
109,192,107261,1,0,0:0:0:0:
402,192,107428,1,0,0:0:0:30:hihat.wav
256,192,107595,1,0,0:0:0:0:
329,192,107761,1,0,0:0:0:50:kick.wav
475,192,107761,1,0,0:0:0:0:
402,192,107928,1,0,0:0:0:0:
109,192,108095,1,0,0:0:0:30:hihat.wav
256,192,108261,1,0,0:0:0:0:
182,192,108428,1,0,0:0:0:50:snap.wav
36,192,108428,1,0,0:0:0:50:kick.wav
402,192,108595,1,0,0:0:0:0:
109,192,108761,1,0,0:0:0:30:hihat.wav
256,192,108928,1,0,0:0:0:0:
182,192,109095,1,0,0:0:0:50:kick.wav
36,192,109095,1,0,0:0:0:0:
402,192,109261,1,0,0:0:0:0:
109,192,109428,1,0,0:0:0:30:hihat.wav
256,192,109595,1,0,0:0:0:0:
182,192,109761,1,0,0:0:0:50:snap.wav
36,192,109761,1,0,0:0:0:50:kick.wav
402,192,109928,1,0,0:0:0:0:
109,192,110095,1,0,0:0:0:30:hihat.wav
256,192,110261,1,0,0:0:0:0:
182,192,110428,1,0,0:0:0:50:kick.wav
36,192,110428,1,0,0:0:0:0:
402,192,110595,1,0,0:0:0:0:
329,192,110761,1,0,0:0:0:30:hihat.wav
182,192,110928,1,0,0:0:0:0:
36,192,111095,1,0,0:0:0:50:snap.wav
475,192,111095,1,0,0:0:0:50:kick.wav
402,192,111261,1,0,0:0:0:0:
182,192,111428,1,0,0:0:0:30:hihat.wav
329,192,111595,1,0,0:0:0:0:
475,192,111761,1,0,0:0:0:50:kick.wav
36,192,111761,1,0,0:0:0:0:
109,192,111928,1,0,0:0:0:0:
329,192,112095,1,0,0:0:0:30:hihat.wav
182,192,112261,1,0,0:0:0:0:
36,192,112428,1,0,0:0:0:50:snap.wav
475,192,112428,1,0,0:0:0:50:kick.wav
402,192,112595,1,0,0:0:0:0:
182,192,112761,1,0,0:0:0:30:hihat.wav
329,192,112928,1,0,0:0:0:0:
475,192,113095,1,0,0:0:0:50:kick.wav
36,192,113095,1,0,0:0:0:0:
182,192,113261,1,0,0:0:0:0:
36,192,113428,1,0,0:0:0:30:hihat.wav
182,192,113595,1,0,0:0:0:0:
109,192,113761,1,0,0:0:0:50:snap.wav
475,192,113761,1,0,0:0:0:50:kick.wav
256,192,113928,1,0,0:0:0:0:
109,192,114095,1,0,0:0:0:30:hihat.wav
256,192,114261,1,0,0:0:0:0:
182,192,114428,1,0,0:0:0:50:kick.wav
475,192,114428,1,0,0:0:0:0:
329,192,114595,1,0,0:0:0:0:
182,192,114761,1,0,0:0:0:30:hihat.wav
329,192,114928,1,0,0:0:0:0:
402,192,115095,1,0,0:0:0:50:snap.wav
109,192,115095,1,0,0:0:0:50:kick.wav
256,192,115261,1,0,0:0:0:0:
402,192,115428,1,0,0:0:0:30:hihat.wav
109,192,115428,1,0,0:0:0:50:kick.wav
182,192,115595,1,0,0:0:0:50:kick.wav
329,192,115595,1,0,0:0:0:0:
475,192,115761,1,0,0:0:0:50:kick.wav
36,192,115761,1,0,0:0:0:70:crash.wav
256,192,115761,1,0,0:0:0:0:
402,192,116095,1,0,0:0:0:50:kick.wav
109,192,116095,1,0,0:0:0:0:
329,192,116261,1,0,0:0:0:0:
109,192,116428,1,0,0:0:0:70:backsnare.wav
475,192,116428,1,0,0:0:0:0:
256,192,116428,1,0,0:0:0:0:
109,192,116761,1,0,0:0:0:50:kick.wav
256,192,116761,1,0,0:0:0:0:
402,192,116928,1,0,0:0:0:50:kick.wav
475,192,116928,1,0,0:0:0:0:
402,192,117261,1,0,0:0:0:50:kick.wav
475,192,117261,1,0,0:0:0:0:
182,192,117428,1,0,0:0:0:50:kick.wav
36,192,117428,1,0,0:0:0:0:
256,192,117761,1,0,0:0:0:70:backsnare.wav
109,192,117761,1,0,0:0:0:0:
402,192,117761,1,0,0:0:0:0:
329,192,118095,1,0,0:0:0:50:kick.wav
182,192,118095,1,0,0:0:0:0:
329,192,118261,1,0,0:0:0:50:kick.wav
182,192,118261,1,0,0:0:0:0:
36,192,118428,1,0,0:0:0:50:kick.wav
475,192,118428,1,0,0:0:0:0:
36,192,118761,1,0,0:0:0:50:kick.wav
182,192,118761,1,0,0:0:0:0:
475,192,119095,1,0,0:0:0:70:backsnare.wav
329,192,119095,1,0,0:0:0:0:
256,192,119095,1,0,0:0:0:0:
182,192,119261,1,0,0:0:0:50:kick.wav
36,192,119261,1,0,0:0:0:0:
36,192,119595,1,0,0:0:0:50:kick.wav
182,192,119595,1,0,0:0:0:0:
182,192,119928,1,0,0:0:0:50:kick.wav
36,192,119928,1,0,0:0:0:0:
329,192,120095,1,0,0:0:0:50:kick.wav
475,192,120095,1,0,0:0:0:0:
402,192,120428,1,0,0:0:0:70:backsnare.wav
109,192,120428,1,0,0:0:0:0:
475,192,120428,1,0,0:0:0:0:
182,192,120595,1,0,0:0:0:50:kick.wav
329,192,120761,1,0,0:0:0:50:kick.wav
256,192,120928,1,0,0:0:0:50:kick.wav
475,192,121095,1,0,0:0:0:50:kick.wav
36,192,121095,1,0,0:0:0:0:
475,192,121761,1,0,0:0:0:0:
109,192,122428,1,0,0:0:0:0:
182,192,122761,1,0,0:0:0:0:
329,192,123095,1,0,0:0:0:0:
402,192,123761,1,0,0:0:0:0:
109,192,123761,1,0,0:0:0:0:
329,192,124428,1,0,0:0:0:0:
182,192,125095,1,0,0:0:0:0:
329,192,125428,1,0,0:0:0:0:
475,192,125761,1,0,0:0:0:0:
36,192,126428,1,0,0:0:0:40:crash.wav
475,192,126428,1,0,0:0:0:0:
36,192,127095,1,0,0:0:0:0:
36,192,127761,1,0,0:0:0:0:
36,192,128428,1,0,0:0:0:0:
36,192,129095,1,0,0:0:0:0:
475,192,129095,128,0,131428:0:0:0:0:
36,192,129761,1,0,0:0:0:0:
36,192,130428,1,0,0:0:0:0:
36,192,131095,1,0,0:0:0:0:
329,192,131761,128,0,133761:0:0:0:100:beam1.wav
256,192,131761,128,0,133761:0:0:0:50:kick.wav
182,192,131761,128,0,133761:0:0:0:0:
475,192,134428,1,0,0:0:0:70:crash.wav
36,192,134428,1,0,0:0:0:50:kick.wav
402,192,134428,1,0,0:0:0:0:
182,192,134595,1,0,0:0:0:0:
329,192,134761,1,0,0:0:0:30:hihat.wav
182,192,134928,1,0,0:0:0:0:
475,192,135095,1,0,0:0:0:50:snap.wav
36,192,135095,1,0,0:0:0:50:kick.wav
329,192,135261,1,0,0:0:0:0:
182,192,135428,1,0,0:0:0:30:hihat.wav
329,192,135595,1,0,0:0:0:0:
475,192,135761,1,0,0:0:0:50:kick.wav
109,192,135761,1,0,0:0:0:0:
475,192,135928,1,0,0:0:0:0:
109,192,135928,1,0,0:0:0:0:
329,192,136095,1,0,0:0:0:30:hihat.wav
182,192,136261,1,0,0:0:0:0:
475,192,136428,1,0,0:0:0:50:snap.wav
36,192,136428,1,0,0:0:0:50:kick.wav
109,192,136595,1,0,0:0:0:0:
329,192,136761,1,0,0:0:0:30:hihat.wav
256,192,136928,1,0,0:0:0:0:
182,192,137095,1,0,0:0:0:50:kick.wav
475,192,137095,1,0,0:0:0:0:
402,192,137261,1,0,0:0:0:0:
256,192,137428,1,0,0:0:0:30:hihat.wav
402,192,137595,1,0,0:0:0:0:
36,192,137761,1,0,0:0:0:50:snap.wav
329,192,137761,1,0,0:0:0:50:kick.wav
109,192,137928,1,0,0:0:0:0:
256,192,138095,1,0,0:0:0:30:hihat.wav
109,192,138261,1,0,0:0:0:0:
182,192,138428,1,0,0:0:0:50:kick.wav
475,192,138428,1,0,0:0:0:0:
402,192,138595,1,0,0:0:0:0:
329,192,138761,128,0,138928:0:0:0:30:hihat.wav
182,192,138928,128,0,139095:0:0:0:0:
36,192,139095,128,0,139261:0:0:0:50:kick.wav
475,192,139095,1,0,0:0:0:50:snap.wav
402,192,139261,128,0,139428:0:0:0:0:
256,192,139428,128,0,139595:0:0:0:30:hihat.wav
109,192,139595,128,0,139761:0:0:0:0:
182,192,139761,1,0,0:0:0:50:kick.wav
329,192,139761,1,0,0:0:0:0:
109,192,140095,1,0,0:0:0:30:hihat.wav
256,192,140261,1,0,0:0:0:0:
182,192,140428,1,0,0:0:0:50:snap.wav
36,192,140428,1,0,0:0:0:50:kick.wav
329,192,140595,1,0,0:0:0:0:
109,192,140761,1,0,0:0:0:30:hihat.wav
256,192,140761,1,0,0:0:0:0:
402,192,140928,1,0,0:0:0:0:
475,192,141095,1,0,0:0:0:50:kick.wav
329,192,141095,1,0,0:0:0:0:
182,192,141261,1,0,0:0:0:0:
256,192,141428,1,0,0:0:0:30:hihat.wav
402,192,141428,1,0,0:0:0:0:
109,192,141595,1,0,0:0:0:0:
182,192,141761,1,0,0:0:0:50:snap.wav
329,192,141761,1,0,0:0:0:50:kick.wav
256,192,141928,1,0,0:0:0:0:
475,192,142095,1,0,0:0:0:30:hihat.wav
36,192,142095,1,0,0:0:0:0:
256,192,142428,1,0,0:0:0:50:kick.wav
475,192,142428,1,0,0:0:0:0:
329,192,142761,1,0,0:0:0:30:hihat.wav
475,192,142761,1,0,0:0:0:0:
182,192,142928,1,0,0:0:0:0:
256,192,143095,1,0,0:0:0:50:snap.wav
402,192,143095,1,0,0:0:0:50:kick.wav
109,192,143261,1,0,0:0:0:0:
182,192,143428,1,0,0:0:0:30:hihat.wav
329,192,143428,1,0,0:0:0:0:
36,192,143595,1,0,0:0:0:0:
109,192,143761,1,0,0:0:0:50:kick.wav
256,192,143761,1,0,0:0:0:0:
402,192,143928,1,0,0:0:0:0:
182,192,144095,1,0,0:0:0:30:hihat.wav
329,192,144095,1,0,0:0:0:0:
475,192,144261,1,0,0:0:0:0:
402,192,144428,128,0,144595:0:0:0:50:snap.wav
36,192,144428,1,0,0:0:0:50:kick.wav
256,192,144595,128,0,144761:0:0:0:0:
109,192,144761,128,0,144928:0:0:0:30:hihat.wav
475,192,144761,1,0,0:0:0:50:kick.wav
329,192,144928,128,0,145095:0:0:0:0:
36,192,145095,1,0,0:0:0:70:crash.wav
475,192,145095,1,0,0:0:0:50:kick.wav
402,192,145261,1,0,0:0:0:0:
256,192,145428,1,0,0:0:0:30:hihat.wav
109,192,145428,1,0,0:0:0:0:
329,192,145595,1,0,0:0:0:0:
475,192,145761,1,0,0:0:0:50:snap.wav
36,192,145761,1,0,0:0:0:50:kick.wav
109,192,145928,1,0,0:0:0:0:
256,192,146095,1,0,0:0:0:30:hihat.wav
402,192,146095,1,0,0:0:0:0:
182,192,146261,1,0,0:0:0:0:
36,192,146428,1,0,0:0:0:50:kick.wav
329,192,146428,1,0,0:0:0:0:
402,192,146595,1,0,0:0:0:0:
256,192,146761,1,0,0:0:0:30:hihat.wav
109,192,146761,1,0,0:0:0:0:
182,192,146928,1,0,0:0:0:0:
475,192,147095,1,0,0:0:0:50:snap.wav
36,192,147095,1,0,0:0:0:50:kick.wav
329,192,147261,128,0,147595:0:0:0:0:
182,192,147428,1,0,0:0:0:30:hihat.wav
475,192,147761,1,0,0:0:0:50:kick.wav
36,192,147761,1,0,0:0:0:0:
182,192,147928,1,0,0:0:0:0:
256,192,148095,1,0,0:0:0:30:hihat.wav
402,192,148095,1,0,0:0:0:0:
109,192,148261,1,0,0:0:0:0:
36,192,148428,1,0,0:0:0:50:snap.wav
182,192,148428,1,0,0:0:0:50:kick.wav
329,192,148595,1,0,0:0:0:0:
256,192,148761,1,0,0:0:0:30:hihat.wav
109,192,148761,1,0,0:0:0:0:
402,192,148928,1,0,0:0:0:0:
329,192,149095,1,0,0:0:0:50:kick.wav
475,192,149095,1,0,0:0:0:0:
182,192,149261,1,0,0:0:0:0:
36,192,149428,1,0,0:0:0:30:hihat.wav
402,192,149428,1,0,0:0:0:0:
256,192,149595,1,0,0:0:0:0:
109,192,149761,1,0,0:0:0:50:snap.wav
402,192,149928,128,0,150261:0:0:0:0:
329,192,149928,1,0,0:0:0:0:
182,192,150095,1,0,0:0:0:30:hihat.wav
182,192,150261,1,0,0:0:0:0:
475,192,150428,1,0,0:0:0:50:kick.wav
36,192,150428,1,0,0:0:0:0:
36,192,150761,1,0,0:0:0:30:hihat.wav
109,192,150872,1,0,0:0:0:0:
182,192,150983,1,0,0:0:0:0:
256,192,151095,1,0,0:0:0:50:snap.wav
475,192,151095,1,0,0:0:0:50:kick.wav
182,192,151428,1,0,0:0:0:30:hihat.wav
256,192,151539,1,0,0:0:0:0:
329,192,151650,1,0,0:0:0:0:
402,192,151761,1,0,0:0:0:50:kick.wav
36,192,151761,1,0,0:0:0:0:
256,192,152095,1,0,0:0:0:30:hihat.wav
329,192,152206,1,0,0:0:0:0:
402,192,152317,1,0,0:0:0:0:
475,192,152428,1,0,0:0:0:50:snap.wav
109,192,152428,1,0,0:0:0:50:kick.wav
329,192,152761,1,0,0:0:0:30:hihat.wav
256,192,152928,1,0,0:0:0:0:
182,192,153095,1,0,0:0:0:50:kick.wav
36,192,153095,1,0,0:0:0:0:
402,192,153261,1,0,0:0:0:0:
182,192,153428,1,0,0:0:0:50:kick.wav
36,192,153428,1,0,0:0:0:0:
402,192,153595,1,0,0:0:0:0:
256,192,153761,1,0,0:0:0:50:kick.wav
109,192,153761,1,0,0:0:0:50:snap.wav
475,192,153928,1,0,0:0:0:0:
182,192,154095,1,0,0:0:0:50:kick.wav
36,192,154095,1,0,0:0:0:0:
475,192,154261,1,0,0:0:0:0:
182,192,154428,1,0,0:0:0:50:kick.wav
36,192,154428,1,0,0:0:0:0:
402,192,154595,1,0,0:0:0:50:kick.wav
182,192,154761,1,0,0:0:0:50:kick.wav
402,192,154928,1,0,0:0:0:50:kick.wav
182,192,155095,1,0,0:0:0:50:kick.wav
475,192,155095,1,0,0:0:0:0:
36,192,155261,1,0,0:0:0:50:kick.wav
182,192,155428,1,0,0:0:0:50:kick.wav
475,192,155428,1,0,0:0:0:0:
329,192,155595,1,0,0:0:0:50:kick.wav
36,192,155761,1,0,0:0:0:50:kick.wav
475,192,155761,1,0,0:0:0:0:
109,192,155761,1,0,0:0:0:0:
36,192,156428,1,0,0:0:0:0:
36,192,157095,1,0,0:0:0:0:
182,192,157428,1,0,0:0:0:0:
36,192,157761,1,0,0:0:0:0:
36,192,158428,1,0,0:0:0:0:
475,192,158428,1,0,0:0:0:0:
475,192,159095,1,0,0:0:0:0:
402,192,159761,1,0,0:0:0:0:
182,192,160095,1,0,0:0:0:0:
402,192,160428,1,0,0:0:0:0:
256,192,160761,1,0,0:0:0:0:
109,192,161095,1,0,0:0:0:0:
109,192,161761,1,0,0:0:0:0:
109,192,162428,1,0,0:0:0:0:
256,192,162761,1,0,0:0:0:0:
402,192,163095,1,0,0:0:0:0:
182,192,163428,1,0,0:0:0:0:
36,192,163761,1,0,0:0:0:0:
475,192,163761,1,0,0:0:0:0:
256,192,164095,1,0,0:0:0:0:
402,192,164261,1,0,0:0:0:0:
182,192,164595,1,0,0:0:0:0:
109,192,164761,1,0,0:0:0:0:
329,192,165095,1,0,0:0:0:0:
182,192,165428,1,0,0:0:0:0:
329,192,165761,1,0,0:0:0:0:
109,192,166095,1,0,0:0:0:0:
475,192,166428,1,0,0:0:0:0:
256,192,166428,1,0,0:0:0:0:
475,192,167095,1,0,0:0:0:0:
402,192,167761,128,0,168261:0:0:0:0:
109,192,168261,1,0,0:0:0:0:
256,192,168761,1,0,0:0:0:0:
109,192,169095,128,0,169595:0:0:0:0:
402,192,169595,1,0,0:0:0:0:
329,192,170428,128,0,170928:0:0:0:0:
182,192,170928,1,0,0:0:0:0:
256,192,171428,1,0,0:0:0:0:
36,192,171761,1,0,0:0:0:0:
36,192,172428,1,0,0:0:0:0:
36,192,173095,1,0,0:0:0:0:
256,192,173428,1,0,0:0:0:0:
109,192,173761,1,0,0:0:0:0:
329,192,174095,1,0,0:0:0:0:
182,192,174428,1,0,0:0:0:0:
402,192,174761,1,0,0:0:0:0:
256,192,174928,1,0,0:0:0:0:
182,192,175428,1,0,0:0:0:0:
329,192,175761,1,0,0:0:0:0:
109,192,176095,1,0,0:0:0:0:
256,192,176261,1,0,0:0:0:0:
109,192,176761,128,0,177095:0:0:0:0:
