osu file format v14

[General]
AudioFilename: Destr0yer.mp3
AudioLeadIn: 0
PreviewTime: 59761
Countdown: 0
SampleSet: Soft
StackLeniency: 0.7
Mode: 3
LetterboxInBreaks: 0
EpilepsyWarning: 1
SpecialStyle: 0
WidescreenStoryboard: 1

[Editor]
DistanceSpacing: 1.4
BeatDivisor: 8
GridSize: 8
TimelineZoom: 1.499999

[Metadata]
Title:Destr0yer
TitleUnicode:Destr0yer
Artist:Sakuzyo feat. Nikki Simmons
ArtistUnicode:削除 feat. Nikki Simmons
Creator:Critical_Star
Version:Akasha's Another
Source:BMS
Tags:ASPRGuS yoshimo & Radiosity BMS Of Fighters GO BACK 2 YOUR ROOTS 2018 Climax BEAM G2R2018 Kuo Kyoka
BeatmapID:1844197
BeatmapSetID:875074

[Difficulty]
HPDrainRate:8.5
CircleSize:7
OverallDifficulty:8.1
ApproachRate:5
SliderMultiplier:1.4
SliderTickRate:1

[Events]
//Background and Video events
0,0,"BG.jpg",0,0
Video,1050,"destr0yer video.AVI"
//Break Periods
//Storyboard Layer 0 (Background)
//Storyboard Layer 1 (Fail)
//Storyboard Layer 2 (Pass)
//Storyboard Layer 3 (Foreground)
//Storyboard Sound Samples
Sample,59261,0,"kick.wav",35
Sample,84761,0,"kick.wav",50
Sample,88428,0,"vvx_3 - Marker #15.wav",100
Sample,88428,0,"snare.wav",70
Sample,89761,0,"snare.wav",70
Sample,90095,0,"kick.wav",50
Sample,91095,0,"snare.wav",70
Sample,95428,0,"kick.wav",50
Sample,104761,0,"vocal_sabi_x1 - Marker #2.wav",100
Sample,104928,0,"vocal_sabi_x1 - Marker #3.wav",100
Sample,115761,0,"kick.wav",50
Sample,121761,0,"vocal_sabi_x1 - Marker #49.wav",100
Sample,121928,0,"vocal_sabi_x1 - Marker #50.wav",100
Sample,122095,0,"vocal_sabi_x1 - Marker #51.wav",100
Sample,122261,0,"vocal_sabi_x1 - Marker #52.wav",100
Sample,122761,0,"vocal_sabi_x1 - Marker #53.wav",100
Sample,123095,0,"vocal_sabi_x1 - Marker #54.wav",100
Sample,124428,0,"vocal_sabi_x1 - Marker #55.wav",100
Sample,124595,0,"vocal_sabi_x1 - Marker #56.wav",100
Sample,124761,0,"vocal_sabi_x1 - Marker #57.wav",100
Sample,124928,0,"vocal_sabi_x1 - Marker #58.wav",100
Sample,125428,0,"vocal_sabi_x1 - Marker #59.wav",100
Sample,125761,0,"vocal_sabi_x1 - Marker #60.wav",100
Sample,127095,0,"vocal_sabi_x1 - Marker #62.wav",100
Sample,127261,0,"vocal_sabi_x1 - Marker #63.wav",100
Sample,127428,0,"vocal_sabi_x1 - Marker #64.wav",100
Sample,127595,0,"vocal_sabi_x1 - Marker #65.wav",100
Sample,128095,0,"vocal_sabi_x1 - Marker #66.wav",100
Sample,128428,0,"vocal_sabi_x1 - Marker #67.wav",100
Sample,128595,0,"vocal_sabi_x1 - Marker #68.wav",100
Sample,128928,0,"vocal_sabi_x1 - Marker #69.wav",100
Sample,130428,0,"vocal_sabi_x1 - Marker #70.wav",100

[TimingPoints]
1095,666.666666666667,4,2,1,40,1,0
59761,-100,4,2,1,20,0,0
70428,-100,4,2,1,40,0,0
155761,-100,4,2,1,20,0,0
166428,-100,4,2,1,10,0,0

[HitObjects]
256,192,1095,5,0,0:0:0:30:kick.wav
475,192,1095,1,0,0:0:0:50:hit.wav
402,192,1095,1,0,0:0:0:0:
109,192,1095,1,0,0:0:0:0:
36,192,1095,1,0,0:0:0:0:
329,192,1761,1,0,0:0:0:30:backsnare.wav
475,192,1761,1,0,0:0:0:0:
182,192,1761,1,0,0:0:0:0:
36,192,1761,1,0,0:0:0:0:
182,192,3761,1,0,0:0:0:30:kick.wav
256,192,3761,1,0,0:0:0:0:
329,192,3761,1,0,0:0:0:0:
256,192,6428,5,0,0:0:0:30:kick.wav
329,192,6428,1,0,0:0:0:0:
402,192,6428,1,0,0:0:0:0:
329,192,9095,128,0,11428:0:0:0:30:kick.wav
402,192,9095,128,0,11428:0:0:0:0:
475,192,9095,128,0,11428:0:0:0:0:
182,192,11761,128,0,13595:0:0:0:100:beam1.wav
109,192,11761,128,0,13595:0:0:0:50:kick.wav
36,192,11761,128,0,13595:0:0:0:0:
256,192,11761,128,0,13595:0:0:0:0:
329,192,11761,128,0,13595:0:0:0:0:
36,192,13761,1,0,0:0:0:50:fillsnare.wav
182,192,13761,1,0,0:0:0:0:
329,192,13761,1,0,0:0:0:0:
182,192,14428,128,0,14761:0:0:0:50:kick.wav
329,192,14428,1,0,0:0:0:70:crash.wav
475,192,14428,1,0,0:0:0:0:
36,192,14428,1,0,0:0:0:0:
402,192,14595,1,0,0:0:0:0:
402,192,14761,1,0,0:0:0:30:hihat.wav
256,192,14761,1,0,0:0:0:0:
109,192,14761,1,0,0:0:0:0:
36,192,14928,128,0,15095:0:0:0:0:
402,192,14928,1,0,0:0:0:0:
182,192,15095,1,0,0:0:0:50:snap.wav
329,192,15095,1,0,0:0:0:50:kick.wav
475,192,15095,1,0,0:0:0:0:
109,192,15261,1,0,0:0:0:0:
109,192,15428,1,0,0:0:0:30:hihat.wav
256,192,15428,1,0,0:0:0:0:
402,192,15428,1,0,0:0:0:0:
109,192,15595,1,0,0:0:0:0:
256,192,15761,128,0,15845:0:0:0:50:kick.wav
182,192,15761,1,0,0:0:0:0:
36,192,15761,1,0,0:0:0:0:
256,192,15928,128,0,16011:0:0:0:0:
402,192,15928,1,0,0:0:0:0:
329,192,16095,1,0,0:0:0:30:hihat.wav
475,192,16095,1,0,0:0:0:0:
109,192,16095,1,0,0:0:0:0:
329,192,16261,128,0,16428:0:0:0:0:
182,192,16261,1,0,0:0:0:0:
402,192,16428,1,0,0:0:0:50:snap.wav
256,192,16428,1,0,0:0:0:50:kick.wav
36,192,16428,1,0,0:0:0:0:
402,192,16595,128,0,17095:0:0:0:0:
36,192,16595,1,0,0:0:0:0:
109,192,16761,1,0,0:0:0:30:hihat.wav
256,192,16761,1,0,0:0:0:0:
475,192,16761,1,0,0:0:0:0:
182,192,16928,1,0,0:0:0:0:
475,192,16928,1,0,0:0:0:0:
329,192,17095,1,0,0:0:0:50:kick.wav
36,192,17095,1,0,0:0:0:0:
182,192,17095,128,0,17428:0:0:0:0:
402,192,17261,1,0,0:0:0:0:
402,192,17428,1,0,0:0:0:30:hihat.wav
256,192,17428,1,0,0:0:0:0:
109,192,17428,1,0,0:0:0:0:
36,192,17595,128,0,17761:0:0:0:0:
402,192,17595,1,0,0:0:0:0:
182,192,17761,1,0,0:0:0:50:snap.wav
329,192,17761,1,0,0:0:0:50:kick.wav
475,192,17761,1,0,0:0:0:0:
109,192,17928,1,0,0:0:0:0:
109,192,18095,1,0,0:0:0:30:hihat.wav
256,192,18095,1,0,0:0:0:0:
402,192,18095,1,0,0:0:0:0:
109,192,18261,1,0,0:0:0:0:
256,192,18428,128,0,18511:0:0:0:50:kick.wav
182,192,18428,1,0,0:0:0:0:
36,192,18428,1,0,0:0:0:0:
256,192,18595,128,0,18678:0:0:0:0:
402,192,18595,1,0,0:0:0:0:
329,192,18761,1,0,0:0:0:30:hihat.wav
475,192,18761,1,0,0:0:0:0:
109,192,18761,1,0,0:0:0:0:
329,192,18928,128,0,19095:0:0:0:0:
182,192,18928,1,0,0:0:0:0:
402,192,19095,1,0,0:0:0:50:snap.wav
256,192,19095,1,0,0:0:0:50:kick.wav
36,192,19095,1,0,0:0:0:0:
402,192,19261,128,0,19761:0:0:0:0:
36,192,19261,1,0,0:0:0:0:
109,192,19428,1,0,0:0:0:30:hihat.wav
256,192,19428,1,0,0:0:0:0:
475,192,19428,1,0,0:0:0:0:
182,192,19595,1,0,0:0:0:0:
475,192,19595,1,0,0:0:0:0:
182,192,19761,128,0,19928:0:0:0:50:kick.wav
329,192,19761,1,0,0:0:0:0:
36,192,19928,128,0,20095:0:0:0:0:
402,192,19928,1,0,0:0:0:0:
475,192,20095,1,0,0:0:0:30:hihat.wav
182,192,20095,1,0,0:0:0:0:
256,192,20261,128,0,20428:0:0:0:0:
109,192,20261,1,0,0:0:0:0:
402,192,20428,128,0,20595:0:0:0:50:snap.wav
36,192,20428,1,0,0:0:0:50:kick.wav
475,192,20428,1,0,0:0:0:0:
182,192,20595,128,0,20761:0:0:0:0:
329,192,20595,1,0,0:0:0:0:
36,192,20761,128,0,20928:0:0:0:30:hihat.wav
475,192,20761,1,0,0:0:0:0:
329,192,20928,128,0,21095:0:0:0:0:
182,192,20928,1,0,0:0:0:0:
109,192,21095,1,0,0:0:0:50:kick.wav
256,192,21095,1,0,0:0:0:0:
329,192,21261,128,0,21428:0:0:0:0:
36,192,21261,1,0,0:0:0:0:
475,192,21428,1,0,0:0:0:30:hihat.wav
182,192,21428,1,0,0:0:0:0:
402,192,21595,1,0,0:0:0:0:
402,192,21761,128,0,21928:0:0:0:50:snap.wav
329,192,21761,1,0,0:0:0:50:kick.wav
36,192,21761,1,0,0:0:0:0:
256,192,21928,128,0,22095:0:0:0:0:
109,192,21928,1,0,0:0:0:0:
182,192,22095,1,0,0:0:0:30:hihat.wav
402,192,22095,1,0,0:0:0:0:
109,192,22261,1,0,0:0:0:0:
256,192,22428,128,0,22595:0:0:0:50:kick.wav
36,192,22428,1,0,0:0:0:0:
475,192,22428,1,0,0:0:0:0:
109,192,22595,128,0,22761:0:0:0:0:
402,192,22595,1,0,0:0:0:0:
329,192,22761,1,0,0:0:0:30:hihat.wav
329,192,22928,128,0,23095:0:0:0:0:
182,192,22928,1,0,0:0:0:0:
475,192,23095,128,0,23261:0:0:0:50:snap.wav
109,192,23095,1,0,0:0:0:50:kick.wav
402,192,23095,1,0,0:0:0:0:
256,192,23261,128,0,23428:0:0:0:0:
36,192,23261,1,0,0:0:0:0:
109,192,23428,128,0,23595:0:0:0:30:hihat.wav
475,192,23428,1,0,0:0:0:0:
329,192,23428,1,0,0:0:0:0:
402,192,23595,128,0,23761:0:0:0:0:
256,192,23595,1,0,0:0:0:0:
182,192,23761,1,0,0:0:0:50:kick.wav
402,192,23928,128,0,24095:0:0:0:0:
36,192,23928,1,0,0:0:0:0:
109,192,24095,1,0,0:0:0:30:hihat.wav
329,192,24095,1,0,0:0:0:0:
182,192,24261,1,0,0:0:0:0:
256,192,24428,1,0,0:0:0:50:snap.wav
475,192,24428,1,0,0:0:0:50:kick.wav
36,192,24428,1,0,0:0:0:0:
402,192,24511,1,0,0:0:0:0:
329,192,24595,1,0,0:0:0:0:
256,192,24678,1,0,0:0:0:0:
402,192,24761,1,0,0:0:0:30:hihat.wav
109,192,24761,1,0,0:0:0:50:kick.wav
475,192,24761,1,0,0:0:0:0:
36,192,24761,1,0,0:0:0:0:
329,192,24845,1,0,0:0:0:0:
256,192,24928,1,0,0:0:0:0:
182,192,25011,1,0,0:0:0:0:
329,192,25095,128,0,25428:0:0:0:50:kick.wav
36,192,25095,1,0,0:0:0:70:crash.wav
475,192,25095,1,0,0:0:0:0:
109,192,25261,1,0,0:0:0:0:
109,192,25428,1,0,0:0:0:30:hihat.wav
256,192,25428,1,0,0:0:0:0:
402,192,25428,1,0,0:0:0:0:
475,192,25595,128,0,25761:0:0:0:0:
109,192,25595,1,0,0:0:0:0:
329,192,25761,1,0,0:0:0:50:snap.wav
182,192,25761,1,0,0:0:0:50:kick.wav
36,192,25761,1,0,0:0:0:0:
402,192,25928,1,0,0:0:0:0:
402,192,26095,1,0,0:0:0:30:hihat.wav
256,192,26095,1,0,0:0:0:0:
109,192,26095,1,0,0:0:0:0:
402,192,26261,1,0,0:0:0:0:
256,192,26428,128,0,26511:0:0:0:50:kick.wav
329,192,26428,1,0,0:0:0:0:
475,192,26428,1,0,0:0:0:0:
256,192,26595,128,0,26678:0:0:0:0:
109,192,26595,1,0,0:0:0:0:
182,192,26761,1,0,0:0:0:30:hihat.wav
36,192,26761,1,0,0:0:0:0:
402,192,26761,1,0,0:0:0:0:
182,192,26928,128,0,27011:0:0:0:0:
329,192,26928,1,0,0:0:0:0:
109,192,27095,1,0,0:0:0:50:snap.wav
256,192,27095,1,0,0:0:0:50:kick.wav
475,192,27095,1,0,0:0:0:0:
109,192,27261,128,0,27761:0:0:0:0:
475,192,27261,1,0,0:0:0:0:
402,192,27428,1,0,0:0:0:30:hihat.wav
256,192,27428,1,0,0:0:0:0:
36,192,27428,1,0,0:0:0:0:
329,192,27595,1,0,0:0:0:0:
36,192,27595,1,0,0:0:0:0:
182,192,27761,1,0,0:0:0:50:kick.wav
475,192,27761,1,0,0:0:0:0:
329,192,27761,128,0,28095:0:0:0:0:
109,192,27928,1,0,0:0:0:0:
109,192,28095,1,0,0:0:0:30:hihat.wav
256,192,28095,1,0,0:0:0:0:
402,192,28095,1,0,0:0:0:0:
475,192,28261,128,0,28428:0:0:0:0:
109,192,28261,1,0,0:0:0:0:
329,192,28428,1,0,0:0:0:50:snap.wav
182,192,28428,1,0,0:0:0:50:kick.wav
36,192,28428,1,0,0:0:0:0:
402,192,28595,1,0,0:0:0:0:
402,192,28761,1,0,0:0:0:30:hihat.wav
256,192,28761,1,0,0:0:0:0:
109,192,28761,1,0,0:0:0:0:
402,192,28928,1,0,0:0:0:0:
256,192,29095,128,0,29178:0:0:0:50:kick.wav
329,192,29095,1,0,0:0:0:0:
475,192,29095,1,0,0:0:0:0:
256,192,29261,128,0,29345:0:0:0:0:
109,192,29261,1,0,0:0:0:0:
182,192,29428,1,0,0:0:0:30:hihat.wav
36,192,29428,1,0,0:0:0:0:
402,192,29428,1,0,0:0:0:0:
182,192,29595,128,0,29678:0:0:0:0:
329,192,29595,1,0,0:0:0:0:
109,192,29761,1,0,0:0:0:50:snap.wav
256,192,29761,1,0,0:0:0:50:kick.wav
475,192,29761,1,0,0:0:0:0:
109,192,29928,128,0,30428:0:0:0:0:
475,192,29928,1,0,0:0:0:0:
402,192,30095,1,0,0:0:0:30:hihat.wav
256,192,30095,1,0,0:0:0:0:
36,192,30095,1,0,0:0:0:0:
329,192,30261,1,0,0:0:0:0:
36,192,30261,1,0,0:0:0:0:
329,192,30428,128,0,30595:0:0:0:50:kick.wav
182,192,30428,1,0,0:0:0:0:
475,192,30595,128,0,30761:0:0:0:0:
109,192,30595,1,0,0:0:0:0:
36,192,30761,1,0,0:0:0:30:hihat.wav
329,192,30761,1,0,0:0:0:0:
256,192,30928,128,0,31095:0:0:0:0:
402,192,30928,1,0,0:0:0:0:
109,192,31095,128,0,31261:0:0:0:50:snap.wav
475,192,31095,1,0,0:0:0:50:kick.wav
36,192,31095,1,0,0:0:0:0:
329,192,31261,128,0,31428:0:0:0:0:
182,192,31261,1,0,0:0:0:0:
475,192,31428,128,0,31595:0:0:0:30:hihat.wav
36,192,31428,1,0,0:0:0:0:
182,192,31595,128,0,31761:0:0:0:0:
329,192,31595,1,0,0:0:0:0:
402,192,31761,1,0,0:0:0:50:kick.wav
256,192,31761,1,0,0:0:0:0:
182,192,31928,128,0,32095:0:0:0:0:
475,192,31928,1,0,0:0:0:0:
36,192,32095,1,0,0:0:0:30:hihat.wav
329,192,32095,1,0,0:0:0:0:
109,192,32261,1,0,0:0:0:0:
182,192,32428,1,0,0:0:0:50:snap.wav
475,192,32428,1,0,0:0:0:50:kick.wav
329,192,32428,1,0,0:0:0:0:
402,192,32428,1,0,0:0:0:0:
109,192,32511,1,0,0:0:0:0:
36,192,32595,1,0,0:0:0:0:
329,192,32678,1,0,0:0:0:0:
256,192,32761,1,0,0:0:0:30:hihat.wav
402,192,32761,1,0,0:0:0:0:
109,192,32761,1,0,0:0:0:0:
182,192,32845,1,0,0:0:0:0:
475,192,32928,1,0,0:0:0:0:
402,192,33011,1,0,0:0:0:0:
256,192,33095,128,0,33261:0:0:0:50:kick.wav
36,192,33095,1,0,0:0:0:0:
182,192,33095,1,0,0:0:0:0:
329,192,33095,1,0,0:0:0:0:
402,192,33261,128,0,33428:0:0:0:0:
109,192,33261,1,0,0:0:0:0:
182,192,33428,1,0,0:0:0:30:hihat.wav
182,192,33595,128,0,33761:0:0:0:0:
329,192,33595,1,0,0:0:0:0:
36,192,33761,128,0,33928:0:0:0:50:snap.wav
402,192,33761,1,0,0:0:0:50:kick.wav
109,192,33761,1,0,0:0:0:0:
256,192,33928,128,0,34095:0:0:0:0:
475,192,33928,1,0,0:0:0:0:
402,192,34095,128,0,34261:0:0:0:30:hihat.wav
36,192,34095,1,0,0:0:0:0:
182,192,34095,1,0,0:0:0:0:
109,192,34261,128,0,34428:0:0:0:0:
256,192,34261,1,0,0:0:0:0:
329,192,34428,1,0,0:0:0:50:kick.wav
109,192,34595,128,0,34761:0:0:0:0:
475,192,34595,1,0,0:0:0:0:
402,192,34761,1,0,0:0:0:30:hihat.wav
182,192,34761,1,0,0:0:0:0:
329,192,34928,1,0,0:0:0:0:
256,192,35095,1,0,0:0:0:50:snap.wav
109,192,35095,1,0,0:0:0:50:kick.wav
475,192,35095,1,0,0:0:0:0:
182,192,35178,1,0,0:0:0:0:
329,192,35261,1,0,0:0:0:0:
402,192,35345,1,0,0:0:0:0:
256,192,35428,1,0,0:0:0:30:hihat.wav
182,192,35428,1,0,0:0:0:50:kick.wav
475,192,35428,1,0,0:0:0:0:
36,192,35428,1,0,0:0:0:0:
109,192,35511,1,0,0:0:0:0:
329,192,35595,1,0,0:0:0:0:
402,192,35678,1,0,0:0:0:0:
109,192,35761,128,0,35845:0:0:0:0:
475,192,35761,1,0,0:0:0:0:
36,192,35928,128,0,36011:0:0:0:0:
182,192,36095,128,0,36178:0:0:0:0:
109,192,36261,128,0,36345:0:0:0:0:
36,192,36428,128,0,37761:0:0:0:0:
256,192,36428,128,0,36511:0:0:0:0:
182,192,36595,128,0,36678:0:0:0:0:
109,192,36761,128,0,37761:0:0:0:0:
329,192,36761,128,0,36845:0:0:0:0:
256,192,36928,128,0,37011:0:0:0:0:
182,192,37095,128,0,37761:0:0:0:0:
402,192,37095,128,0,37178:0:0:0:0:
329,192,37261,128,0,37345:0:0:0:0:
475,192,37428,128,0,37511:0:0:0:0:
402,192,37595,128,0,37678:0:0:0:0:
256,192,37761,1,0,0:0:0:45:clap.wav
402,192,37761,1,0,0:0:0:0:
329,192,38095,1,0,0:0:0:0:
329,192,38428,1,0,0:0:0:35:kick.wav
475,192,38428,128,0,38595:0:0:0:0:
182,192,38428,1,0,0:0:0:0:
109,192,38595,1,0,0:0:0:0:
36,192,38761,1,0,0:0:0:0:
402,192,38928,128,0,39095:0:0:0:0:
182,192,38928,1,0,0:0:0:0:
475,192,39095,1,0,0:0:0:100:vocal_1bgm1 - Marker #2.wav
109,192,39095,1,0,0:0:0:50:rim.wav
36,192,39261,1,0,0:0:0:0:
329,192,39428,128,0,39595:0:0:0:0:
182,192,39428,1,0,0:0:0:0:
109,192,39595,1,0,0:0:0:100:vocal_1bgm1 - Marker #3.wav
182,192,39761,128,0,39928:0:0:0:0:
475,192,39761,1,0,0:0:0:0:
36,192,39761,1,0,0:0:0:0:
402,192,39928,1,0,0:0:0:0:
36,192,40095,1,0,0:0:0:35:kick.wav
256,192,40095,1,0,0:0:0:0:
256,192,40261,128,0,40428:0:0:0:0:
475,192,40261,1,0,0:0:0:0:
402,192,40428,1,0,0:0:0:0:
256,192,40595,1,0,0:0:0:0:
329,192,40761,128,0,40928:0:0:0:100:vocal_1bgm1 - Marker #4.wav
475,192,40761,1,0,0:0:0:0:
182,192,40928,128,0,41095:0:0:0:0:
402,192,40928,1,0,0:0:0:0:
36,192,41095,128,0,41261:0:0:0:35:kick.wav
256,192,41095,1,0,0:0:0:0:
329,192,41261,1,0,0:0:0:0:
402,192,41428,1,0,0:0:0:0:
109,192,41595,128,0,41761:0:0:0:0:
256,192,41595,1,0,0:0:0:0:
329,192,41761,1,0,0:0:0:50:rim.wav
475,192,41761,1,0,0:0:0:0:
402,192,41928,1,0,0:0:0:0:
256,192,42095,1,0,0:0:0:100:vocal_1bgm1 - Marker #5.wav
182,192,42095,128,0,42261:0:0:0:0:
329,192,42261,1,0,0:0:0:35:kick.wav
475,192,42261,1,0,0:0:0:100:vocal_1bgm1 - Marker #6.wav
329,192,42428,128,0,42595:0:0:0:0:
402,192,42428,1,0,0:0:0:0:
182,192,42428,1,0,0:0:0:0:
109,192,42595,1,0,0:0:0:0:
36,192,42761,1,0,0:0:0:35:kick.wav
475,192,42761,1,0,0:0:0:0:
402,192,42928,128,0,43095:0:0:0:0:
182,192,42928,1,0,0:0:0:0:
109,192,43095,1,0,0:0:0:50:rim.wav
256,192,43095,1,0,0:0:0:100:vocal_1bgm1 - Marker #7.wav
36,192,43261,1,0,0:0:0:0:
475,192,43428,128,0,43595:0:0:0:100:vocal_1bgm1 - Marker #8.wav
182,192,43428,1,0,0:0:0:0:
256,192,43595,128,0,43761:0:0:0:100:vocal_1bgm1 - Marker #9.wav
109,192,43595,1,0,0:0:0:0:
36,192,43761,128,0,43928:0:0:0:35:kick.wav
475,192,43761,1,0,0:0:0:0:
402,192,43928,1,0,0:0:0:0:
256,192,44095,1,0,0:0:0:0:
109,192,44261,128,0,44428:0:0:0:0:
475,192,44261,1,0,0:0:0:0:
402,192,44428,1,0,0:0:0:50:rim.wav
36,192,44428,1,0,0:0:0:100:vocal_1bgm1 - Marker #10.wav
256,192,44595,1,0,0:0:0:0:
182,192,44761,128,0,44928:0:0:0:0:
475,192,44761,1,0,0:0:0:0:
402,192,44928,1,0,0:0:0:100:vocal_1bgm1 - Marker #11.wav
475,192,45095,128,0,45261:0:0:0:0:
256,192,45095,1,0,0:0:0:0:
109,192,45261,1,0,0:0:0:0:
36,192,45428,1,0,0:0:0:35:kick.wav
475,192,45428,1,0,0:0:0:0:
402,192,45595,128,0,45761:0:0:0:100:vocal_1bgm1 - Marker #12.wav
256,192,45595,1,0,0:0:0:0:
109,192,45761,1,0,0:0:0:100:vocal_1bgm1 - Marker #13.wav
36,192,45928,1,0,0:0:0:0:
329,192,46095,128,0,46261:0:0:0:0:
256,192,46095,1,0,0:0:0:0:
256,192,46261,128,0,46428:0:0:0:100:vocal_1bgm1 - Marker #14.wav
109,192,46261,1,0,0:0:0:0:
182,192,46428,128,0,46595:0:0:0:35:kick.wav
36,192,46428,1,0,0:0:0:0:
402,192,46428,1,0,0:0:0:0:
475,192,46595,1,0,0:0:0:0:
256,192,46761,1,0,0:0:0:0:
109,192,46928,128,0,47095:0:0:0:0:
402,192,46928,1,0,0:0:0:0:
36,192,47095,1,0,0:0:0:50:rim.wav
475,192,47095,1,0,0:0:0:0:
256,192,47261,1,0,0:0:0:0:
36,192,47428,128,0,47595:0:0:0:100:vocal_1bgm1 - Marker #15.wav
402,192,47428,1,0,0:0:0:0:
475,192,47595,1,0,0:0:0:35:kick.wav
182,192,47595,1,0,0:0:0:100:vocal_1bgm1 - Marker #16.wav
329,192,47761,128,0,47928:0:0:0:0:
36,192,47761,1,0,0:0:0:0:
109,192,47928,1,0,0:0:0:0:
256,192,48095,1,0,0:0:0:35:kick.wav
329,192,48095,1,0,0:0:0:100:vocal_1bgm1 - Marker #17.wav
402,192,48261,128,0,48428:0:0:0:0:
36,192,48261,1,0,0:0:0:0:
475,192,48428,1,0,0:0:0:50:rim.wav
109,192,48428,1,0,0:0:0:100:vocal_1bgm1 - Marker #18.wav
256,192,48595,1,0,0:0:0:35:kick.wav
329,192,48595,1,0,0:0:0:100:vocal_1bgm1 - Marker #19.wav
475,192,48761,128,0,48928:0:0:0:35:kick.wav
109,192,48761,1,0,0:0:0:0:
36,192,48761,1,0,0:0:0:0:
182,192,48928,1,0,0:0:0:0:
36,192,49095,1,0,0:0:0:35:kick.wav
329,192,49095,1,0,0:0:0:100:vocal_1bgm1 - Marker #20.wav
36,192,49261,1,0,0:0:0:0:
36,192,49428,1,0,0:0:0:0:
256,192,49428,1,0,0:0:0:0:
402,192,49428,1,0,0:0:0:0:
36,192,49595,1,0,0:0:0:100:vocal_1bgm1 - Marker #21.wav
182,192,49761,1,0,0:0:0:50:rim.wav
475,192,49761,1,0,0:0:0:100:vocal_1bgm1 - Marker #22.wav
329,192,49928,1,0,0:0:0:100:vocal_1bgm1 - Marker #23.wav
109,192,50095,1,0,0:0:0:100:vocal_1bgm1 - Marker #24.wav
36,192,50095,1,0,0:0:0:0:
256,192,50261,1,0,0:0:0:100:vocal_1bgm1 - Marker #25.wav
402,192,50428,1,0,0:0:0:0:
475,192,50428,1,0,0:0:0:0:
182,192,50595,1,0,0:0:0:0:
329,192,50761,1,0,0:0:0:35:kick.wav
36,192,50761,1,0,0:0:0:100:vocal_1bgm1 - Marker #26.wav
475,192,50928,1,0,0:0:0:0:
402,192,51095,1,0,0:0:0:0:
256,192,51095,1,0,0:0:0:0:
329,192,51261,1,0,0:0:0:100:vocal_1bgm1 - Marker #27.wav
475,192,51428,1,0,0:0:0:0:
182,192,51428,1,0,0:0:0:0:
109,192,51595,1,0,0:0:0:100:vocal_1bgm1 - Marker #28.wav
36,192,51761,1,0,0:0:0:35:kick.wav
329,192,51761,1,0,0:0:0:0:
36,192,51928,1,0,0:0:0:0:
36,192,52095,1,0,0:0:0:0:
256,192,52095,1,0,0:0:0:0:
402,192,52095,1,0,0:0:0:0:
36,192,52261,1,0,0:0:0:100:vocal_1bgm1 - Marker #29.wav
182,192,52428,1,0,0:0:0:50:rim.wav
475,192,52428,1,0,0:0:0:100:vocal_1bgm1 - Marker #30.wav
329,192,52595,1,0,0:0:0:0:
109,192,52761,1,0,0:0:0:0:
256,192,52928,1,0,0:0:0:35:kick.wav
475,192,52928,1,0,0:0:0:100:vocal_1bgm1 - Marker #31.wav
402,192,53095,1,0,0:0:0:0:
329,192,53261,1,0,0:0:0:0:
182,192,53428,1,0,0:0:0:35:kick.wav
36,192,53428,1,0,0:0:0:100:vocal_1bgm1 - Marker #32.wav
256,192,53595,1,0,0:0:0:100:vocal_1bgm1 - Marker #33.wav
329,192,53761,1,0,0:0:0:50:rim.wav
475,192,53761,1,0,0:0:0:100:vocal_1bgm1 - Marker #34.wav
402,192,53928,1,0,0:0:0:0:
182,192,54095,1,0,0:0:0:0:
109,192,54261,1,0,0:0:0:100:vocal_1bgm1 - Marker #35.wav
36,192,54428,1,0,0:0:0:35:kick.wav
475,192,54428,1,0,0:0:0:100:vocal_1bgm1 - Marker #36.wav
256,192,54428,1,0,0:0:0:0:
475,192,54595,1,0,0:0:0:0:
475,192,54761,1,0,0:0:0:0:
329,192,54761,1,0,0:0:0:0:
182,192,54761,1,0,0:0:0:0:
475,192,54928,1,0,0:0:0:0:
402,192,55095,1,0,0:0:0:50:rim.wav
109,192,55095,1,0,0:0:0:100:vocal_1bgm1 - Marker #37.wav
329,192,55261,1,0,0:0:0:100:vocal_1bgm1 - Marker #38.wav
36,192,55428,1,0,0:0:0:0:
109,192,55595,1,0,0:0:0:100:vocal_1bgm1 - Marker #39.wav
182,192,55761,1,0,0:0:0:0:
329,192,55761,1,0,0:0:0:0:
256,192,55928,1,0,0:0:0:0:
109,192,56095,1,0,0:0:0:35:kick.wav
402,192,56095,1,0,0:0:0:100:vocal_1bgm1 - Marker #40.wav
182,192,56261,1,0,0:0:0:0:
256,192,56428,1,0,0:0:0:50:rim.wav
475,192,56428,1,0,0:0:0:100:vocal_1bgm1 - Marker #41.wav
329,192,56595,1,0,0:0:0:0:
182,192,56761,1,0,0:0:0:35:kick.wav
36,192,56761,1,0,0:0:0:100:vocal_1bgm1 - Marker #42.wav
256,192,56928,1,0,0:0:0:100:vocal_1bgm1 - Marker #43.wav
329,192,57095,1,0,0:0:0:0:
475,192,57095,1,0,0:0:0:0:
402,192,57261,1,0,0:0:0:100:vocal_1bgm1 - Marker #44.wav
182,192,57428,1,0,0:0:0:100:vocal_1bgm1 - Marker #45.wav
36,192,57428,1,0,0:0:0:0:
109,192,57595,1,0,0:0:0:0:
256,192,57761,1,0,0:0:0:50:rim.wav
402,192,57761,1,0,0:0:0:100:vocal_1bgm1 - Marker #46.wav
329,192,57928,1,0,0:0:0:100:vocal_1bgm1 - Marker #47.wav
36,192,58095,1,0,0:0:0:0:
182,192,58261,1,0,0:0:0:35:kick.wav
329,192,58261,1,0,0:0:0:100:vocal_1bgm1 - Marker #48.wav
475,192,58428,1,0,0:0:0:0:
256,192,58595,1,0,0:0:0:50:snare.wav
109,192,58595,1,0,0:0:0:100:vocal_1bgm1 - Marker #49.wav
329,192,58761,1,0,0:0:0:35:kick.wav
402,192,58761,1,0,0:0:0:0:
182,192,58928,1,0,0:0:0:35:kick.wav
36,192,58928,1,0,0:0:0:100:vocal_1bgm1 - Marker #50.wav
182,192,59095,1,0,0:0:0:50:snare.wav
475,192,59095,1,0,0:0:0:100:vocal_1bgm1 - Marker #51.wav
109,192,59178,1,0,0:0:0:0:
36,192,59261,1,0,0:0:0:100:vocal_1bgm1 - Marker #52.wav
329,192,59345,1,0,0:0:0:0:
256,192,59428,1,0,0:0:0:35:kick.wav
402,192,59428,1,0,0:0:0:0:
109,192,59428,1,0,0:0:0:0:
182,192,59511,1,0,0:0:0:0:
475,192,59595,1,0,0:0:0:0:
402,192,59678,1,0,0:0:0:0:
329,192,59761,128,0,60345:0:0:0:50:crash.wav
36,192,59761,128,0,60345:0:0:0:0:
36,192,60428,128,0,61011:0:0:0:0:
329,192,60428,128,0,61011:0:0:0:0:
475,192,61095,128,0,61428:0:0:0:0:
329,192,61095,128,0,61428:0:0:0:0:
256,192,61428,128,0,61761:0:0:0:0:
402,192,61428,128,0,61761:0:0:0:0:
182,192,61761,128,0,62095:0:0:0:0:
329,192,61761,128,0,62095:0:0:0:0:
402,192,62428,128,0,63011:0:0:0:0:
109,192,62428,128,0,63011:0:0:0:0:
109,192,63095,128,0,63678:0:0:0:0:
402,192,63095,128,0,63678:0:0:0:0:
109,192,63761,128,0,64095:0:0:0:0:
256,192,63761,128,0,64095:0:0:0:0:
182,192,64095,128,0,64428:0:0:0:0:
329,192,64095,128,0,64428:0:0:0:0:
256,192,64428,128,0,64761:0:0:0:0:
402,192,64428,128,0,64761:0:0:0:0:
182,192,65095,128,0,65678:0:0:0:0:
475,192,65095,128,0,65678:0:0:0:0:
182,192,65761,128,0,66345:0:0:0:0:
475,192,65761,128,0,66345:0:0:0:0:
182,192,66428,128,0,66761:0:0:0:0:
36,192,66428,128,0,66761:0:0:0:0:
256,192,66761,128,0,67095:0:0:0:0:
109,192,66761,128,0,67095:0:0:0:0:
475,192,66761,128,0,66928:0:0:0:0:
402,192,66928,128,0,67095:0:0:0:0:
329,192,67095,128,0,67428:0:0:0:0:
182,192,67095,128,0,67428:0:0:0:0:
402,192,67428,128,0,67761:0:0:0:0:
256,192,67428,128,0,67761:0:0:0:0:
329,192,67761,128,0,68095:0:0:0:0:
475,192,67761,128,0,68095:0:0:0:0:
182,192,68095,128,0,68428:0:0:0:0:
36,192,68095,128,0,68428:0:0:0:0:
256,192,68428,128,0,68761:0:0:0:0:
402,192,68428,128,0,68761:0:0:0:0:
109,192,68761,128,0,69095:0:0:0:0:
182,192,68761,128,0,69095:0:0:0:0:
329,192,69095,128,0,69428:0:0:0:0:
402,192,69095,128,0,69428:0:0:0:0:
256,192,69428,128,0,69761:0:0:0:0:
109,192,69428,128,0,69761:0:0:0:0:
329,192,69761,128,0,70095:0:0:0:0:
475,192,69761,128,0,70095:0:0:0:0:
182,192,70095,128,0,70428:0:0:0:0:
36,192,70095,128,0,70428:0:0:0:0:
475,192,70428,1,0,0:0:0:100:vocal_1bgm1 - Marker #82.wav
402,192,70511,1,0,0:0:0:0:
256,192,70595,1,0,0:0:0:0:
182,192,70678,1,0,0:0:0:0:
475,192,70761,1,0,0:0:0:0:
402,192,70845,1,0,0:0:0:0:
256,192,70928,1,0,0:0:0:0:
182,192,71011,1,0,0:0:0:0:
475,192,71095,1,0,0:0:0:100:vocal_1bgm1 - Marker #83.wav
402,192,71178,1,0,0:0:0:0:
256,192,71261,1,0,0:0:0:0:
182,192,71345,1,0,0:0:0:0:
475,192,71428,1,0,0:0:0:0:
402,192,71511,1,0,0:0:0:0:
256,192,71595,1,0,0:0:0:100:vocal_1bgm1 - Marker #84.wav
182,192,71678,1,0,0:0:0:0:
402,192,71761,1,0,0:0:0:100:vocal_1bgm1 - Marker #85.wav
329,192,71845,1,0,0:0:0:0:
182,192,71928,1,0,0:0:0:0:
109,192,72011,1,0,0:0:0:0:
402,192,72095,1,0,0:0:0:100:vocal_1bgm1 - Marker #86.wav
329,192,72178,1,0,0:0:0:0:
182,192,72261,1,0,0:0:0:100:vocal_1bgm1 - Marker #87.wav
109,192,72345,1,0,0:0:0:0:
402,192,72428,1,0,0:0:0:100:vocal_1bgm1 - Marker #88.wav
329,192,72511,1,0,0:0:0:0:
182,192,72595,1,0,0:0:0:0:
109,192,72678,1,0,0:0:0:0:
402,192,72761,1,0,0:0:0:0:
329,192,72845,1,0,0:0:0:0:
182,192,72928,1,0,0:0:0:0:
109,192,73011,1,0,0:0:0:0:
329,192,73095,1,0,0:0:0:100:vocal_1bgm1 - Marker #89.wav
256,192,73178,1,0,0:0:0:0:
109,192,73261,1,0,0:0:0:0:
36,192,73345,1,0,0:0:0:0:
329,192,73428,1,0,0:0:0:0:
256,192,73511,1,0,0:0:0:0:
109,192,73595,1,0,0:0:0:0:
36,192,73678,1,0,0:0:0:0:
329,192,73761,1,0,0:0:0:100:vocal_1bgm1 - Marker #90.wav
256,192,73845,1,0,0:0:0:0:
109,192,73928,1,0,0:0:0:0:
36,192,74011,1,0,0:0:0:0:
329,192,74095,1,0,0:0:0:0:
256,192,74178,1,0,0:0:0:0:
109,192,74261,1,0,0:0:0:0:
36,192,74345,1,0,0:0:0:0:
182,192,74428,1,0,0:0:0:100:vocal_1bgm1 - Marker #91.wav
256,192,74511,1,0,0:0:0:0:
402,192,74595,1,0,0:0:0:0:
475,192,74678,1,0,0:0:0:0:
182,192,74761,1,0,0:0:0:100:vocal_1bgm1 - Marker #92.wav
256,192,74845,1,0,0:0:0:0:
402,192,74928,1,0,0:0:0:100:vocal_1bgm1 - Marker #93.wav
475,192,75011,1,0,0:0:0:0:
182,192,75095,1,0,0:0:0:100:vocal_1bgm1 - Marker #94.wav
256,192,75178,1,0,0:0:0:0:
402,192,75261,1,0,0:0:0:0:
475,192,75345,1,0,0:0:0:0:
182,192,75428,1,0,0:0:0:100:vocal_1bgm1 - Marker #95.wav
256,192,75511,1,0,0:0:0:0:
402,192,75595,1,0,0:0:0:100:vocal_1bgm1 - Marker #96.wav
475,192,75678,1,0,0:0:0:0:
329,192,75761,128,0,78428:0:0:0:100:vocal_1bgm1 - Marker #97.wav
109,192,75761,1,0,0:0:0:0:
36,192,75845,1,0,0:0:0:0:
182,192,75928,1,0,0:0:0:0:
256,192,76011,1,0,0:0:0:0:
475,192,76095,1,0,0:0:0:0:
402,192,76178,1,0,0:0:0:0:
109,192,76261,1,0,0:0:0:0:
36,192,76345,1,0,0:0:0:0:
182,192,76428,1,0,0:0:0:100:vocal_1bgm1 - Marker #98.wav
256,192,76511,1,0,0:0:0:0:
475,192,76595,1,0,0:0:0:0:
402,192,76678,1,0,0:0:0:0:
109,192,76761,1,0,0:0:0:0:
36,192,76845,1,0,0:0:0:0:
182,192,76928,1,0,0:0:0:0:
256,192,77011,1,0,0:0:0:0:
475,192,77095,1,0,0:0:0:100:vocal_1bgm1 - Marker #99.wav
402,192,77178,1,0,0:0:0:0:
109,192,77261,1,0,0:0:0:0:
36,192,77345,1,0,0:0:0:0:
182,192,77428,1,0,0:0:0:100:vocal_1bgm1 - Marker #100.wav
256,192,77511,1,0,0:0:0:0:
475,192,77595,1,0,0:0:0:100:vocal_1bgm1 - Marker #101.wav
402,192,77678,1,0,0:0:0:0:
109,192,77761,1,0,0:0:0:0:
36,192,77845,1,0,0:0:0:0:
182,192,77928,1,0,0:0:0:100:vocal_1bgm1 - Marker #102.wav
256,192,78011,1,0,0:0:0:0:
475,192,78095,1,0,0:0:0:0:
402,192,78178,1,0,0:0:0:0:
109,192,78261,1,0,0:0:0:0:
36,192,78345,1,0,0:0:0:0:
182,192,78428,128,0,80761:0:0:0:0:
402,192,78428,1,0,0:0:0:0:
475,192,78511,1,0,0:0:0:0:
329,192,78595,1,0,0:0:0:100:vocal_1bgm1 - Marker #103.wav
256,192,78678,1,0,0:0:0:0:
36,192,78761,1,0,0:0:0:0:
109,192,78845,1,0,0:0:0:0:
402,192,78928,1,0,0:0:0:0:
475,192,79011,1,0,0:0:0:0:
329,192,79095,1,0,0:0:0:0:
256,192,79178,1,0,0:0:0:0:
36,192,79261,1,0,0:0:0:0:
109,192,79345,1,0,0:0:0:0:
402,192,79428,1,0,0:0:0:0:
475,192,79511,1,0,0:0:0:0:
329,192,79595,1,0,0:0:0:0:
256,192,79678,1,0,0:0:0:0:
36,192,79761,1,0,0:0:0:0:
109,192,79845,1,0,0:0:0:0:
402,192,79928,5,0,0:0:0:0:
475,192,80011,1,0,0:0:0:0:
329,192,80095,1,0,0:0:0:0:
256,192,80178,1,0,0:0:0:0:
36,192,80261,1,0,0:0:0:0:
109,192,80345,1,0,0:0:0:0:
402,192,80428,1,0,0:0:0:0:
475,192,80511,1,0,0:0:0:0:
329,192,80595,1,0,0:0:0:0:
256,192,80678,1,0,0:0:0:0:
36,192,80761,1,0,0:0:0:0:
182,192,81095,128,0,82928:0:0:0:50:kick.wav
256,192,81095,128,0,82928:0:0:0:100:beam2.wav
329,192,81095,128,0,82928:0:0:0:0:
402,192,81095,128,0,82928:0:0:0:0:
475,192,81095,128,0,82928:0:0:0:0:
475,192,83095,1,0,0:0:0:50:fillsnare.wav
329,192,83095,1,0,0:0:0:0:
182,192,83095,1,0,0:0:0:0:
256,192,83261,1,0,0:0:0:50:kick.wav
402,192,83261,1,0,0:0:0:0:
402,192,83428,1,0,0:0:0:50:kick.wav
256,192,83428,1,0,0:0:0:0:
329,192,83595,1,0,0:0:0:50:fillsnare.wav
182,192,83595,1,0,0:0:0:0:
475,192,83595,1,0,0:0:0:0:
109,192,83761,1,0,0:0:0:100:vvx_3 - Marker #1.wav
36,192,83761,1,0,0:0:0:50:kick.wav
256,192,83761,1,0,0:0:0:70:crash.wav
329,192,83803,1,0,0:0:0:0:
402,192,83845,1,0,0:0:0:0:
475,192,83886,1,0,0:0:0:0:
256,192,83928,1,0,0:0:0:0:
182,192,83970,1,0,0:0:0:0:
109,192,84011,1,0,0:0:0:0:
36,192,84053,1,0,0:0:0:0:
475,192,84095,1,0,0:0:0:0:
402,192,84136,1,0,0:0:0:0:
329,192,84178,1,0,0:0:0:0:
256,192,84220,1,0,0:0:0:0:
36,192,84261,1,0,0:0:0:0:
109,192,84303,1,0,0:0:0:0:
182,192,84345,1,0,0:0:0:0:
256,192,84386,1,0,0:0:0:0:
475,192,84428,1,0,0:0:0:100:vvx_3 - Marker #2.wav
402,192,84470,1,0,0:0:0:0:
329,192,84511,1,0,0:0:0:0:
182,192,84553,1,0,0:0:0:0:
109,192,84595,1,0,0:0:0:0:
36,192,84636,1,0,0:0:0:0:
256,192,84678,1,0,0:0:0:0:
329,192,84720,1,0,0:0:0:0:
402,192,84761,1,0,0:0:0:100:vvx_3 - Marker #3.wav
182,192,84803,1,0,0:0:0:0:
109,192,84845,1,0,0:0:0:0:
36,192,84886,1,0,0:0:0:0:
475,192,84928,1,0,0:0:0:0:
402,192,84970,1,0,0:0:0:0:
329,192,85011,1,0,0:0:0:0:
256,192,85053,1,0,0:0:0:0:
182,192,85095,1,0,0:0:0:50:kick.wav
36,192,85095,1,0,0:0:0:100:vvx_3 - Marker #4.wav
109,192,85261,1,0,0:0:0:50:kick.wav
256,192,85261,1,0,0:0:0:0:
182,192,85428,1,0,0:0:0:50:kick.wav
329,192,85428,1,0,0:0:0:100:vvx_3 - Marker #5.wav
256,192,85595,1,0,0:0:0:50:kick.wav
402,192,85595,1,0,0:0:0:0:
329,192,85761,128,0,86428:0:0:0:50:kick.wav
475,192,85761,128,0,86428:0:0:0:0:
109,192,85761,1,0,0:0:0:0:
256,192,86095,1,0,0:0:0:100:vvx_3 - Marker #6.wav
182,192,86095,1,0,0:0:0:0:
109,192,86178,1,0,0:0:0:100:vvx_3 - Marker #6.wav
36,192,86178,1,0,0:0:0:0:
182,192,86261,1,0,0:0:0:100:vvx_3 - Marker #6.wav
256,192,86261,1,0,0:0:0:0:
109,192,86345,1,0,0:0:0:100:vvx_3 - Marker #6.wav
36,192,86345,1,0,0:0:0:0:
256,192,86428,128,0,86761:0:0:0:50:kick.wav
402,192,86428,128,0,86761:0:0:0:100:vvx_3 - Marker #10.wav
182,192,86428,1,0,0:0:0:0:
329,192,86761,128,0,87095:0:0:0:100:vvx_3 - Marker #11.wav
182,192,86761,128,0,87095:0:0:0:0:
256,192,87095,128,0,87428:0:0:0:70:snare.wav
109,192,87095,128,0,87428:0:0:0:100:vvx_3 - Marker #12.wav
475,192,87095,1,0,0:0:0:0:
182,192,87428,128,0,87761:0:0:0:50:kick.wav
36,192,87428,128,0,87761:0:0:0:100:vvx_3 - Marker #13.wav
402,192,87428,1,0,0:0:0:0:
475,192,87511,1,0,0:0:0:0:
329,192,87595,1,0,0:0:0:0:
402,192,87678,1,0,0:0:0:0:
256,192,87761,1,0,0:0:0:0:
329,192,87845,1,0,0:0:0:0:
182,192,87928,1,0,0:0:0:0:
256,192,88011,1,0,0:0:0:0:
109,192,88095,1,0,0:0:0:50:kick.wav
402,192,88095,1,0,0:0:0:100:vvx_3 - Marker #14.wav
182,192,88178,1,0,0:0:0:0:
36,192,88261,1,0,0:0:0:0:
109,192,88345,1,0,0:0:0:0:
402,192,88428,1,0,0:0:0:50:kick.wav
329,192,88511,1,0,0:0:0:100:vvx_3 - Marker #15.wav
402,192,88595,1,0,0:0:0:100:vvx_3 - Marker #15.wav
329,192,88678,1,0,0:0:0:100:vvx_3 - Marker #15.wav
402,192,88761,1,0,0:0:0:100:vvx_3 - Marker #19.wav
329,192,88845,1,0,0:0:0:0:
402,192,88928,1,0,0:0:0:0:
329,192,89011,1,0,0:0:0:0:
256,192,89095,1,0,0:0:0:50:kick.wav
402,192,89095,1,0,0:0:0:70:crash.wav
475,192,89095,1,0,0:0:0:100:vvx_3 - Marker #20.wav
182,192,89136,1,0,0:0:0:0:
109,192,89178,1,0,0:0:0:0:
36,192,89220,1,0,0:0:0:0:
256,192,89261,1,0,0:0:0:0:
329,192,89303,1,0,0:0:0:0:
402,192,89345,1,0,0:0:0:0:
475,192,89386,1,0,0:0:0:0:
36,192,89428,1,0,0:0:0:0:
109,192,89470,1,0,0:0:0:0:
182,192,89511,1,0,0:0:0:0:
256,192,89553,1,0,0:0:0:0:
475,192,89595,1,0,0:0:0:0:
402,192,89636,1,0,0:0:0:0:
329,192,89678,1,0,0:0:0:0:
256,192,89720,1,0,0:0:0:0:
36,192,89761,1,0,0:0:0:100:vvx_3 - Marker #21.wav
109,192,89803,1,0,0:0:0:0:
182,192,89845,1,0,0:0:0:0:
475,192,89886,1,0,0:0:0:0:
402,192,89928,1,0,0:0:0:0:
329,192,89970,1,0,0:0:0:0:
109,192,90011,1,0,0:0:0:0:
182,192,90053,1,0,0:0:0:0:
256,192,90095,1,0,0:0:0:100:vvx_3 - Marker #22.wav
475,192,90178,1,0,0:0:0:0:
402,192,90220,1,0,0:0:0:0:
329,192,90261,1,0,0:0:0:0:
182,192,90303,1,0,0:0:0:0:
109,192,90345,1,0,0:0:0:0:
36,192,90386,1,0,0:0:0:0:
475,192,90428,1,0,0:0:0:50:kick.wav
256,192,90428,128,0,90595:0:0:0:0:
329,192,90511,128,0,90678:0:0:0:0:
402,192,90595,128,0,90761:0:0:0:0:
475,192,90678,128,0,90845:0:0:0:0:
36,192,90761,128,0,90928:0:0:0:0:
109,192,90845,128,0,91011:0:0:0:0:
182,192,90928,128,0,91095:0:0:0:0:
256,192,91011,128,0,91178:0:0:0:0:
475,192,91095,128,0,91178:0:0:0:100:vvx_3 - Marker #23.wav
402,192,91261,128,0,91345:0:0:0:0:
475,192,91261,128,0,91345:0:0:0:0:
475,192,91428,128,0,91678:0:0:0:100:vvx_3 - Marker #24.wav
402,192,91428,128,0,91678:0:0:0:0:
329,192,91428,128,0,91678:0:0:0:0:
182,192,91428,128,0,91511:0:0:0:0:
36,192,91428,128,0,91511:0:0:0:0:
182,192,91595,128,0,91678:0:0:0:0:
36,192,91595,128,0,91678:0:0:0:0:
329,192,91761,1,0,0:0:0:50:kick.wav
475,192,91761,1,0,0:0:0:0:
182,192,91761,1,0,0:0:0:0:
36,192,91761,1,0,0:0:0:0:
329,192,91928,1,0,0:0:0:0:
402,192,92011,1,0,0:0:0:0:
182,192,92095,128,0,92345:0:0:0:100:vvx_3 - Marker #25.wav
256,192,92095,128,0,92345:0:0:0:0:
475,192,92095,1,0,0:0:0:0:
36,192,92261,1,0,0:0:0:0:
109,192,92345,1,0,0:0:0:0:
256,192,92428,128,0,92678:0:0:0:70:snare.wav
329,192,92428,128,0,92678:0:0:0:100:vvx_3 - Marker #26.wav
475,192,92428,1,0,0:0:0:0:
182,192,92428,1,0,0:0:0:0:
36,192,92595,1,0,0:0:0:0:
36,192,92761,128,0,93678:0:0:0:50:kick.wav
109,192,92761,128,0,93011:0:0:0:100:vvx_3 - Marker #27.wav
182,192,92761,128,0,93011:0:0:0:0:
402,192,92761,128,0,93011:0:0:0:0:
329,192,92761,128,0,93011:0:0:0:0:
475,192,92761,128,0,93761:0:0:0:0:
182,192,93095,128,0,93178:0:0:0:100:vvx_3 - Marker #28.wav
329,192,93095,128,0,93178:0:0:0:50:kick.wav
109,192,93261,128,0,93345:0:0:0:100:vvx_3 - Marker #29.wav
182,192,93261,128,0,93345:0:0:0:0:
402,192,93345,128,0,93428:0:0:0:100:vvx_3 - Marker #34.wav
329,192,93345,128,0,93428:0:0:0:0:
109,192,93428,128,0,93511:0:0:0:50:kick.wav
182,192,93428,128,0,93511:0:0:0:100:vvx_3 - Marker #34.wav
402,192,93511,128,0,93595:0:0:0:100:vvx_3 - Marker #34.wav
329,192,93511,128,0,93595:0:0:0:0:
182,192,93595,128,0,93678:0:0:0:100:vvx_3 - Marker #34.wav
109,192,93595,128,0,93678:0:0:0:0:
329,192,93678,128,0,93761:0:0:0:100:vvx_3 - Marker #34.wav
402,192,93678,128,0,93761:0:0:0:0:
36,192,93761,1,0,0:0:0:50:kick.wav
109,192,93761,1,0,0:0:0:100:cluster.wav
182,192,93761,1,0,0:0:0:100:vvx_3 - Marker #35.wav
256,192,93761,1,0,0:0:0:0:
402,192,93928,1,0,0:0:0:0:
329,192,94011,1,0,0:0:0:0:
402,192,94095,1,0,0:0:0:0:
329,192,94178,1,0,0:0:0:0:
402,192,94261,1,0,0:0:0:0:
329,192,94345,1,0,0:0:0:0:
402,192,94428,1,0,0:0:0:50:kick.wav
36,192,94428,1,0,0:0:0:70:crash.wav
475,192,94428,1,0,0:0:0:100:vvx_3 - Marker #36.wav
109,192,94470,1,0,0:0:0:0:
182,192,94511,1,0,0:0:0:0:
256,192,94553,1,0,0:0:0:0:
475,192,94595,1,0,0:0:0:0:
402,192,94636,1,0,0:0:0:0:
329,192,94678,1,0,0:0:0:0:
256,192,94720,1,0,0:0:0:0:
36,192,94761,1,0,0:0:0:0:
109,192,94803,1,0,0:0:0:0:
182,192,94845,1,0,0:0:0:0:
329,192,94886,1,0,0:0:0:0:
402,192,94928,1,0,0:0:0:0:
475,192,94970,1,0,0:0:0:0:
256,192,95011,1,0,0:0:0:0:
182,192,95053,1,0,0:0:0:0:
109,192,95095,1,0,0:0:0:100:vvx_3 - Marker #37.wav
36,192,95136,1,0,0:0:0:0:
256,192,95178,1,0,0:0:0:0:
329,192,95220,1,0,0:0:0:0:
402,192,95261,1,0,0:0:0:0:
475,192,95303,1,0,0:0:0:0:
182,192,95345,1,0,0:0:0:0:
109,192,95386,1,0,0:0:0:0:
36,192,95428,1,0,0:0:0:100:vvx_3 - Marker #38.wav
475,192,95470,1,0,0:0:0:0:
402,192,95511,1,0,0:0:0:0:
329,192,95553,1,0,0:0:0:0:
36,192,95595,1,0,0:0:0:0:
109,192,95636,1,0,0:0:0:0:
182,192,95678,1,0,0:0:0:0:
256,192,95720,1,0,0:0:0:0:
329,192,95761,1,0,0:0:0:50:kick.wav
475,192,95761,1,0,0:0:0:100:vvx_3 - Marker #39.wav
256,192,95928,1,0,0:0:0:50:kick.wav
402,192,95928,1,0,0:0:0:0:
182,192,96095,128,0,96345:0:0:0:50:kick.wav
329,192,96095,128,0,96345:0:0:0:100:vvx_3 - Marker #40.wav
109,192,96261,128,0,96345:0:0:0:0:
36,192,96261,128,0,96345:0:0:0:0:
256,192,96428,128,0,96678:0:0:0:50:kick.wav
402,192,96428,128,0,96678:0:0:0:0:
36,192,96428,1,0,0:0:0:0:
182,192,96428,1,0,0:0:0:0:
329,192,96761,128,0,97011:0:0:0:0:
475,192,96761,128,0,97011:0:0:0:0:
182,192,96845,128,0,97011:0:0:0:0:
109,192,96928,128,0,97095:0:0:0:0:
36,192,97011,128,0,97178:0:0:0:0:
256,192,97095,128,0,97428:0:0:0:50:kick.wav
329,192,97095,1,0,0:0:0:100:vvx_3 - Marker #41.wav
475,192,97095,1,0,0:0:0:0:
329,192,97261,1,0,0:0:0:0:
402,192,97345,1,0,0:0:0:0:
475,192,97428,1,0,0:0:0:50:kick.wav
182,192,97428,128,0,97761:0:0:0:100:vvx_3 - Marker #42.wav
36,192,97428,1,0,0:0:0:0:
256,192,97595,1,0,0:0:0:0:
329,192,97678,1,0,0:0:0:0:
402,192,97761,1,0,0:0:0:70:snare.wav
109,192,97761,128,0,98095:0:0:0:100:vvx_3 - Marker #43.wav
475,192,97761,1,0,0:0:0:0:
182,192,97928,1,0,0:0:0:0:
256,192,98011,1,0,0:0:0:0:
329,192,98095,1,0,0:0:0:100:vvx_3 - Marker #44.wav
36,192,98095,128,0,98428:0:0:0:0:
109,192,98261,1,0,0:0:0:0:
182,192,98345,1,0,0:0:0:0:
256,192,98428,1,0,0:0:0:50:kick.wav
475,192,98428,1,0,0:0:0:0:
329,192,98511,1,0,0:0:0:0:
402,192,98595,1,0,0:0:0:0:
182,192,98678,1,0,0:0:0:0:
109,192,98761,1,0,0:0:0:100:vvx_3 - Marker #45.wav
36,192,98845,1,0,0:0:0:0:
475,192,98928,1,0,0:0:0:50:kick.wav
256,192,98928,1,0,0:0:0:0:
402,192,99011,1,0,0:0:0:0:
329,192,99095,1,0,0:0:0:70:snare.wav
182,192,99095,1,0,0:0:0:0:
36,192,99095,1,0,0:0:0:0:
256,192,99095,1,0,0:0:0:0:
109,192,99261,1,0,0:0:0:0:
182,192,99345,1,0,0:0:0:0:
109,192,99428,1,0,0:0:0:100:vvx_3 - Marker #47.wav
182,192,99511,1,0,0:0:0:0:
109,192,99595,1,0,0:0:0:0:
182,192,99678,1,0,0:0:0:0:
109,192,99761,1,0,0:0:0:70:crash.wav
329,192,99761,1,0,0:0:0:50:kick.wav
475,192,99761,1,0,0:0:0:100:vvx_3 - Marker #48.wav
402,192,99928,1,0,0:0:0:0:
329,192,100011,1,0,0:0:0:0:
256,192,100095,1,0,0:0:0:50:kick.wav
182,192,100095,1,0,0:0:0:100:vvx_3 - Marker #49.wav
36,192,100095,1,0,0:0:0:0:
329,192,100261,1,0,0:0:0:0:
256,192,100345,1,0,0:0:0:0:
182,192,100428,1,0,0:0:0:70:snare.wav
109,192,100428,1,0,0:0:0:100:vvx_3 - Marker #50.wav
475,192,100428,1,0,0:0:0:0:
256,192,100595,1,0,0:0:0:50:kick.wav
402,192,100595,1,0,0:0:0:0:
182,192,100678,1,0,0:0:0:0:
109,192,100761,1,0,0:0:0:50:kick.wav
329,192,100761,1,0,0:0:0:0:
36,192,100761,1,0,0:0:0:0:
182,192,100928,1,0,0:0:0:0:
109,192,101011,1,0,0:0:0:0:
36,192,101095,1,0,0:0:0:50:kick.wav
475,192,101095,128,0,101345:0:0:0:100:vvx_3 - Marker #51.wav
329,192,101095,128,0,101345:0:0:0:0:
109,192,101261,1,0,0:0:0:70:snare.wav
256,192,101261,1,0,0:0:0:0:
329,192,101428,1,0,0:0:0:50:kick.wav
475,192,101428,1,0,0:0:0:0:
182,192,101428,1,0,0:0:0:0:
256,192,101595,128,0,101845:0:0:0:100:vvx_3 - Marker #52.wav
402,192,101595,128,0,101845:0:0:0:0:
109,192,101761,1,0,0:0:0:70:snare.wav
36,192,101761,1,0,0:0:0:0:
402,192,101928,1,0,0:0:0:50:kick.wav
256,192,101928,1,0,0:0:0:0:
109,192,102011,1,0,0:0:0:50:kick.wav
36,192,102011,1,0,0:0:0:0:
182,192,102095,128,0,102345:0:0:0:70:snare.wav
329,192,102095,128,0,102345:0:0:0:100:vvx_3 - Marker #53.wav
475,192,102095,128,0,102178:0:0:0:0:
475,192,102261,128,0,102345:0:0:0:50:kick.wav
182,192,102428,1,0,0:0:0:50:kick.wav
109,192,102470,1,0,0:0:0:0:
36,192,102511,1,0,0:0:0:0:
329,192,102553,1,0,0:0:0:0:
256,192,102595,1,0,0:0:0:0:
182,192,102636,1,0,0:0:0:0:
475,192,102678,1,0,0:0:0:0:
402,192,102720,1,0,0:0:0:0:
329,192,102761,1,0,0:0:0:50:kick.wav
36,192,102803,1,0,0:0:0:0:
109,192,102845,1,0,0:0:0:0:
182,192,102886,1,0,0:0:0:0:
256,192,102928,1,0,0:0:0:0:
329,192,102970,1,0,0:0:0:0:
402,192,103011,1,0,0:0:0:0:
475,192,103053,1,0,0:0:0:0:
182,192,103095,1,0,0:0:0:70:clap.wav
109,192,103136,1,0,0:0:0:0:
36,192,103178,1,0,0:0:0:0:
329,192,103220,1,0,0:0:0:0:
256,192,103261,1,0,0:0:0:0:
182,192,103303,1,0,0:0:0:0:
475,192,103345,1,0,0:0:0:0:
402,192,103386,1,0,0:0:0:0:
329,192,103428,1,0,0:0:0:50:kick.wav
36,192,103470,1,0,0:0:0:0:
109,192,103511,1,0,0:0:0:0:
182,192,103553,1,0,0:0:0:0:
256,192,103595,1,0,0:0:0:0:
329,192,103636,1,0,0:0:0:0:
402,192,103678,1,0,0:0:0:0:
475,192,103720,1,0,0:0:0:0:
182,192,103761,1,0,0:0:0:50:kick.wav
109,192,103803,1,0,0:0:0:0:
36,192,103845,1,0,0:0:0:0:
329,192,103886,1,0,0:0:0:0:
256,192,103928,1,0,0:0:0:0:
182,192,103970,1,0,0:0:0:0:
475,192,104011,1,0,0:0:0:0:
402,192,104053,1,0,0:0:0:0:
329,192,104095,1,0,0:0:0:50:kick.wav
36,192,104136,1,0,0:0:0:0:
109,192,104178,1,0,0:0:0:0:
182,192,104220,1,0,0:0:0:0:
256,192,104261,1,0,0:0:0:0:
329,192,104303,1,0,0:0:0:0:
402,192,104345,1,0,0:0:0:0:
475,192,104386,1,0,0:0:0:0:
256,192,104761,128,0,104928:0:0:0:50:kick.wav
36,192,105095,1,0,0:0:0:70:crash.wav
182,192,105095,1,0,0:0:0:50:kick.wav
329,192,105095,1,0,0:0:0:100:vocal_sabi_x1 - Marker #4.wav
475,192,105095,1,0,0:0:0:0:
402,192,105178,1,0,0:0:0:0:
109,192,105261,1,0,0:0:0:0:
182,192,105345,1,0,0:0:0:0:
256,192,105428,1,0,0:0:0:30:hihat.wav
402,192,105428,1,0,0:0:0:0:
36,192,105428,1,0,0:0:0:0:
329,192,105511,1,0,0:0:0:0:
182,192,105595,1,0,0:0:0:0:
256,192,105678,1,0,0:0:0:0:
329,192,105761,1,0,0:0:0:50:snap.wav
475,192,105761,1,0,0:0:0:50:kick.wav
109,192,105761,1,0,0:0:0:0:
402,192,105761,1,0,0:0:0:0:
36,192,105845,1,0,0:0:0:0:
256,192,105928,1,0,0:0:0:0:
329,192,106011,1,0,0:0:0:0:
182,192,106095,1,0,0:0:0:30:hihat.wav
475,192,106095,1,0,0:0:0:100:vocal_sabi_x1 - Marker #5.wav
402,192,106095,1,0,0:0:0:0:
109,192,106178,1,0,0:0:0:0:
329,192,106261,1,0,0:0:0:100:vocal_sabi_x1 - Marker #6.wav
402,192,106345,1,0,0:0:0:0:
475,192,106428,1,0,0:0:0:50:kick.wav
256,192,106428,1,0,0:0:0:100:vocal_sabi_x1 - Marker #7.wav
109,192,106428,1,0,0:0:0:0:
182,192,106511,1,0,0:0:0:0:
36,192,106595,1,0,0:0:0:0:
109,192,106678,1,0,0:0:0:0:
329,192,106761,1,0,0:0:0:30:hihat.wav
182,192,106761,1,0,0:0:0:100:vocal_sabi_x1 - Marker #8.wav
475,192,106761,1,0,0:0:0:0:
256,192,106845,1,0,0:0:0:0:
109,192,106928,1,0,0:0:0:100:vocal_sabi_x1 - Marker #9.wav
182,192,107011,1,0,0:0:0:0:
402,192,107095,1,0,0:0:0:50:snap.wav
256,192,107095,1,0,0:0:0:50:kick.wav
475,192,107095,1,0,0:0:0:0:
36,192,107095,1,0,0:0:0:0:
329,192,107178,1,0,0:0:0:0:
182,192,107261,1,0,0:0:0:100:vocal_sabi_x1 - Marker #10.wav
109,192,107345,1,0,0:0:0:0:
475,192,107428,1,0,0:0:0:30:hihat.wav
36,192,107428,1,0,0:0:0:0:
256,192,107428,1,0,0:0:0:0:
402,192,107511,1,0,0:0:0:0:
329,192,107595,1,0,0:0:0:100:vocal_sabi_x1 - Marker #11.wav
402,192,107678,1,0,0:0:0:0:
475,192,107761,1,0,0:0:0:50:kick.wav
182,192,107761,1,0,0:0:0:0:
36,192,107761,1,0,0:0:0:0:
109,192,107845,1,0,0:0:0:0:
256,192,107928,1,0,0:0:0:0:
402,192,108011,1,0,0:0:0:0:
329,192,108095,1,0,0:0:0:30:hihat.wav
475,192,108095,1,0,0:0:0:0:
36,192,108095,1,0,0:0:0:0:
109,192,108178,1,0,0:0:0:0:
182,192,108261,1,0,0:0:0:0:
256,192,108345,1,0,0:0:0:0:
109,192,108428,1,0,0:0:0:50:snap.wav
36,192,108428,1,0,0:0:0:50:kick.wav
402,192,108428,1,0,0:0:0:0:
475,192,108428,1,0,0:0:0:0:
182,192,108511,1,0,0:0:0:0:
256,192,108595,1,0,0:0:0:100:vocal_sabi_x1 - Marker #12.wav
329,192,108678,1,0,0:0:0:0:
182,192,108761,1,0,0:0:0:30:hihat.wav
475,192,108761,1,0,0:0:0:100:vocal_sabi_x1 - Marker #13.wav
402,192,108761,1,0,0:0:0:0:
109,192,108845,1,0,0:0:0:0:
36,192,108928,1,0,0:0:0:100:vocal_sabi_x1 - Marker #14.wav
329,192,109011,1,0,0:0:0:0:
256,192,109095,1,0,0:0:0:50:kick.wav
109,192,109095,1,0,0:0:0:100:vocal_sabi_x1 - Marker #15.wav
402,192,109095,1,0,0:0:0:0:
182,192,109178,1,0,0:0:0:0:
475,192,109261,1,0,0:0:0:0:
402,192,109345,1,0,0:0:0:0:
329,192,109428,1,0,0:0:0:30:hihat.wav
182,192,109428,1,0,0:0:0:100:vocal_sabi_x1 - Marker #16.wav
36,192,109428,1,0,0:0:0:0:
256,192,109511,1,0,0:0:0:0:
109,192,109595,1,0,0:0:0:100:vocal_sabi_x1 - Marker #17.wav
36,192,109678,1,0,0:0:0:0:
256,192,109761,1,0,0:0:0:50:snap.wav
402,192,109761,1,0,0:0:0:50:kick.wav
475,192,109761,1,0,0:0:0:0:
182,192,109761,1,0,0:0:0:0:
329,192,109845,1,0,0:0:0:0:
109,192,109928,1,0,0:0:0:100:vocal_sabi_x1 - Marker #18.wav
182,192,110011,1,0,0:0:0:0:
329,192,110095,1,0,0:0:0:30:hihat.wav
475,192,110095,1,0,0:0:0:100:vocal_sabi_x1 - Marker #19.wav
402,192,110178,1,0,0:0:0:0:
256,192,110261,1,0,0:0:0:100:vocal_sabi_x1 - Marker #20.wav
182,192,110345,1,0,0:0:0:0:
36,192,110428,1,0,0:0:0:50:kick.wav
329,192,110428,1,0,0:0:0:0:
475,192,110428,1,0,0:0:0:0:
109,192,110511,1,0,0:0:0:0:
182,192,110595,1,0,0:0:0:0:
256,192,110678,1,0,0:0:0:0:
109,192,110761,1,0,0:0:0:30:hihat.wav
36,192,110761,1,0,0:0:0:0:
402,192,110761,1,0,0:0:0:0:
329,192,110845,1,0,0:0:0:0:
256,192,110928,1,0,0:0:0:0:
109,192,111011,1,0,0:0:0:0:
182,192,111095,1,0,0:0:0:50:snap.wav
475,192,111095,1,0,0:0:0:50:kick.wav
402,192,111095,1,0,0:0:0:100:vocal_sabi_x1 - Marker #21.wav
36,192,111095,1,0,0:0:0:0:
256,192,111178,1,0,0:0:0:0:
329,192,111261,1,0,0:0:0:0:
475,192,111345,1,0,0:0:0:0:
402,192,111428,1,0,0:0:0:30:hihat.wav
109,192,111428,1,0,0:0:0:100:vocal_sabi_x1 - Marker #22.wav
36,192,111428,1,0,0:0:0:0:
329,192,111511,1,0,0:0:0:0:
182,192,111595,1,0,0:0:0:100:vocal_sabi_x1 - Marker #23.wav
256,192,111678,1,0,0:0:0:0:
329,192,111761,1,0,0:0:0:50:kick.wav
475,192,111761,1,0,0:0:0:0:
109,192,111761,1,0,0:0:0:0:
402,192,111845,1,0,0:0:0:0:
182,192,111928,1,0,0:0:0:100:vocal_sabi_x1 - Marker #24.wav
109,192,112011,1,0,0:0:0:0:
36,192,112095,1,0,0:0:0:30:hihat.wav
402,192,112095,1,0,0:0:0:0:
475,192,112095,1,0,0:0:0:0:
256,192,112178,1,0,0:0:0:0:
329,192,112261,1,0,0:0:0:100:vocal_sabi_x1 - Marker #25.wav
402,192,112345,1,0,0:0:0:0:
475,192,112428,1,0,0:0:0:50:snap.wav
36,192,112428,1,0,0:0:0:50:kick.wav
109,192,112428,1,0,0:0:0:0:
256,192,112428,1,0,0:0:0:0:
182,192,112511,1,0,0:0:0:0:
329,192,112595,1,0,0:0:0:100:vocal_sabi_x1 - Marker #26.wav
402,192,112678,1,0,0:0:0:0:
475,192,112761,1,0,0:0:0:30:hihat.wav
182,192,112761,1,0,0:0:0:0:
36,192,112761,1,0,0:0:0:0:
109,192,112845,1,0,0:0:0:0:
256,192,112928,1,0,0:0:0:100:vocal_sabi_x1 - Marker #27.wav
329,192,113011,1,0,0:0:0:0:
36,192,113095,128,0,113178:0:0:0:50:kick.wav
402,192,113095,1,0,0:0:0:0:
109,192,113178,128,0,113261:0:0:0:0:
182,192,113261,128,0,113345:0:0:0:100:vocal_sabi_x1 - Marker #28.wav
475,192,113261,1,0,0:0:0:0:
256,192,113345,128,0,113428:0:0:0:0:
109,192,113428,128,0,113511:0:0:0:30:hihat.wav
402,192,113428,1,0,0:0:0:0:
182,192,113511,128,0,113595:0:0:0:0:
256,192,113595,128,0,113678:0:0:0:0:
475,192,113595,1,0,0:0:0:0:
329,192,113678,128,0,113761:0:0:0:0:
182,192,113761,128,0,113845:0:0:0:50:snap.wav
402,192,113761,1,0,0:0:0:50:kick.wav
36,192,113761,1,0,0:0:0:0:
256,192,113845,128,0,113928:0:0:0:0:
329,192,113928,128,0,114011:0:0:0:0:
109,192,113928,1,0,0:0:0:0:
402,192,114011,128,0,114095:0:0:0:0:
256,192,114095,128,0,114178:0:0:0:30:hihat.wav
182,192,114095,1,0,0:0:0:0:
329,192,114178,128,0,114261:0:0:0:0:
402,192,114261,128,0,114345:0:0:0:0:
109,192,114261,1,0,0:0:0:0:
475,192,114345,128,0,114428:0:0:0:0:
256,192,114428,128,0,114511:0:0:0:50:kick.wav
402,192,114428,1,0,0:0:0:0:
36,192,114428,1,0,0:0:0:0:
182,192,114511,128,0,114595:0:0:0:0:
109,192,114595,128,0,114678:0:0:0:0:
329,192,114595,1,0,0:0:0:0:
36,192,114678,128,0,114761:0:0:0:0:
329,192,114761,128,0,114845:0:0:0:30:hihat.wav
402,192,114761,1,0,0:0:0:0:
256,192,114845,128,0,114928:0:0:0:0:
182,192,114928,128,0,115011:0:0:0:0:
475,192,114928,1,0,0:0:0:0:
109,192,115011,128,0,115095:0:0:0:0:
402,192,115095,128,0,115178:0:0:0:50:snap.wav
36,192,115095,1,0,0:0:0:50:kick.wav
475,192,115095,1,0,0:0:0:0:
329,192,115178,128,0,115261:0:0:0:0:
256,192,115261,128,0,115345:0:0:0:0:
109,192,115261,1,0,0:0:0:0:
182,192,115345,128,0,115428:0:0:0:100:vocal_sabi_x1 - Marker #30.wav
475,192,115428,128,0,115511:0:0:0:30:hihat.wav
36,192,115428,1,0,0:0:0:50:kick.wav
402,192,115511,128,0,115595:0:0:0:0:
329,192,115595,128,0,115678:0:0:0:50:kick.wav
182,192,115595,1,0,0:0:0:100:vocal_sabi_x1 - Marker #31.wav
109,192,115595,1,0,0:0:0:0:
256,192,115678,128,0,115761:0:0:0:0:
36,192,115761,1,0,0:0:0:70:crash.wav
475,192,115761,1,0,0:0:0:100:vocal_sabi_x1 - Marker #32.wav
329,192,115928,1,0,0:0:0:0:
256,192,116011,1,0,0:0:0:0:
182,192,116095,1,0,0:0:0:50:kick.wav
36,192,116095,1,0,0:0:0:0:
475,192,116095,1,0,0:0:0:0:
256,192,116261,1,0,0:0:0:0:
109,192,116261,1,0,0:0:0:0:
329,192,116345,1,0,0:0:0:0:
182,192,116428,1,0,0:0:0:70:backsnare.wav
36,192,116428,1,0,0:0:0:0:
475,192,116428,1,0,0:0:0:0:
402,192,116428,1,0,0:0:0:0:
182,192,116595,1,0,0:0:0:0:
109,192,116678,1,0,0:0:0:100:vocal_sabi_x1 - Marker #33.wav
36,192,116761,1,0,0:0:0:50:kick.wav
256,192,116761,1,0,0:0:0:0:
402,192,116761,1,0,0:0:0:0:
329,192,116928,1,0,0:0:0:50:kick.wav
475,192,116928,1,0,0:0:0:100:vocal_sabi_x1 - Marker #34.wav
109,192,117095,1,0,0:0:0:100:vocal_sabi_x1 - Marker #35.wav
182,192,117261,1,0,0:0:0:50:kick.wav
329,192,117261,1,0,0:0:0:0:
109,192,117345,1,0,0:0:0:0:
256,192,117428,1,0,0:0:0:50:kick.wav
36,192,117428,1,0,0:0:0:100:vocal_sabi_x1 - Marker #36.wav
402,192,117428,1,0,0:0:0:0:
256,192,117595,1,0,0:0:0:100:vocal_sabi_x1 - Marker #37.wav
329,192,117678,1,0,0:0:0:0:
402,192,117761,1,0,0:0:0:70:backsnare.wav
475,192,117761,1,0,0:0:0:0:
182,192,117761,1,0,0:0:0:0:
36,192,117761,1,0,0:0:0:0:
182,192,117928,1,0,0:0:0:100:vocal_sabi_x1 - Marker #38.wav
256,192,118011,1,0,0:0:0:0:
329,192,118095,1,0,0:0:0:50:kick.wav
475,192,118095,1,0,0:0:0:0:
109,192,118095,1,0,0:0:0:0:
109,192,118261,1,0,0:0:0:50:kick.wav
402,192,118261,1,0,0:0:0:100:vocal_sabi_x1 - Marker #39.wav
36,192,118261,1,0,0:0:0:0:
182,192,118345,1,0,0:0:0:0:
256,192,118428,1,0,0:0:0:50:kick.wav
402,192,118428,1,0,0:0:0:0:
475,192,118428,1,0,0:0:0:0:
36,192,118595,1,0,0:0:0:0:
109,192,118678,1,0,0:0:0:0:
182,192,118761,1,0,0:0:0:50:kick.wav
329,192,118761,1,0,0:0:0:0:
402,192,118761,1,0,0:0:0:0:
182,192,118928,1,0,0:0:0:0:
475,192,118928,1,0,0:0:0:0:
402,192,119011,1,0,0:0:0:0:
109,192,119095,1,0,0:0:0:70:backsnare.wav
256,192,119095,1,0,0:0:0:0:
329,192,119095,1,0,0:0:0:0:
36,192,119095,1,0,0:0:0:0:
109,192,119261,1,0,0:0:0:50:kick.wav
475,192,119261,1,0,0:0:0:100:vocal_sabi_x1 - Marker #40.wav
182,192,119345,1,0,0:0:0:0:
256,192,119428,1,0,0:0:0:100:vocal_sabi_x1 - Marker #41.wav
329,192,119595,1,0,0:0:0:50:kick.wav
36,192,119595,1,0,0:0:0:100:vocal_sabi_x1 - Marker #42.wav
256,192,119678,1,0,0:0:0:0:
182,192,119761,1,0,0:0:0:100:vocal_sabi_x1 - Marker #43.wav
475,192,119761,1,0,0:0:0:0:
329,192,119845,1,0,0:0:0:0:
402,192,119928,5,0,0:0:0:50:kick.wav
36,192,119928,1,0,0:0:0:0:
475,192,120011,1,0,0:0:0:0:
182,192,120095,1,0,0:0:0:50:kick.wav
109,192,120095,1,0,0:0:0:100:vocal_sabi_x1 - Marker #44.wav
329,192,120178,1,0,0:0:0:0:
402,192,120261,1,0,0:0:0:100:vocal_sabi_x1 - Marker #45.wav
36,192,120261,1,0,0:0:0:0:
475,192,120345,1,0,0:0:0:0:
182,192,120428,1,0,0:0:0:70:backsnare.wav
256,192,120428,1,0,0:0:0:0:
329,192,120428,1,0,0:0:0:0:
36,192,120428,1,0,0:0:0:0:
402,192,120595,1,0,0:0:0:50:kick.wav
182,192,120595,1,0,0:0:0:100:vocal_sabi_x1 - Marker #46.wav
329,192,120678,1,0,0:0:0:50:kick.wav
109,192,120678,1,0,0:0:0:0:
256,192,120761,1,0,0:0:0:50:kick.wav
36,192,120761,1,0,0:0:0:100:vocal_sabi_x1 - Marker #47.wav
256,192,120928,1,0,0:0:0:50:kick.wav
475,192,120928,1,0,0:0:0:100:vocal_sabi_x1 - Marker #48.wav
36,192,121095,1,0,0:0:0:0:
475,192,121095,1,0,0:0:0:0:
182,192,121095,128,0,121428:0:0:0:0:
329,192,121095,128,0,121428:0:0:0:50:kick.wav
182,192,121761,128,0,122261:0:0:0:0:
402,192,121761,128,0,121928:0:0:0:0:
256,192,122095,128,0,122261:0:0:0:0:
109,192,122428,128,0,122928:0:0:0:0:
402,192,122428,128,0,122595:0:0:0:0:
256,192,122761,128,0,122928:0:0:0:0:
475,192,122761,128,0,122928:0:0:0:0:
402,192,122928,128,0,123095:0:0:0:0:
36,192,123095,128,0,123595:0:0:0:0:
329,192,123095,128,0,123261:0:0:0:0:
36,192,123761,1,0,0:0:0:0:
182,192,123761,1,0,0:0:0:0:
329,192,123761,1,0,0:0:0:0:
475,192,123761,1,0,0:0:0:0:
329,192,124428,128,0,124928:0:0:0:0:
109,192,124428,128,0,124595:0:0:0:0:
256,192,124761,128,0,124928:0:0:0:0:
402,192,125095,128,0,125595:0:0:0:0:
109,192,125095,128,0,125261:0:0:0:0:
256,192,125428,128,0,125595:0:0:0:0:
36,192,125428,128,0,125595:0:0:0:0:
109,192,125595,128,0,125761:0:0:0:0:
475,192,125761,128,0,126261:0:0:0:0:
182,192,125761,128,0,125928:0:0:0:0:
329,192,125761,128,0,126261:0:0:0:0:
329,192,126428,5,0,0:0:0:40:crash.wav
36,192,126428,1,0,0:0:0:0:
475,192,126428,1,0,0:0:0:0:
182,192,126428,1,0,0:0:0:0:
36,192,127095,1,0,0:0:0:0:
36,192,127761,1,0,0:0:0:0:
36,192,128428,1,0,0:0:0:0:
36,192,129095,1,0,0:0:0:0:
475,192,129095,128,0,131428:0:0:0:0:
36,192,129761,1,0,0:0:0:0:
329,192,130428,128,0,131428:0:0:0:0:
36,192,130428,1,0,0:0:0:0:
36,192,131095,1,0,0:0:0:0:
109,192,131761,128,0,133595:0:0:0:100:beam1.wav
182,192,131761,128,0,133595:0:0:0:50:kick.wav
256,192,131761,128,0,133595:0:0:0:0:
329,192,131761,128,0,133595:0:0:0:0:
402,192,131761,128,0,133595:0:0:0:0:
402,192,133761,1,0,0:0:0:50:fillsnare.wav
256,192,133761,1,0,0:0:0:0:
109,192,133761,1,0,0:0:0:0:
182,192,134428,1,0,0:0:0:70:crash.wav
36,192,134428,1,0,0:0:0:50:kick.wav
329,192,134428,1,0,0:0:0:0:
475,192,134428,1,0,0:0:0:0:
182,192,134595,1,0,0:0:0:0:
109,192,134761,1,0,0:0:0:30:hihat.wav
256,192,134761,1,0,0:0:0:0:
402,192,134761,1,0,0:0:0:0:
329,192,134928,1,0,0:0:0:0:
329,192,135095,1,0,0:0:0:50:snap.wav
475,192,135095,1,0,0:0:0:50:kick.wav
182,192,135095,1,0,0:0:0:0:
36,192,135095,1,0,0:0:0:0:
109,192,135261,1,0,0:0:0:0:
109,192,135428,1,0,0:0:0:30:hihat.wav
256,192,135428,1,0,0:0:0:0:
402,192,135428,1,0,0:0:0:0:
109,192,135595,1,0,0:0:0:0:
329,192,135761,1,0,0:0:0:50:kick.wav
475,192,135761,1,0,0:0:0:0:
402,192,135761,1,0,0:0:0:0:
36,192,135928,1,0,0:0:0:0:
109,192,136095,1,0,0:0:0:30:hihat.wav
256,192,136095,1,0,0:0:0:0:
402,192,136095,1,0,0:0:0:0:
329,192,136261,128,0,136595:0:0:0:0:
182,192,136261,1,0,0:0:0:0:
36,192,136428,1,0,0:0:0:50:snap.wav
475,192,136428,1,0,0:0:0:50:kick.wav
402,192,136428,1,0,0:0:0:0:
256,192,136595,1,0,0:0:0:0:
109,192,136761,1,0,0:0:0:30:hihat.wav
329,192,136761,1,0,0:0:0:0:
475,192,136761,1,0,0:0:0:0:
402,192,136928,128,0,137011:0:0:0:0:
329,192,137011,128,0,137095:0:0:0:0:
256,192,137095,128,0,138761:0:0:0:50:kick.wav
182,192,137095,1,0,0:0:0:0:
475,192,137095,1,0,0:0:0:0:
36,192,137261,1,0,0:0:0:0:
109,192,137428,1,0,0:0:0:30:hihat.wav
182,192,137428,1,0,0:0:0:0:
329,192,137428,1,0,0:0:0:0:
36,192,137595,1,0,0:0:0:0:
182,192,137761,1,0,0:0:0:50:snap.wav
402,192,137761,1,0,0:0:0:50:kick.wav
475,192,137761,1,0,0:0:0:0:
36,192,137928,1,0,0:0:0:0:
109,192,138095,1,0,0:0:0:30:hihat.wav
182,192,138095,1,0,0:0:0:0:
329,192,138095,1,0,0:0:0:0:
36,192,138261,1,0,0:0:0:0:
475,192,138428,1,0,0:0:0:50:kick.wav
182,192,138428,1,0,0:0:0:0:
36,192,138595,1,0,0:0:0:0:
475,192,138761,128,0,138845:0:0:0:30:hihat.wav
109,192,138761,1,0,0:0:0:0:
182,192,138761,1,0,0:0:0:0:
402,192,138845,128,0,138928:0:0:0:0:
329,192,138928,128,0,139011:0:0:0:0:
36,192,138928,1,0,0:0:0:0:
256,192,139011,128,0,139095:0:0:0:0:
402,192,139095,128,0,139178:0:0:0:50:snap.wav
475,192,139095,1,0,0:0:0:50:kick.wav
182,192,139095,1,0,0:0:0:0:
329,192,139178,128,0,139261:0:0:0:0:
256,192,139261,128,0,139345:0:0:0:0:
182,192,139345,128,0,139428:0:0:0:0:
109,192,139428,128,0,139761:0:0:0:30:hihat.wav
36,192,139428,128,0,139761:0:0:0:0:
329,192,139428,1,0,0:0:0:0:
475,192,139428,1,0,0:0:0:0:
402,192,139595,1,0,0:0:0:0:
402,192,139761,128,0,140095:0:0:0:50:kick.wav
475,192,139761,128,0,140095:0:0:0:0:
256,192,139761,1,0,0:0:0:0:
36,192,139928,1,0,0:0:0:0:
109,192,140095,1,0,0:0:0:30:hihat.wav
182,192,140095,128,0,140178:0:0:0:0:
256,192,140178,128,0,140261:0:0:0:0:
329,192,140261,128,0,140345:0:0:0:0:
36,192,140261,1,0,0:0:0:0:
402,192,140345,128,0,140428:0:0:0:0:
182,192,140428,128,0,140511:0:0:0:50:snap.wav
475,192,140428,1,0,0:0:0:50:kick.wav
256,192,140428,1,0,0:0:0:0:
109,192,140511,128,0,140595:0:0:0:0:
36,192,140595,128,0,140678:0:0:0:0:
402,192,140595,1,0,0:0:0:0:
256,192,140678,128,0,140761:0:0:0:0:
329,192,140761,128,0,140845:0:0:0:30:hihat.wav
182,192,140761,1,0,0:0:0:0:
402,192,140845,128,0,140928:0:0:0:0:
475,192,140928,128,0,141011:0:0:0:0:
109,192,140928,1,0,0:0:0:0:
256,192,141011,128,0,141095:0:0:0:0:
182,192,141095,128,0,141178:0:0:0:50:kick.wav
36,192,141095,1,0,0:0:0:0:
475,192,141095,1,0,0:0:0:0:
109,192,141178,128,0,141261:0:0:0:0:
402,192,141261,128,0,141345:0:0:0:0:
256,192,141261,1,0,0:0:0:0:
329,192,141345,128,0,141428:0:0:0:0:
256,192,141428,128,0,141511:0:0:0:30:hihat.wav
475,192,141428,1,0,0:0:0:0:
36,192,141511,128,0,141595:0:0:0:0:
109,192,141595,128,0,141678:0:0:0:0:
402,192,141595,1,0,0:0:0:0:
182,192,141678,128,0,141761:0:0:0:0:
256,192,141761,128,0,141845:0:0:0:50:snap.wav
329,192,141761,1,0,0:0:0:50:kick.wav
36,192,141761,1,0,0:0:0:0:
475,192,141845,128,0,141928:0:0:0:0:
402,192,141928,128,0,142011:0:0:0:0:
109,192,141928,1,0,0:0:0:0:
329,192,142011,128,0,142095:0:0:0:0:
182,192,142095,128,0,142345:0:0:0:30:hihat.wav
36,192,142095,128,0,142345:0:0:0:0:
182,192,142428,1,0,0:0:0:50:kick.wav
36,192,142428,1,0,0:0:0:0:
475,192,142428,1,0,0:0:0:0:
329,192,142428,1,0,0:0:0:0:
109,192,142595,1,0,0:0:0:0:
402,192,142761,128,0,142845:0:0:0:30:hihat.wav
36,192,142761,1,0,0:0:0:0:
182,192,142761,1,0,0:0:0:0:
329,192,142845,128,0,142928:0:0:0:0:
256,192,142928,128,0,143011:0:0:0:0:
475,192,142928,1,0,0:0:0:0:
36,192,143011,128,0,143095:0:0:0:0:
109,192,143095,128,0,143178:0:0:0:50:snap.wav
402,192,143095,1,0,0:0:0:50:kick.wav
256,192,143095,1,0,0:0:0:0:
182,192,143178,128,0,143261:0:0:0:0:
475,192,143261,128,0,143345:0:0:0:0:
329,192,143261,1,0,0:0:0:0:
402,192,143345,128,0,143428:0:0:0:0:
329,192,143428,128,0,143511:0:0:0:30:hihat.wav
36,192,143428,1,0,0:0:0:0:
182,192,143428,1,0,0:0:0:0:
109,192,143511,128,0,143595:0:0:0:0:
182,192,143595,128,0,143678:0:0:0:0:
329,192,143595,1,0,0:0:0:0:
256,192,143678,128,0,143761:0:0:0:0:
402,192,143761,1,0,0:0:0:50:kick.wav
475,192,143761,1,0,0:0:0:0:
36,192,143761,1,0,0:0:0:0:
329,192,143928,1,0,0:0:0:0:
109,192,143928,1,0,0:0:0:0:
402,192,144011,1,0,0:0:0:0:
182,192,144095,1,0,0:0:0:30:hihat.wav
36,192,144095,1,0,0:0:0:0:
475,192,144095,1,0,0:0:0:0:
256,192,144178,1,0,0:0:0:0:
329,192,144261,1,0,0:0:0:0:
36,192,144261,1,0,0:0:0:0:
109,192,144345,1,0,0:0:0:0:
182,192,144428,1,0,0:0:0:50:snap.wav
475,192,144428,1,0,0:0:0:50:kick.wav
109,192,144511,1,0,0:0:0:0:
402,192,144511,1,0,0:0:0:0:
36,192,144595,1,0,0:0:0:0:
329,192,144595,1,0,0:0:0:0:
182,192,144678,1,0,0:0:0:0:
475,192,144678,1,0,0:0:0:0:
256,192,144761,1,0,0:0:0:30:hihat.wav
402,192,144761,1,0,0:0:0:50:kick.wav
329,192,144845,1,0,0:0:0:0:
36,192,144845,1,0,0:0:0:0:
475,192,144928,1,0,0:0:0:0:
182,192,144928,1,0,0:0:0:0:
402,192,145011,1,0,0:0:0:0:
109,192,145011,1,0,0:0:0:0:
36,192,145095,1,0,0:0:0:70:crash.wav
329,192,145095,1,0,0:0:0:50:kick.wav
256,192,145261,1,0,0:0:0:0:
109,192,145261,1,0,0:0:0:0:
182,192,145345,1,0,0:0:0:0:
475,192,145428,1,0,0:0:0:30:hihat.wav
329,192,145428,1,0,0:0:0:0:
402,192,145511,1,0,0:0:0:0:
36,192,145595,1,0,0:0:0:0:
182,192,145595,1,0,0:0:0:0:
109,192,145678,1,0,0:0:0:0:
256,192,145761,1,0,0:0:0:50:snap.wav
475,192,145761,1,0,0:0:0:50:kick.wav
402,192,145761,1,0,0:0:0:0:
329,192,145845,1,0,0:0:0:0:
182,192,145928,1,0,0:0:0:0:
36,192,145928,1,0,0:0:0:0:
475,192,146011,1,0,0:0:0:0:
109,192,146095,1,0,0:0:0:30:hihat.wav
329,192,146095,1,0,0:0:0:0:
182,192,146178,1,0,0:0:0:0:
256,192,146261,1,0,0:0:0:0:
402,192,146261,1,0,0:0:0:0:
182,192,146428,1,0,0:0:0:50:kick.wav
475,192,146428,1,0,0:0:0:0:
329,192,146428,1,0,0:0:0:0:
109,192,146511,1,0,0:0:0:0:
36,192,146595,1,0,0:0:0:0:
329,192,146595,1,0,0:0:0:0:
182,192,146678,1,0,0:0:0:0:
256,192,146761,1,0,0:0:0:30:hihat.wav
109,192,146761,1,0,0:0:0:0:
402,192,146761,1,0,0:0:0:0:
329,192,146845,1,0,0:0:0:0:
475,192,146928,1,0,0:0:0:0:
109,192,146928,1,0,0:0:0:0:
402,192,147011,1,0,0:0:0:0:
329,192,147095,1,0,0:0:0:50:snap.wav
182,192,147095,1,0,0:0:0:50:kick.wav
36,192,147095,1,0,0:0:0:0:
36,192,147261,128,0,147595:0:0:0:0:
182,192,147261,128,0,147595:0:0:0:0:
329,192,147261,1,0,0:0:0:0:
256,192,147428,1,0,0:0:0:30:hihat.wav
402,192,147428,1,0,0:0:0:0:
402,192,147595,1,0,0:0:0:0:
475,192,147761,1,0,0:0:0:50:kick.wav
329,192,147761,1,0,0:0:0:0:
182,192,147761,1,0,0:0:0:0:
36,192,147761,1,0,0:0:0:0:
256,192,147928,1,0,0:0:0:0:
109,192,147928,1,0,0:0:0:0:
182,192,148011,1,0,0:0:0:0:
329,192,148095,1,0,0:0:0:30:hihat.wav
475,192,148095,1,0,0:0:0:0:
402,192,148178,1,0,0:0:0:0:
182,192,148261,1,0,0:0:0:0:
36,192,148261,1,0,0:0:0:0:
109,192,148345,1,0,0:0:0:0:
256,192,148428,1,0,0:0:0:50:snap.wav
402,192,148428,1,0,0:0:0:50:kick.wav
475,192,148428,1,0,0:0:0:0:
329,192,148511,1,0,0:0:0:0:
182,192,148595,1,0,0:0:0:0:
475,192,148595,1,0,0:0:0:0:
109,192,148678,1,0,0:0:0:0:
36,192,148761,1,0,0:0:0:30:hihat.wav
256,192,148761,1,0,0:0:0:0:
329,192,148845,1,0,0:0:0:0:
402,192,148928,1,0,0:0:0:0:
475,192,149095,1,0,0:0:0:50:kick.wav
256,192,149095,1,0,0:0:0:0:
36,192,149095,1,0,0:0:0:0:
402,192,149095,1,0,0:0:0:0:
182,192,149178,1,0,0:0:0:0:
109,192,149261,1,0,0:0:0:0:
256,192,149345,1,0,0:0:0:0:
329,192,149428,1,0,0:0:0:30:hihat.wav
475,192,149428,1,0,0:0:0:0:
109,192,149428,1,0,0:0:0:0:
402,192,149511,1,0,0:0:0:0:
256,192,149595,1,0,0:0:0:0:
182,192,149678,1,0,0:0:0:0:
109,192,149761,1,0,0:0:0:50:snap.wav
36,192,149761,1,0,0:0:0:50:kick.wav
329,192,149761,1,0,0:0:0:0:
402,192,149845,1,0,0:0:0:0:
182,192,149845,1,0,0:0:0:0:
475,192,149928,128,0,150261:0:0:0:0:
256,192,149928,1,0,0:0:0:0:
109,192,150011,1,0,0:0:0:0:
36,192,150095,1,0,0:0:0:30:hihat.wav
329,192,150095,128,0,150261:0:0:0:0:
182,192,150178,1,0,0:0:0:0:
109,192,150261,1,0,0:0:0:0:
256,192,150345,1,0,0:0:0:0:
475,192,150428,1,0,0:0:0:50:kick.wav
182,192,150428,128,0,150595:0:0:0:0:
36,192,150428,128,0,150595:0:0:0:0:
329,192,150428,1,0,0:0:0:0:
329,192,150595,1,0,0:0:0:0:
256,192,150761,1,0,0:0:0:30:hihat.wav
402,192,150761,1,0,0:0:0:0:
109,192,150761,1,0,0:0:0:0:
182,192,150928,1,0,0:0:0:0:
329,192,150983,1,0,0:0:0:0:
475,192,151039,1,0,0:0:0:0:
109,192,151095,128,0,151261:0:0:0:50:snap.wav
256,192,151095,128,0,151261:0:0:0:50:kick.wav
36,192,151095,1,0,0:0:0:0:
402,192,151261,1,0,0:0:0:0:
182,192,151428,1,0,0:0:0:30:hihat.wav
329,192,151428,1,0,0:0:0:0:
36,192,151428,1,0,0:0:0:0:
109,192,151595,1,0,0:0:0:0:
256,192,151650,1,0,0:0:0:0:
402,192,151706,1,0,0:0:0:0:
182,192,151761,128,0,151928:0:0:0:50:kick.wav
329,192,151761,128,0,151928:0:0:0:0:
36,192,151761,1,0,0:0:0:0:
475,192,151928,1,0,0:0:0:0:
109,192,152095,1,0,0:0:0:30:hihat.wav
256,192,152095,1,0,0:0:0:0:
402,192,152095,1,0,0:0:0:0:
36,192,152261,1,0,0:0:0:0:
182,192,152317,1,0,0:0:0:0:
329,192,152372,1,0,0:0:0:0:
402,192,152428,128,0,152595:0:0:0:50:snap.wav
256,192,152428,128,0,152595:0:0:0:50:kick.wav
109,192,152595,1,0,0:0:0:0:
36,192,152761,1,0,0:0:0:30:hihat.wav
182,192,152761,1,0,0:0:0:50:kick.wav
329,192,152761,1,0,0:0:0:0:
402,192,152845,1,0,0:0:0:0:
475,192,152928,1,0,0:0:0:0:
256,192,152928,1,0,0:0:0:0:
36,192,152928,1,0,0:0:0:0:
109,192,153011,1,0,0:0:0:0:
182,192,153095,1,0,0:0:0:50:kick.wav
329,192,153095,1,0,0:0:0:0:
475,192,153095,1,0,0:0:0:0:
109,192,153178,1,0,0:0:0:0:
36,192,153261,1,0,0:0:0:0:
475,192,153261,1,0,0:0:0:0:
329,192,153345,1,0,0:0:0:0:
256,192,153428,1,0,0:0:0:50:kick.wav
402,192,153428,1,0,0:0:0:0:
109,192,153428,1,0,0:0:0:0:
182,192,153511,1,0,0:0:0:0:
475,192,153595,1,0,0:0:0:0:
36,192,153595,1,0,0:0:0:0:
402,192,153678,1,0,0:0:0:0:
329,192,153761,1,0,0:0:0:50:kick.wav
36,192,153761,1,0,0:0:0:50:snap.wav
182,192,153817,1,0,0:0:0:0:
402,192,153872,1,0,0:0:0:0:
256,192,153928,1,0,0:0:0:0:
109,192,153928,1,0,0:0:0:0:
475,192,153983,1,0,0:0:0:0:
36,192,154039,1,0,0:0:0:0:
329,192,154095,1,0,0:0:0:50:kick.wav
182,192,154095,1,0,0:0:0:0:
256,192,154178,1,0,0:0:0:0:
36,192,154261,1,0,0:0:0:0:
475,192,154261,1,0,0:0:0:0:
256,192,154345,1,0,0:0:0:0:
109,192,154428,128,0,154511:0:0:0:50:kick.wav
475,192,154428,1,0,0:0:0:0:
329,192,154428,1,0,0:0:0:0:
182,192,154428,1,0,0:0:0:0:
36,192,154511,128,0,154595:0:0:0:0:
256,192,154595,128,0,154678:0:0:0:50:kick.wav
402,192,154595,1,0,0:0:0:0:
329,192,154678,128,0,154761:0:0:0:0:
182,192,154761,128,0,154845:0:0:0:50:kick.wav
475,192,154761,1,0,0:0:0:0:
36,192,154761,1,0,0:0:0:0:
109,192,154845,128,0,154928:0:0:0:0:
329,192,154928,128,0,155011:0:0:0:50:kick.wav
256,192,154928,1,0,0:0:0:0:
402,192,155011,128,0,155095:0:0:0:0:
256,192,155095,128,0,155178:0:0:0:50:kick.wav
36,192,155095,1,0,0:0:0:0:
475,192,155095,1,0,0:0:0:0:
182,192,155178,128,0,155261:0:0:0:0:
402,192,155261,128,0,155345:0:0:0:50:kick.wav
109,192,155261,1,0,0:0:0:0:
475,192,155345,128,0,155428:0:0:0:0:
329,192,155428,128,0,155511:0:0:0:50:kick.wav
36,192,155428,1,0,0:0:0:0:
182,192,155428,1,0,0:0:0:0:
256,192,155511,128,0,155595:0:0:0:0:
36,192,155595,128,0,155678:0:0:0:50:kick.wav
329,192,155595,1,0,0:0:0:0:
475,192,155595,1,0,0:0:0:0:
109,192,155678,128,0,155761:0:0:0:0:
182,192,155761,1,0,0:0:0:50:kick.wav
329,192,155761,1,0,0:0:0:0:
182,192,156095,128,0,158428:0:0:0:0:
329,192,156095,128,0,158428:0:0:0:0:
36,192,156428,1,0,0:0:0:0:
475,192,156428,1,0,0:0:0:0:
475,192,157095,1,0,0:0:0:0:
36,192,157095,1,0,0:0:0:0:
402,192,157428,1,0,0:0:0:0:
109,192,157428,1,0,0:0:0:0:
256,192,157595,1,0,0:0:0:0:
36,192,157761,1,0,0:0:0:0:
475,192,157761,1,0,0:0:0:0:
256,192,158428,1,0,0:0:0:0:
475,192,158428,1,0,0:0:0:0:
36,192,158428,128,0,158595:0:0:0:0:
36,192,158928,128,0,159095:0:0:0:0:
256,192,159095,1,0,0:0:0:0:
475,192,159095,1,0,0:0:0:0:
402,192,159761,128,0,159928:0:0:0:0:
109,192,159761,1,0,0:0:0:0:
256,192,159761,1,0,0:0:0:0:
109,192,160095,1,0,0:0:0:0:
402,192,160261,128,0,160428:0:0:0:0:
182,192,160261,1,0,0:0:0:0:
256,192,160428,1,0,0:0:0:0:
36,192,160428,1,0,0:0:0:0:
256,192,160761,128,0,160928:0:0:0:0:
402,192,160761,1,0,0:0:0:0:
109,192,161095,128,0,161261:0:0:0:0:
329,192,161095,1,0,0:0:0:0:
475,192,161095,1,0,0:0:0:0:
109,192,161595,128,0,161761:0:0:0:0:
329,192,161761,1,0,0:0:0:0:
475,192,161761,1,0,0:0:0:0:
182,192,162428,128,0,162595:0:0:0:0:
402,192,162428,1,0,0:0:0:0:
36,192,162428,1,0,0:0:0:0:
475,192,162761,1,0,0:0:0:0:
182,192,162928,128,0,163095:0:0:0:0:
402,192,162928,1,0,0:0:0:0:
329,192,163095,1,0,0:0:0:0:
36,192,163095,1,0,0:0:0:0:
109,192,163428,1,0,0:0:0:0:
329,192,163761,128,0,163928:0:0:0:0:
182,192,163761,1,0,0:0:0:0:
475,192,163761,1,0,0:0:0:0:
329,192,164095,128,0,164261:0:0:0:0:
256,192,164095,1,0,0:0:0:0:
475,192,164261,128,0,164428:0:0:0:0:
109,192,164261,1,0,0:0:0:0:
402,192,164595,128,0,164761:0:0:0:0:
182,192,164595,1,0,0:0:0:0:
256,192,164761,128,0,164928:0:0:0:0:
36,192,164761,1,0,0:0:0:0:
329,192,165095,128,0,165261:0:0:0:0:
109,192,165095,1,0,0:0:0:0:
329,192,165428,128,0,165595:0:0:0:0:
109,192,165428,1,0,0:0:0:0:
182,192,165595,1,0,0:0:0:0:
256,192,165761,1,0,0:0:0:0:
402,192,165761,1,0,0:0:0:0:
256,192,166095,1,0,0:0:0:0:
36,192,166428,128,0,166595:0:0:0:0:
475,192,166428,1,0,0:0:0:0:
182,192,166428,1,0,0:0:0:0:
329,192,166428,1,0,0:0:0:0:
36,192,166928,128,0,167095:0:0:0:0:
182,192,167095,1,0,0:0:0:0:
329,192,167095,1,0,0:0:0:0:
402,192,167761,128,0,167928:0:0:0:0:
182,192,167761,1,0,0:0:0:0:
329,192,167761,1,0,0:0:0:0:
182,192,168095,1,0,0:0:0:0:
402,192,168261,128,0,168428:0:0:0:0:
109,192,168261,1,0,0:0:0:0:
36,192,168428,1,0,0:0:0:0:
256,192,168428,1,0,0:0:0:0:
256,192,168761,128,0,168928:0:0:0:0:
402,192,168761,1,0,0:0:0:0:
109,192,169095,128,0,169261:0:0:0:0:
329,192,169095,1,0,0:0:0:0:
475,192,169095,1,0,0:0:0:0:
109,192,169595,128,0,169761:0:0:0:0:
329,192,169761,1,0,0:0:0:0:
475,192,169761,1,0,0:0:0:0:
182,192,170428,128,0,170595:0:0:0:0:
329,192,170428,1,0,0:0:0:0:
36,192,170428,1,0,0:0:0:0:
329,192,170761,1,0,0:0:0:0:
182,192,170928,128,0,171095:0:0:0:0:
402,192,170928,1,0,0:0:0:0:
475,192,171095,1,0,0:0:0:0:
36,192,171095,1,0,0:0:0:0:
329,192,171428,128,0,171595:0:0:0:0:
109,192,171428,1,0,0:0:0:0:
475,192,171761,128,0,171928:0:0:0:0:
182,192,171761,1,0,0:0:0:0:
329,192,171761,1,0,0:0:0:0:
475,192,172261,128,0,172428:0:0:0:0:
182,192,172428,1,0,0:0:0:0:
329,192,172428,1,0,0:0:0:0:
256,192,173095,128,0,173261:0:0:0:0:
329,192,173095,1,0,0:0:0:0:
36,192,173095,1,0,0:0:0:0:
475,192,173428,1,0,0:0:0:0:
256,192,173595,128,0,173761:0:0:0:0:
402,192,173595,1,0,0:0:0:0:
329,192,173761,1,0,0:0:0:0:
36,192,173761,1,0,0:0:0:0:
329,192,174095,1,0,0:0:0:0:
36,192,174428,128,0,174595:0:0:0:0:
256,192,174428,1,0,0:0:0:0:
402,192,174428,1,0,0:0:0:0:
36,192,174761,128,0,174928:0:0:0:0:
475,192,174761,1,0,0:0:0:0:
329,192,174928,128,0,175095:0:0:0:0:
182,192,174928,1,0,0:0:0:0:
182,192,175261,128,0,175428:0:0:0:0:
329,192,175261,1,0,0:0:0:0:
36,192,175428,1,0,0:0:0:0:
475,192,175428,128,0,175595:0:0:0:0:
256,192,175761,128,0,175928:0:0:0:0:
109,192,175761,1,0,0:0:0:0:
109,192,176095,128,0,176261:0:0:0:0:
475,192,176095,1,0,0:0:0:0:
402,192,176261,128,0,176428:0:0:0:0:
256,192,176261,1,0,0:0:0:0:
36,192,176428,1,0,0:0:0:0:
182,192,176761,128,0,177095:0:0:0:0:
329,192,176761,128,0,177095:0:0:0:0:
