osu file format v14

[General]
AudioFilename: Destr0yer.mp3
AudioLeadIn: 0
PreviewTime: 133374
Countdown: 1
SampleSet: Soft
StackLeniency: 0.7
Mode: 3
LetterboxInBreaks: 0
SpecialStyle: 0
WidescreenStoryboard: 0

[Editor]
Bookmarks: 10207,10707,36707,37374,48041,58707,64041,69374,79707,80041,81874,92707,93374,104041,114707,130374,130707,132707,133374,155041,175707,176041
DistanceSpacing: 0.5
BeatDivisor: 8
GridSize: 32
TimelineZoom: 1.5

[Metadata]
Title:Destr0yer
TitleUnicode:Destr0yer
Artist:Sakuzyo feat. Nikki Simmons
ArtistUnicode:削除 feat. Nikki Simmons
Creator:[JOS]losffa
Version:Destr0y
Source:BMS
Tags:G2R 2018 Climax、GO BACK 2 YOUR ROOTS CLIMAX、除草剤、人生、削除、Nikki Simmons、Destr0yer
BeatmapID:1837768
BeatmapSetID:878762

[Difficulty]
HPDrainRate:8
CircleSize:4
OverallDifficulty:8
ApproachRate:8
SliderMultiplier:1.4
SliderTickRate:1

[Events]
//Background and Video events
0,0,"destr0yer.jpg",0,0
Video,0,"_bga.mpg"
//Break Periods
//Storyboard Layer 0 (Background)
//Storyboard Layer 1 (Fail)
//Storyboard Layer 2 (Pass)
//Storyboard Layer 3 (Foreground)
//Storyboard Sound Samples

[TimingPoints]
41,666.666666666667,4,2,1,30,1,0
10374,6E+15,4,2,1,30,1,0
10707,666.666666666667,4,2,1,30,1,0
10707,666.666666666667,4,2,1,30,1,0
10707,60.0601,4,2,1,30,1,0
10709.3,65.016,4,2,1,30,1,0
10711.6,69.9203,4,2,1,30,1,0
10713.9,73.6655,4,2,1,30,1,0
10716.2,75.147,4,2,1,30,1,0
10718.5,73.8716,4,2,1,30,1,0
10720.7,70.2926,4,2,1,30,1,0
10723,65.4998,4,2,1,30,1,0
10725.3,60.6116,4,2,1,30,1,0
10727.6,56.4022,4,2,1,30,1,0
10729.9,53.2744,4,2,1,30,1,0
10732.2,51.3875,4,2,1,30,1,0
10734.5,50.7878,4,2,1,30,1,0
10736.8,51.4877,4,2,1,30,1,0
10739.1,53.4903,4,2,1,30,1,0
10741.4,56.766,4,2,1,30,1,0
10743.7,61.1733,4,2,1,30,1,0
10746,66.3225,4,2,1,30,1,0
10748.2,71.4336,4,2,1,30,1,0
10750.5,75.3473,4,2,1,30,1,0
10752.8,76.8979,4,2,1,30,1,0
10755.1,75.563,4,2,1,30,1,0
10757.4,71.8223,4,2,1,30,1,0
10759.7,66.8261,4,2,1,30,1,0
10762,61.7455,4,2,1,30,1,0
10764.3,57.3829,4,2,1,30,1,0
10766.6,54.1485,4,2,1,30,1,0
10768.9,52.2002,4,2,1,30,1,0
10771.2,51.5816,4,2,1,30,1,0
10773.4,52.3036,4,2,1,30,1,0
10775.7,54.3715,4,2,1,30,1,0
10778,57.7595,4,2,1,30,1,0
10780.3,62.3286,4,2,1,30,1,0
10782.6,67.6826,4,2,1,30,1,0
10784.9,73.014,4,2,1,30,1,0
10787.2,77.1077,4,2,1,30,1,0
10789.5,78.7324,4,2,1,30,1,0
10791.8,77.3336,4,2,1,30,1,0
10794.1,73.4201,4,2,1,30,1,0
10796.4,68.2072,4,2,1,30,1,0
10798.6,62.9228,4,2,1,30,1,0
10800.9,58.3983,4,2,1,30,1,0
10803.2,55.0517,4,2,1,30,1,0
10805.5,53.0391,4,2,1,30,1,0
10807.8,52.4006,4,2,1,30,1,0
10810.1,53.1459,4,2,1,30,1,0
10812.4,55.2822,4,2,1,30,1,0
10814.7,58.7884,4,2,1,30,1,0
10817,63.5284,4,2,1,30,1,0
10819.3,69.0997,4,2,1,30,1,0
10821.6,74.6658,4,2,1,30,1,0
10823.9,78.9523,4,2,1,30,1,0
10826.1,80.6565,4,2,1,30,1,0
10828.4,79.1891,4,2,1,30,1,0
10830.7,75.0905,4,2,1,30,1,0
10833,69.6466,4,2,1,30,1,0
10835.3,64.1457,4,2,1,30,1,0
10837.6,59.4502,4,2,1,30,1,0
10839.9,55.9856,4,2,1,30,1,0
10842.2,53.9054,4,2,1,30,1,0
10844.5,53.246,4,2,1,30,1,0
10846.8,54.0157,4,2,1,30,1,0
10849.1,56.224,4,2,1,30,1,0
10851.3,59.8546,4,2,1,30,1,0
10853.6,64.7752,4,2,1,30,1,0
10855.9,70.5774,4,2,1,30,1,0
10858.2,76.3942,4,2,1,30,1,0
10860.5,80.8873,4,2,1,30,1,0
10862.8,82.6771,4,2,1,30,1,0
10865.1,81.1359,4,2,1,30,1,0
10867.4,76.8388,4,2,1,30,1,0
10869.7,71.148,4,2,1,30,1,0
10872,65.4172,4,2,1,30,1,0
10874.3,60.5408,4,2,1,30,1,0
10876.6,56.9517,4,2,1,30,1,0
10878.8,54.8005,4,2,1,30,1,0
10881.1,54.1191,4,2,1,30,1,0
10883.4,54.9145,4,2,1,30,1,0
10885.7,57.1984,4,2,1,30,1,0
10888,60.9601,4,2,1,30,1,0
10890.3,66.072,4,2,1,30,1,0
10892.6,72.1197,4,2,1,30,1,0
10894.9,78.2044,4,2,1,30,1,0
10897.2,82.9196,4,2,1,30,1,0
10899.5,84.8015,4,2,1,30,1,0
10901.8,83.1808,4,2,1,30,1,0
10904,78.6704,4,2,1,30,1,0
10906.3,72.7156,4,2,1,30,1,0
10908.6,66.7401,4,2,1,30,1,0
10910.9,61.6721,4,2,1,30,1,0
10913.2,57.9517,4,2,1,30,1,0
10915.5,55.7258,4,2,1,30,1,0
10917.8,55.0214,4,2,1,30,1,0
10920.1,55.8437,4,2,1,30,1,0
10922.4,58.2072,4,2,1,30,1,0
10924.7,62.1073,4,2,1,30,1,0
10927,67.4218,4,2,1,30,1,0
10929.3,73.7309,4,2,1,30,1,0
10931.5,80.1025,4,2,1,30,1,0
10933.8,85.0566,4,2,1,30,1,0
10936.1,87.0379,4,2,1,30,1,0
10938.4,85.3315,4,2,1,30,1,0
10940.7,80.5915,4,2,1,30,1,0
10943,74.3538,4,2,1,30,1,0
10945.3,68.1176,4,2,1,30,1,0
10947.6,62.8465,4,2,1,30,1,0
10949.9,58.9875,4,2,1,30,1,0
10952.2,56.6829,4,2,1,30,1,0
10954.5,55.9542,4,2,1,30,1,0
10956.7,56.8049,4,2,1,30,1,0
10959,59.2523,4,2,1,30,1,0
10961.3,63.2985,4,2,1,30,1,0
10963.6,68.8279,4,2,1,30,1,0
10965.9,75.4157,4,2,1,30,1,0
10968.2,82.095,4,2,1,30,1,0
10970.5,87.3067,4,2,1,30,1,0
10972.8,89.3955,4,2,1,30,1,0
10975.1,87.5964,4,2,1,30,1,0
10977.4,82.6087,4,2,1,30,1,0
10979.7,76.0675,4,2,1,30,1,0
10982,69.5531,4,2,1,30,1,0
10984.2,64.0665,4,2,1,30,1,0
10986.5,60.061,4,2,1,30,1,0
10988.8,57.6734,4,2,1,30,1,0
10991.1,56.9192,4,2,1,30,1,0
10993.4,57.7997,4,2,1,30,1,0
10995.7,60.3355,4,2,1,30,1,0
10998,64.5363,4,2,1,30,1,0
11000.3,70.2938,4,2,1,30,1,0
11002.6,77.1793,4,2,1,30,1,0
11004.9,84.1892,4,2,1,30,1,0
11007.2,89.6791,4,2,1,30,1,0
11009.4,91.8843,4,2,1,30,1,0
11011.7,89.9847,4,2,1,30,1,0
11014,84.7296,4,2,1,30,1,0
11016.3,77.8621,4,2,1,30,1,0
11018.6,71.0505,4,2,1,30,1,0
11020.9,65.3348,4,2,1,30,1,0
11023.2,61.1743,4,2,1,30,1,0
11025.5,58.6992,4,2,1,30,1,0
11027.8,57.9181,4,2,1,30,1,0
11030.1,58.83,4,2,1,30,1,0
11032.4,61.4591,4,2,1,30,1,0
11034.6,65.8234,4,2,1,30,1,0
11036.9,71.8236,4,2,1,30,1,0
11039.2,79.0274,4,2,1,30,1,0
11041.5,86.393,4,2,1,30,1,0
11043.8,92.184,4,2,1,30,1,0
11046.1,94.5157,4,2,1,30,1,0
11048.4,92.507,4,2,1,30,1,0
11050.7,86.9621,4,2,1,30,1,0
11053,79.7435,4,2,1,30,1,0
11055.3,72.6137,4,2,1,30,1,0
11057.6,66.6543,4,2,1,30,1,0
11059.9,62.3296,4,2,1,30,1,0
11062.1,59.7621,4,2,1,30,1,0
11064.4,58.9527,4,2,1,30,1,0
11066.7,59.8977,4,2,1,30,1,0
11069,62.6253,4,2,1,30,1,0
11071.3,67.1629,4,2,1,30,1,0
11073.6,73.4214,4,2,1,30,1,0
11075.9,80.9662,4,2,1,30,1,0
11078.2,88.7153,4,2,1,30,1,0
11080.5,94.8328,4,2,1,30,1,0
11082.8,97.3023,4,2,1,30,1,0
11085.1,95.1747,4,2,1,30,1,0
11087.3,89.3156,4,2,1,30,1,0
11089.6,81.718,4,2,1,30,1,0
11091.9,74.2473,4,2,1,30,1,0
11094.2,68.0282,4,2,1,30,1,0
11096.5,63.5294,4,2,1,30,1,0
11098.8,60.8643,4,2,1,30,1,0
11101.1,60.0249,4,2,1,30,1,0
11103.4,61.0049,4,2,1,30,1,0
11105.7,63.8366,4,2,1,30,1,0
11108,68.5581,4,2,1,30,1,0
11110.3,75.092,4,2,1,30,1,0
11112.6,83.0025,4,2,1,30,1,0
11114.8,91.166,4,2,1,30,1,0
11117.1,97.6384,4,2,1,30,1,0
11119.4,100.258,4,2,1,30,1,0
11121.7,98.0008,4,2,1,30,1,0
11124,91.7999,4,2,1,30,1,0
11126.3,83.7927,4,2,1,30,1,0
11128.6,75.9561,4,2,1,30,1,0
11130.9,69.4599,4,2,1,30,1,0
11133.2,64.7763,4,2,1,30,1,0
11135.5,62.0078,4,2,1,30,1,0
11137.8,61.1368,4,2,1,30,1,0
11140,62.1538,4,2,1,30,1,0
11142.3,65.0957,4,2,1,30,1,0
11144.6,70.0125,4,2,1,30,1,0
11146.9,76.8403,4,2,1,30,1,0
11149.2,85.1438,4,2,1,30,1,0
11151.5,93.7558,4,2,1,30,1,0
11153.8,100.615,4,2,1,30,1,0
11156.1,103.399,4,2,1,30,1,0
11158.4,101,4,2,1,30,1,0
11160.7,94.4264,4,2,1,30,1,0
11163,85.9756,4,2,1,30,1,0
11165.3,77.7454,4,2,1,30,1,0
11167.5,70.9532,4,2,1,30,1,0
11169.8,66.0731,4,2,1,30,1,0
11172.1,63.1951,4,2,1,30,1,0
11174.4,62.2907,4,2,1,30,1,0
11176.7,63.3468,4,2,1,30,1,0
11179,66.4055,4,2,1,30,1,0
11181.3,71.5299,4,2,1,30,1,0
11183.6,78.672,4,2,1,30,1,0
11185.9,87.3986,4,2,1,30,1,0
11188.2,96.4971,4,2,1,30,1,0
11190.5,103.779,4,2,1,30,1,0
11192.7,106.744,4,2,1,30,1,0
11195,104.188,4,2,1,30,1,0
11197.3,97.2076,4,2,1,30,1,0
11199.6,88.2752,4,2,1,30,1,0
11201.9,79.621,4,2,1,30,1,0
11204.2,72.5122,4,2,1,30,1,0
11206.5,67.423,4,2,1,30,1,0
11208.8,64.4288,4,2,1,30,1,0
11211.1,63.489,4,2,1,30,1,0
11213.4,64.5864,4,2,1,30,1,0
11215.7,67.7691,4,2,1,30,1,0
11217.9,73.1146,4,2,1,30,1,0
11220.2,80.5932,4,2,1,30,1,0
11222.5,89.776,4,2,1,30,1,0
11224.8,99.4035,4,2,1,30,1,0
11227.1,107.148,4,2,1,30,1,0
11229.4,110.311,4,2,1,30,1,0
11231.7,107.585,4,2,1,30,1,0
11234,100.158,4,2,1,30,1,0
11236.3,90.7012,4,2,1,30,1,0
11238.6,81.5894,4,2,1,30,1,0
11240.9,74.1411,4,2,1,30,1,0
11243.2,68.8291,4,2,1,30,1,0
11245.4,65.7116,4,2,1,30,1,0
11247.7,64.7343,4,2,1,30,1,0
11250,65.8756,4,2,1,30,1,0
11252.3,69.1898,4,2,1,30,1,0
11254.6,74.771,4,2,1,30,1,0
11256.9,82.6105,4,2,1,30,1,0
11259.2,92.2864,4,2,1,30,1,0
11261.5,102.49,4,2,1,30,1,0
11263.8,110.744,4,2,1,30,1,0
11266.1,114.126,4,2,1,30,1,0
11268.4,111.21,4,2,1,30,1,0
11270.6,103.292,4,2,1,30,1,0
11272.9,93.2643,4,2,1,30,1,0
11275.2,83.6575,4,2,1,30,1,0
11277.5,75.845,4,2,1,30,1,0
11279.8,70.2951,4,2,1,30,1,0
11282.1,67.0466,4,2,1,30,1,0
11284.4,66.0295,4,2,1,30,1,0
11286.7,67.2173,4,2,1,30,1,0
11289,70.6714,4,2,1,30,1,0
11291.3,76.5043,4,2,1,30,1,0
11293.6,84.7314,4,2,1,30,1,0
11295.9,94.9412,4,2,1,30,1,0
11298.1,105.775,4,2,1,30,1,0
11300.4,114.589,4,2,1,30,1,0
11302.7,118.214,4,2,1,30,1,0
11305,115.088,4,2,1,30,1,0
11307.3,106.63,4,2,1,30,1,0
11309.6,95.9766,4,2,1,30,1,0
11311.9,85.8332,4,2,1,30,1,0
11314.2,77.629,4,2,1,30,1,0
11316.5,71.8249,4,2,1,30,1,0
11318.8,68.4369,4,2,1,30,1,0
11321.1,67.3775,4,2,1,30,1,0
11323.3,68.6147,4,2,1,30,1,0
11325.6,72.2178,4,2,1,30,1,0
11327.9,78.3198,4,2,1,30,1,0
11330.2,86.9641,4,2,1,30,1,0
11332.5,97.7533,4,2,1,30,1,0
11334.8,109.278,4,2,1,30,1,0
11337.1,118.71,4,2,1,30,1,0
11339.4,122.605,4,2,1,30,1,0
11341.7,119.246,4,2,1,30,1,0
11344,110.19,4,2,1,30,1,0
11346.3,98.8512,4,2,1,30,1,0
11348.5,88.1251,4,2,1,30,1,0
11350.8,79.4989,4,2,1,30,1,0
11353.1,73.4228,4,2,1,30,1,0
11355.4,69.8861,4,2,1,30,1,0
11357.7,68.7817,4,2,1,30,1,0
11360,70.0716,4,2,1,30,1,0
11362.3,73.8335,4,2,1,30,1,0
11364.6,80.2236,4,2,1,30,1,0
11366.9,89.3176,4,2,1,30,1,0
11369.2,100.737,4,2,1,30,1,0
11371.5,113.02,4,2,1,30,1,0
11373.8,123.139,4,2,1,30,1,0
11376,127.336,4,2,1,30,1,0
11378.3,123.716,4,2,1,30,1,0
11380.6,113.996,4,2,1,30,1,0
11382.9,101.903,4,2,1,30,1,0
11385.2,90.5428,4,2,1,30,1,0
11387.5,81.4612,4,2,1,30,1,0
11389.8,75.0934,4,2,1,30,1,0
11392.1,71.398,4,2,1,30,1,0
11394.4,70.2457,4,2,1,30,1,0
11396.7,71.5916,4,2,1,30,1,0
11399,75.523,4,2,1,30,1,0
11401.2,82.2222,4,2,1,30,1,0
11403.5,91.8021,4,2,1,30,1,0
11405.8,103.909,4,2,1,30,1,0
11408.1,117.027,4,2,1,30,1,0
11410.4,127.912,4,2,1,30,1,0
11412.7,132.446,4,2,1,30,1,0
11415,128.535,4,2,1,30,1,0
11417.3,118.074,4,2,1,30,1,0
11419.6,105.15,4,2,1,30,1,0
11421.9,93.0969,4,2,1,30,1,0
11424.2,83.5227,4,2,1,30,1,0
11426.5,76.8418,4,2,1,30,1,0
11428.7,72.9767,4,2,1,30,1,0
11431,71.7733,4,2,1,30,1,0
11433.3,73.179,4,2,1,30,1,0
11435.6,77.2917,4,2,1,30,1,0
11437.9,84.323,4,2,1,30,1,0
11440.2,94.4287,4,2,1,30,1,0
11442.5,107.287,4,2,1,30,1,0
11444.8,121.33,4,2,1,30,1,0
11447.1,133.069,4,2,1,30,1,0
11449.4,137.983,4,2,1,30,1,0
11451.7,133.744,4,2,1,30,1,0
11453.9,122.455,4,2,1,30,1,0
11456.2,108.611,4,2,1,30,1,0
11458.5,95.7992,4,2,1,30,1,0
11460.8,85.6914,4,2,1,30,1,0
11463.1,78.6736,4,2,1,30,1,0
11465.4,74.6269,4,2,1,30,1,0
11467.7,73.3689,4,2,1,30,1,0
11470,74.8384,4,2,1,30,1,0
11472.3,79.1453,4,2,1,30,1,0
11474.6,86.5339,4,2,1,30,1,0
11476.9,97.2101,4,2,1,30,1,0
11479.2,110.891,4,2,1,30,1,0
11481.4,125.96,4,2,1,30,1,0
11483.7,138.66,4,2,1,30,1,0
11486,144.004,4,2,1,30,1,0
11488.3,139.392,4,2,1,30,1,0
11490.6,127.174,4,2,1,30,1,0
11492.9,112.306,4,2,1,30,1,0
11495.2,98.6631,4,2,1,30,1,0
11497.5,87.9756,4,2,1,30,1,0
11499.8,80.5948,4,2,1,30,1,0
11502.1,76.3534,4,2,1,30,1,0
11504.4,75.037,4,2,1,30,1,0
11506.6,76.5748,4,2,1,30,1,0
11508.9,81.0899,4,2,1,30,1,0
11511.2,88.8639,4,2,1,30,1,0
11513.5,100.16,4,2,1,30,1,0
11515.8,114.747,4,2,1,30,1,0
11518.1,130.958,4,2,1,30,1,0
11520.4,144.741,4,2,1,30,1,0
11522.7,150.574,4,2,1,30,1,0
11525,145.539,4,2,1,30,1,0
11527.3,132.271,4,2,1,30,1,0
11529.6,116.263,4,2,1,30,1,0
11531.9,101.704,4,2,1,30,1,0
11534.1,90.3849,4,2,1,30,1,0
11536.4,82.6122,4,2,1,30,1,0
11538.7,78.1616,4,2,1,30,1,0
11541,76.7828,4,2,1,30,1,0
11543.3,78.3937,4,2,1,30,1,0
11545.6,83.1325,4,2,1,30,1,0
11547.9,91.3228,4,2,1,30,1,0
11550.2,103.295,4,2,1,30,1,0
11552.5,118.88,4,2,1,30,1,0
11554.8,136.37,4,2,1,30,1,0
11557.1,151.38,4,2,1,30,1,0
11559.3,157.772,4,2,1,30,1,0
11561.6,152.253,4,2,1,30,1,0
11563.9,137.793,4,2,1,30,1,0
11566.2,120.508,4,2,1,30,1,0
11568.5,104.937,4,2,1,30,1,0
11570.8,92.93,4,2,1,30,1,0
11573.1,84.7332,4,2,1,30,1,0
11575.4,80.0576,4,2,1,30,1,0
11577.7,78.6117,4,2,1,30,1,0
11580,80.3011,4,2,1,30,1,0
11582.3,85.2806,4,2,1,30,1,0
11584.5,93.9217,4,2,1,30,1,0
11586.8,106.633,4,2,1,30,1,0
11589.1,123.322,4,2,1,30,1,0
11591.4,142.247,4,2,1,30,1,0
11593.7,158.658,4,2,1,30,1,0
11596,165.693,4,2,1,30,1,0
11598.3,159.617,4,2,1,30,1,0
11600.6,143.797,4,2,1,30,1,0
11602.9,125.075,4,2,1,30,1,0
11605.2,108.383,4,2,1,30,1,0
11607.5,95.6225,4,2,1,30,1,0
11609.8,86.966,4,2,1,30,1,0
11612,82.0479,4,2,1,30,1,0
11614.3,80.5299,4,2,1,30,1,0
11616.6,82.3037,4,2,1,30,1,0
11618.9,87.5427,4,2,1,30,1,0
11621.2,96.6729,4,2,1,30,1,0
11623.5,110.193,4,2,1,30,1,0
11625.8,128.109,4,2,1,30,1,0
11628.1,148.655,4,2,1,30,1,0
11630.4,166.67,4,2,1,30,1,0
11632.7,174.452,4,2,1,30,1,0
11635,167.729,4,2,1,30,1,0
11637.2,150.348,4,2,1,30,1,0
11639.5,130.002,4,2,1,30,1,0
11641.8,112.064,4,2,1,30,1,0
11644.1,98.4757,4,2,1,30,1,0
11646.4,89.3197,4,2,1,30,1,0
11648.7,84.1397,4,2,1,30,1,0
11651,82.544,4,2,1,30,1,0
11653.3,84.4087,4,2,1,30,1,0
11655.6,89.9281,4,2,1,30,1,0
11657.9,99.59,4,2,1,30,1,0
11660.2,113.999,4,2,1,30,1,0
11662.5,133.283,4,2,1,30,1,0
11664.7,155.666,4,2,1,30,1,0
11667,175.535,4,2,1,30,1,0
11669.3,184.188,4,2,1,30,1,0
11671.6,176.71,4,2,1,30,1,0
11673.9,157.524,4,2,1,30,1,0
11676.2,135.332,4,2,1,30,1,0
11678.5,116.003,4,2,1,30,1,0
11680.8,101.504,4,2,1,30,1,0
11683.1,91.8042,4,2,1,30,1,0
11685.4,86.3409,4,2,1,30,1,0
11687.7,84.6615,4,2,1,30,1,0
11689.9,86.6241,4,2,1,30,1,0
11692.2,92.4471,4,2,1,30,1,0
11694.5,102.689,4,2,1,30,1,0
11696.8,118.078,4,2,1,30,1,0
11699.1,138.892,4,2,1,30,1,0
11701.4,163.372,4,2,1,30,1,0
11703.7,185.396,4,2,1,30,1,0
11706,195.074,4,2,1,30,1,0
11708.3,186.707,4,2,1,30,1,0
11710.6,165.419,4,2,1,30,1,0
11712.9,141.119,4,2,1,30,1,0
11715.1,120.228,4,2,1,30,1,0
11717.4,104.725,4,2,1,30,1,0
11719.7,94.431,4,2,1,30,1,0
11722,88.6603,4,2,1,30,1,0
11724.3,86.8904,4,2,1,30,1,0
11726.6,88.9591,4,2,1,30,1,0
11728.9,95.1113,4,2,1,30,1,0
11731.2,105.986,4,2,1,30,1,0
11733.5,122.459,4,2,1,30,1,0
11735.8,144.994,4,2,1,30,1,0
11738.1,171.88,4,2,1,30,1,0
11740.4,196.43,4,2,1,30,1,0
11742.6,207.329,4,2,1,30,1,0
11744.9,197.902,4,2,1,30,1,0
11747.2,174.148,4,2,1,30,1,0
11749.5,147.423,4,2,1,30,1,0
11751.8,124.774,4,2,1,30,1,0
11754.1,108.157,4,2,1,30,1,0
11756.4,97.2125,4,2,1,30,1,0
11758.7,91.1079,4,2,1,30,1,0
11761,89.2399,4,2,1,30,1,0
11763.3,91.4233,4,2,1,30,1,0
11765.6,97.9337,4,2,1,30,1,0
11767.8,109.503,4,2,1,30,1,0
11770.1,127.178,4,2,1,30,1,0
11772.4,151.657,4,2,1,30,1,0
11774.7,181.323,4,2,1,30,1,0
11777,208.861,4,2,1,30,1,0
11779.3,221.227,4,2,1,30,1,0
11781.6,210.526,4,2,1,30,1,0
11783.9,183.849,4,2,1,30,1,0
11786.2,154.316,4,2,1,30,1,0
11788.5,129.676,4,2,1,30,1,0
11790.8,111.822,4,2,1,30,1,0
11793.1,100.163,4,2,1,30,1,0
11795.3,93.6944,4,2,1,30,1,0
11797.6,91.72,4,2,1,30,1,0
11799.9,94.028,4,2,1,30,1,0
11802.2,100.929,4,2,1,30,1,0
11804.5,113.261,4,2,1,30,1,0
11806.8,132.275,4,2,1,30,1,0
11809.1,158.961,4,2,1,30,1,0
11811.4,191.865,4,2,1,30,1,0
11813.7,222.972,4,2,1,30,1,0
11816,237.121,4,2,1,30,1,0
11818.3,224.871,4,2,1,30,1,0
11820.5,194.694,4,2,1,30,1,0
11822.8,161.885,4,2,1,30,1,0
11825.1,134.98,4,2,1,30,1,0
11827.4,115.744,4,2,1,30,1,0
11829.7,103.298,4,2,1,30,1,0
11832,96.432,4,2,1,30,1,0
11834.3,94.3418,4,2,1,30,1,0
11836.6,96.7855,4,2,1,30,1,0
11838.9,104.113,4,2,1,30,1,0
11841.2,117.286,4,2,1,30,1,0
11843.5,137.798,4,2,1,30,1,0
11845.8,167.005,4,2,1,30,1,0
11848,203.707,4,2,1,30,1,0
11850.3,239.127,4,2,1,30,1,0
11852.6,255.477,4,2,1,30,1,0
11854.9,241.313,4,2,1,30,1,0
11857.2,206.9,4,2,1,30,1,0
11859.5,170.236,4,2,1,30,1,0
11861.8,140.736,4,2,1,30,1,0
11864.1,119.95,4,2,1,30,1,0
11866.4,106.635,4,2,1,30,1,0
11868.7,99.3344,4,2,1,30,1,0
11871,97.118,4,2,1,30,1,0
11873.2,99.7096,4,2,1,30,1,0
11875.5,107.504,4,2,1,30,1,0
11877.8,121.608,4,2,1,30,1,0
11880.1,143.802,4,2,1,30,1,0
11882.4,175.907,4,2,1,30,1,0
11884.7,217.108,4,2,1,30,1,0
11887,257.807,4,2,1,30,1,0
11889.3,276.912,4,2,1,30,1,0
11891.6,260.349,4,2,1,30,1,0
11893.9,220.738,4,2,1,30,1,0
11896.2,179.494,4,2,1,30,1,0
11898.5,147.005,4,2,1,30,1,0
11900.7,124.474,4,2,1,30,1,0
11903,110.196,4,2,1,30,1,0
11905.3,102.417,4,2,1,30,1,0
11907.6,100.063,4,2,1,30,1,0
11909.9,102.816,4,2,1,30,1,0
11912.2,111.124,4,2,1,30,1,0
11914.5,126.26,4,2,1,30,1,0
11916.8,150.353,4,2,1,30,1,0
11919.1,185.81,4,2,1,30,1,0
11921.4,232.396,4,2,1,30,1,0
11923.7,279.652,4,2,1,30,1,0
11925.9,302.275,4,2,1,30,1,0
11928.2,282.646,4,2,1,30,1,0
11930.5,236.56,4,2,1,30,1,0
11932.8,189.818,4,2,1,30,1,0
11935.1,153.858,4,2,1,30,1,0
11937.4,129.353,4,2,1,30,1,0
11939.7,114.002,4,2,1,30,1,0
11942,105.697,4,2,1,30,1,0
11944.3,103.191,4,2,1,30,1,0
11946.6,106.122,4,2,1,30,1,0
11948.9,114.995,4,2,1,30,1,0
11951.1,131.282,4,2,1,30,1,0
11953.4,157.53,4,2,1,30,1,0
11955.7,196.896,4,2,1,30,1,0
11958,250,4,2,1,30,1,0
11960.3,305.542,4,2,1,30,1,0
11962.6,332.751,4,2,1,30,1,0
11964.9,309.119,4,2,1,30,1,0
11967.2,254.825,4,2,1,30,1,0
11969.5,201.401,4,2,1,30,1,0
11971.8,161.381,4,2,1,30,1,0
11974.1,134.63,4,2,1,30,1,0
11976.4,118.081,4,2,1,30,1,0
11978.6,109.194,4,2,1,30,1,0
11980.9,106.522,4,2,1,30,1,0
11983.2,109.648,4,2,1,30,1,0
11985.5,119.147,4,2,1,30,1,0
11987.8,136.721,4,2,1,30,1,0
11990.1,165.426,4,2,1,30,1,0
11992.4,209.387,4,2,1,30,1,0
11994.7,270.489,4,2,1,30,1,0
11997,336.715,4,2,1,30,1,0
11999.3,370.062,4,2,1,30,1,0
12001.6,341.064,4,2,1,30,1,0
12003.8,276.147,4,2,1,30,1,0
12006.1,214.491,4,2,1,30,1,0
12008.4,169.678,4,2,1,30,1,0
12010.7,140.355,4,2,1,30,1,0
12013,122.463,4,2,1,30,1,0
12015.3,112.931,4,2,1,30,1,0
12017.6,110.075,4,2,1,30,1,0
12019.9,113.416,4,2,1,30,1,0
12022.2,123.61,4,2,1,30,1,0
12024.5,142.63,4,2,1,30,1,0
12026.8,174.155,4,2,1,30,1,0
12029.1,223.572,4,2,1,30,1,0
12031.3,294.637,4,2,1,30,1,0
12033.6,374.971,4,2,1,30,1,0
12035.9,416.797,4,2,1,30,1,0
12038.2,380.373,4,2,1,30,1,0
12040.5,301.363,4,2,1,30,1,0
12042.8,229.399,4,2,1,30,1,0
12045.1,178.875,4,2,1,30,1,0
12047.4,146.589,4,2,1,30,1,0
12049.7,127.182,4,2,1,30,1,0
12052,116.932,4,2,1,30,1,0
12054.3,113.873,4,2,1,30,1,0
12056.5,117.452,4,2,1,30,1,0
12058.8,128.419,4,2,1,30,1,0
12061.1,149.072,4,2,1,30,1,0
12063.4,183.857,4,2,1,30,1,0
12065.7,239.818,4,2,1,30,1,0
12068,323.519,4,2,1,30,1,0
12070.3,423.035,4,2,1,30,1,0
12072.6,477.042,4,2,1,30,1,0
12074.9,429.923,4,2,1,30,1,0
12077.2,331.647,4,2,1,30,1,0
12079.5,246.536,4,2,1,30,1,0
12081.8,189.125,4,2,1,30,1,0
12084,153.403,4,2,1,30,1,0
12086.3,132.28,4,2,1,30,1,0
12088.6,121.227,4,2,1,30,1,0
12090.9,117.942,4,2,1,30,1,0
12093.2,121.786,4,2,1,30,1,0
12095.5,133.619,4,2,1,30,1,0
12097.8,156.124,4,2,1,30,1,0
12100.1,194.704,4,2,1,30,1,0
12102.4,258.609,4,2,1,30,1,0
12104.7,358.679,4,2,1,30,1,0
12107,485.231,4,2,1,30,1,0
12109.2,557.647,4,2,1,30,1,0
12111.5,494.316,4,2,1,30,1,0
12113.8,368.697,4,2,1,30,1,0
12116.1,266.439,4,2,1,30,1,0
12118.4,200.622,4,2,1,30,1,0
12120.7,160.881,4,2,1,30,1,0
12123,137.803,4,2,1,30,1,0
12125.3,125.849,4,2,1,30,1,0
12127.6,122.313,4,2,1,30,1,0
12129.9,126.452,4,2,1,30,1,0
12132.2,139.257,4,2,1,30,1,0
12134.4,163.876,4,2,1,30,1,0
12136.7,206.911,4,2,1,30,1,0
12139,280.597,4,2,1,30,1,0
12141.3,402.413,4,2,1,30,1,0
12143.6,568.869,4,2,1,30,1,0
12145.9,671.028,4,2,1,30,1,0
12148.2,581.396,4,2,1,30,1,0
12150.5,415.066,4,2,1,30,1,0
12152.8,289.837,4,2,1,30,1,0
12155.1,213.607,4,2,1,30,1,0
12157.4,169.125,4,2,1,30,1,0
12159.7,143.807,4,2,1,30,1,0
12161.9,130.839,4,2,1,30,1,0
12164.2,127.02,4,2,1,30,1,0
12166.5,131.49,4,2,1,30,1,0
12168.8,145.391,4,2,1,30,1,0
12171.1,172.439,4,2,1,30,1,0
12173.4,220.751,4,2,1,30,1,0
12175.7,306.67,4,2,1,30,1,0
12178,458.294,4,2,1,30,1,0
12180.3,687.345,4,2,1,30,1,0
12182.6,842.283,4,2,1,30,1,0
12184.9,705.717,4,2,1,30,1,0
12187.1,474.776,4,2,1,30,1,0
12189.4,317.742,4,2,1,30,1,0
12191.7,228.389,4,2,1,30,1,0
12194,178.26,4,2,1,30,1,0
12196.3,150.359,4,2,1,30,1,0
12198.6,136.24,4,2,1,30,1,0
12200.9,132.105,4,2,1,30,1,0
12203.2,136.946,4,2,1,30,1,0
12205.5,152.091,4,2,1,30,1,0
12207.8,181.945,4,2,1,30,1,0
12210.1,236.574,4,2,1,30,1,0
12212.4,338.085,4,2,1,30,1,0
12214.6,532.196,4,2,1,30,1,0
12216.9,868.151,4,2,1,30,1,0
12219.2,1130.9,4,2,1,30,1,0
12221.5,897.668,4,2,1,30,1,0
12223.8,554.552,4,2,1,30,1,0
12226.1,351.591,4,2,1,30,1,0
12228.4,245.369,4,2,1,30,1,0
12230.7,188.438,4,2,1,30,1,0
12233,157.536,4,2,1,30,1,0
12235.3,142.106,4,2,1,30,1,0
12237.6,137.613,4,2,1,30,1,0
12239.8,142.875,4,2,1,30,1,0
12242.1,159.439,4,2,1,30,1,0
12244.4,192.561,4,2,1,30,1,0
12246.7,254.842,4,2,1,30,1,0
12249,376.671,4,2,1,30,1,0
12251.3,634.515,4,2,1,30,1,0
12253.6,1178.03,4,2,1,30,1,0
12255.9,1720.43,4,2,1,30,1,0
12258.2,1233.05,4,2,1,30,1,0
12260.5,666.552,4,2,1,30,1,0
12262.8,393.513,4,2,1,30,1,0
12265,265.076,4,2,1,30,1,0
12267.3,199.849,4,2,1,30,1,0
12269.6,165.433,4,2,1,30,1,0
12271.9,148.5,4,2,1,30,1,0
12274.2,143.601,4,2,1,30,1,0
12276.5,149.34,4,2,1,30,1,0
12278.8,167.532,4,2,1,30,1,0
12281.1,204.492,4,2,1,30,1,0
12283.4,276.167,4,2,1,30,1,0
12285.7,425.2,4,2,1,30,1,0
12288,785.542,4,2,1,30,1,0
12290.3,1831.93,4,2,1,30,1,0
12292.5,3593.89,4,2,1,30,1,0
12294.8,1968.51,4,2,1,30,1,0
12297.1,835.242,4,2,1,30,1,0
12299.4,446.785,4,2,1,30,1,0
12301.7,288.226,4,2,1,30,1,0
12304,212.73,4,2,1,30,1,0
12306.3,174.163,4,2,1,30,1,0
12308.6,155.497,4,2,1,30,1,0
12310.9,150.133,4,2,1,30,1,0
12313.2,156.418,4,2,1,30,1,0
12315.5,176.492,4,2,1,30,1,0
12317.7,218,4,2,1,30,1,0
12320,301.386,4,2,1,30,1,0
12322.3,488.082,4,2,1,30,1,0
12324.6,1030.92,4,2,1,30,1,0
12326.9,4117.38,4,2,1,30,1,0
12329.2,600000000000000,4,2,1,30,1,0
12331.5,4878.09,4,2,1,30,1,0
12333.8,1118.25,4,2,1,30,1,0
12336.1,516.74,4,2,1,30,1,0
12338.4,315.806,4,2,1,30,1,0
12340.7,227.387,4,2,1,30,1,0
12343,183.866,4,2,1,30,1,0
12345.2,163.185,4,2,1,30,1,0
12347.5,157.288,4,2,1,30,1,0
12349.8,164.2,4,2,1,30,1,0
12352.1,186.463,4,2,1,30,1,0
12354.4,233.418,4,2,1,30,1,0
12356.7,331.675,4,2,1,30,1,0
12359,572.792,4,2,1,30,1,0
12361.3,1499.23,4,2,1,30,1,0
12363.6,600000000000000,4,2,1,30,1,0
12365.9,600000000000000,4,2,1,30,1,0
12368.2,600000000000000,4,2,1,30,1,0
12370.4,1691.31,4,2,1,30,1,0
12372.7,612.666,4,2,1,30,1,0
12375,349.223,4,2,1,30,1,0
12377.3,244.213,4,2,1,30,1,0
12379.6,194.714,4,2,1,30,1,0
12381.9,171.674,4,2,1,30,1,0
12384.2,165.16,4,2,1,30,1,0
12386.5,172.797,4,2,1,30,1,0
12388.8,197.629,4,2,1,30,1,0
12391.1,251.183,4,2,1,30,1,0
12393.4,368.732,4,2,1,30,1,0
12395.7,693.08,4,2,1,30,1,0
12397.9,2747.2,4,2,1,30,1,0
12400.2,600000000000000,4,2,1,30,1,0
12402.5,600000000000000,4,2,1,30,1,0
12404.8,600000000000000,4,2,1,30,1,0
12407.1,3469.12,4,2,1,30,1,0
12409.4,752.326,4,2,1,30,1,0
12411.7,390.549,4,2,1,30,1,0
12414,263.728,4,2,1,30,1,0
12416.3,206.922,4,2,1,30,1,0
12418.6,181.094,4,2,1,30,1,0
12420.9,173.86,4,2,1,30,1,0
12423.1,182.344,4,2,1,30,1,0
12425.4,210.217,4,2,1,30,1,0
12427.7,271.875,4,2,1,30,1,0
12430,415.11,4,2,1,30,1,0
12432.3,877.319,4,2,1,30,1,0
12434.6,16391.5,4,2,1,30,1,0
12436.9,600000000000000,4,2,1,30,1,0
12439.2,600000000000000,4,2,1,30,1,0
12441.5,600000000000000,4,2,1,30,1,0
12443.8,600000000000000,4,2,1,30,1,0
12446.1,974.459,4,2,1,30,1,0
12448.4,442.968,4,2,1,30,1,0
12450.6,286.632,4,2,1,30,1,0
12452.9,220.763,4,2,1,30,1,0
12455.2,191.608,4,2,1,30,1,0
12457.5,183.528,4,2,1,30,1,0
12459.8,193.008,4,2,1,30,1,0
12462.1,224.518,4,2,1,30,1,0
12464.4,296.282,4,2,1,30,1,0
12466.7,474.834,4,2,1,30,1,0
12469,1194.98,4,2,1,30,1,0
12471.3,600000000000000,4,2,1,30,1,0
12473.6,600000000000000,4,2,1,30,1,0
12475.8,600000000000000,4,2,1,30,1,0
12478.1,600000000000000,4,2,1,30,1,0
12480.4,600000000000000,4,2,1,30,1,0
12482.7,1382.72,4,2,1,30,1,0
12485,511.64,4,2,1,30,1,0
12487.3,313.894,4,2,1,30,1,0
12489.6,236.589,4,2,1,30,1,0
12491.9,203.417,4,2,1,30,1,0
12494.2,194.335,4,2,1,30,1,0
12496.5,204.997,4,2,1,30,1,0
12498.8,240.906,4,2,1,30,1,0
12501,325.503,4,2,1,30,1,0
12503.3,554.631,4,2,1,30,1,0
12505.6,1873.24,4,2,1,30,1,0
12507.9,600000000000000,4,2,1,30,1,0
12510.2,600000000000000,4,2,1,30,1,0
12512.5,600000000000000,4,2,1,30,1,0
12514.8,600000000000000,4,2,1,30,1,0
12517.1,600000000000000,4,2,1,30,1,0
12519.4,2379.76,4,2,1,30,1,0
12521.7,605.51,4,2,1,30,1,0
12524,346.886,4,2,1,30,1,0
12526.3,254.859,4,2,1,30,1,0
12528.5,216.779,4,2,1,30,1,0
12530.8,206.494,4,2,1,30,1,0
12533.1,218.573,4,2,1,30,1,0
12535.4,259.876,4,2,1,30,1,0
12537.7,361.12,4,2,1,30,1,0
12540,666.667,4,2,1,30,1,0
12540,666.667,4,2,1,30,1,0
12707,666.667,4,2,1,30,1,0
13374,666.666666666667,4,2,1,30,1,0
13374,666.666666666667,4,2,1,30,1,0
36790,-2500,4,2,1,30,0,0
37124,-125,4,2,1,30,0,0
48040,-121.951219512195,4,2,1,30,0,0
58707,-117.647058823529,4,2,1,30,0,0
58707,-111.111111111111,4,2,1,30,0,0
69374,-113.636363636364,4,2,1,30,0,0
74707,-108.695652173913,4,2,1,30,0,0
77374,-100,4,2,1,30,0,0
79707,6E+15,4,2,1,30,1,0
80040,60.0601,4,2,1,30,1,0
80042.3,65.016,4,2,1,30,1,0
80044.6,69.9203,4,2,1,30,1,0
80046.9,73.6655,4,2,1,30,1,0
80049.2,75.147,4,2,1,30,1,0
80051.5,73.8716,4,2,1,30,1,0
80053.7,70.2926,4,2,1,30,1,0
80056,65.4998,4,2,1,30,1,0
80058.3,60.6116,4,2,1,30,1,0
80060.6,56.4022,4,2,1,30,1,0
80062.9,53.2744,4,2,1,30,1,0
80065.2,51.3875,4,2,1,30,1,0
80067.5,50.7878,4,2,1,30,1,0
80069.8,51.4877,4,2,1,30,1,0
80072.1,53.4903,4,2,1,30,1,0
80074.4,56.766,4,2,1,30,1,0
80076.7,61.1733,4,2,1,30,1,0
80079,66.3225,4,2,1,30,1,0
80081.2,71.4336,4,2,1,30,1,0
80083.5,75.3473,4,2,1,30,1,0
80085.8,76.8979,4,2,1,30,1,0
80088.1,75.563,4,2,1,30,1,0
80090.4,71.8223,4,2,1,30,1,0
80092.7,66.8261,4,2,1,30,1,0
80095,61.7455,4,2,1,30,1,0
80097.3,57.3829,4,2,1,30,1,0
80099.6,54.1485,4,2,1,30,1,0
80101.9,52.2002,4,2,1,30,1,0
80104.2,51.5816,4,2,1,30,1,0
80106.4,52.3036,4,2,1,30,1,0
80108.7,54.3715,4,2,1,30,1,0
80111,57.7595,4,2,1,30,1,0
80113.3,62.3286,4,2,1,30,1,0
80115.6,67.6826,4,2,1,30,1,0
80117.9,73.014,4,2,1,30,1,0
80120.2,77.1077,4,2,1,30,1,0
80122.5,78.7324,4,2,1,30,1,0
80124.8,77.3336,4,2,1,30,1,0
80127.1,73.4201,4,2,1,30,1,0
80129.4,68.2072,4,2,1,30,1,0
80131.6,62.9228,4,2,1,30,1,0
80133.9,58.3983,4,2,1,30,1,0
80136.2,55.0517,4,2,1,30,1,0
80138.5,53.0391,4,2,1,30,1,0
80140.8,52.4006,4,2,1,30,1,0
80143.1,53.1459,4,2,1,30,1,0
80145.4,55.2822,4,2,1,30,1,0
80147.7,58.7884,4,2,1,30,1,0
80150,63.5284,4,2,1,30,1,0
80152.3,69.0997,4,2,1,30,1,0
80154.6,74.6658,4,2,1,30,1,0
80156.9,78.9523,4,2,1,30,1,0
80159.1,80.6565,4,2,1,30,1,0
80161.4,79.1891,4,2,1,30,1,0
80163.7,75.0905,4,2,1,30,1,0
80166,69.6466,4,2,1,30,1,0
80168.3,64.1457,4,2,1,30,1,0
80170.6,59.4502,4,2,1,30,1,0
80172.9,55.9856,4,2,1,30,1,0
80175.2,53.9054,4,2,1,30,1,0
80177.5,53.246,4,2,1,30,1,0
80179.8,54.0157,4,2,1,30,1,0
80182.1,56.224,4,2,1,30,1,0
80184.3,59.8546,4,2,1,30,1,0
80186.6,64.7752,4,2,1,30,1,0
80188.9,70.5774,4,2,1,30,1,0
80191.2,76.3942,4,2,1,30,1,0
80193.5,80.8873,4,2,1,30,1,0
80195.8,82.6771,4,2,1,30,1,0
80198.1,81.1359,4,2,1,30,1,0
80200.4,76.8388,4,2,1,30,1,0
80202.7,71.148,4,2,1,30,1,0
80205,65.4172,4,2,1,30,1,0
80207.3,60.5408,4,2,1,30,1,0
80209.6,56.9517,4,2,1,30,1,0
80211.8,54.8005,4,2,1,30,1,0
80214.1,54.1191,4,2,1,30,1,0
80216.4,54.9145,4,2,1,30,1,0
80218.7,57.1984,4,2,1,30,1,0
80221,60.9601,4,2,1,30,1,0
80223.3,66.072,4,2,1,30,1,0
80225.6,72.1197,4,2,1,30,1,0
80227.9,78.2044,4,2,1,30,1,0
80230.2,82.9196,4,2,1,30,1,0
80232.5,84.8015,4,2,1,30,1,0
80234.8,83.1808,4,2,1,30,1,0
80237,78.6704,4,2,1,30,1,0
80239.3,72.7156,4,2,1,30,1,0
80241.6,66.7401,4,2,1,30,1,0
80243.9,61.6721,4,2,1,30,1,0
80246.2,57.9517,4,2,1,30,1,0
80248.5,55.7258,4,2,1,30,1,0
80250.8,55.0214,4,2,1,30,1,0
80253.1,55.8437,4,2,1,30,1,0
80255.4,58.2072,4,2,1,30,1,0
80257.7,62.1073,4,2,1,30,1,0
80260,67.4218,4,2,1,30,1,0
80262.3,73.7309,4,2,1,30,1,0
80264.5,80.1025,4,2,1,30,1,0
80266.8,85.0566,4,2,1,30,1,0
80269.1,87.0379,4,2,1,30,1,0
80271.4,85.3315,4,2,1,30,1,0
80273.7,80.5915,4,2,1,30,1,0
80276,74.3538,4,2,1,30,1,0
80278.3,68.1176,4,2,1,30,1,0
80280.6,62.8465,4,2,1,30,1,0
80282.9,58.9875,4,2,1,30,1,0
80285.2,56.6829,4,2,1,30,1,0
80287.5,55.9542,4,2,1,30,1,0
80289.7,56.8049,4,2,1,30,1,0
80292,59.2523,4,2,1,30,1,0
80294.3,63.2985,4,2,1,30,1,0
80296.6,68.8279,4,2,1,30,1,0
80298.9,75.4157,4,2,1,30,1,0
80301.2,82.095,4,2,1,30,1,0
80303.5,87.3067,4,2,1,30,1,0
80305.8,89.3955,4,2,1,30,1,0
80308.1,87.5964,4,2,1,30,1,0
80310.4,82.6087,4,2,1,30,1,0
80312.7,76.0675,4,2,1,30,1,0
80315,69.5531,4,2,1,30,1,0
80317.2,64.0665,4,2,1,30,1,0
80319.5,60.061,4,2,1,30,1,0
80321.8,57.6734,4,2,1,30,1,0
80324.1,56.9192,4,2,1,30,1,0
80326.4,57.7997,4,2,1,30,1,0
80328.7,60.3355,4,2,1,30,1,0
80331,64.5363,4,2,1,30,1,0
80333.3,70.2938,4,2,1,30,1,0
80335.6,77.1793,4,2,1,30,1,0
80337.9,84.1892,4,2,1,30,1,0
80340.2,89.6791,4,2,1,30,1,0
80342.4,91.8843,4,2,1,30,1,0
80344.7,89.9847,4,2,1,30,1,0
80347,84.7296,4,2,1,30,1,0
80349.3,77.8621,4,2,1,30,1,0
80351.6,71.0505,4,2,1,30,1,0
80353.9,65.3348,4,2,1,30,1,0
80356.2,61.1743,4,2,1,30,1,0
80358.5,58.6992,4,2,1,30,1,0
80360.8,57.9181,4,2,1,30,1,0
80363.1,58.83,4,2,1,30,1,0
80365.4,61.4591,4,2,1,30,1,0
80367.6,65.8234,4,2,1,30,1,0
80369.9,71.8236,4,2,1,30,1,0
80372.2,79.0274,4,2,1,30,1,0
80374.5,86.393,4,2,1,30,1,0
80376.8,92.184,4,2,1,30,1,0
80379.1,94.5157,4,2,1,30,1,0
80381.4,92.507,4,2,1,30,1,0
80383.7,86.9621,4,2,1,30,1,0
80386,79.7435,4,2,1,30,1,0
80388.3,72.6137,4,2,1,30,1,0
80390.6,66.6543,4,2,1,30,1,0
80392.9,62.3296,4,2,1,30,1,0
80395.1,59.7621,4,2,1,30,1,0
80397.4,58.9527,4,2,1,30,1,0
80399.7,59.8977,4,2,1,30,1,0
80402,62.6253,4,2,1,30,1,0
80404.3,67.1629,4,2,1,30,1,0
80406.6,73.4214,4,2,1,30,1,0
80408.9,80.9662,4,2,1,30,1,0
80411.2,88.7153,4,2,1,30,1,0
80413.5,94.8328,4,2,1,30,1,0
80415.8,97.3023,4,2,1,30,1,0
80418.1,95.1747,4,2,1,30,1,0
80420.3,89.3156,4,2,1,30,1,0
80422.6,81.718,4,2,1,30,1,0
80424.9,74.2473,4,2,1,30,1,0
80427.2,68.0282,4,2,1,30,1,0
80429.5,63.5294,4,2,1,30,1,0
80431.8,60.8643,4,2,1,30,1,0
80434.1,60.0249,4,2,1,30,1,0
80436.4,61.0049,4,2,1,30,1,0
80438.7,63.8366,4,2,1,30,1,0
80441,68.5581,4,2,1,30,1,0
80443.3,75.092,4,2,1,30,1,0
80445.6,83.0025,4,2,1,30,1,0
80447.8,91.166,4,2,1,30,1,0
80450.1,97.6384,4,2,1,30,1,0
80452.4,100.258,4,2,1,30,1,0
80454.7,98.0008,4,2,1,30,1,0
80457,91.7999,4,2,1,30,1,0
80459.3,83.7927,4,2,1,30,1,0
80461.6,75.9561,4,2,1,30,1,0
80463.9,69.4599,4,2,1,30,1,0
80466.2,64.7763,4,2,1,30,1,0
80468.5,62.0078,4,2,1,30,1,0
80470.8,61.1368,4,2,1,30,1,0
80473,62.1538,4,2,1,30,1,0
80475.3,65.0957,4,2,1,30,1,0
80477.6,70.0125,4,2,1,30,1,0
80479.9,76.8403,4,2,1,30,1,0
80482.2,85.1438,4,2,1,30,1,0
80484.5,93.7558,4,2,1,30,1,0
80486.8,100.615,4,2,1,30,1,0
80489.1,103.399,4,2,1,30,1,0
80491.4,101,4,2,1,30,1,0
80493.7,94.4264,4,2,1,30,1,0
80496,85.9756,4,2,1,30,1,0
80498.3,77.7454,4,2,1,30,1,0
80500.5,70.9532,4,2,1,30,1,0
80502.8,66.0731,4,2,1,30,1,0
80505.1,63.1951,4,2,1,30,1,0
80507.4,62.2907,4,2,1,30,1,0
80509.7,63.3468,4,2,1,30,1,0
80512,66.4055,4,2,1,30,1,0
80514.3,71.5299,4,2,1,30,1,0
80516.6,78.672,4,2,1,30,1,0
80518.9,87.3986,4,2,1,30,1,0
80521.2,96.4971,4,2,1,30,1,0
80523.5,103.779,4,2,1,30,1,0
80525.7,106.744,4,2,1,30,1,0
80528,104.188,4,2,1,30,1,0
80530.3,97.2076,4,2,1,30,1,0
80532.6,88.2752,4,2,1,30,1,0
80534.9,79.621,4,2,1,30,1,0
80537.2,72.5122,4,2,1,30,1,0
80539.5,67.423,4,2,1,30,1,0
80541.8,64.4288,4,2,1,30,1,0
80544.1,63.489,4,2,1,30,1,0
80546.4,64.5864,4,2,1,30,1,0
80548.7,67.7691,4,2,1,30,1,0
80550.9,73.1146,4,2,1,30,1,0
80553.2,80.5932,4,2,1,30,1,0
80555.5,89.776,4,2,1,30,1,0
80557.8,99.4035,4,2,1,30,1,0
80560.1,107.148,4,2,1,30,1,0
80562.4,110.311,4,2,1,30,1,0
80564.7,107.585,4,2,1,30,1,0
80567,100.158,4,2,1,30,1,0
80569.3,90.7012,4,2,1,30,1,0
80571.6,81.5894,4,2,1,30,1,0
80573.9,74.1411,4,2,1,30,1,0
80576.2,68.8291,4,2,1,30,1,0
80578.4,65.7116,4,2,1,30,1,0
80580.7,64.7343,4,2,1,30,1,0
80583,65.8756,4,2,1,30,1,0
80585.3,69.1898,4,2,1,30,1,0
80587.6,74.771,4,2,1,30,1,0
80589.9,82.6105,4,2,1,30,1,0
80592.2,92.2864,4,2,1,30,1,0
80594.5,102.49,4,2,1,30,1,0
80596.8,110.744,4,2,1,30,1,0
80599.1,114.126,4,2,1,30,1,0
80601.4,111.21,4,2,1,30,1,0
80603.6,103.292,4,2,1,30,1,0
80605.9,93.2643,4,2,1,30,1,0
80608.2,83.6575,4,2,1,30,1,0
80610.5,75.845,4,2,1,30,1,0
80612.8,70.2951,4,2,1,30,1,0
80615.1,67.0466,4,2,1,30,1,0
80617.4,66.0295,4,2,1,30,1,0
80619.7,67.2173,4,2,1,30,1,0
80622,70.6714,4,2,1,30,1,0
80624.3,76.5043,4,2,1,30,1,0
80626.6,84.7314,4,2,1,30,1,0
80628.9,94.9412,4,2,1,30,1,0
80631.1,105.775,4,2,1,30,1,0
80633.4,114.589,4,2,1,30,1,0
80635.7,118.214,4,2,1,30,1,0
80638,115.088,4,2,1,30,1,0
80640.3,106.63,4,2,1,30,1,0
80642.6,95.9766,4,2,1,30,1,0
80644.9,85.8332,4,2,1,30,1,0
80647.2,77.629,4,2,1,30,1,0
80649.5,71.8249,4,2,1,30,1,0
80651.8,68.4369,4,2,1,30,1,0
80654.1,67.3775,4,2,1,30,1,0
80656.3,68.6147,4,2,1,30,1,0
80658.6,72.2178,4,2,1,30,1,0
80660.9,78.3198,4,2,1,30,1,0
80663.2,86.9641,4,2,1,30,1,0
80665.5,97.7533,4,2,1,30,1,0
80667.8,109.278,4,2,1,30,1,0
80670.1,118.71,4,2,1,30,1,0
80672.4,122.605,4,2,1,30,1,0
80674.7,119.246,4,2,1,30,1,0
80677,110.19,4,2,1,30,1,0
80679.3,98.8512,4,2,1,30,1,0
80681.5,88.1251,4,2,1,30,1,0
80683.8,79.4989,4,2,1,30,1,0
80686.1,73.4228,4,2,1,30,1,0
80688.4,69.8861,4,2,1,30,1,0
80690.7,68.7817,4,2,1,30,1,0
80693,70.0716,4,2,1,30,1,0
80695.3,73.8335,4,2,1,30,1,0
80697.6,80.2236,4,2,1,30,1,0
80699.9,89.3176,4,2,1,30,1,0
80702.2,100.737,4,2,1,30,1,0
80704.5,113.02,4,2,1,30,1,0
80706.8,123.139,4,2,1,30,1,0
80709,127.336,4,2,1,30,1,0
80711.3,123.716,4,2,1,30,1,0
80713.6,113.996,4,2,1,30,1,0
80715.9,101.903,4,2,1,30,1,0
80718.2,90.5428,4,2,1,30,1,0
80720.5,81.4612,4,2,1,30,1,0
80722.8,75.0934,4,2,1,30,1,0
80725.1,71.398,4,2,1,30,1,0
80727.4,70.2457,4,2,1,30,1,0
80729.7,71.5916,4,2,1,30,1,0
80732,75.523,4,2,1,30,1,0
80734.2,82.2222,4,2,1,30,1,0
80736.5,91.8021,4,2,1,30,1,0
80738.8,103.909,4,2,1,30,1,0
80741.1,117.027,4,2,1,30,1,0
80743.4,127.912,4,2,1,30,1,0
80745.7,132.446,4,2,1,30,1,0
80748,128.535,4,2,1,30,1,0
80750.3,118.074,4,2,1,30,1,0
80752.6,105.15,4,2,1,30,1,0
80754.9,93.0969,4,2,1,30,1,0
80757.2,83.5227,4,2,1,30,1,0
80759.5,76.8418,4,2,1,30,1,0
80761.7,72.9767,4,2,1,30,1,0
80764,71.7733,4,2,1,30,1,0
80766.3,73.179,4,2,1,30,1,0
80768.6,77.2917,4,2,1,30,1,0
80770.9,84.323,4,2,1,30,1,0
80773.2,94.4287,4,2,1,30,1,0
80775.5,107.287,4,2,1,30,1,0
80777.8,121.33,4,2,1,30,1,0
80780.1,133.069,4,2,1,30,1,0
80782.4,137.983,4,2,1,30,1,0
80784.7,133.744,4,2,1,30,1,0
80786.9,122.455,4,2,1,30,1,0
80789.2,108.611,4,2,1,30,1,0
80791.5,95.7992,4,2,1,30,1,0
80793.8,85.6914,4,2,1,30,1,0
80796.1,78.6736,4,2,1,30,1,0
80798.4,74.6269,4,2,1,30,1,0
80800.7,73.3689,4,2,1,30,1,0
80803,74.8384,4,2,1,30,1,0
80805.3,79.1453,4,2,1,30,1,0
80807.6,86.5339,4,2,1,30,1,0
80809.9,97.2101,4,2,1,30,1,0
80812.2,110.891,4,2,1,30,1,0
80814.4,125.96,4,2,1,30,1,0
80816.7,138.66,4,2,1,30,1,0
80819,144.004,4,2,1,30,1,0
80821.3,139.392,4,2,1,30,1,0
80823.6,127.174,4,2,1,30,1,0
80825.9,112.306,4,2,1,30,1,0
80828.2,98.6631,4,2,1,30,1,0
80830.5,87.9756,4,2,1,30,1,0
80832.8,80.5948,4,2,1,30,1,0
80835.1,76.3534,4,2,1,30,1,0
80837.4,75.037,4,2,1,30,1,0
80839.6,76.5748,4,2,1,30,1,0
80841.9,81.0899,4,2,1,30,1,0
80844.2,88.8639,4,2,1,30,1,0
80846.5,100.16,4,2,1,30,1,0
80848.8,114.747,4,2,1,30,1,0
80851.1,130.958,4,2,1,30,1,0
80853.4,144.741,4,2,1,30,1,0
80855.7,150.574,4,2,1,30,1,0
80858,145.539,4,2,1,30,1,0
80860.3,132.271,4,2,1,30,1,0
80862.6,116.263,4,2,1,30,1,0
80864.9,101.704,4,2,1,30,1,0
80867.1,90.3849,4,2,1,30,1,0
80869.4,82.6122,4,2,1,30,1,0
80871.7,78.1616,4,2,1,30,1,0
80874,76.7828,4,2,1,30,1,0
80876.3,78.3937,4,2,1,30,1,0
80878.6,83.1325,4,2,1,30,1,0
80880.9,91.3228,4,2,1,30,1,0
80883.2,103.295,4,2,1,30,1,0
80885.5,118.88,4,2,1,30,1,0
80887.8,136.37,4,2,1,30,1,0
80890.1,151.38,4,2,1,30,1,0
80892.3,157.772,4,2,1,30,1,0
80894.6,152.253,4,2,1,30,1,0
80896.9,137.793,4,2,1,30,1,0
80899.2,120.508,4,2,1,30,1,0
80901.5,104.937,4,2,1,30,1,0
80903.8,92.93,4,2,1,30,1,0
80906.1,84.7332,4,2,1,30,1,0
80908.4,80.0576,4,2,1,30,1,0
80910.7,78.6117,4,2,1,30,1,0
80913,80.3011,4,2,1,30,1,0
80915.3,85.2806,4,2,1,30,1,0
80917.5,93.9217,4,2,1,30,1,0
80919.8,106.633,4,2,1,30,1,0
80922.1,123.322,4,2,1,30,1,0
80924.4,142.247,4,2,1,30,1,0
80926.7,158.658,4,2,1,30,1,0
80929,165.693,4,2,1,30,1,0
80931.3,159.617,4,2,1,30,1,0
80933.6,143.797,4,2,1,30,1,0
80935.9,125.075,4,2,1,30,1,0
80938.2,108.383,4,2,1,30,1,0
80940.5,95.6225,4,2,1,30,1,0
80942.8,86.966,4,2,1,30,1,0
80945,82.0479,4,2,1,30,1,0
80947.3,80.5299,4,2,1,30,1,0
80949.6,82.3037,4,2,1,30,1,0
80951.9,87.5427,4,2,1,30,1,0
80954.2,96.6729,4,2,1,30,1,0
80956.5,110.193,4,2,1,30,1,0
80958.8,128.109,4,2,1,30,1,0
80961.1,148.655,4,2,1,30,1,0
80963.4,166.67,4,2,1,30,1,0
80965.7,174.452,4,2,1,30,1,0
80968,167.729,4,2,1,30,1,0
80970.2,150.348,4,2,1,30,1,0
80972.5,130.002,4,2,1,30,1,0
80974.8,112.064,4,2,1,30,1,0
80977.1,98.4757,4,2,1,30,1,0
80979.4,89.3197,4,2,1,30,1,0
80981.7,84.1397,4,2,1,30,1,0
80984,82.544,4,2,1,30,1,0
80986.3,84.4087,4,2,1,30,1,0
80988.6,89.9281,4,2,1,30,1,0
80990.9,99.59,4,2,1,30,1,0
80993.2,113.999,4,2,1,30,1,0
80995.5,133.283,4,2,1,30,1,0
80997.7,155.666,4,2,1,30,1,0
81000,175.535,4,2,1,30,1,0
81002.3,184.188,4,2,1,30,1,0
81004.6,176.71,4,2,1,30,1,0
81006.9,157.524,4,2,1,30,1,0
81009.2,135.332,4,2,1,30,1,0
81011.5,116.003,4,2,1,30,1,0
81013.8,101.504,4,2,1,30,1,0
81016.1,91.8042,4,2,1,30,1,0
81018.4,86.3409,4,2,1,30,1,0
81020.7,84.6615,4,2,1,30,1,0
81022.9,86.6241,4,2,1,30,1,0
81025.2,92.4471,4,2,1,30,1,0
81027.5,102.689,4,2,1,30,1,0
81029.8,118.078,4,2,1,30,1,0
81032.1,138.892,4,2,1,30,1,0
81034.4,163.372,4,2,1,30,1,0
81036.7,185.396,4,2,1,30,1,0
81039,195.074,4,2,1,30,1,0
81041.3,186.707,4,2,1,30,1,0
81043.6,165.419,4,2,1,30,1,0
81045.9,141.119,4,2,1,30,1,0
81048.1,120.228,4,2,1,30,1,0
81050.4,104.725,4,2,1,30,1,0
81052.7,94.431,4,2,1,30,1,0
81055,88.6603,4,2,1,30,1,0
81057.3,86.8904,4,2,1,30,1,0
81059.6,88.9591,4,2,1,30,1,0
81061.9,95.1113,4,2,1,30,1,0
81064.2,105.986,4,2,1,30,1,0
81066.5,122.459,4,2,1,30,1,0
81068.8,144.994,4,2,1,30,1,0
81071.1,171.88,4,2,1,30,1,0
81073.4,196.43,4,2,1,30,1,0
81075.6,207.329,4,2,1,30,1,0
81077.9,197.902,4,2,1,30,1,0
81080.2,174.148,4,2,1,30,1,0
81082.5,147.423,4,2,1,30,1,0
81084.8,124.774,4,2,1,30,1,0
81087.1,108.157,4,2,1,30,1,0
81089.4,97.2125,4,2,1,30,1,0
81091.7,91.1079,4,2,1,30,1,0
81094,89.2399,4,2,1,30,1,0
81096.3,91.4233,4,2,1,30,1,0
81098.6,97.9337,4,2,1,30,1,0
81100.8,109.503,4,2,1,30,1,0
81103.1,127.178,4,2,1,30,1,0
81105.4,151.657,4,2,1,30,1,0
81107.7,181.323,4,2,1,30,1,0
81110,208.861,4,2,1,30,1,0
81112.3,221.227,4,2,1,30,1,0
81114.6,210.526,4,2,1,30,1,0
81116.9,183.849,4,2,1,30,1,0
81119.2,154.316,4,2,1,30,1,0
81121.5,129.676,4,2,1,30,1,0
81123.8,111.822,4,2,1,30,1,0
81126.1,100.163,4,2,1,30,1,0
81128.3,93.6944,4,2,1,30,1,0
81130.6,91.72,4,2,1,30,1,0
81132.9,94.028,4,2,1,30,1,0
81135.2,100.929,4,2,1,30,1,0
81137.5,113.261,4,2,1,30,1,0
81139.8,132.275,4,2,1,30,1,0
81142.1,158.961,4,2,1,30,1,0
81144.4,191.865,4,2,1,30,1,0
81146.7,222.972,4,2,1,30,1,0
81149,237.121,4,2,1,30,1,0
81151.3,224.871,4,2,1,30,1,0
81153.5,194.694,4,2,1,30,1,0
81155.8,161.885,4,2,1,30,1,0
81158.1,134.98,4,2,1,30,1,0
81160.4,115.744,4,2,1,30,1,0
81162.7,103.298,4,2,1,30,1,0
81165,96.432,4,2,1,30,1,0
81167.3,94.3418,4,2,1,30,1,0
81169.6,96.7855,4,2,1,30,1,0
81171.9,104.113,4,2,1,30,1,0
81174.2,117.286,4,2,1,30,1,0
81176.5,137.798,4,2,1,30,1,0
81178.8,167.005,4,2,1,30,1,0
81181,203.707,4,2,1,30,1,0
81183.3,239.127,4,2,1,30,1,0
81185.6,255.477,4,2,1,30,1,0
81187.9,241.313,4,2,1,30,1,0
81190.2,206.9,4,2,1,30,1,0
81192.5,170.236,4,2,1,30,1,0
81194.8,140.736,4,2,1,30,1,0
81197.1,119.95,4,2,1,30,1,0
81199.4,106.635,4,2,1,30,1,0
81201.7,99.3344,4,2,1,30,1,0
81204,97.118,4,2,1,30,1,0
81206.2,99.7096,4,2,1,30,1,0
81208.5,107.504,4,2,1,30,1,0
81210.8,121.608,4,2,1,30,1,0
81213.1,143.802,4,2,1,30,1,0
81215.4,175.907,4,2,1,30,1,0
81217.7,217.108,4,2,1,30,1,0
81220,257.807,4,2,1,30,1,0
81222.3,276.912,4,2,1,30,1,0
81224.6,260.349,4,2,1,30,1,0
81226.9,220.738,4,2,1,30,1,0
81229.2,179.494,4,2,1,30,1,0
81231.5,147.005,4,2,1,30,1,0
81233.7,124.474,4,2,1,30,1,0
81236,110.196,4,2,1,30,1,0
81238.3,102.417,4,2,1,30,1,0
81240.6,100.063,4,2,1,30,1,0
81242.9,102.816,4,2,1,30,1,0
81245.2,111.124,4,2,1,30,1,0
81247.5,126.26,4,2,1,30,1,0
81249.8,150.353,4,2,1,30,1,0
81252.1,185.81,4,2,1,30,1,0
81254.4,232.396,4,2,1,30,1,0
81256.7,279.652,4,2,1,30,1,0
81258.9,302.275,4,2,1,30,1,0
81261.2,282.646,4,2,1,30,1,0
81263.5,236.56,4,2,1,30,1,0
81265.8,189.818,4,2,1,30,1,0
81268.1,153.858,4,2,1,30,1,0
81270.4,129.353,4,2,1,30,1,0
81272.7,114.002,4,2,1,30,1,0
81275,105.697,4,2,1,30,1,0
81277.3,103.191,4,2,1,30,1,0
81279.6,106.122,4,2,1,30,1,0
81281.9,114.995,4,2,1,30,1,0
81284.1,131.282,4,2,1,30,1,0
81286.4,157.53,4,2,1,30,1,0
81288.7,196.896,4,2,1,30,1,0
81291,250,4,2,1,30,1,0
81293.3,305.542,4,2,1,30,1,0
81295.6,332.751,4,2,1,30,1,0
81297.9,309.119,4,2,1,30,1,0
81300.2,254.825,4,2,1,30,1,0
81302.5,201.401,4,2,1,30,1,0
81304.8,161.381,4,2,1,30,1,0
81307.1,134.63,4,2,1,30,1,0
81309.4,118.081,4,2,1,30,1,0
81311.6,109.194,4,2,1,30,1,0
81313.9,106.522,4,2,1,30,1,0
81316.2,109.648,4,2,1,30,1,0
81318.5,119.147,4,2,1,30,1,0
81320.8,136.721,4,2,1,30,1,0
81323.1,165.426,4,2,1,30,1,0
81325.4,209.387,4,2,1,30,1,0
81327.7,270.489,4,2,1,30,1,0
81330,336.715,4,2,1,30,1,0
81332.3,370.062,4,2,1,30,1,0
81334.6,341.064,4,2,1,30,1,0
81336.8,276.147,4,2,1,30,1,0
81339.1,214.491,4,2,1,30,1,0
81341.4,169.678,4,2,1,30,1,0
81343.7,140.355,4,2,1,30,1,0
81346,122.463,4,2,1,30,1,0
81348.3,112.931,4,2,1,30,1,0
81350.6,110.075,4,2,1,30,1,0
81352.9,113.416,4,2,1,30,1,0
81355.2,123.61,4,2,1,30,1,0
81357.5,142.63,4,2,1,30,1,0
81359.8,174.155,4,2,1,30,1,0
81362.1,223.572,4,2,1,30,1,0
81364.3,294.637,4,2,1,30,1,0
81366.6,374.971,4,2,1,30,1,0
81368.9,416.797,4,2,1,30,1,0
81371.2,380.373,4,2,1,30,1,0
81373.5,301.363,4,2,1,30,1,0
81375.8,229.399,4,2,1,30,1,0
81378.1,178.875,4,2,1,30,1,0
81380.4,146.589,4,2,1,30,1,0
81382.7,127.182,4,2,1,30,1,0
81385,116.932,4,2,1,30,1,0
81387.3,113.873,4,2,1,30,1,0
81389.5,117.452,4,2,1,30,1,0
81391.8,128.419,4,2,1,30,1,0
81394.1,149.072,4,2,1,30,1,0
81396.4,183.857,4,2,1,30,1,0
81398.7,239.818,4,2,1,30,1,0
81401,323.519,4,2,1,30,1,0
81403.3,423.035,4,2,1,30,1,0
81405.6,477.042,4,2,1,30,1,0
81407.9,429.923,4,2,1,30,1,0
81410.2,331.647,4,2,1,30,1,0
81412.5,246.536,4,2,1,30,1,0
81414.8,189.125,4,2,1,30,1,0
81417,153.403,4,2,1,30,1,0
81419.3,132.28,4,2,1,30,1,0
81421.6,121.227,4,2,1,30,1,0
81423.9,117.942,4,2,1,30,1,0
81426.2,121.786,4,2,1,30,1,0
81428.5,133.619,4,2,1,30,1,0
81430.8,156.124,4,2,1,30,1,0
81433.1,194.704,4,2,1,30,1,0
81435.4,258.609,4,2,1,30,1,0
81437.7,358.679,4,2,1,30,1,0
81440,485.231,4,2,1,30,1,0
81442.2,557.647,4,2,1,30,1,0
81444.5,494.316,4,2,1,30,1,0
81446.8,368.697,4,2,1,30,1,0
81449.1,266.439,4,2,1,30,1,0
81451.4,200.622,4,2,1,30,1,0
81453.7,160.881,4,2,1,30,1,0
81456,137.803,4,2,1,30,1,0
81458.3,125.849,4,2,1,30,1,0
81460.6,122.313,4,2,1,30,1,0
81462.9,126.452,4,2,1,30,1,0
81465.2,139.257,4,2,1,30,1,0
81467.4,163.876,4,2,1,30,1,0
81469.7,206.911,4,2,1,30,1,0
81472,280.597,4,2,1,30,1,0
81474.3,402.413,4,2,1,30,1,0
81476.6,568.869,4,2,1,30,1,0
81478.9,671.028,4,2,1,30,1,0
81481.2,581.396,4,2,1,30,1,0
81483.5,415.066,4,2,1,30,1,0
81485.8,289.837,4,2,1,30,1,0
81488.1,213.607,4,2,1,30,1,0
81490.4,169.125,4,2,1,30,1,0
81492.7,143.807,4,2,1,30,1,0
81494.9,130.839,4,2,1,30,1,0
81497.2,127.02,4,2,1,30,1,0
81499.5,131.49,4,2,1,30,1,0
81501.8,145.391,4,2,1,30,1,0
81504.1,172.439,4,2,1,30,1,0
81506.4,220.751,4,2,1,30,1,0
81508.7,306.67,4,2,1,30,1,0
81511,458.294,4,2,1,30,1,0
81513.3,687.345,4,2,1,30,1,0
81515.6,842.283,4,2,1,30,1,0
81517.9,705.717,4,2,1,30,1,0
81520.1,474.776,4,2,1,30,1,0
81522.4,317.742,4,2,1,30,1,0
81524.7,228.389,4,2,1,30,1,0
81527,178.26,4,2,1,30,1,0
81529.3,150.359,4,2,1,30,1,0
81531.6,136.24,4,2,1,30,1,0
81533.9,132.105,4,2,1,30,1,0
81536.2,136.946,4,2,1,30,1,0
81538.5,152.091,4,2,1,30,1,0
81540.8,181.945,4,2,1,30,1,0
81543.1,236.574,4,2,1,30,1,0
81545.4,338.085,4,2,1,30,1,0
81547.6,532.196,4,2,1,30,1,0
81549.9,868.151,4,2,1,30,1,0
81552.2,1130.9,4,2,1,30,1,0
81554.5,897.668,4,2,1,30,1,0
81556.8,554.552,4,2,1,30,1,0
81559.1,351.591,4,2,1,30,1,0
81561.4,245.369,4,2,1,30,1,0
81563.7,188.438,4,2,1,30,1,0
81566,157.536,4,2,1,30,1,0
81568.3,142.106,4,2,1,30,1,0
81570.6,137.613,4,2,1,30,1,0
81572.8,142.875,4,2,1,30,1,0
81575.1,159.439,4,2,1,30,1,0
81577.4,192.561,4,2,1,30,1,0
81579.7,254.842,4,2,1,30,1,0
81582,376.671,4,2,1,30,1,0
81584.3,634.515,4,2,1,30,1,0
81586.6,1178.03,4,2,1,30,1,0
81588.9,1720.43,4,2,1,30,1,0
81591.2,1233.05,4,2,1,30,1,0
81593.5,666.552,4,2,1,30,1,0
81595.8,393.513,4,2,1,30,1,0
81598,265.076,4,2,1,30,1,0
81600.3,199.849,4,2,1,30,1,0
81602.6,165.433,4,2,1,30,1,0
81604.9,148.5,4,2,1,30,1,0
81607.2,143.601,4,2,1,30,1,0
81609.5,149.34,4,2,1,30,1,0
81611.8,167.532,4,2,1,30,1,0
81614.1,204.492,4,2,1,30,1,0
81616.4,276.167,4,2,1,30,1,0
81618.7,425.2,4,2,1,30,1,0
81621,785.542,4,2,1,30,1,0
81623.3,1831.93,4,2,1,30,1,0
81625.5,3593.89,4,2,1,30,1,0
81627.8,1968.51,4,2,1,30,1,0
81630.1,835.242,4,2,1,30,1,0
81632.4,446.785,4,2,1,30,1,0
81634.7,288.226,4,2,1,30,1,0
81637,212.73,4,2,1,30,1,0
81639.3,174.163,4,2,1,30,1,0
81641.6,155.497,4,2,1,30,1,0
81643.9,150.133,4,2,1,30,1,0
81646.2,156.418,4,2,1,30,1,0
81648.5,176.492,4,2,1,30,1,0
81650.7,218,4,2,1,30,1,0
81653,301.386,4,2,1,30,1,0
81655.3,488.082,4,2,1,30,1,0
81657.6,1030.92,4,2,1,30,1,0
81659.9,4117.38,4,2,1,30,1,0
81662.2,600000000000000,4,2,1,30,1,0
81664.5,4878.09,4,2,1,30,1,0
81666.8,1118.25,4,2,1,30,1,0
81669.1,516.74,4,2,1,30,1,0
81671.4,315.806,4,2,1,30,1,0
81673.7,227.387,4,2,1,30,1,0
81676,183.866,4,2,1,30,1,0
81678.2,163.185,4,2,1,30,1,0
81680.5,157.288,4,2,1,30,1,0
81682.8,164.2,4,2,1,30,1,0
81685.1,186.463,4,2,1,30,1,0
81687.4,233.418,4,2,1,30,1,0
81689.7,331.675,4,2,1,30,1,0
81692,572.792,4,2,1,30,1,0
81694.3,1499.23,4,2,1,30,1,0
81696.6,600000000000000,4,2,1,30,1,0
81698.9,600000000000000,4,2,1,30,1,0
81701.2,600000000000000,4,2,1,30,1,0
81703.4,1691.31,4,2,1,30,1,0
81705.7,612.666,4,2,1,30,1,0
81708,349.223,4,2,1,30,1,0
81710.3,244.213,4,2,1,30,1,0
81712.6,194.714,4,2,1,30,1,0
81714.9,171.674,4,2,1,30,1,0
81717.2,165.16,4,2,1,30,1,0
81719.5,172.797,4,2,1,30,1,0
81721.8,197.629,4,2,1,30,1,0
81724.1,251.183,4,2,1,30,1,0
81726.4,368.732,4,2,1,30,1,0
81728.7,693.08,4,2,1,30,1,0
81730.9,2747.2,4,2,1,30,1,0
81733.2,600000000000000,4,2,1,30,1,0
81735.5,600000000000000,4,2,1,30,1,0
81737.8,600000000000000,4,2,1,30,1,0
81740.1,3469.12,4,2,1,30,1,0
81742.4,752.326,4,2,1,30,1,0
81744.7,390.549,4,2,1,30,1,0
81747,263.728,4,2,1,30,1,0
81749.3,206.922,4,2,1,30,1,0
81751.6,181.094,4,2,1,30,1,0
81753.9,173.86,4,2,1,30,1,0
81756.1,182.344,4,2,1,30,1,0
81758.4,210.217,4,2,1,30,1,0
81760.7,271.875,4,2,1,30,1,0
81763,415.11,4,2,1,30,1,0
81765.3,877.319,4,2,1,30,1,0
81767.6,16391.5,4,2,1,30,1,0
81769.9,600000000000000,4,2,1,30,1,0
81772.2,600000000000000,4,2,1,30,1,0
81774.5,600000000000000,4,2,1,30,1,0
81776.8,600000000000000,4,2,1,30,1,0
81779.1,974.459,4,2,1,30,1,0
81781.4,442.968,4,2,1,30,1,0
81783.6,286.632,4,2,1,30,1,0
81785.9,220.763,4,2,1,30,1,0
81788.2,191.608,4,2,1,30,1,0
81790.5,183.528,4,2,1,30,1,0
81792.8,193.008,4,2,1,30,1,0
81795.1,224.518,4,2,1,30,1,0
81797.4,296.282,4,2,1,30,1,0
81799.7,474.834,4,2,1,30,1,0
81802,1194.98,4,2,1,30,1,0
81804.3,600000000000000,4,2,1,30,1,0
81806.6,600000000000000,4,2,1,30,1,0
81808.8,600000000000000,4,2,1,30,1,0
81811.1,600000000000000,4,2,1,30,1,0
81813.4,600000000000000,4,2,1,30,1,0
81815.7,1382.72,4,2,1,30,1,0
81818,511.64,4,2,1,30,1,0
81820.3,313.894,4,2,1,30,1,0
81822.6,236.589,4,2,1,30,1,0
81824.9,203.417,4,2,1,30,1,0
81827.2,194.335,4,2,1,30,1,0
81829.5,204.997,4,2,1,30,1,0
81831.8,240.906,4,2,1,30,1,0
81834,325.503,4,2,1,30,1,0
81836.3,554.631,4,2,1,30,1,0
81838.6,1873.24,4,2,1,30,1,0
81840.9,600000000000000,4,2,1,30,1,0
81843.2,600000000000000,4,2,1,30,1,0
81845.5,600000000000000,4,2,1,30,1,0
81847.8,600000000000000,4,2,1,30,1,0
81850.1,600000000000000,4,2,1,30,1,0
81852.4,2379.76,4,2,1,30,1,0
81854.7,605.51,4,2,1,30,1,0
81857,346.886,4,2,1,30,1,0
81859.3,254.859,4,2,1,30,1,0
81861.5,216.779,4,2,1,30,1,0
81863.8,206.494,4,2,1,30,1,0
81866.1,218.573,4,2,1,30,1,0
81868.4,259.876,4,2,1,30,1,0
81870.7,361.12,4,2,1,30,1,0
81873,666.667,4,2,1,30,1,0
81873,666.667,4,2,1,30,1,0
81873,666.667,4,2,1,30,1,0
82040,666.667,4,2,1,30,1,0
82040,666.667,4,2,1,30,1,0
82707,666.667,4,2,1,30,1,0
92873,-250,4,2,1,30,0,0
93290,-100,4,2,1,30,0,0
104040,-100,4,2,1,30,0,1
120040,-113.636363636364,4,2,1,30,0,0
125373,-108.695652173913,4,2,1,30,0,0
130373,6E+15,4,2,1,30,1,0
130707,60.0601,4,2,1,30,1,0
130709.3,65.016,4,2,1,30,1,0
130711.6,69.9203,4,2,1,30,1,0
130713.9,73.6655,4,2,1,30,1,0
130716.2,75.147,4,2,1,30,1,0
130718.5,73.8716,4,2,1,30,1,0
130720.7,70.2926,4,2,1,30,1,0
130723,65.4998,4,2,1,30,1,0
130725.3,60.6116,4,2,1,30,1,0
130727.6,56.4022,4,2,1,30,1,0
130729.9,53.2744,4,2,1,30,1,0
130732.2,51.3875,4,2,1,30,1,0
130734.5,50.7878,4,2,1,30,1,0
130736.8,51.4877,4,2,1,30,1,0
130739.1,53.4903,4,2,1,30,1,0
130741.4,56.766,4,2,1,30,1,0
130743.7,61.1733,4,2,1,30,1,0
130746,66.3225,4,2,1,30,1,0
130748.2,71.4336,4,2,1,30,1,0
130750.5,75.3473,4,2,1,30,1,0
130752.8,76.8979,4,2,1,30,1,0
130755.1,75.563,4,2,1,30,1,0
130757.4,71.8223,4,2,1,30,1,0
130759.7,66.8261,4,2,1,30,1,0
130762,61.7455,4,2,1,30,1,0
130764.3,57.3829,4,2,1,30,1,0
130766.6,54.1485,4,2,1,30,1,0
130768.9,52.2002,4,2,1,30,1,0
130771.2,51.5816,4,2,1,30,1,0
130773.4,52.3036,4,2,1,30,1,0
130775.7,54.3715,4,2,1,30,1,0
130778,57.7595,4,2,1,30,1,0
130780.3,62.3286,4,2,1,30,1,0
130782.6,67.6826,4,2,1,30,1,0
130784.9,73.014,4,2,1,30,1,0
130787.2,77.1077,4,2,1,30,1,0
130789.5,78.7324,4,2,1,30,1,0
130791.8,77.3336,4,2,1,30,1,0
130794.1,73.4201,4,2,1,30,1,0
130796.4,68.2072,4,2,1,30,1,0
130798.6,62.9228,4,2,1,30,1,0
130800.9,58.3983,4,2,1,30,1,0
130803.2,55.0517,4,2,1,30,1,0
130805.5,53.0391,4,2,1,30,1,0
130807.8,52.4006,4,2,1,30,1,0
130810.1,53.1459,4,2,1,30,1,0
130812.4,55.2822,4,2,1,30,1,0
130814.7,58.7884,4,2,1,30,1,0
130817,63.5284,4,2,1,30,1,0
130819.3,69.0997,4,2,1,30,1,0
130821.6,74.6658,4,2,1,30,1,0
130823.9,78.9523,4,2,1,30,1,0
130826.1,80.6565,4,2,1,30,1,0
130828.4,79.1891,4,2,1,30,1,0
130830.7,75.0905,4,2,1,30,1,0
130833,69.6466,4,2,1,30,1,0
130835.3,64.1457,4,2,1,30,1,0
130837.6,59.4502,4,2,1,30,1,0
130839.9,55.9856,4,2,1,30,1,0
130842.2,53.9054,4,2,1,30,1,0
130844.5,53.246,4,2,1,30,1,0
130846.8,54.0157,4,2,1,30,1,0
130849.1,56.224,4,2,1,30,1,0
130851.3,59.8546,4,2,1,30,1,0
130853.6,64.7752,4,2,1,30,1,0
130855.9,70.5774,4,2,1,30,1,0
130858.2,76.3942,4,2,1,30,1,0
130860.5,80.8873,4,2,1,30,1,0
130862.8,82.6771,4,2,1,30,1,0
130865.1,81.1359,4,2,1,30,1,0
130867.4,76.8388,4,2,1,30,1,0
130869.7,71.148,4,2,1,30,1,0
130872,65.4172,4,2,1,30,1,0
130874.3,60.5408,4,2,1,30,1,0
130876.6,56.9517,4,2,1,30,1,0
130878.8,54.8005,4,2,1,30,1,0
130881.1,54.1191,4,2,1,30,1,0
130883.4,54.9145,4,2,1,30,1,0
130885.7,57.1984,4,2,1,30,1,0
130888,60.9601,4,2,1,30,1,0
130890.3,66.072,4,2,1,30,1,0
130892.6,72.1197,4,2,1,30,1,0
130894.9,78.2044,4,2,1,30,1,0
130897.2,82.9196,4,2,1,30,1,0
130899.5,84.8015,4,2,1,30,1,0
130901.8,83.1808,4,2,1,30,1,0
130904,78.6704,4,2,1,30,1,0
130906.3,72.7156,4,2,1,30,1,0
130908.6,66.7401,4,2,1,30,1,0
130910.9,61.6721,4,2,1,30,1,0
130913.2,57.9517,4,2,1,30,1,0
130915.5,55.7258,4,2,1,30,1,0
130917.8,55.0214,4,2,1,30,1,0
130920.1,55.8437,4,2,1,30,1,0
130922.4,58.2072,4,2,1,30,1,0
130924.7,62.1073,4,2,1,30,1,0
130927,67.4218,4,2,1,30,1,0
130929.3,73.7309,4,2,1,30,1,0
130931.5,80.1025,4,2,1,30,1,0
130933.8,85.0566,4,2,1,30,1,0
130936.1,87.0379,4,2,1,30,1,0
130938.4,85.3315,4,2,1,30,1,0
130940.7,80.5915,4,2,1,30,1,0
130943,74.3538,4,2,1,30,1,0
130945.3,68.1176,4,2,1,30,1,0
130947.6,62.8465,4,2,1,30,1,0
130949.9,58.9875,4,2,1,30,1,0
130952.2,56.6829,4,2,1,30,1,0
130954.5,55.9542,4,2,1,30,1,0
130956.7,56.8049,4,2,1,30,1,0
130959,59.2523,4,2,1,30,1,0
130961.3,63.2985,4,2,1,30,1,0
130963.6,68.8279,4,2,1,30,1,0
130965.9,75.4157,4,2,1,30,1,0
130968.2,82.095,4,2,1,30,1,0
130970.5,87.3067,4,2,1,30,1,0
130972.8,89.3955,4,2,1,30,1,0
130975.1,87.5964,4,2,1,30,1,0
130977.4,82.6087,4,2,1,30,1,0
130979.7,76.0675,4,2,1,30,1,0
130982,69.5531,4,2,1,30,1,0
130984.2,64.0665,4,2,1,30,1,0
130986.5,60.061,4,2,1,30,1,0
130988.8,57.6734,4,2,1,30,1,0
130991.1,56.9192,4,2,1,30,1,0
130993.4,57.7997,4,2,1,30,1,0
130995.7,60.3355,4,2,1,30,1,0
130998,64.5363,4,2,1,30,1,0
131000.3,70.2938,4,2,1,30,1,0
131002.6,77.1793,4,2,1,30,1,0
131004.9,84.1892,4,2,1,30,1,0
131007.2,89.6791,4,2,1,30,1,0
131009.4,91.8843,4,2,1,30,1,0
131011.7,89.9847,4,2,1,30,1,0
131014,84.7296,4,2,1,30,1,0
131016.3,77.8621,4,2,1,30,1,0
131018.6,71.0505,4,2,1,30,1,0
131020.9,65.3348,4,2,1,30,1,0
131023.2,61.1743,4,2,1,30,1,0
131025.5,58.6992,4,2,1,30,1,0
131027.8,57.9181,4,2,1,30,1,0
131030.1,58.83,4,2,1,30,1,0
131032.4,61.4591,4,2,1,30,1,0
131034.6,65.8234,4,2,1,30,1,0
131036.9,71.8236,4,2,1,30,1,0
131039.2,79.0274,4,2,1,30,1,0
131041.5,86.393,4,2,1,30,1,0
131043.8,92.184,4,2,1,30,1,0
131046.1,94.5157,4,2,1,30,1,0
131048.4,92.507,4,2,1,30,1,0
131050.7,86.9621,4,2,1,30,1,0
131053,79.7435,4,2,1,30,1,0
131055.3,72.6137,4,2,1,30,1,0
131057.6,66.6543,4,2,1,30,1,0
131059.9,62.3296,4,2,1,30,1,0
131062.1,59.7621,4,2,1,30,1,0
131064.4,58.9527,4,2,1,30,1,0
131066.7,59.8977,4,2,1,30,1,0
131069,62.6253,4,2,1,30,1,0
131071.3,67.1629,4,2,1,30,1,0
131073.6,73.4214,4,2,1,30,1,0
131075.9,80.9662,4,2,1,30,1,0
131078.2,88.7153,4,2,1,30,1,0
131080.5,94.8328,4,2,1,30,1,0
131082.8,97.3023,4,2,1,30,1,0
131085.1,95.1747,4,2,1,30,1,0
131087.3,89.3156,4,2,1,30,1,0
131089.6,81.718,4,2,1,30,1,0
131091.9,74.2473,4,2,1,30,1,0
131094.2,68.0282,4,2,1,30,1,0
131096.5,63.5294,4,2,1,30,1,0
131098.8,60.8643,4,2,1,30,1,0
131101.1,60.0249,4,2,1,30,1,0
131103.4,61.0049,4,2,1,30,1,0
131105.7,63.8366,4,2,1,30,1,0
131108,68.5581,4,2,1,30,1,0
131110.3,75.092,4,2,1,30,1,0
131112.6,83.0025,4,2,1,30,1,0
131114.8,91.166,4,2,1,30,1,0
131117.1,97.6384,4,2,1,30,1,0
131119.4,100.258,4,2,1,30,1,0
131121.7,98.0008,4,2,1,30,1,0
131124,91.7999,4,2,1,30,1,0
131126.3,83.7927,4,2,1,30,1,0
131128.6,75.9561,4,2,1,30,1,0
131130.9,69.4599,4,2,1,30,1,0
131133.2,64.7763,4,2,1,30,1,0
131135.5,62.0078,4,2,1,30,1,0
131137.8,61.1368,4,2,1,30,1,0
131140,62.1538,4,2,1,30,1,0
131142.3,65.0957,4,2,1,30,1,0
131144.6,70.0125,4,2,1,30,1,0
131146.9,76.8403,4,2,1,30,1,0
131149.2,85.1438,4,2,1,30,1,0
131151.5,93.7558,4,2,1,30,1,0
131153.8,100.615,4,2,1,30,1,0
131156.1,103.399,4,2,1,30,1,0
131158.4,101,4,2,1,30,1,0
131160.7,94.4264,4,2,1,30,1,0
131163,85.9756,4,2,1,30,1,0
131165.3,77.7454,4,2,1,30,1,0
131167.5,70.9532,4,2,1,30,1,0
131169.8,66.0731,4,2,1,30,1,0
131172.1,63.1951,4,2,1,30,1,0
131174.4,62.2907,4,2,1,30,1,0
131176.7,63.3468,4,2,1,30,1,0
131179,66.4055,4,2,1,30,1,0
131181.3,71.5299,4,2,1,30,1,0
131183.6,78.672,4,2,1,30,1,0
131185.9,87.3986,4,2,1,30,1,0
131188.2,96.4971,4,2,1,30,1,0
131190.5,103.779,4,2,1,30,1,0
131192.7,106.744,4,2,1,30,1,0
131195,104.188,4,2,1,30,1,0
131197.3,97.2076,4,2,1,30,1,0
131199.6,88.2752,4,2,1,30,1,0
131201.9,79.621,4,2,1,30,1,0
131204.2,72.5122,4,2,1,30,1,0
131206.5,67.423,4,2,1,30,1,0
131208.8,64.4288,4,2,1,30,1,0
131211.1,63.489,4,2,1,30,1,0
131213.4,64.5864,4,2,1,30,1,0
131215.7,67.7691,4,2,1,30,1,0
131217.9,73.1146,4,2,1,30,1,0
131220.2,80.5932,4,2,1,30,1,0
131222.5,89.776,4,2,1,30,1,0
131224.8,99.4035,4,2,1,30,1,0
131227.1,107.148,4,2,1,30,1,0
131229.4,110.311,4,2,1,30,1,0
131231.7,107.585,4,2,1,30,1,0
131234,100.158,4,2,1,30,1,0
131236.3,90.7012,4,2,1,30,1,0
131238.6,81.5894,4,2,1,30,1,0
131240.9,74.1411,4,2,1,30,1,0
131243.2,68.8291,4,2,1,30,1,0
131245.4,65.7116,4,2,1,30,1,0
131247.7,64.7343,4,2,1,30,1,0
131250,65.8756,4,2,1,30,1,0
131252.3,69.1898,4,2,1,30,1,0
131254.6,74.771,4,2,1,30,1,0
131256.9,82.6105,4,2,1,30,1,0
131259.2,92.2864,4,2,1,30,1,0
131261.5,102.49,4,2,1,30,1,0
131263.8,110.744,4,2,1,30,1,0
131266.1,114.126,4,2,1,30,1,0
131268.4,111.21,4,2,1,30,1,0
131270.6,103.292,4,2,1,30,1,0
131272.9,93.2643,4,2,1,30,1,0
131275.2,83.6575,4,2,1,30,1,0
131277.5,75.845,4,2,1,30,1,0
131279.8,70.2951,4,2,1,30,1,0
131282.1,67.0466,4,2,1,30,1,0
131284.4,66.0295,4,2,1,30,1,0
131286.7,67.2173,4,2,1,30,1,0
131289,70.6714,4,2,1,30,1,0
131291.3,76.5043,4,2,1,30,1,0
131293.6,84.7314,4,2,1,30,1,0
131295.9,94.9412,4,2,1,30,1,0
131298.1,105.775,4,2,1,30,1,0
131300.4,114.589,4,2,1,30,1,0
131302.7,118.214,4,2,1,30,1,0
131305,115.088,4,2,1,30,1,0
131307.3,106.63,4,2,1,30,1,0
131309.6,95.9766,4,2,1,30,1,0
131311.9,85.8332,4,2,1,30,1,0
131314.2,77.629,4,2,1,30,1,0
131316.5,71.8249,4,2,1,30,1,0
131318.8,68.4369,4,2,1,30,1,0
131321.1,67.3775,4,2,1,30,1,0
131323.3,68.6147,4,2,1,30,1,0
131325.6,72.2178,4,2,1,30,1,0
131327.9,78.3198,4,2,1,30,1,0
131330.2,86.9641,4,2,1,30,1,0
131332.5,97.7533,4,2,1,30,1,0
131334.8,109.278,4,2,1,30,1,0
131337.1,118.71,4,2,1,30,1,0
131339.4,122.605,4,2,1,30,1,0
131341.7,119.246,4,2,1,30,1,0
131344,110.19,4,2,1,30,1,0
131346.3,98.8512,4,2,1,30,1,0
131348.5,88.1251,4,2,1,30,1,0
131350.8,79.4989,4,2,1,30,1,0
131353.1,73.4228,4,2,1,30,1,0
131355.4,69.8861,4,2,1,30,1,0
131357.7,68.7817,4,2,1,30,1,0
131360,70.0716,4,2,1,30,1,0
131362.3,73.8335,4,2,1,30,1,0
131364.6,80.2236,4,2,1,30,1,0
131366.9,89.3176,4,2,1,30,1,0
131369.2,100.737,4,2,1,30,1,0
131371.5,113.02,4,2,1,30,1,0
131373.8,123.139,4,2,1,30,1,0
131376,127.336,4,2,1,30,1,0
131378.3,123.716,4,2,1,30,1,0
131380.6,113.996,4,2,1,30,1,0
131382.9,101.903,4,2,1,30,1,0
131385.2,90.5428,4,2,1,30,1,0
131387.5,81.4612,4,2,1,30,1,0
131389.8,75.0934,4,2,1,30,1,0
131392.1,71.398,4,2,1,30,1,0
131394.4,70.2457,4,2,1,30,1,0
131396.7,71.5916,4,2,1,30,1,0
131399,75.523,4,2,1,30,1,0
131401.2,82.2222,4,2,1,30,1,0
131403.5,91.8021,4,2,1,30,1,0
131405.8,103.909,4,2,1,30,1,0
131408.1,117.027,4,2,1,30,1,0
131410.4,127.912,4,2,1,30,1,0
131412.7,132.446,4,2,1,30,1,0
131415,128.535,4,2,1,30,1,0
131417.3,118.074,4,2,1,30,1,0
131419.6,105.15,4,2,1,30,1,0
131421.9,93.0969,4,2,1,30,1,0
131424.2,83.5227,4,2,1,30,1,0
131426.5,76.8418,4,2,1,30,1,0
131428.7,72.9767,4,2,1,30,1,0
131431,71.7733,4,2,1,30,1,0
131433.3,73.179,4,2,1,30,1,0
131435.6,77.2917,4,2,1,30,1,0
131437.9,84.323,4,2,1,30,1,0
131440.2,94.4287,4,2,1,30,1,0
131442.5,107.287,4,2,1,30,1,0
131444.8,121.33,4,2,1,30,1,0
131447.1,133.069,4,2,1,30,1,0
131449.4,137.983,4,2,1,30,1,0
131451.7,133.744,4,2,1,30,1,0
131453.9,122.455,4,2,1,30,1,0
131456.2,108.611,4,2,1,30,1,0
131458.5,95.7992,4,2,1,30,1,0
131460.8,85.6914,4,2,1,30,1,0
131463.1,78.6736,4,2,1,30,1,0
131465.4,74.6269,4,2,1,30,1,0
131467.7,73.3689,4,2,1,30,1,0
131470,74.8384,4,2,1,30,1,0
131472.3,79.1453,4,2,1,30,1,0
131474.6,86.5339,4,2,1,30,1,0
131476.9,97.2101,4,2,1,30,1,0
131479.2,110.891,4,2,1,30,1,0
131481.4,125.96,4,2,1,30,1,0
131483.7,138.66,4,2,1,30,1,0
131486,144.004,4,2,1,30,1,0
131488.3,139.392,4,2,1,30,1,0
131490.6,127.174,4,2,1,30,1,0
131492.9,112.306,4,2,1,30,1,0
131495.2,98.6631,4,2,1,30,1,0
131497.5,87.9756,4,2,1,30,1,0
131499.8,80.5948,4,2,1,30,1,0
131502.1,76.3534,4,2,1,30,1,0
131504.4,75.037,4,2,1,30,1,0
131506.6,76.5748,4,2,1,30,1,0
131508.9,81.0899,4,2,1,30,1,0
131511.2,88.8639,4,2,1,30,1,0
131513.5,100.16,4,2,1,30,1,0
131515.8,114.747,4,2,1,30,1,0
131518.1,130.958,4,2,1,30,1,0
131520.4,144.741,4,2,1,30,1,0
131522.7,150.574,4,2,1,30,1,0
131525,145.539,4,2,1,30,1,0
131527.3,132.271,4,2,1,30,1,0
131529.6,116.263,4,2,1,30,1,0
131531.9,101.704,4,2,1,30,1,0
131534.1,90.3849,4,2,1,30,1,0
131536.4,82.6122,4,2,1,30,1,0
131538.7,78.1616,4,2,1,30,1,0
131541,76.7828,4,2,1,30,1,0
131543.3,78.3937,4,2,1,30,1,0
131545.6,83.1325,4,2,1,30,1,0
131547.9,91.3228,4,2,1,30,1,0
131550.2,103.295,4,2,1,30,1,0
131552.5,118.88,4,2,1,30,1,0
131554.8,136.37,4,2,1,30,1,0
131557.1,151.38,4,2,1,30,1,0
131559.3,157.772,4,2,1,30,1,0
131561.6,152.253,4,2,1,30,1,0
131563.9,137.793,4,2,1,30,1,0
131566.2,120.508,4,2,1,30,1,0
131568.5,104.937,4,2,1,30,1,0
131570.8,92.93,4,2,1,30,1,0
131573.1,84.7332,4,2,1,30,1,0
131575.4,80.0576,4,2,1,30,1,0
131577.7,78.6117,4,2,1,30,1,0
131580,80.3011,4,2,1,30,1,0
131582.3,85.2806,4,2,1,30,1,0
131584.5,93.9217,4,2,1,30,1,0
131586.8,106.633,4,2,1,30,1,0
131589.1,123.322,4,2,1,30,1,0
131591.4,142.247,4,2,1,30,1,0
131593.7,158.658,4,2,1,30,1,0
131596,165.693,4,2,1,30,1,0
131598.3,159.617,4,2,1,30,1,0
131600.6,143.797,4,2,1,30,1,0
131602.9,125.075,4,2,1,30,1,0
131605.2,108.383,4,2,1,30,1,0
131607.5,95.6225,4,2,1,30,1,0
131609.8,86.966,4,2,1,30,1,0
131612,82.0479,4,2,1,30,1,0
131614.3,80.5299,4,2,1,30,1,0
131616.6,82.3037,4,2,1,30,1,0
131618.9,87.5427,4,2,1,30,1,0
131621.2,96.6729,4,2,1,30,1,0
131623.5,110.193,4,2,1,30,1,0
131625.8,128.109,4,2,1,30,1,0
131628.1,148.655,4,2,1,30,1,0
131630.4,166.67,4,2,1,30,1,0
131632.7,174.452,4,2,1,30,1,0
131635,167.729,4,2,1,30,1,0
131637.2,150.348,4,2,1,30,1,0
131639.5,130.002,4,2,1,30,1,0
131641.8,112.064,4,2,1,30,1,0
131644.1,98.4757,4,2,1,30,1,0
131646.4,89.3197,4,2,1,30,1,0
131648.7,84.1397,4,2,1,30,1,0
131651,82.544,4,2,1,30,1,0
131653.3,84.4087,4,2,1,30,1,0
131655.6,89.9281,4,2,1,30,1,0
131657.9,99.59,4,2,1,30,1,0
131660.2,113.999,4,2,1,30,1,0
131662.5,133.283,4,2,1,30,1,0
131664.7,155.666,4,2,1,30,1,0
131667,175.535,4,2,1,30,1,0
131669.3,184.188,4,2,1,30,1,0
131671.6,176.71,4,2,1,30,1,0
131673.9,157.524,4,2,1,30,1,0
131676.2,135.332,4,2,1,30,1,0
131678.5,116.003,4,2,1,30,1,0
131680.8,101.504,4,2,1,30,1,0
131683.1,91.8042,4,2,1,30,1,0
131685.4,86.3409,4,2,1,30,1,0
131687.7,84.6615,4,2,1,30,1,0
131689.9,86.6241,4,2,1,30,1,0
131692.2,92.4471,4,2,1,30,1,0
131694.5,102.689,4,2,1,30,1,0
131696.8,118.078,4,2,1,30,1,0
131699.1,138.892,4,2,1,30,1,0
131701.4,163.372,4,2,1,30,1,0
131703.7,185.396,4,2,1,30,1,0
131706,195.074,4,2,1,30,1,0
131708.3,186.707,4,2,1,30,1,0
131710.6,165.419,4,2,1,30,1,0
131712.9,141.119,4,2,1,30,1,0
131715.1,120.228,4,2,1,30,1,0
131717.4,104.725,4,2,1,30,1,0
131719.7,94.431,4,2,1,30,1,0
131722,88.6603,4,2,1,30,1,0
131724.3,86.8904,4,2,1,30,1,0
131726.6,88.9591,4,2,1,30,1,0
131728.9,95.1113,4,2,1,30,1,0
131731.2,105.986,4,2,1,30,1,0
131733.5,122.459,4,2,1,30,1,0
131735.8,144.994,4,2,1,30,1,0
131738.1,171.88,4,2,1,30,1,0
131740.4,196.43,4,2,1,30,1,0
131742.6,207.329,4,2,1,30,1,0
131744.9,197.902,4,2,1,30,1,0
131747.2,174.148,4,2,1,30,1,0
131749.5,147.423,4,2,1,30,1,0
131751.8,124.774,4,2,1,30,1,0
131754.1,108.157,4,2,1,30,1,0
131756.4,97.2125,4,2,1,30,1,0
131758.7,91.1079,4,2,1,30,1,0
131761,89.2399,4,2,1,30,1,0
131763.3,91.4233,4,2,1,30,1,0
131765.6,97.9337,4,2,1,30,1,0
131767.8,109.503,4,2,1,30,1,0
131770.1,127.178,4,2,1,30,1,0
131772.4,151.657,4,2,1,30,1,0
131774.7,181.323,4,2,1,30,1,0
131777,208.861,4,2,1,30,1,0
131779.3,221.227,4,2,1,30,1,0
131781.6,210.526,4,2,1,30,1,0
131783.9,183.849,4,2,1,30,1,0
131786.2,154.316,4,2,1,30,1,0
131788.5,129.676,4,2,1,30,1,0
131790.8,111.822,4,2,1,30,1,0
131793.1,100.163,4,2,1,30,1,0
131795.3,93.6944,4,2,1,30,1,0
131797.6,91.72,4,2,1,30,1,0
131799.9,94.028,4,2,1,30,1,0
131802.2,100.929,4,2,1,30,1,0
131804.5,113.261,4,2,1,30,1,0
131806.8,132.275,4,2,1,30,1,0
131809.1,158.961,4,2,1,30,1,0
131811.4,191.865,4,2,1,30,1,0
131813.7,222.972,4,2,1,30,1,0
131816,237.121,4,2,1,30,1,0
131818.3,224.871,4,2,1,30,1,0
131820.5,194.694,4,2,1,30,1,0
131822.8,161.885,4,2,1,30,1,0
131825.1,134.98,4,2,1,30,1,0
131827.4,115.744,4,2,1,30,1,0
131829.7,103.298,4,2,1,30,1,0
131832,96.432,4,2,1,30,1,0
131834.3,94.3418,4,2,1,30,1,0
131836.6,96.7855,4,2,1,30,1,0
131838.9,104.113,4,2,1,30,1,0
131841.2,117.286,4,2,1,30,1,0
131843.5,137.798,4,2,1,30,1,0
131845.8,167.005,4,2,1,30,1,0
131848,203.707,4,2,1,30,1,0
131850.3,239.127,4,2,1,30,1,0
131852.6,255.477,4,2,1,30,1,0
131854.9,241.313,4,2,1,30,1,0
131857.2,206.9,4,2,1,30,1,0
131859.5,170.236,4,2,1,30,1,0
131861.8,140.736,4,2,1,30,1,0
131864.1,119.95,4,2,1,30,1,0
131866.4,106.635,4,2,1,30,1,0
131868.7,99.3344,4,2,1,30,1,0
131871,97.118,4,2,1,30,1,0
131873.2,99.7096,4,2,1,30,1,0
131875.5,107.504,4,2,1,30,1,0
131877.8,121.608,4,2,1,30,1,0
131880.1,143.802,4,2,1,30,1,0
131882.4,175.907,4,2,1,30,1,0
131884.7,217.108,4,2,1,30,1,0
131887,257.807,4,2,1,30,1,0
131889.3,276.912,4,2,1,30,1,0
131891.6,260.349,4,2,1,30,1,0
131893.9,220.738,4,2,1,30,1,0
131896.2,179.494,4,2,1,30,1,0
131898.5,147.005,4,2,1,30,1,0
131900.7,124.474,4,2,1,30,1,0
131903,110.196,4,2,1,30,1,0
131905.3,102.417,4,2,1,30,1,0
131907.6,100.063,4,2,1,30,1,0
131909.9,102.816,4,2,1,30,1,0
131912.2,111.124,4,2,1,30,1,0
131914.5,126.26,4,2,1,30,1,0
131916.8,150.353,4,2,1,30,1,0
131919.1,185.81,4,2,1,30,1,0
131921.4,232.396,4,2,1,30,1,0
131923.7,279.652,4,2,1,30,1,0
131925.9,302.275,4,2,1,30,1,0
131928.2,282.646,4,2,1,30,1,0
131930.5,236.56,4,2,1,30,1,0
131932.8,189.818,4,2,1,30,1,0
131935.1,153.858,4,2,1,30,1,0
131937.4,129.353,4,2,1,30,1,0
131939.7,114.002,4,2,1,30,1,0
131942,105.697,4,2,1,30,1,0
131944.3,103.191,4,2,1,30,1,0
131946.6,106.122,4,2,1,30,1,0
131948.9,114.995,4,2,1,30,1,0
131951.1,131.282,4,2,1,30,1,0
131953.4,157.53,4,2,1,30,1,0
131955.7,196.896,4,2,1,30,1,0
131958,250,4,2,1,30,1,0
131960.3,305.542,4,2,1,30,1,0
131962.6,332.751,4,2,1,30,1,0
131964.9,309.119,4,2,1,30,1,0
131967.2,254.825,4,2,1,30,1,0
131969.5,201.401,4,2,1,30,1,0
131971.8,161.381,4,2,1,30,1,0
131974.1,134.63,4,2,1,30,1,0
131976.4,118.081,4,2,1,30,1,0
131978.6,109.194,4,2,1,30,1,0
131980.9,106.522,4,2,1,30,1,0
131983.2,109.648,4,2,1,30,1,0
131985.5,119.147,4,2,1,30,1,0
131987.8,136.721,4,2,1,30,1,0
131990.1,165.426,4,2,1,30,1,0
131992.4,209.387,4,2,1,30,1,0
131994.7,270.489,4,2,1,30,1,0
131997,336.715,4,2,1,30,1,0
131999.3,370.062,4,2,1,30,1,0
132001.6,341.064,4,2,1,30,1,0
132003.8,276.147,4,2,1,30,1,0
132006.1,214.491,4,2,1,30,1,0
132008.4,169.678,4,2,1,30,1,0
132010.7,140.355,4,2,1,30,1,0
132013,122.463,4,2,1,30,1,0
132015.3,112.931,4,2,1,30,1,0
132017.6,110.075,4,2,1,30,1,0
132019.9,113.416,4,2,1,30,1,0
132022.2,123.61,4,2,1,30,1,0
132024.5,142.63,4,2,1,30,1,0
132026.8,174.155,4,2,1,30,1,0
132029.1,223.572,4,2,1,30,1,0
132031.3,294.637,4,2,1,30,1,0
132033.6,374.971,4,2,1,30,1,0
132035.9,416.797,4,2,1,30,1,0
132038.2,380.373,4,2,1,30,1,0
132040.5,301.363,4,2,1,30,1,0
132042.8,229.399,4,2,1,30,1,0
132045.1,178.875,4,2,1,30,1,0
132047.4,146.589,4,2,1,30,1,0
132049.7,127.182,4,2,1,30,1,0
132052,116.932,4,2,1,30,1,0
132054.3,113.873,4,2,1,30,1,0
132056.5,117.452,4,2,1,30,1,0
132058.8,128.419,4,2,1,30,1,0
132061.1,149.072,4,2,1,30,1,0
132063.4,183.857,4,2,1,30,1,0
132065.7,239.818,4,2,1,30,1,0
132068,323.519,4,2,1,30,1,0
132070.3,423.035,4,2,1,30,1,0
132072.6,477.042,4,2,1,30,1,0
132074.9,429.923,4,2,1,30,1,0
132077.2,331.647,4,2,1,30,1,0
132079.5,246.536,4,2,1,30,1,0
132081.8,189.125,4,2,1,30,1,0
132084,153.403,4,2,1,30,1,0
132086.3,132.28,4,2,1,30,1,0
132088.6,121.227,4,2,1,30,1,0
132090.9,117.942,4,2,1,30,1,0
132093.2,121.786,4,2,1,30,1,0
132095.5,133.619,4,2,1,30,1,0
132097.8,156.124,4,2,1,30,1,0
132100.1,194.704,4,2,1,30,1,0
132102.4,258.609,4,2,1,30,1,0
132104.7,358.679,4,2,1,30,1,0
132107,485.231,4,2,1,30,1,0
132109.2,557.647,4,2,1,30,1,0
132111.5,494.316,4,2,1,30,1,0
132113.8,368.697,4,2,1,30,1,0
132116.1,266.439,4,2,1,30,1,0
132118.4,200.622,4,2,1,30,1,0
132120.7,160.881,4,2,1,30,1,0
132123,137.803,4,2,1,30,1,0
132125.3,125.849,4,2,1,30,1,0
132127.6,122.313,4,2,1,30,1,0
132129.9,126.452,4,2,1,30,1,0
132132.2,139.257,4,2,1,30,1,0
132134.4,163.876,4,2,1,30,1,0
132136.7,206.911,4,2,1,30,1,0
132139,280.597,4,2,1,30,1,0
132141.3,402.413,4,2,1,30,1,0
132143.6,568.869,4,2,1,30,1,0
132145.9,671.028,4,2,1,30,1,0
132148.2,581.396,4,2,1,30,1,0
132150.5,415.066,4,2,1,30,1,0
132152.8,289.837,4,2,1,30,1,0
132155.1,213.607,4,2,1,30,1,0
132157.4,169.125,4,2,1,30,1,0
132159.7,143.807,4,2,1,30,1,0
132161.9,130.839,4,2,1,30,1,0
132164.2,127.02,4,2,1,30,1,0
132166.5,131.49,4,2,1,30,1,0
132168.8,145.391,4,2,1,30,1,0
132171.1,172.439,4,2,1,30,1,0
132173.4,220.751,4,2,1,30,1,0
132175.7,306.67,4,2,1,30,1,0
132178,458.294,4,2,1,30,1,0
132180.3,687.345,4,2,1,30,1,0
132182.6,842.283,4,2,1,30,1,0
132184.9,705.717,4,2,1,30,1,0
132187.1,474.776,4,2,1,30,1,0
132189.4,317.742,4,2,1,30,1,0
132191.7,228.389,4,2,1,30,1,0
132194,178.26,4,2,1,30,1,0
132196.3,150.359,4,2,1,30,1,0
132198.6,136.24,4,2,1,30,1,0
132200.9,132.105,4,2,1,30,1,0
132203.2,136.946,4,2,1,30,1,0
132205.5,152.091,4,2,1,30,1,0
132207.8,181.945,4,2,1,30,1,0
132210.1,236.574,4,2,1,30,1,0
132212.4,338.085,4,2,1,30,1,0
132214.6,532.196,4,2,1,30,1,0
132216.9,868.151,4,2,1,30,1,0
132219.2,1130.9,4,2,1,30,1,0
132221.5,897.668,4,2,1,30,1,0
132223.8,554.552,4,2,1,30,1,0
132226.1,351.591,4,2,1,30,1,0
132228.4,245.369,4,2,1,30,1,0
132230.7,188.438,4,2,1,30,1,0
132233,157.536,4,2,1,30,1,0
132235.3,142.106,4,2,1,30,1,0
132237.6,137.613,4,2,1,30,1,0
132239.8,142.875,4,2,1,30,1,0
132242.1,159.439,4,2,1,30,1,0
132244.4,192.561,4,2,1,30,1,0
132246.7,254.842,4,2,1,30,1,0
132249,376.671,4,2,1,30,1,0
132251.3,634.515,4,2,1,30,1,0
132253.6,1178.03,4,2,1,30,1,0
132255.9,1720.43,4,2,1,30,1,0
132258.2,1233.05,4,2,1,30,1,0
132260.5,666.552,4,2,1,30,1,0
132262.8,393.513,4,2,1,30,1,0
132265,265.076,4,2,1,30,1,0
132267.3,199.849,4,2,1,30,1,0
132269.6,165.433,4,2,1,30,1,0
132271.9,148.5,4,2,1,30,1,0
132274.2,143.601,4,2,1,30,1,0
132276.5,149.34,4,2,1,30,1,0
132278.8,167.532,4,2,1,30,1,0
132281.1,204.492,4,2,1,30,1,0
132283.4,276.167,4,2,1,30,1,0
132285.7,425.2,4,2,1,30,1,0
132288,785.542,4,2,1,30,1,0
132290.3,1831.93,4,2,1,30,1,0
132292.5,3593.89,4,2,1,30,1,0
132294.8,1968.51,4,2,1,30,1,0
132297.1,835.242,4,2,1,30,1,0
132299.4,446.785,4,2,1,30,1,0
132301.7,288.226,4,2,1,30,1,0
132304,212.73,4,2,1,30,1,0
132306.3,174.163,4,2,1,30,1,0
132308.6,155.497,4,2,1,30,1,0
132310.9,150.133,4,2,1,30,1,0
132313.2,156.418,4,2,1,30,1,0
132315.5,176.492,4,2,1,30,1,0
132317.7,218,4,2,1,30,1,0
132320,301.386,4,2,1,30,1,0
132322.3,488.082,4,2,1,30,1,0
132324.6,1030.92,4,2,1,30,1,0
132326.9,4117.38,4,2,1,30,1,0
132329.2,600000000000000,4,2,1,30,1,0
132331.5,4878.09,4,2,1,30,1,0
132333.8,1118.25,4,2,1,30,1,0
132336.1,516.74,4,2,1,30,1,0
132338.4,315.806,4,2,1,30,1,0
132340.7,227.387,4,2,1,30,1,0
132343,183.866,4,2,1,30,1,0
132345.2,163.185,4,2,1,30,1,0
132347.5,157.288,4,2,1,30,1,0
132349.8,164.2,4,2,1,30,1,0
132352.1,186.463,4,2,1,30,1,0
132354.4,233.418,4,2,1,30,1,0
132356.7,331.675,4,2,1,30,1,0
132359,572.792,4,2,1,30,1,0
132361.3,1499.23,4,2,1,30,1,0
132363.6,600000000000000,4,2,1,30,1,0
132365.9,600000000000000,4,2,1,30,1,0
132368.2,600000000000000,4,2,1,30,1,0
132370.4,1691.31,4,2,1,30,1,0
132372.7,612.666,4,2,1,30,1,0
132375,349.223,4,2,1,30,1,0
132377.3,244.213,4,2,1,30,1,0
132379.6,194.714,4,2,1,30,1,0
132381.9,171.674,4,2,1,30,1,0
132384.2,165.16,4,2,1,30,1,0
132386.5,172.797,4,2,1,30,1,0
132388.8,197.629,4,2,1,30,1,0
132391.1,251.183,4,2,1,30,1,0
132393.4,368.732,4,2,1,30,1,0
132395.7,693.08,4,2,1,30,1,0
132397.9,2747.2,4,2,1,30,1,0
132400.2,600000000000000,4,2,1,30,1,0
132402.5,600000000000000,4,2,1,30,1,0
132404.8,600000000000000,4,2,1,30,1,0
132407.1,3469.12,4,2,1,30,1,0
132409.4,752.326,4,2,1,30,1,0
132411.7,390.549,4,2,1,30,1,0
132414,263.728,4,2,1,30,1,0
132416.3,206.922,4,2,1,30,1,0
132418.6,181.094,4,2,1,30,1,0
132420.9,173.86,4,2,1,30,1,0
132423.1,182.344,4,2,1,30,1,0
132425.4,210.217,4,2,1,30,1,0
132427.7,271.875,4,2,1,30,1,0
132430,415.11,4,2,1,30,1,0
132432.3,877.319,4,2,1,30,1,0
132434.6,16391.5,4,2,1,30,1,0
132436.9,600000000000000,4,2,1,30,1,0
132439.2,600000000000000,4,2,1,30,1,0
132441.5,600000000000000,4,2,1,30,1,0
132443.8,600000000000000,4,2,1,30,1,0
132446.1,974.459,4,2,1,30,1,0
132448.4,442.968,4,2,1,30,1,0
132450.6,286.632,4,2,1,30,1,0
132452.9,220.763,4,2,1,30,1,0
132455.2,191.608,4,2,1,30,1,0
132457.5,183.528,4,2,1,30,1,0
132459.8,193.008,4,2,1,30,1,0
132462.1,224.518,4,2,1,30,1,0
132464.4,296.282,4,2,1,30,1,0
132466.7,474.834,4,2,1,30,1,0
132469,1194.98,4,2,1,30,1,0
132471.3,600000000000000,4,2,1,30,1,0
132473.6,600000000000000,4,2,1,30,1,0
132475.8,600000000000000,4,2,1,30,1,0
132478.1,600000000000000,4,2,1,30,1,0
132480.4,600000000000000,4,2,1,30,1,0
132482.7,1382.72,4,2,1,30,1,0
132485,511.64,4,2,1,30,1,0
132487.3,313.894,4,2,1,30,1,0
132489.6,236.589,4,2,1,30,1,0
132491.9,203.417,4,2,1,30,1,0
132494.2,194.335,4,2,1,30,1,0
132496.5,204.997,4,2,1,30,1,0
132498.8,240.906,4,2,1,30,1,0
132501,325.503,4,2,1,30,1,0
132503.3,554.631,4,2,1,30,1,0
132505.6,1873.24,4,2,1,30,1,0
132507.9,600000000000000,4,2,1,30,1,0
132510.2,600000000000000,4,2,1,30,1,0
132512.5,600000000000000,4,2,1,30,1,0
132514.8,600000000000000,4,2,1,30,1,0
132517.1,600000000000000,4,2,1,30,1,0
132519.4,2379.76,4,2,1,30,1,0
132521.7,605.51,4,2,1,30,1,0
132524,346.886,4,2,1,30,1,0
132526.3,254.859,4,2,1,30,1,0
132528.5,216.779,4,2,1,30,1,0
132530.8,206.494,4,2,1,30,1,0
132533.1,218.573,4,2,1,30,1,0
132535.4,259.876,4,2,1,30,1,0
132537.7,361.12,4,2,1,30,1,0
132540,666.667,4,2,1,30,1,0
132540,666.667,4,2,1,30,1,0
132540,666.667,4,2,1,30,1,0
132540,666.667,4,2,1,30,1,0
132707,666.667,4,2,1,30,1,0
132707,666.667,4,2,1,30,1,0
133374,666.667,4,2,1,30,1,0
133374,-100,4,2,1,30,0,1
154707,-100,4,2,1,30,0,0
155040,-100,4,2,1,30,0,0
155143,-100.2,4,2,1,30,0,0
155247,-100.402,4,2,1,30,0,0
155350,-100.604,4,2,1,30,0,0
155453,-100.806,4,2,1,30,0,0
155557,-101.01,4,2,1,30,0,0
155660,-101.215,4,2,1,30,0,0
155763,-101.42,4,2,1,30,0,0
155867,-101.626,4,2,1,30,0,0
155970,-101.833,4,2,1,30,0,0
156073,-102.041,4,2,1,30,0,0
156177,-102.249,4,2,1,30,0,0
156280,-102.459,4,2,1,30,0,0
156383,-102.669,4,2,1,30,0,0
156487,-102.881,4,2,1,30,0,0
156590,-103.093,4,2,1,30,0,0
156693,-103.306,4,2,1,30,0,0
156797,-103.52,4,2,1,30,0,0
156900,-103.734,4,2,1,30,0,0
157003,-103.95,4,2,1,30,0,0
157107,-104.167,4,2,1,30,0,0
157210,-104.384,4,2,1,30,0,0
157313,-104.603,4,2,1,30,0,0
157417,-104.822,4,2,1,30,0,0
157520,-105.042,4,2,1,30,0,0
157623,-105.263,4,2,1,30,0,0
157727,-105.485,4,2,1,30,0,0
157830,-105.708,4,2,1,30,0,0
157933,-105.932,4,2,1,30,0,0
158037,-106.157,4,2,1,30,0,0
158140,-106.383,4,2,1,30,0,0
158243,-106.61,4,2,1,30,0,0
158347,-106.838,4,2,1,30,0,0
158450,-107.066,4,2,1,30,0,0
158553,-107.296,4,2,1,30,0,0
158657,-107.527,4,2,1,30,0,0
158760,-107.759,4,2,1,30,0,0
158863,-107.991,4,2,1,30,0,0
158967,-108.225,4,2,1,30,0,0
159070,-108.46,4,2,1,30,0,0
159173,-108.696,4,2,1,30,0,0
159277,-108.932,4,2,1,30,0,0
159380,-109.17,4,2,1,30,0,0
159483,-109.409,4,2,1,30,0,0
159587,-109.649,4,2,1,30,0,0
159690,-109.89,4,2,1,30,0,0
159793,-110.132,4,2,1,30,0,0
159897,-110.375,4,2,1,30,0,0
160000,-110.619,4,2,1,30,0,0
160103,-110.865,4,2,1,30,0,0
160207,-111.111,4,2,1,30,0,0
160310,-111.359,4,2,1,30,0,0
160413,-111.607,4,2,1,30,0,0
160517,-111.857,4,2,1,30,0,0
160620,-112.108,4,2,1,30,0,0
160723,-112.36,4,2,1,30,0,0
160827,-112.613,4,2,1,30,0,0
160930,-112.867,4,2,1,30,0,0
161033,-113.122,4,2,1,30,0,0
161137,-113.379,4,2,1,30,0,0
161240,-113.636,4,2,1,30,0,0
161343,-113.895,4,2,1,30,0,0
161447,-114.155,4,2,1,30,0,0
161550,-114.416,4,2,1,30,0,0
161653,-114.679,4,2,1,30,0,0
161757,-114.943,4,2,1,30,0,0
161860,-115.207,4,2,1,30,0,0
161963,-115.473,4,2,1,30,0,0
162067,-115.741,4,2,1,30,0,0
162170,-116.009,4,2,1,30,0,0
162273,-116.279,4,2,1,30,0,0
162377,-116.55,4,2,1,30,0,0
162480,-116.822,4,2,1,30,0,0
162583,-117.096,4,2,1,30,0,0
162687,-117.371,4,2,1,30,0,0
162790,-117.647,4,2,1,30,0,0
162893,-117.925,4,2,1,30,0,0
162997,-118.203,4,2,1,30,0,0
163100,-118.483,4,2,1,30,0,0
163203,-118.765,4,2,1,30,0,0
163307,-119.048,4,2,1,30,0,0
163410,-119.332,4,2,1,30,0,0
163513,-119.617,4,2,1,30,0,0
163617,-119.904,4,2,1,30,0,0
163720,-120.192,4,2,1,30,0,0
163823,-120.482,4,2,1,30,0,0
163927,-120.773,4,2,1,30,0,0
164030,-121.065,4,2,1,30,0,0
164133,-121.359,4,2,1,30,0,0
164237,-121.655,4,2,1,30,0,0
164340,-121.951,4,2,1,30,0,0
164443,-122.249,4,2,1,30,0,0
164547,-122.549,4,2,1,30,0,0
164650,-122.85,4,2,1,30,0,0
164753,-123.153,4,2,1,30,0,0
164857,-123.457,4,2,1,30,0,0
164960,-123.762,4,2,1,30,0,0
165063,-124.069,4,2,1,30,0,0
165167,-124.378,4,2,1,30,0,0
165270,-124.688,4,2,1,30,0,0
165374,-125,4,2,1,30,0,0
165477,-125.313,4,2,1,30,0,0
165580,-125.628,4,2,1,30,0,0
165684,-125.945,4,2,1,30,0,0
165787,-126.263,4,2,1,30,0,0
165890,-126.582,4,2,1,30,0,0
165994,-126.904,4,2,1,30,0,0
166097,-127.226,4,2,1,30,0,0
166200,-127.551,4,2,1,30,0,0
166304,-127.877,4,2,1,30,0,0
166407,-128.205,4,2,1,30,0,0
166510,-128.535,4,2,1,30,0,0
166614,-128.866,4,2,1,30,0,0
166717,-129.199,4,2,1,30,0,0
166820,-129.534,4,2,1,30,0,0
166924,-129.87,4,2,1,30,0,0
167027,-130.208,4,2,1,30,0,0
167130,-130.548,4,2,1,30,0,0
167234,-130.89,4,2,1,30,0,0
167337,-131.234,4,2,1,30,0,0
167440,-131.579,4,2,1,30,0,0
167544,-131.926,4,2,1,30,0,0
167647,-132.275,4,2,1,30,0,0
167750,-132.626,4,2,1,30,0,0
167854,-132.979,4,2,1,30,0,0
167957,-133.333,4,2,1,30,0,0
168060,-133.69,4,2,1,30,0,0
168164,-134.048,4,2,1,30,0,0
168267,-134.409,4,2,1,30,0,0
168370,-134.771,4,2,1,30,0,0
168474,-135.135,4,2,1,30,0,0
168577,-135.501,4,2,1,30,0,0
168680,-135.87,4,2,1,30,0,0
168784,-136.24,4,2,1,30,0,0
168887,-136.612,4,2,1,30,0,0
168990,-136.986,4,2,1,30,0,0
169094,-137.363,4,2,1,30,0,0
169197,-137.741,4,2,1,30,0,0
169300,-138.122,4,2,1,30,0,0
169404,-138.504,4,2,1,30,0,0
169507,-138.889,4,2,1,30,0,0
169610,-139.276,4,2,1,30,0,0
169714,-139.665,4,2,1,30,0,0
169817,-140.056,4,2,1,30,0,0
169920,-140.449,4,2,1,30,0,0
170024,-140.845,4,2,1,30,0,0
170127,-141.243,4,2,1,30,0,0
170230,-141.643,4,2,1,30,0,0
170334,-142.045,4,2,1,30,0,0
170437,-142.45,4,2,1,30,0,0
170540,-142.857,4,2,1,30,0,0
170644,-143.266,4,2,1,30,0,0
170747,-143.678,4,2,1,30,0,0
170850,-144.092,4,2,1,30,0,0
170954,-144.509,4,2,1,30,0,0
171057,-144.928,4,2,1,30,0,0
171160,-145.349,4,2,1,30,0,0
171264,-145.773,4,2,1,30,0,0
171367,-146.199,4,2,1,30,0,0
171470,-146.628,4,2,1,30,0,0
171574,-147.059,4,2,1,30,0,0
171677,-147.493,4,2,1,30,0,0
171780,-147.929,4,2,1,30,0,0
171884,-148.368,4,2,1,30,0,0
171987,-148.81,4,2,1,30,0,0
172090,-149.254,4,2,1,30,0,0
172194,-149.701,4,2,1,30,0,0
172297,-150.15,4,2,1,30,0,0
172400,-150.602,4,2,1,30,0,0
172504,-151.057,4,2,1,30,0,0
172607,-151.515,4,2,1,30,0,0
172710,-151.976,4,2,1,30,0,0
172814,-152.439,4,2,1,30,0,0
172917,-152.905,4,2,1,30,0,0
173020,-153.374,4,2,1,30,0,0
173124,-153.846,4,2,1,30,0,0
173227,-154.321,4,2,1,30,0,0
173330,-154.799,4,2,1,30,0,0
173434,-155.28,4,2,1,30,0,0
173537,-155.763,4,2,1,30,0,0
173640,-156.25,4,2,1,30,0,0
173744,-156.74,4,2,1,30,0,0
173847,-157.233,4,2,1,30,0,0
173950,-157.729,4,2,1,30,0,0
174054,-158.228,4,2,1,30,0,0
174157,-158.73,4,2,1,30,0,0
174260,-159.236,4,2,1,30,0,0
174364,-159.744,4,2,1,30,0,0
174467,-160.256,4,2,1,30,0,0
174570,-160.772,4,2,1,30,0,0
174674,-161.29,4,2,1,30,0,0
174777,-161.812,4,2,1,30,0,0
174880,-162.338,4,2,1,30,0,0
174984,-162.866,4,2,1,30,0,0
175087,-163.399,4,2,1,30,0,0
175190,-163.934,4,2,1,30,0,0
175294,-164.474,4,2,1,30,0,0
175397,-165.017,4,2,1,30,0,0
175500,-165.563,4,2,1,30,0,0
175604,-166.113,4,2,1,30,0,0
175707,-100,4,2,1,30,0,0
175707,-166.667,4,2,1,30,0,0
175715,-67.0622,4,2,1,30,0,0
175724,-50.5234,4,2,1,30,0,0
175732,-40.6278,4,2,1,30,0,0
175740,-34.078,4,2,1,30,0,0
175749,-29.4499,4,2,1,30,0,0
175757,-26.0282,4,2,1,30,0,0
175765,-23.4146,4,2,1,30,0,0
175774,-21.3696,4,2,1,30,0,0
175782,-19.7412,4,2,1,30,0,0
175790,-18.4281,4,2,1,30,0,0
175799,-17.3607,4,2,1,30,0,0
175807,-16.4896,4,2,1,30,0,0
175815,-15.779,4,2,1,30,0,0
175824,-15.2029,4,2,1,30,0,0
175832,-14.7417,4,2,1,30,0,0
175840,-14.381,4,2,1,30,0,0
175849,-14.1103,4,2,1,30,0,0
175857,-13.9219,4,2,1,30,0,0
175865,-13.8108,4,2,1,30,0,0
175874,-13.7741,4,2,1,30,0,0
175882,-13.8108,4,2,1,30,0,0
175890,-13.9219,4,2,1,30,0,0
175898,-14.1103,4,2,1,30,0,0
175907,-14.381,4,2,1,30,0,0
175915,-14.7417,4,2,1,30,0,0
175923,-15.2029,4,2,1,30,0,0
175932,-15.779,4,2,1,30,0,0
175940,-16.4896,4,2,1,30,0,0
175948,-17.3607,4,2,1,30,0,0
175957,-18.4281,4,2,1,30,0,0
175965,-19.7412,4,2,1,30,0,0
175973,-21.3696,4,2,1,30,0,0
175982,-23.4146,4,2,1,30,0,0
175990,-26.0282,4,2,1,30,0,0
175998,-29.4499,4,2,1,30,0,0
176007,-34.078,4,2,1,30,0,0
176015,-40.6278,4,2,1,30,0,0
176023,-50.5234,4,2,1,30,0,0
176032,-67.0622,4,2,1,30,0,0
176040,-100,4,2,1,30,0,0

[HitObjects]
320,192,41,5,0,0:0:0:0:
448,192,41,1,0,0:0:0:0:
64,192,374,5,0,0:0:0:0:
192,192,707,1,0,0:0:0:0:
448,192,707,1,0,0:0:0:0:
320,192,1707,1,0,0:0:0:0:
448,192,1707,1,0,0:0:0:0:
320,192,2707,1,0,0:0:0:0:
448,192,2707,1,0,0:0:0:0:
320,192,3207,1,0,0:0:0:0:
448,192,3207,1,0,0:0:0:0:
192,192,3707,1,0,0:0:0:0:
64,192,3707,1,0,0:0:0:0:
192,192,4374,1,0,0:0:0:0:
64,192,4374,1,0,0:0:0:0:
192,192,5374,1,0,0:0:0:0:
64,192,5374,1,0,0:0:0:0:
448,192,7041,1,0,0:0:0:0:
192,192,7041,1,0,0:0:0:0:
192,192,8041,1,0,0:0:0:0:
448,192,8041,1,0,0:0:0:0:
64,192,8374,128,0,10291:0:0:0:0:
64,192,10707,128,0,12707:0:0:0:0:
448,192,10707,128,0,12707:0:0:0:0:
320,192,12707,5,0,0:0:0:0:
192,192,12707,1,0,0:0:0:0:
448,192,12874,1,0,0:0:0:0:
320,192,13041,1,0,0:0:0:0:
192,192,13207,1,0,0:0:0:0:
64,192,13374,1,0,0:0:0:0:
448,192,13374,1,0,0:0:0:0:
320,192,13541,1,0,0:0:0:0:
448,192,13707,1,0,0:0:0:0:
320,192,13874,1,0,0:0:0:0:
192,192,14041,1,0,0:0:0:0:
64,192,14041,1,0,0:0:0:0:
448,192,14041,1,0,0:0:0:0:
320,192,14207,1,0,0:0:0:0:
448,192,14374,1,0,0:0:0:0:
64,192,14374,1,0,0:0:0:0:
192,192,14541,1,0,0:0:0:0:
448,192,14707,1,0,0:0:0:0:
64,192,14707,1,0,0:0:0:0:
192,192,14874,1,0,0:0:0:0:
448,192,15041,1,0,0:0:0:0:
64,192,15041,1,0,0:0:0:0:
320,192,15207,1,0,0:0:0:0:
192,192,15374,1,0,0:0:0:0:
64,192,15374,1,0,0:0:0:0:
448,192,15374,1,0,0:0:0:0:
320,192,15541,1,0,0:0:0:0:
64,192,15707,1,0,0:0:0:0:
192,192,15791,1,0,0:0:0:0:
320,192,15874,1,0,0:0:0:0:
448,192,16041,1,0,0:0:0:0:
192,192,16041,1,0,0:0:0:0:
64,192,16207,1,0,0:0:0:0:
320,192,16374,1,0,0:0:0:0:
448,192,16457,1,0,0:0:0:0:
192,192,16541,1,0,0:0:0:0:
320,192,16624,1,0,0:0:0:0:
64,192,16707,1,0,0:0:0:0:
448,192,16707,1,0,0:0:0:0:
192,192,16707,1,0,0:0:0:0:
320,192,16874,1,0,0:0:0:0:
448,192,17041,1,0,0:0:0:0:
320,192,17207,1,0,0:0:0:0:
192,192,17374,1,0,0:0:0:0:
64,192,17374,1,0,0:0:0:0:
448,192,17374,1,0,0:0:0:0:
320,192,17541,1,0,0:0:0:0:
64,192,17707,1,0,0:0:0:0:
192,192,17874,1,0,0:0:0:0:
320,192,17957,1,0,0:0:0:0:
448,192,18041,1,0,0:0:0:0:
192,192,18041,1,0,0:0:0:0:
64,192,18041,1,0,0:0:0:0:
320,192,18124,1,0,0:0:0:0:
448,192,18207,1,0,0:0:0:0:
192,192,18291,1,0,0:0:0:0:
64,192,18374,1,0,0:0:0:0:
320,192,18457,1,0,0:0:0:0:
192,192,18541,1,0,0:0:0:0:
320,192,18707,1,0,0:0:0:0:
448,192,18707,1,0,0:0:0:0:
64,192,18874,1,0,0:0:0:0:
320,192,18874,1,0,0:0:0:0:
192,192,19041,1,0,0:0:0:0:
64,192,19041,1,0,0:0:0:0:
448,192,19207,1,0,0:0:0:0:
320,192,19207,1,0,0:0:0:0:
320,192,19374,1,0,0:0:0:0:
192,192,19374,1,0,0:0:0:0:
64,192,19374,1,0,0:0:0:0:
448,192,19541,1,0,0:0:0:0:
192,192,19541,1,0,0:0:0:0:
320,192,19707,1,0,0:0:0:0:
64,192,19707,1,0,0:0:0:0:
192,192,19874,1,0,0:0:0:0:
320,192,19874,1,0,0:0:0:0:
448,192,20041,1,0,0:0:0:0:
64,192,20041,1,0,0:0:0:0:
320,192,20207,1,0,0:0:0:0:
448,192,20207,1,0,0:0:0:0:
192,192,20374,1,0,0:0:0:0:
320,192,20374,1,0,0:0:0:0:
448,192,20541,1,0,0:0:0:0:
64,192,20541,1,0,0:0:0:0:
320,192,20707,1,0,0:0:0:0:
192,192,20707,1,0,0:0:0:0:
64,192,20707,1,0,0:0:0:0:
448,192,20874,1,0,0:0:0:0:
320,192,20874,1,0,0:0:0:0:
192,192,21041,1,0,0:0:0:0:
448,192,21041,1,0,0:0:0:0:
64,192,21207,1,0,0:0:0:0:
320,192,21207,1,0,0:0:0:0:
192,192,21374,1,0,0:0:0:0:
448,192,21374,1,0,0:0:0:0:
320,192,21541,1,0,0:0:0:0:
64,192,21541,1,0,0:0:0:0:
448,192,21707,1,0,0:0:0:0:
192,192,21707,1,0,0:0:0:0:
320,192,21791,1,0,0:0:0:0:
192,192,21874,1,0,0:0:0:0:
448,192,21874,1,0,0:0:0:0:
64,192,21957,1,0,0:0:0:0:
320,192,22041,1,0,0:0:0:0:
448,192,22041,1,0,0:0:0:0:
192,192,22041,1,0,0:0:0:0:
64,192,22207,1,0,0:0:0:0:
320,192,22374,1,0,0:0:0:0:
192,192,22541,1,0,0:0:0:0:
64,192,22707,1,0,0:0:0:0:
448,192,22707,1,0,0:0:0:0:
320,192,22874,1,0,0:0:0:0:
192,192,22874,1,0,0:0:0:0:
192,192,23041,1,0,0:0:0:0:
64,192,23041,1,0,0:0:0:0:
320,192,23124,1,0,0:0:0:0:
448,192,23207,1,0,0:0:0:0:
64,192,23207,1,0,0:0:0:0:
320,192,23374,1,0,0:0:0:0:
192,192,23374,1,0,0:0:0:0:
64,192,23374,1,0,0:0:0:0:
448,192,23541,1,0,0:0:0:0:
320,192,23624,1,0,0:0:0:0:
192,192,23707,1,0,0:0:0:0:
448,192,23791,1,0,0:0:0:0:
64,192,23874,1,0,0:0:0:0:
192,192,23957,1,0,0:0:0:0:
320,192,24041,1,0,0:0:0:0:
448,192,24041,1,0,0:0:0:0:
64,192,24207,1,0,0:0:0:0:
192,192,24374,1,0,0:0:0:0:
448,192,24541,1,0,0:0:0:0:
320,192,24707,1,0,0:0:0:0:
64,192,24707,1,0,0:0:0:0:
192,192,24707,1,0,0:0:0:0:
448,192,24874,1,0,0:0:0:0:
320,192,25041,1,0,0:0:0:0:
64,192,25207,1,0,0:0:0:0:
192,192,25374,1,0,0:0:0:0:
448,192,25374,1,0,0:0:0:0:
320,192,25541,1,0,0:0:0:0:
64,192,25707,1,0,0:0:0:0:
192,192,25874,1,0,0:0:0:0:
320,192,25957,1,0,0:0:0:0:
448,192,26041,1,0,0:0:0:0:
192,192,26041,1,0,0:0:0:0:
64,192,26041,1,0,0:0:0:0:
320,192,26207,1,0,0:0:0:0:
448,192,26374,1,0,0:0:0:0:
64,192,26457,1,0,0:0:0:0:
192,192,26541,1,0,0:0:0:0:
320,192,26624,1,0,0:0:0:0:
448,192,26707,1,0,0:0:0:0:
64,192,26707,1,0,0:0:0:0:
320,192,26874,1,0,0:0:0:0:
192,192,27041,1,0,0:0:0:0:
64,192,27124,1,0,0:0:0:0:
448,192,27207,1,0,0:0:0:0:
320,192,27374,1,0,0:0:0:0:
64,192,27374,1,0,0:0:0:0:
192,192,27374,1,0,0:0:0:0:
448,192,27541,1,0,0:0:0:0:
320,192,27624,1,0,0:0:0:0:
192,192,27707,1,0,0:0:0:0:
64,192,27874,1,0,0:0:0:0:
320,192,27957,1,0,0:0:0:0:
192,192,28041,1,0,0:0:0:0:
448,192,28041,1,0,0:0:0:0:
64,192,28207,1,0,0:0:0:0:
320,192,28374,1,0,0:0:0:0:
192,192,28457,1,0,0:0:0:0:
448,192,28541,1,0,0:0:0:0:
64,192,28707,1,0,0:0:0:0:
192,192,28707,1,0,0:0:0:0:
320,192,28707,1,0,0:0:0:0:
448,192,28791,1,0,0:0:0:0:
192,192,28874,1,0,0:0:0:0:
64,192,28957,1,0,0:0:0:0:
320,192,29041,1,0,0:0:0:0:
448,192,29124,1,0,0:0:0:0:
192,192,29207,1,0,0:0:0:0:
64,192,29374,1,0,0:0:0:0:
448,192,29374,1,0,0:0:0:0:
320,192,29541,1,0,0:0:0:0:
192,192,29541,1,0,0:0:0:0:
192,192,29707,1,0,0:0:0:0:
64,192,29707,1,0,0:0:0:0:
320,192,29874,1,0,0:0:0:0:
448,192,30041,1,0,0:0:0:0:
192,192,30041,1,0,0:0:0:0:
64,192,30041,1,0,0:0:0:0:
320,192,30207,1,0,0:0:0:0:
448,192,30374,1,0,0:0:0:0:
192,192,30374,1,0,0:0:0:0:
64,192,30541,1,0,0:0:0:0:
320,192,30541,1,0,0:0:0:0:
192,192,30707,1,0,0:0:0:0:
320,192,30707,1,0,0:0:0:0:
448,192,30874,1,0,0:0:0:0:
64,192,30874,1,0,0:0:0:0:
192,192,31041,1,0,0:0:0:0:
448,192,31041,1,0,0:0:0:0:
320,192,31207,1,0,0:0:0:0:
192,192,31374,1,0,0:0:0:0:
64,192,31374,1,0,0:0:0:0:
448,192,31374,1,0,0:0:0:0:
320,192,31457,1,0,0:0:0:0:
448,192,31457,1,0,0:0:0:0:
192,192,31541,1,0,0:0:0:0:
64,192,31541,1,0,0:0:0:0:
320,192,31624,1,0,0:0:0:0:
448,192,31624,1,0,0:0:0:0:
192,192,31707,1,0,0:0:0:0:
64,192,31707,1,0,0:0:0:0:
320,192,31791,1,0,0:0:0:0:
448,192,31791,1,0,0:0:0:0:
192,192,31874,1,0,0:0:0:0:
64,192,31874,1,0,0:0:0:0:
320,192,31957,1,0,0:0:0:0:
448,192,32041,1,0,0:0:0:0:
64,192,32041,1,0,0:0:0:0:
192,192,32207,1,0,0:0:0:0:
64,192,32374,1,0,0:0:0:0:
320,192,32541,1,0,0:0:0:0:
192,192,32707,1,0,0:0:0:0:
64,192,32707,1,0,0:0:0:0:
448,192,32707,1,0,0:0:0:0:
320,192,32874,1,0,0:0:0:0:
448,192,33041,1,0,0:0:0:0:
64,192,33041,1,0,0:0:0:0:
192,192,33207,1,0,0:0:0:0:
320,192,33291,1,0,0:0:0:0:
448,192,33374,1,0,0:0:0:0:
64,192,33374,1,0,0:0:0:0:
192,192,33541,1,0,0:0:0:0:
320,192,33541,1,0,0:0:0:0:
448,192,33707,1,0,0:0:0:0:
320,192,33707,1,0,0:0:0:0:
192,192,33791,1,0,0:0:0:0:
64,192,33874,1,0,0:0:0:0:
448,192,33874,1,0,0:0:0:0:
320,192,33957,1,0,0:0:0:0:
192,192,34041,1,0,0:0:0:0:
64,192,34041,1,0,0:0:0:0:
448,192,34041,1,0,0:0:0:0:
192,192,34207,1,0,0:0:0:0:
64,192,34207,1,0,0:0:0:0:
320,192,34291,1,0,0:0:0:0:
448,192,34291,1,0,0:0:0:0:
192,192,34374,1,0,0:0:0:0:
64,192,34374,1,0,0:0:0:0:
320,192,34457,1,0,0:0:0:0:
448,192,34541,1,0,0:0:0:0:
192,192,34624,1,0,0:0:0:0:
64,192,34707,1,0,0:0:0:0:
320,192,34707,1,0,0:0:0:0:
448,192,35041,1,0,0:0:0:0:
320,192,35207,1,0,0:0:0:0:
64,192,35374,1,0,0:0:0:0:
192,192,35541,1,0,0:0:0:0:
448,192,35707,1,0,0:0:0:0:
320,192,35874,1,0,0:0:0:0:
64,192,36041,1,0,0:0:0:0:
192,192,36207,1,0,0:0:0:0:
320,192,36374,1,0,0:0:0:0:
448,192,36541,1,0,0:0:0:0:
192,192,36707,1,0,0:0:0:0:
64,192,36707,1,0,0:0:0:0:
320,192,37374,1,0,0:0:0:0:
448,192,37374,1,0,0:0:0:0:
64,192,37374,1,0,0:0:0:0:
192,192,37541,1,0,0:0:0:0:
64,192,37707,1,0,0:0:0:0:
320,192,37874,1,0,0:0:0:0:
448,192,38041,1,0,0:0:0:0:
64,192,38041,1,0,0:0:0:0:
192,192,38207,1,0,0:0:0:0:
64,192,38374,1,0,0:0:0:0:
320,192,38541,1,0,0:0:0:0:
192,192,38707,1,0,0:0:0:0:
448,192,38874,1,0,0:0:0:0:
320,192,39041,1,0,0:0:0:0:
64,192,39041,1,0,0:0:0:0:
448,192,39041,1,0,0:0:0:0:
192,192,39207,1,0,0:0:0:0:
448,192,39374,1,0,0:0:0:0:
320,192,39541,1,0,0:0:0:0:
64,192,39707,1,0,0:0:0:0:
192,192,39874,1,0,0:0:0:0:
320,192,40041,1,0,0:0:0:0:
448,192,40041,1,0,0:0:0:0:
64,192,40041,1,0,0:0:0:0:
192,192,40207,1,0,0:0:0:0:
64,192,40374,1,0,0:0:0:0:
320,192,40541,1,0,0:0:0:0:
192,192,40707,1,0,0:0:0:0:
64,192,40707,1,0,0:0:0:0:
448,192,40874,1,0,0:0:0:0:
320,192,41041,1,0,0:0:0:0:
64,192,41207,1,0,0:0:0:0:
192,192,41374,1,0,0:0:0:0:
320,192,41541,1,0,0:0:0:0:
64,192,41707,1,0,0:0:0:0:
192,192,41707,1,0,0:0:0:0:
448,192,41707,1,0,0:0:0:0:
448,192,41874,1,0,0:0:0:0:
320,192,42041,1,0,0:0:0:0:
192,192,42041,1,0,0:0:0:0:
64,192,42207,1,0,0:0:0:0:
192,192,42374,1,0,0:0:0:0:
320,192,42541,1,0,0:0:0:0:
448,192,42707,1,0,0:0:0:0:
64,192,42707,1,0,0:0:0:0:
192,192,42707,1,0,0:0:0:0:
192,192,42874,1,0,0:0:0:0:
448,192,43041,1,0,0:0:0:0:
320,192,43207,1,0,0:0:0:0:
64,192,43374,1,0,0:0:0:0:
448,192,43374,1,0,0:0:0:0:
192,192,43541,1,0,0:0:0:0:
320,192,43707,1,0,0:0:0:0:
192,192,44041,1,0,0:0:0:0:
64,192,44041,1,0,0:0:0:0:
448,192,44207,1,0,0:0:0:0:
320,192,44374,1,0,0:0:0:0:
64,192,44374,1,0,0:0:0:0:
192,192,44374,1,0,0:0:0:0:
448,192,44541,1,0,0:0:0:0:
64,192,44707,1,0,0:0:0:0:
192,192,44874,1,0,0:0:0:0:
320,192,45041,1,0,0:0:0:0:
64,192,45041,1,0,0:0:0:0:
448,192,45207,1,0,0:0:0:0:
192,192,45374,1,0,0:0:0:0:
64,192,45374,1,0,0:0:0:0:
320,192,45374,1,0,0:0:0:0:
192,192,45541,1,0,0:0:0:0:
64,192,45707,1,0,0:0:0:0:
320,192,45874,1,0,0:0:0:0:
192,192,46041,1,0,0:0:0:0:
64,192,46041,1,0,0:0:0:0:
448,192,46207,1,0,0:0:0:0:
320,192,46374,1,0,0:0:0:0:
64,192,46541,1,0,0:0:0:0:
192,192,46541,1,0,0:0:0:0:
320,192,46541,1,0,0:0:0:0:
448,192,46707,1,0,0:0:0:0:
320,192,46874,1,0,0:0:0:0:
192,192,47041,1,0,0:0:0:0:
448,192,47041,1,0,0:0:0:0:
64,192,47041,1,0,0:0:0:0:
64,192,47207,1,0,0:0:0:0:
320,192,47374,1,0,0:0:0:0:
448,192,47374,1,0,0:0:0:0:
192,192,47541,1,0,0:0:0:0:
64,192,47541,1,0,0:0:0:0:
448,192,47707,1,0,0:0:0:0:
64,192,47707,1,0,0:0:0:0:
192,192,48041,1,0,0:0:0:0:
64,192,48041,1,0,0:0:0:0:
448,192,48041,1,0,0:0:0:0:
320,192,48207,1,0,0:0:0:0:
448,192,48374,1,0,0:0:0:0:
64,192,48374,1,0,0:0:0:0:
192,192,48541,1,0,0:0:0:0:
320,192,48707,1,0,0:0:0:0:
448,192,48707,1,0,0:0:0:0:
192,192,48874,1,0,0:0:0:0:
64,192,49041,1,0,0:0:0:0:
192,192,49124,1,0,0:0:0:0:
320,192,49207,1,0,0:0:0:0:
448,192,49374,1,0,0:0:0:0:
64,192,49374,1,0,0:0:0:0:
192,192,49541,1,0,0:0:0:0:
320,192,49707,1,0,0:0:0:0:
448,192,49707,1,0,0:0:0:0:
64,192,49707,1,0,0:0:0:0:
320,192,49874,1,0,0:0:0:0:
448,192,50041,1,0,0:0:0:0:
192,192,50207,1,0,0:0:0:0:
64,192,50374,1,0,0:0:0:0:
320,192,50374,1,0,0:0:0:0:
448,192,50541,1,0,0:0:0:0:
192,192,50707,1,0,0:0:0:0:
64,192,50707,1,0,0:0:0:0:
320,192,50707,1,0,0:0:0:0:
64,192,50874,1,0,0:0:0:0:
192,192,51041,1,0,0:0:0:0:
448,192,51207,1,0,0:0:0:0:
320,192,51374,1,0,0:0:0:0:
64,192,51374,1,0,0:0:0:0:
192,192,51541,1,0,0:0:0:0:
320,192,51707,1,0,0:0:0:0:
64,192,51791,1,0,0:0:0:0:
448,192,51874,1,0,0:0:0:0:
192,192,51957,1,0,0:0:0:0:
64,192,52041,1,0,0:0:0:0:
320,192,52041,1,0,0:0:0:0:
448,192,52207,1,0,0:0:0:0:
192,192,52374,1,0,0:0:0:0:
64,192,52374,1,0,0:0:0:0:
320,192,52541,1,0,0:0:0:0:
448,192,52707,1,0,0:0:0:0:
192,192,52707,1,0,0:0:0:0:
64,192,52874,1,0,0:0:0:0:
320,192,53041,1,0,0:0:0:0:
448,192,53207,1,0,0:0:0:0:
192,192,53374,1,0,0:0:0:0:
64,192,53374,1,0,0:0:0:0:
320,192,53374,1,0,0:0:0:0:
448,192,53541,1,0,0:0:0:0:
64,192,53541,1,0,0:0:0:0:
320,192,53707,1,0,0:0:0:0:
192,192,53707,1,0,0:0:0:0:
448,192,53874,1,0,0:0:0:0:
320,192,54041,1,0,0:0:0:0:
64,192,54041,1,0,0:0:0:0:
192,192,54207,1,0,0:0:0:0:
320,192,54374,1,0,0:0:0:0:
448,192,54457,1,0,0:0:0:0:
192,192,54541,1,0,0:0:0:0:
64,192,54624,1,0,0:0:0:0:
320,192,54707,1,0,0:0:0:0:
448,192,54874,1,0,0:0:0:0:
192,192,55041,1,0,0:0:0:0:
64,192,55041,1,0,0:0:0:0:
320,192,55041,1,0,0:0:0:0:
64,192,55207,1,0,0:0:0:0:
192,192,55374,1,0,0:0:0:0:
448,192,55541,1,0,0:0:0:0:
320,192,55707,1,0,0:0:0:0:
64,192,55707,1,0,0:0:0:0:
192,192,55707,1,0,0:0:0:0:
320,192,55874,1,0,0:0:0:0:
192,192,56041,1,0,0:0:0:0:
448,192,56041,1,0,0:0:0:0:
64,192,56207,1,0,0:0:0:0:
320,192,56207,1,0,0:0:0:0:
320,192,56374,1,0,0:0:0:0:
448,192,56374,1,0,0:0:0:0:
192,192,56374,1,0,0:0:0:0:
192,192,56541,1,0,0:0:0:0:
64,192,56541,1,0,0:0:0:0:
448,192,56707,1,0,0:0:0:0:
64,192,56707,1,0,0:0:0:0:
320,192,56874,1,0,0:0:0:0:
192,192,57041,1,0,0:0:0:0:
64,192,57041,1,0,0:0:0:0:
448,192,57207,1,0,0:0:0:0:
320,192,57291,1,0,0:0:0:0:
192,192,57374,1,0,0:0:0:0:
64,192,57374,1,0,0:0:0:0:
448,192,57541,1,0,0:0:0:0:
64,192,57541,1,0,0:0:0:0:
320,192,57707,1,0,0:0:0:0:
448,192,57707,1,0,0:0:0:0:
192,192,57707,1,0,0:0:0:0:
320,192,57874,1,0,0:0:0:0:
64,192,57874,1,0,0:0:0:0:
192,192,57957,1,0,0:0:0:0:
448,192,58041,1,0,0:0:0:0:
320,192,58124,1,0,0:0:0:0:
64,192,58207,1,0,0:0:0:0:
192,192,58291,1,0,0:0:0:0:
320,192,58374,1,0,0:0:0:0:
448,192,58374,1,0,0:0:0:0:
64,192,58374,1,0,0:0:0:0:
192,192,58457,1,0,0:0:0:0:
320,192,58541,1,0,0:0:0:0:
448,192,58624,1,0,0:0:0:0:
64,192,58707,1,0,0:0:0:0:
192,192,58707,1,0,0:0:0:0:
64,192,59041,1,0,0:0:0:0:
64,192,59374,1,0,0:0:0:0:
192,192,59374,1,0,0:0:0:0:
64,192,59707,1,0,0:0:0:0:
64,192,60041,1,0,0:0:0:0:
320,192,60041,1,0,0:0:0:0:
192,192,60374,1,0,0:0:0:0:
448,192,60541,1,0,0:0:0:0:
64,192,60707,1,0,0:0:0:0:
320,192,60707,1,0,0:0:0:0:
192,192,61041,1,0,0:0:0:0:
448,192,61374,1,0,0:0:0:0:
320,192,61374,1,0,0:0:0:0:
320,192,61707,1,0,0:0:0:0:
320,192,62041,1,0,0:0:0:0:
448,192,62041,1,0,0:0:0:0:
320,192,62374,1,0,0:0:0:0:
448,192,62707,1,0,0:0:0:0:
192,192,62707,1,0,0:0:0:0:
64,192,63041,1,0,0:0:0:0:
448,192,63374,1,0,0:0:0:0:
192,192,63374,1,0,0:0:0:0:
320,192,63707,1,0,0:0:0:0:
192,192,64041,1,0,0:0:0:0:
64,192,64041,1,0,0:0:0:0:
320,192,64207,1,0,0:0:0:0:
448,192,64374,1,0,0:0:0:0:
192,192,64374,1,0,0:0:0:0:
192,192,64707,1,0,0:0:0:0:
64,192,64707,1,0,0:0:0:0:
448,192,65041,1,0,0:0:0:0:
320,192,65374,1,0,0:0:0:0:
64,192,65374,1,0,0:0:0:0:
448,192,65707,1,0,0:0:0:0:
192,192,65874,1,0,0:0:0:0:
320,192,66041,1,0,0:0:0:0:
64,192,66041,1,0,0:0:0:0:
192,192,66374,1,0,0:0:0:0:
64,192,66541,1,0,0:0:0:0:
320,192,66707,1,0,0:0:0:0:
448,192,66707,1,0,0:0:0:0:
192,192,66874,1,0,0:0:0:0:
64,192,67041,1,0,0:0:0:0:
320,192,67207,1,0,0:0:0:0:
320,192,67374,1,0,0:0:0:0:
448,192,67374,1,0,0:0:0:0:
64,192,67707,1,0,0:0:0:0:
320,192,67874,1,0,0:0:0:0:
192,192,68041,1,0,0:0:0:0:
448,192,68041,1,0,0:0:0:0:
320,192,68207,1,0,0:0:0:0:
64,192,68374,1,0,0:0:0:0:
448,192,68541,1,0,0:0:0:0:
192,192,68624,1,0,0:0:0:0:
320,192,68707,1,0,0:0:0:0:
64,192,68791,1,0,0:0:0:0:
192,192,68874,1,0,0:0:0:0:
320,192,68957,1,0,0:0:0:0:
448,192,69041,128,0,69374:0:0:0:0:
192,192,69374,1,0,0:0:0:0:
64,192,69374,1,0,0:0:0:0:
320,192,69457,1,0,0:0:0:0:
192,192,69541,1,0,0:0:0:0:
64,192,69624,1,0,0:0:0:0:
448,192,69707,1,0,0:0:0:0:
192,192,69707,1,0,0:0:0:0:
320,192,69791,1,0,0:0:0:0:
192,192,69874,1,0,0:0:0:0:
448,192,69957,1,0,0:0:0:0:
64,192,70041,1,0,0:0:0:0:
320,192,70041,1,0,0:0:0:0:
192,192,70124,1,0,0:0:0:0:
448,192,70207,1,0,0:0:0:0:
64,192,70291,1,0,0:0:0:0:
192,192,70374,1,0,0:0:0:0:
320,192,70374,1,0,0:0:0:0:
448,192,70457,1,0,0:0:0:0:
320,192,70541,1,0,0:0:0:0:
192,192,70624,1,0,0:0:0:0:
64,192,70707,1,0,0:0:0:0:
448,192,70707,1,0,0:0:0:0:
320,192,70791,1,0,0:0:0:0:
192,192,70874,1,0,0:0:0:0:
64,192,70957,1,0,0:0:0:0:
320,192,71041,1,0,0:0:0:0:
448,192,71041,1,0,0:0:0:0:
192,192,71124,1,0,0:0:0:0:
320,192,71207,1,0,0:0:0:0:
192,192,71291,1,0,0:0:0:0:
64,192,71374,1,0,0:0:0:0:
448,192,71374,1,0,0:0:0:0:
320,192,71457,1,0,0:0:0:0:
192,192,71541,1,0,0:0:0:0:
448,192,71624,1,0,0:0:0:0:
320,192,71707,1,0,0:0:0:0:
192,192,71707,1,0,0:0:0:0:
64,192,71791,1,0,0:0:0:0:
192,192,71874,1,0,0:0:0:0:
320,192,71957,1,0,0:0:0:0:
448,192,72041,1,0,0:0:0:0:
64,192,72041,1,0,0:0:0:0:
192,192,72124,1,0,0:0:0:0:
320,192,72207,1,0,0:0:0:0:
448,192,72291,1,0,0:0:0:0:
192,192,72374,1,0,0:0:0:0:
320,192,72374,1,0,0:0:0:0:
64,192,72457,1,0,0:0:0:0:
320,192,72541,1,0,0:0:0:0:
448,192,72624,1,0,0:0:0:0:
192,192,72707,1,0,0:0:0:0:
64,192,72707,1,0,0:0:0:0:
320,192,72791,1,0,0:0:0:0:
448,192,72874,1,0,0:0:0:0:
192,192,72957,1,0,0:0:0:0:
64,192,73041,1,0,0:0:0:0:
448,192,73041,1,0,0:0:0:0:
320,192,73124,1,0,0:0:0:0:
448,192,73207,1,0,0:0:0:0:
192,192,73291,1,0,0:0:0:0:
64,192,73374,1,0,0:0:0:0:
320,192,73374,1,0,0:0:0:0:
448,192,73457,1,0,0:0:0:0:
192,192,73541,1,0,0:0:0:0:
64,192,73624,1,0,0:0:0:0:
320,192,73707,1,0,0:0:0:0:
448,192,73707,1,0,0:0:0:0:
192,192,73791,1,0,0:0:0:0:
64,192,73874,1,0,0:0:0:0:
448,192,73957,1,0,0:0:0:0:
320,192,74041,1,0,0:0:0:0:
192,192,74041,1,0,0:0:0:0:
64,192,74124,1,0,0:0:0:0:
192,192,74207,1,0,0:0:0:0:
320,192,74291,1,0,0:0:0:0:
448,192,74374,1,0,0:0:0:0:
192,192,74374,1,0,0:0:0:0:
64,192,74457,1,0,0:0:0:0:
192,192,74541,1,0,0:0:0:0:
320,192,74624,1,0,0:0:0:0:
64,192,74707,1,0,0:0:0:0:
448,192,74707,1,0,0:0:0:0:
192,192,74791,1,0,0:0:0:0:
320,192,74874,1,0,0:0:0:0:
448,192,74957,1,0,0:0:0:0:
192,192,75041,1,0,0:0:0:0:
320,192,75041,1,0,0:0:0:0:
64,192,75124,1,0,0:0:0:0:
320,192,75207,1,0,0:0:0:0:
448,192,75291,1,0,0:0:0:0:
192,192,75374,1,0,0:0:0:0:
64,192,75374,1,0,0:0:0:0:
320,192,75457,1,0,0:0:0:0:
448,192,75541,1,0,0:0:0:0:
192,192,75624,1,0,0:0:0:0:
64,192,75707,1,0,0:0:0:0:
448,192,75707,1,0,0:0:0:0:
320,192,75791,1,0,0:0:0:0:
448,192,75874,1,0,0:0:0:0:
192,192,75957,1,0,0:0:0:0:
64,192,76041,1,0,0:0:0:0:
320,192,76041,1,0,0:0:0:0:
448,192,76124,1,0,0:0:0:0:
192,192,76207,1,0,0:0:0:0:
64,192,76291,1,0,0:0:0:0:
320,192,76374,1,0,0:0:0:0:
448,192,76374,1,0,0:0:0:0:
192,192,76457,1,0,0:0:0:0:
448,192,76541,1,0,0:0:0:0:
320,192,76624,1,0,0:0:0:0:
192,192,76707,1,0,0:0:0:0:
64,192,76707,1,0,0:0:0:0:
448,192,76791,1,0,0:0:0:0:
320,192,76874,1,0,0:0:0:0:
64,192,76957,1,0,0:0:0:0:
192,192,77041,1,0,0:0:0:0:
320,192,77041,1,0,0:0:0:0:
448,192,77124,1,0,0:0:0:0:
320,192,77207,1,0,0:0:0:0:
64,192,77291,1,0,0:0:0:0:
192,192,77374,1,0,0:0:0:0:
448,192,77374,1,0,0:0:0:0:
320,192,77457,1,0,0:0:0:0:
64,192,77541,1,0,0:0:0:0:
192,192,77624,1,0,0:0:0:0:
320,192,77707,1,0,0:0:0:0:
64,192,77707,1,0,0:0:0:0:
448,192,77791,1,0,0:0:0:0:
192,192,77874,1,0,0:0:0:0:
64,192,77957,1,0,0:0:0:0:
320,192,78041,1,0,0:0:0:0:
192,192,78041,1,0,0:0:0:0:
448,192,78124,1,0,0:0:0:0:
192,192,78207,1,0,0:0:0:0:
320,192,78291,1,0,0:0:0:0:
64,192,78374,1,0,0:0:0:0:
192,192,78374,1,0,0:0:0:0:
448,192,78457,1,0,0:0:0:0:
320,192,78541,1,0,0:0:0:0:
192,192,78624,1,0,0:0:0:0:
64,192,78707,1,0,0:0:0:0:
448,192,78707,1,0,0:0:0:0:
320,192,78791,1,0,0:0:0:0:
448,192,78874,1,0,0:0:0:0:
192,192,78957,1,0,0:0:0:0:
64,192,79041,1,0,0:0:0:0:
448,192,79041,1,0,0:0:0:0:
320,192,79124,1,0,0:0:0:0:
192,192,79207,1,0,0:0:0:0:
448,192,79291,1,0,0:0:0:0:
320,192,79374,1,0,0:0:0:0:
192,192,79374,1,0,0:0:0:0:
64,192,79457,1,0,0:0:0:0:
192,192,79541,1,0,0:0:0:0:
320,192,79624,1,0,0:0:0:0:
64,192,80041,128,0,82041:0:0:0:0:
448,192,80041,128,0,82041:0:0:0:0:
192,192,82041,5,0,0:0:0:0:
320,192,82041,1,0,0:0:0:0:
320,192,82207,1,0,0:0:0:0:
448,192,82207,1,0,0:0:0:0:
64,192,82207,1,0,0:0:0:0:
192,192,82374,1,0,0:0:0:0:
320,192,82374,1,0,0:0:0:0:
448,192,82541,1,0,0:0:0:0:
192,192,82541,1,0,0:0:0:0:
64,192,82541,1,0,0:0:0:0:
320,192,82707,1,0,0:0:0:0:
448,192,82707,128,0,83707:0:0:0:0:
64,192,83041,1,0,0:0:0:0:
192,192,83374,1,0,0:0:0:0:
192,192,83707,128,0,84041:0:0:0:0:
320,192,83707,1,0,0:0:0:0:
64,192,84041,128,0,84374:0:0:0:0:
448,192,84041,1,0,0:0:0:0:
320,192,84041,1,0,0:0:0:0:
320,192,84207,1,0,0:0:0:0:
448,192,84207,1,0,0:0:0:0:
192,192,84374,128,0,84707:0:0:0:0:
320,192,84541,1,0,0:0:0:0:
448,192,84707,128,0,85374:0:0:0:0:
64,192,84707,1,0,0:0:0:0:
192,192,84791,1,0,0:0:0:0:
320,192,84874,1,0,0:0:0:0:
64,192,84957,1,0,0:0:0:0:
192,192,85041,1,0,0:0:0:0:
320,192,85124,1,0,0:0:0:0:
64,192,85207,1,0,0:0:0:0:
320,192,85291,1,0,0:0:0:0:
192,192,85374,128,0,85707:0:0:0:0:
64,192,85374,1,0,0:0:0:0:
320,192,85457,1,0,0:0:0:0:
448,192,85541,1,0,0:0:0:0:
320,192,85624,1,0,0:0:0:0:
64,192,85707,128,0,86041:0:0:0:0:
448,192,85874,128,0,86041:0:0:0:0:
320,192,86041,128,0,86374:0:0:0:0:
192,192,86207,128,0,86374:0:0:0:0:
448,192,86374,128,0,87374:0:0:0:0:
320,192,86707,1,0,0:0:0:0:
192,192,86791,1,0,0:0:0:0:
64,192,86874,1,0,0:0:0:0:
192,192,86957,1,0,0:0:0:0:
64,192,87041,1,0,0:0:0:0:
192,192,87124,1,0,0:0:0:0:
320,192,87207,1,0,0:0:0:0:
64,192,87291,1,0,0:0:0:0:
320,192,87374,1,0,0:0:0:0:
192,192,87374,128,0,87541:0:0:0:0:
320,192,87457,128,0,87624:0:0:0:0:
64,192,87541,128,0,87707:0:0:0:0:
192,192,87624,128,0,87791:0:0:0:0:
448,192,87707,128,0,88041:0:0:0:0:
320,192,87791,128,0,87957:0:0:0:0:
64,192,87874,128,0,88041:0:0:0:0:
192,192,87957,128,0,88041:0:0:0:0:
320,192,88041,1,0,0:0:0:0:
64,192,88124,1,0,0:0:0:0:
320,192,88207,1,0,0:0:0:0:
192,192,88291,1,0,0:0:0:0:
64,192,88374,1,0,0:0:0:0:
448,192,88374,1,0,0:0:0:0:
320,192,88457,1,0,0:0:0:0:
64,192,88541,1,0,0:0:0:0:
192,192,88624,1,0,0:0:0:0:
320,192,88707,1,0,0:0:0:0:
448,192,88707,1,0,0:0:0:0:
192,192,88791,1,0,0:0:0:0:
64,192,88874,1,0,0:0:0:0:
320,192,88957,1,0,0:0:0:0:
192,192,89041,1,0,0:0:0:0:
448,192,89124,1,0,0:0:0:0:
320,192,89207,1,0,0:0:0:0:
64,192,89291,1,0,0:0:0:0:
192,192,89374,1,0,0:0:0:0:
448,192,89374,128,0,89541:0:0:0:0:
320,192,89457,128,0,89624:0:0:0:0:
64,192,89541,128,0,89707:0:0:0:0:
192,192,89624,128,0,89791:0:0:0:0:
448,192,89707,128,0,89874:0:0:0:0:
320,192,89791,128,0,89957:0:0:0:0:
64,192,89874,128,0,90041:0:0:0:0:
192,192,89957,128,0,90041:0:0:0:0:
448,192,90041,1,0,0:0:0:0:
320,192,90041,1,0,0:0:0:0:
192,192,90124,1,0,0:0:0:0:
64,192,90207,1,0,0:0:0:0:
320,192,90291,1,0,0:0:0:0:
448,192,90374,1,0,0:0:0:0:
64,192,90374,128,0,90457:0:0:0:0:
192,192,90457,128,0,90541:0:0:0:0:
320,192,90541,128,0,90624:0:0:0:0:
448,192,90624,128,0,90707:0:0:0:0:
64,192,90707,1,0,0:0:0:0:
192,192,90707,1,0,0:0:0:0:
320,192,90707,1,0,0:0:0:0:
320,192,90874,1,0,0:0:0:0:
448,192,90874,1,0,0:0:0:0:
448,192,91041,1,0,0:0:0:0:
192,192,91041,1,0,0:0:0:0:
320,192,91207,1,0,0:0:0:0:
64,192,91207,1,0,0:0:0:0:
192,192,91374,1,0,0:0:0:0:
64,192,91374,1,0,0:0:0:0:
448,192,91374,1,0,0:0:0:0:
320,192,91541,1,0,0:0:0:0:
448,192,91541,1,0,0:0:0:0:
320,192,91707,1,0,0:0:0:0:
192,192,91707,128,0,92374:0:0:0:0:
448,192,92041,1,0,0:0:0:0:
320,192,92041,1,0,0:0:0:0:
320,192,92374,1,0,0:0:0:0:
448,192,92416,1,0,0:0:0:0:
64,192,92457,1,0,0:0:0:0:
192,192,92499,1,0,0:0:0:0:
320,192,92541,1,0,0:0:0:0:
64,192,92582,1,0,0:0:0:0:
448,192,92582,1,0,0:0:0:0:
192,192,92624,1,0,0:0:0:0:
320,192,92666,1,0,0:0:0:0:
448,192,92707,128,0,93374:0:0:0:0:
64,192,92707,128,0,93374:0:0:0:0:
320,192,93374,1,0,0:0:0:0:
192,192,93374,1,0,0:0:0:0:
64,192,93457,1,0,0:0:0:0:
192,192,93541,1,0,0:0:0:0:
320,192,93624,1,0,0:0:0:0:
448,192,93707,1,0,0:0:0:0:
192,192,93791,1,0,0:0:0:0:
320,192,93874,1,0,0:0:0:0:
64,192,93957,1,0,0:0:0:0:
448,192,94041,1,0,0:0:0:0:
192,192,94124,1,0,0:0:0:0:
320,192,94207,1,0,0:0:0:0:
448,192,94291,1,0,0:0:0:0:
192,192,94374,1,0,0:0:0:0:
64,192,94374,1,0,0:0:0:0:
320,192,94457,1,0,0:0:0:0:
448,192,94541,1,0,0:0:0:0:
192,192,94624,1,0,0:0:0:0:
320,192,94707,1,0,0:0:0:0:
64,192,94707,1,0,0:0:0:0:
448,192,94791,1,0,0:0:0:0:
192,192,94874,1,0,0:0:0:0:
64,192,94874,1,0,0:0:0:0:
448,192,95041,128,0,95374:0:0:0:0:
192,192,95374,1,0,0:0:0:0:
64,192,95416,1,0,0:0:0:0:
320,192,95457,1,0,0:0:0:0:
192,192,95499,1,0,0:0:0:0:
64,192,95541,1,0,0:0:0:0:
320,192,95582,1,0,0:0:0:0:
448,192,95624,1,0,0:0:0:0:
192,192,95666,1,0,0:0:0:0:
64,192,95707,128,0,95874:0:0:0:0:
192,192,95791,128,0,95957:0:0:0:0:
320,192,95874,128,0,96041:0:0:0:0:
448,192,95957,128,0,96041:0:0:0:0:
64,192,96041,128,0,96374:0:0:0:0:
192,192,96207,1,0,0:0:0:0:
192,192,96374,128,0,96707:0:0:0:0:
448,192,96374,1,0,0:0:0:0:
320,192,96707,128,0,97041:0:0:0:0:
64,192,96707,1,0,0:0:0:0:
448,192,96707,1,0,0:0:0:0:
448,192,97041,128,0,97374:0:0:0:0:
192,192,97374,1,0,0:0:0:0:
64,192,97457,1,0,0:0:0:0:
320,192,97541,1,0,0:0:0:0:
448,192,97624,1,0,0:0:0:0:
192,192,97707,1,0,0:0:0:0:
64,192,97791,1,0,0:0:0:0:
320,192,97874,1,0,0:0:0:0:
448,192,97957,1,0,0:0:0:0:
192,192,98041,1,0,0:0:0:0:
64,192,98041,1,0,0:0:0:0:
320,192,98124,1,0,0:0:0:0:
448,192,98207,1,0,0:0:0:0:
192,192,98291,1,0,0:0:0:0:
320,192,98374,1,0,0:0:0:0:
64,192,98457,1,0,0:0:0:0:
192,192,98541,1,0,0:0:0:0:
320,192,98624,1,0,0:0:0:0:
64,192,98707,1,0,0:0:0:0:
192,192,98707,1,0,0:0:0:0:
448,192,98707,128,0,99041:0:0:0:0:
320,192,99041,128,0,99374:0:0:0:0:
64,192,99041,1,0,0:0:0:0:
64,192,99374,128,0,99707:0:0:0:0:
192,192,99374,1,0,0:0:0:0:
448,192,99374,1,0,0:0:0:0:
192,192,99541,1,0,0:0:0:0:
448,192,99541,1,0,0:0:0:0:
192,192,99707,1,0,0:0:0:0:
448,192,99707,1,0,0:0:0:0:
448,192,100041,1,0,0:0:0:0:
64,192,100041,1,0,0:0:0:0:
192,192,100207,1,0,0:0:0:0:
64,192,100207,1,0,0:0:0:0:
448,192,100207,1,0,0:0:0:0:
64,192,100374,1,0,0:0:0:0:
448,192,100374,1,0,0:0:0:0:
320,192,100541,1,0,0:0:0:0:
192,192,100707,1,0,0:0:0:0:
64,192,100707,1,0,0:0:0:0:
448,192,100707,1,0,0:0:0:0:
320,192,100874,1,0,0:0:0:0:
448,192,100874,1,0,0:0:0:0:
192,192,100957,1,0,0:0:0:0:
64,192,100957,1,0,0:0:0:0:
320,192,101041,1,0,0:0:0:0:
448,192,101041,1,0,0:0:0:0:
192,192,101124,1,0,0:0:0:0:
64,192,101124,1,0,0:0:0:0:
320,192,101207,1,0,0:0:0:0:
448,192,101207,1,0,0:0:0:0:
64,192,101291,1,0,0:0:0:0:
192,192,101291,1,0,0:0:0:0:
320,192,101374,1,0,0:0:0:0:
448,192,101374,1,0,0:0:0:0:
192,192,101457,1,0,0:0:0:0:
64,192,101541,1,0,0:0:0:0:
320,192,101624,1,0,0:0:0:0:
448,192,101707,1,0,0:0:0:0:
192,192,101707,1,0,0:0:0:0:
64,192,101791,1,0,0:0:0:0:
320,192,101874,1,0,0:0:0:0:
448,192,101957,1,0,0:0:0:0:
192,192,102041,1,0,0:0:0:0:
64,192,102041,1,0,0:0:0:0:
320,192,102041,1,0,0:0:0:0:
448,192,102124,1,0,0:0:0:0:
192,192,102207,1,0,0:0:0:0:
64,192,102291,1,0,0:0:0:0:
320,192,102374,1,0,0:0:0:0:
448,192,102374,1,0,0:0:0:0:
192,192,102457,1,0,0:0:0:0:
64,192,102541,1,0,0:0:0:0:
320,192,102624,1,0,0:0:0:0:
448,192,102707,1,0,0:0:0:0:
64,192,102707,1,0,0:0:0:0:
320,192,102791,1,0,0:0:0:0:
192,192,102874,1,0,0:0:0:0:
64,192,102957,1,0,0:0:0:0:
320,192,103041,1,0,0:0:0:0:
448,192,103041,1,0,0:0:0:0:
192,192,103124,1,0,0:0:0:0:
64,192,103207,1,0,0:0:0:0:
192,192,103541,1,0,0:0:0:0:
64,192,103541,1,0,0:0:0:0:
448,192,103707,128,0,104041:0:0:0:0:
320,192,103874,128,0,104041:0:0:0:0:
192,192,104041,1,0,0:0:0:0:
64,192,104041,1,0,0:0:0:0:
448,192,104124,1,0,0:0:0:0:
320,192,104207,1,0,0:0:0:0:
64,192,104291,1,0,0:0:0:0:
192,192,104374,1,0,0:0:0:0:
448,192,104374,1,0,0:0:0:0:
320,192,104457,1,0,0:0:0:0:
64,192,104541,1,0,0:0:0:0:
192,192,104624,1,0,0:0:0:0:
320,192,104707,1,0,0:0:0:0:
448,192,104707,1,0,0:0:0:0:
64,192,104707,1,0,0:0:0:0:
192,192,104791,1,0,0:0:0:0:
64,192,104874,1,0,0:0:0:0:
320,192,104957,1,0,0:0:0:0:
448,192,105041,1,0,0:0:0:0:
64,192,105041,1,0,0:0:0:0:
192,192,105124,1,0,0:0:0:0:
320,192,105207,1,0,0:0:0:0:
64,192,105207,1,0,0:0:0:0:
448,192,105291,1,0,0:0:0:0:
192,192,105374,1,0,0:0:0:0:
64,192,105374,1,0,0:0:0:0:
320,192,105374,1,0,0:0:0:0:
448,192,105457,1,0,0:0:0:0:
192,192,105541,1,0,0:0:0:0:
320,192,105541,1,0,0:0:0:0:
448,192,105624,1,0,0:0:0:0:
192,192,105707,1,0,0:0:0:0:
64,192,105707,1,0,0:0:0:0:
320,192,105791,1,0,0:0:0:0:
192,192,105874,1,0,0:0:0:0:
448,192,105957,1,0,0:0:0:0:
192,192,106041,1,0,0:0:0:0:
64,192,106041,1,0,0:0:0:0:
320,192,106041,1,0,0:0:0:0:
448,192,106124,1,0,0:0:0:0:
320,192,106207,1,0,0:0:0:0:
64,192,106291,1,0,0:0:0:0:
448,192,106374,1,0,0:0:0:0:
192,192,106374,1,0,0:0:0:0:
320,192,106457,1,0,0:0:0:0:
448,192,106541,1,0,0:0:0:0:
64,192,106541,1,0,0:0:0:0:
192,192,106624,1,0,0:0:0:0:
320,192,106707,1,0,0:0:0:0:
448,192,106707,1,0,0:0:0:0:
64,192,106707,1,0,0:0:0:0:
192,192,106791,1,0,0:0:0:0:
64,192,106874,1,0,0:0:0:0:
320,192,106957,1,0,0:0:0:0:
448,192,107041,1,0,0:0:0:0:
192,192,107041,1,0,0:0:0:0:
64,192,107124,1,0,0:0:0:0:
192,192,107207,1,0,0:0:0:0:
320,192,107291,1,0,0:0:0:0:
448,192,107374,1,0,0:0:0:0:
64,192,107374,1,0,0:0:0:0:
192,192,107457,1,0,0:0:0:0:
64,192,107541,1,0,0:0:0:0:
320,192,107624,1,0,0:0:0:0:
192,192,107707,1,0,0:0:0:0:
448,192,107707,1,0,0:0:0:0:
320,192,107791,1,0,0:0:0:0:
64,192,107874,1,0,0:0:0:0:
192,192,107957,1,0,0:0:0:0:
320,192,108041,1,0,0:0:0:0:
448,192,108041,1,0,0:0:0:0:
64,192,108041,1,0,0:0:0:0:
192,192,108124,1,0,0:0:0:0:
320,192,108207,1,0,0:0:0:0:
448,192,108291,1,0,0:0:0:0:
192,192,108374,1,0,0:0:0:0:
64,192,108374,1,0,0:0:0:0:
320,192,108457,1,0,0:0:0:0:
448,192,108541,1,0,0:0:0:0:
192,192,108624,1,0,0:0:0:0:
64,192,108707,1,0,0:0:0:0:
320,192,108707,1,0,0:0:0:0:
448,192,108707,1,0,0:0:0:0:
192,192,108791,1,0,0:0:0:0:
448,192,108874,1,0,0:0:0:0:
64,192,108957,1,0,0:0:0:0:
320,192,109041,1,0,0:0:0:0:
192,192,109041,1,0,0:0:0:0:
448,192,109124,1,0,0:0:0:0:
320,192,109207,1,0,0:0:0:0:
192,192,109291,1,0,0:0:0:0:
64,192,109374,1,0,0:0:0:0:
448,192,109374,1,0,0:0:0:0:
320,192,109374,1,0,0:0:0:0:
192,192,109457,1,0,0:0:0:0:
448,192,109541,1,0,0:0:0:0:
320,192,109624,1,0,0:0:0:0:
192,192,109707,1,0,0:0:0:0:
64,192,109707,1,0,0:0:0:0:
448,192,109791,1,0,0:0:0:0:
192,192,109874,1,0,0:0:0:0:
64,192,109874,1,0,0:0:0:0:
320,192,109957,1,0,0:0:0:0:
448,192,110041,1,0,0:0:0:0:
192,192,110041,1,0,0:0:0:0:
64,192,110041,1,0,0:0:0:0:
320,192,110124,1,0,0:0:0:0:
64,192,110207,1,0,0:0:0:0:
192,192,110291,1,0,0:0:0:0:
448,192,110374,1,0,0:0:0:0:
320,192,110374,1,0,0:0:0:0:
64,192,110457,1,0,0:0:0:0:
320,192,110541,1,0,0:0:0:0:
192,192,110624,1,0,0:0:0:0:
64,192,110707,1,0,0:0:0:0:
448,192,110707,1,0,0:0:0:0:
320,192,110707,1,0,0:0:0:0:
192,192,110791,1,0,0:0:0:0:
448,192,110874,1,0,0:0:0:0:
320,192,110957,1,0,0:0:0:0:
192,192,111041,1,0,0:0:0:0:
64,192,111041,1,0,0:0:0:0:
448,192,111124,1,0,0:0:0:0:
320,192,111207,1,0,0:0:0:0:
64,192,111291,1,0,0:0:0:0:
192,192,111374,1,0,0:0:0:0:
448,192,111374,1,0,0:0:0:0:
320,192,111374,1,0,0:0:0:0:
64,192,111457,1,0,0:0:0:0:
192,192,111541,1,0,0:0:0:0:
448,192,111624,1,0,0:0:0:0:
320,192,111707,1,0,0:0:0:0:
64,192,111707,1,0,0:0:0:0:
192,192,111791,1,0,0:0:0:0:
64,192,111874,1,0,0:0:0:0:
320,192,111874,1,0,0:0:0:0:
448,192,111957,1,0,0:0:0:0:
320,192,112041,1,0,0:0:0:0:
192,192,112041,1,0,0:0:0:0:
64,192,112041,1,0,0:0:0:0:
448,192,112124,1,0,0:0:0:0:
320,192,112207,1,0,0:0:0:0:
64,192,112291,1,0,0:0:0:0:
192,192,112374,1,0,0:0:0:0:
448,192,112374,1,0,0:0:0:0:
320,192,112457,1,0,0:0:0:0:
192,192,112541,1,0,0:0:0:0:
448,192,112541,1,0,0:0:0:0:
64,192,112624,1,0,0:0:0:0:
192,192,112707,1,0,0:0:0:0:
320,192,112707,1,0,0:0:0:0:
448,192,112707,1,0,0:0:0:0:
64,192,112791,1,0,0:0:0:0:
192,192,112874,1,0,0:0:0:0:
448,192,112957,1,0,0:0:0:0:
320,192,113041,1,0,0:0:0:0:
64,192,113041,1,0,0:0:0:0:
192,192,113124,1,0,0:0:0:0:
320,192,113207,1,0,0:0:0:0:
64,192,113207,1,0,0:0:0:0:
448,192,113291,1,0,0:0:0:0:
192,192,113374,1,0,0:0:0:0:
64,192,113374,1,0,0:0:0:0:
320,192,113374,1,0,0:0:0:0:
448,192,113457,1,0,0:0:0:0:
320,192,113541,1,0,0:0:0:0:
192,192,113624,1,0,0:0:0:0:
64,192,113707,1,0,0:0:0:0:
448,192,113707,1,0,0:0:0:0:
320,192,113791,1,0,0:0:0:0:
192,192,113874,1,0,0:0:0:0:
64,192,113874,1,0,0:0:0:0:
448,192,113957,1,0,0:0:0:0:
320,192,114041,1,0,0:0:0:0:
192,192,114041,1,0,0:0:0:0:
64,192,114041,1,0,0:0:0:0:
448,192,114124,1,0,0:0:0:0:
320,192,114207,1,0,0:0:0:0:
64,192,114291,1,0,0:0:0:0:
192,192,114374,1,0,0:0:0:0:
448,192,114374,1,0,0:0:0:0:
192,192,114541,1,0,0:0:0:0:
448,192,114541,1,0,0:0:0:0:
320,192,114707,1,0,0:0:0:0:
448,192,114707,1,0,0:0:0:0:
64,192,114707,1,0,0:0:0:0:
192,192,115041,1,0,0:0:0:0:
64,192,115041,1,0,0:0:0:0:
192,192,115207,1,0,0:0:0:0:
64,192,115207,1,0,0:0:0:0:
192,192,115374,1,0,0:0:0:0:
64,192,115374,1,0,0:0:0:0:
448,192,115374,1,0,0:0:0:0:
320,192,115374,1,0,0:0:0:0:
320,192,115707,1,0,0:0:0:0:
448,192,115707,1,0,0:0:0:0:
320,192,115874,1,0,0:0:0:0:
448,192,115874,1,0,0:0:0:0:
64,192,116207,1,0,0:0:0:0:
320,192,116207,1,0,0:0:0:0:
192,192,116207,1,0,0:0:0:0:
64,192,116374,1,0,0:0:0:0:
320,192,116374,1,0,0:0:0:0:
64,192,116707,1,0,0:0:0:0:
448,192,116707,1,0,0:0:0:0:
192,192,116707,1,0,0:0:0:0:
320,192,116707,1,0,0:0:0:0:
192,192,117041,1,0,0:0:0:0:
448,192,117041,1,0,0:0:0:0:
192,192,117207,1,0,0:0:0:0:
448,192,117207,1,0,0:0:0:0:
320,192,117374,1,0,0:0:0:0:
448,192,117374,1,0,0:0:0:0:
192,192,117374,1,0,0:0:0:0:
320,192,117707,1,0,0:0:0:0:
64,192,117707,1,0,0:0:0:0:
64,192,117874,1,0,0:0:0:0:
320,192,117874,1,0,0:0:0:0:
192,192,118041,1,0,0:0:0:0:
64,192,118041,1,0,0:0:0:0:
320,192,118041,1,0,0:0:0:0:
448,192,118041,1,0,0:0:0:0:
192,192,118207,1,0,0:0:0:0:
448,192,118207,1,0,0:0:0:0:
448,192,118374,1,0,0:0:0:0:
320,192,118374,1,0,0:0:0:0:
64,192,118541,1,0,0:0:0:0:
192,192,118541,1,0,0:0:0:0:
320,192,118707,1,0,0:0:0:0:
448,192,118707,1,0,0:0:0:0:
192,192,118763,1,0,0:0:0:0:
64,192,118818,1,0,0:0:0:0:
320,192,118874,1,0,0:0:0:0:
448,192,118874,1,0,0:0:0:0:
192,192,118929,1,0,0:0:0:0:
64,192,118985,1,0,0:0:0:0:
320,192,119041,1,0,0:0:0:0:
448,192,119096,1,0,0:0:0:0:
192,192,119152,1,0,0:0:0:0:
64,192,119207,1,0,0:0:0:0:
320,192,119207,1,0,0:0:0:0:
448,192,119263,1,0,0:0:0:0:
192,192,119318,1,0,0:0:0:0:
64,192,119374,1,0,0:0:0:0:
320,192,119374,1,0,0:0:0:0:
448,192,119374,1,0,0:0:0:0:
192,192,119541,1,0,0:0:0:0:
64,192,119541,1,0,0:0:0:0:
320,192,119624,1,0,0:0:0:0:
448,192,119624,1,0,0:0:0:0:
192,192,119707,1,0,0:0:0:0:
64,192,119707,1,0,0:0:0:0:
320,192,119874,1,0,0:0:0:0:
448,192,119874,1,0,0:0:0:0:
448,192,120041,1,0,0:0:0:0:
64,192,120041,128,0,120374:0:0:0:0:
192,192,120041,128,0,120374:0:0:0:0:
448,192,120707,1,0,0:0:0:0:
320,192,121041,1,0,0:0:0:0:
64,192,121374,1,0,0:0:0:0:
192,192,121707,1,0,0:0:0:0:
320,192,122041,1,0,0:0:0:0:
448,192,122374,1,0,0:0:0:0:
192,192,122707,1,0,0:0:0:0:
64,192,122707,1,0,0:0:0:0:
448,192,123041,1,0,0:0:0:0:
320,192,123374,1,0,0:0:0:0:
64,192,123707,1,0,0:0:0:0:
192,192,124041,1,0,0:0:0:0:
320,192,124374,1,0,0:0:0:0:
320,192,124707,1,0,0:0:0:0:
448,192,125041,128,0,125374:0:0:0:0:
192,192,125374,128,0,128041:0:0:0:0:
320,192,126041,1,0,0:0:0:0:
320,192,126707,1,0,0:0:0:0:
64,192,127374,1,0,0:0:0:0:
448,192,128041,128,0,129374:0:0:0:0:
320,192,128374,1,0,0:0:0:0:
192,192,128707,1,0,0:0:0:0:
64,192,129041,1,0,0:0:0:0:
320,192,129374,128,0,130291:0:0:0:0:
64,192,130707,128,0,132707:0:0:0:0:
448,192,130707,128,0,132707:0:0:0:0:
192,192,132707,5,0,0:0:0:0:
320,192,132707,1,0,0:0:0:0:
320,192,132874,1,0,0:0:0:0:
448,192,132874,128,0,133374:0:0:0:0:
320,192,133374,1,0,0:0:0:0:
192,192,133374,1,0,0:0:0:0:
64,192,133541,1,0,0:0:0:0:
320,192,133707,1,0,0:0:0:0:
448,192,133874,1,0,0:0:0:0:
320,192,134041,1,0,0:0:0:0:
192,192,134041,1,0,0:0:0:0:
64,192,134041,1,0,0:0:0:0:
192,192,134207,1,0,0:0:0:0:
320,192,134374,1,0,0:0:0:0:
64,192,134374,1,0,0:0:0:0:
448,192,134541,1,0,0:0:0:0:
192,192,134541,1,0,0:0:0:0:
192,192,134707,1,0,0:0:0:0:
64,192,134707,1,0,0:0:0:0:
320,192,134874,1,0,0:0:0:0:
448,192,134874,1,0,0:0:0:0:
192,192,135041,1,0,0:0:0:0:
448,192,135041,1,0,0:0:0:0:
320,192,135207,1,0,0:0:0:0:
64,192,135207,1,0,0:0:0:0:
192,192,135374,1,0,0:0:0:0:
64,192,135374,1,0,0:0:0:0:
448,192,135374,1,0,0:0:0:0:
320,192,135541,1,0,0:0:0:0:
64,192,135541,1,0,0:0:0:0:
448,192,135707,128,0,135874:0:0:0:0:
320,192,135791,128,0,135957:0:0:0:0:
192,192,135874,128,0,136041:0:0:0:0:
64,192,135957,128,0,136041:0:0:0:0:
448,192,136041,1,0,0:0:0:0:
320,192,136041,1,0,0:0:0:0:
192,192,136207,1,0,0:0:0:0:
64,192,136207,1,0,0:0:0:0:
448,192,136374,1,0,0:0:0:0:
64,192,136374,1,0,0:0:0:0:
320,192,136541,1,0,0:0:0:0:
448,192,136541,1,0,0:0:0:0:
320,192,136707,1,0,0:0:0:0:
192,192,136707,1,0,0:0:0:0:
64,192,136707,1,0,0:0:0:0:
192,192,136874,1,0,0:0:0:0:
448,192,136874,1,0,0:0:0:0:
320,192,137041,1,0,0:0:0:0:
448,192,137041,1,0,0:0:0:0:
192,192,137207,1,0,0:0:0:0:
64,192,137207,1,0,0:0:0:0:
448,192,137374,1,0,0:0:0:0:
64,192,137374,1,0,0:0:0:0:
320,192,137374,1,0,0:0:0:0:
192,192,137541,1,0,0:0:0:0:
448,192,137541,1,0,0:0:0:0:
320,192,137707,1,0,0:0:0:0:
64,192,137707,1,0,0:0:0:0:
192,192,137874,1,0,0:0:0:0:
64,192,137874,1,0,0:0:0:0:
320,192,138041,128,0,138207:0:0:0:0:
448,192,138041,128,0,138291:0:0:0:0:
192,192,138041,128,0,138124:0:0:0:0:
64,192,138041,1,0,0:0:0:0:
64,192,138124,128,0,138291:0:0:0:0:
192,192,138207,128,0,138374:0:0:0:0:
320,192,138291,128,0,138457:0:0:0:0:
448,192,138374,128,0,138541:0:0:0:0:
64,192,138457,128,0,138707:0:0:0:0:
192,192,138541,128,0,138707:0:0:0:0:
320,192,138624,128,0,138707:0:0:0:0:
448,192,138707,1,0,0:0:0:0:
320,192,138791,1,0,0:0:0:0:
192,192,138874,1,0,0:0:0:0:
64,192,138957,1,0,0:0:0:0:
320,192,139041,1,0,0:0:0:0:
192,192,139041,1,0,0:0:0:0:
448,192,139124,1,0,0:0:0:0:
192,192,139207,1,0,0:0:0:0:
320,192,139207,1,0,0:0:0:0:
64,192,139291,1,0,0:0:0:0:
192,192,139374,1,0,0:0:0:0:
320,192,139374,128,0,139541:0:0:0:0:
448,192,139374,128,0,139457:0:0:0:0:
64,192,139457,128,0,139624:0:0:0:0:
192,192,139541,128,0,139707:0:0:0:0:
448,192,139541,128,0,139624:0:0:0:0:
320,192,139624,128,0,139791:0:0:0:0:
448,192,139707,128,0,139874:0:0:0:0:
64,192,139707,128,0,139874:0:0:0:0:
192,192,139791,128,0,139957:0:0:0:0:
320,192,139874,128,0,140041:0:0:0:0:
448,192,139957,128,0,140041:0:0:0:0:
64,192,140041,128,0,140207:0:0:0:0:
192,192,140041,128,0,140124:0:0:0:0:
320,192,140124,128,0,140207:0:0:0:0:
448,192,140207,128,0,140374:0:0:0:0:
320,192,140291,128,0,140457:0:0:0:0:
192,192,140291,128,0,140374:0:0:0:0:
64,192,140374,128,0,140541:0:0:0:0:
192,192,140457,128,0,140624:0:0:0:0:
448,192,140541,128,0,140707:0:0:0:0:
320,192,140624,128,0,140791:0:0:0:0:
64,192,140707,128,0,140874:0:0:0:0:
192,192,140874,128,0,141041:0:0:0:0:
320,192,141041,128,0,141374:0:0:0:0:
448,192,141207,128,0,141374:0:0:0:0:
64,192,141374,1,0,0:0:0:0:
192,192,141541,1,0,0:0:0:0:
448,192,141707,128,0,141874:0:0:0:0:
64,192,141707,128,0,142041:0:0:0:0:
192,192,141707,128,0,141957:0:0:0:0:
320,192,141707,128,0,141791:0:0:0:0:
320,192,141874,128,0,142041:0:0:0:0:
192,192,142041,128,0,142207:0:0:0:0:
448,192,142041,128,0,142124:0:0:0:0:
320,192,142124,128,0,142291:0:0:0:0:
64,192,142207,128,0,142374:0:0:0:0:
192,192,142291,128,0,142374:0:0:0:0:
448,192,142291,128,0,142541:0:0:0:0:
320,192,142374,128,0,142541:0:0:0:0:
192,192,142457,128,0,142707:0:0:0:0:
64,192,142541,128,0,142707:0:0:0:0:
320,192,142624,128,0,142791:0:0:0:0:
448,192,142624,1,0,0:0:0:0:
448,192,142707,128,0,142874:0:0:0:0:
192,192,142791,128,0,142957:0:0:0:0:
64,192,142791,1,0,0:0:0:0:
320,192,142874,128,0,143207:0:0:0:0:
64,192,142874,128,0,143041:0:0:0:0:
448,192,142957,1,0,0:0:0:0:
448,192,143041,128,0,143207:0:0:0:0:
192,192,143041,128,0,143124:0:0:0:0:
64,192,143124,128,0,143207:0:0:0:0:
192,192,143207,128,0,143374:0:0:0:0:
320,192,143291,128,0,143374:0:0:0:0:
448,192,143291,128,0,143457:0:0:0:0:
64,192,143291,1,0,0:0:0:0:
64,192,143374,128,0,143624:0:0:0:0:
192,192,143457,128,0,143624:0:0:0:0:
320,192,143457,128,0,143541:0:0:0:0:
448,192,143541,128,0,143624:0:0:0:0:
320,192,143624,128,0,143874:0:0:0:0:
448,192,143707,128,0,143874:0:0:0:0:
64,192,143707,1,0,0:0:0:0:
192,192,143874,128,0,144041:0:0:0:0:
320,192,144041,128,0,144374:0:0:0:0:
64,192,144041,128,0,144124:0:0:0:0:
448,192,144041,1,0,0:0:0:0:
192,192,144124,128,0,144291:0:0:0:0:
64,192,144207,128,0,144374:0:0:0:0:
448,192,144207,1,0,0:0:0:0:
448,192,144291,128,0,144457:0:0:0:0:
192,192,144374,128,0,144707:0:0:0:0:
64,192,144457,128,0,144624:0:0:0:0:
320,192,144457,1,0,0:0:0:0:
320,192,144541,128,0,144707:0:0:0:0:
448,192,144541,1,0,0:0:0:0:
448,192,144624,128,0,144707:0:0:0:0:
64,192,144707,128,0,144874:0:0:0:0:
192,192,144791,128,0,144957:0:0:0:0:
448,192,144791,128,0,144874:0:0:0:0:
320,192,144791,1,0,0:0:0:0:
320,192,144874,128,0,145041:0:0:0:0:
448,192,144957,128,0,145124:0:0:0:0:
64,192,144957,128,0,145207:0:0:0:0:
192,192,145041,128,0,145207:0:0:0:0:
320,192,145124,128,0,145207:0:0:0:0:
448,192,145207,128,0,145374:0:0:0:0:
192,192,145291,128,0,145457:0:0:0:0:
64,192,145291,1,0,0:0:0:0:
320,192,145291,1,0,0:0:0:0:
64,192,145374,128,0,145541:0:0:0:0:
320,192,145374,128,0,145707:0:0:0:0:
448,192,145457,128,0,145624:0:0:0:0:
192,192,145541,128,0,145707:0:0:0:0:
64,192,145624,128,0,145707:0:0:0:0:
448,192,145707,128,0,146041:0:0:0:0:
320,192,145791,128,0,145957:0:0:0:0:
64,192,145791,128,0,146041:0:0:0:0:
192,192,145791,1,0,0:0:0:0:
192,192,145874,128,0,146041:0:0:0:0:
320,192,146041,128,0,146374:0:0:0:0:
192,192,146207,128,0,146374:0:0:0:0:
64,192,146374,128,0,146707:0:0:0:0:
448,192,146374,128,0,146624:0:0:0:0:
192,192,146457,128,0,146707:0:0:0:0:
320,192,146541,128,0,146707:0:0:0:0:
448,192,146707,128,0,146874:0:0:0:0:
320,192,146791,128,0,146957:0:0:0:0:
64,192,146791,1,0,0:0:0:0:
192,192,146874,128,0,147041:0:0:0:0:
64,192,146957,128,0,147124:0:0:0:0:
320,192,147041,128,0,147207:0:0:0:0:
448,192,147041,1,0,0:0:0:0:
448,192,147124,128,0,147291:0:0:0:0:
192,192,147124,1,0,0:0:0:0:
192,192,147207,128,0,147374:0:0:0:0:
64,192,147207,128,0,147291:0:0:0:0:
320,192,147291,128,0,147374:0:0:0:0:
448,192,147374,128,0,147541:0:0:0:0:
64,192,147374,128,0,147624:0:0:0:0:
192,192,147457,128,0,147624:0:0:0:0:
320,192,147457,1,0,0:0:0:0:
320,192,147541,128,0,147624:0:0:0:0:
448,192,147624,128,0,147707:0:0:0:0:
320,192,147707,128,0,147874:0:0:0:0:
64,192,147707,128,0,147791:0:0:0:0:
192,192,147791,128,0,147874:0:0:0:0:
64,192,147874,128,0,148041:0:0:0:0:
448,192,147874,128,0,147957:0:0:0:0:
320,192,147957,128,0,148041:0:0:0:0:
192,192,147957,128,0,148124:0:0:0:0:
448,192,148041,128,0,148124:0:0:0:0:
320,192,148124,128,0,148207:0:0:0:0:
64,192,148124,128,0,148291:0:0:0:0:
192,192,148207,128,0,148291:0:0:0:0:
448,192,148207,128,0,148374:0:0:0:0:
320,192,148291,128,0,148457:0:0:0:0:
192,192,148374,128,0,148541:0:0:0:0:
64,192,148374,128,0,148707:0:0:0:0:
448,192,148457,128,0,148624:0:0:0:0:
320,192,148541,128,0,148707:0:0:0:0:
192,192,148624,128,0,148707:0:0:0:0:
448,192,148707,128,0,148874:0:0:0:0:
320,192,148874,128,0,149041:0:0:0:0:
64,192,149041,128,0,149124:0:0:0:0:
64,192,149207,128,0,149291:0:0:0:0:
192,192,149374,1,0,0:0:0:0:
448,192,149374,1,0,0:0:0:0:
320,192,149374,1,0,0:0:0:0:
64,192,149457,1,0,0:0:0:0:
192,192,149541,1,0,0:0:0:0:
448,192,149624,1,0,0:0:0:0:
320,192,149707,1,0,0:0:0:0:
192,192,149707,1,0,0:0:0:0:
64,192,149791,1,0,0:0:0:0:
448,192,149874,1,0,0:0:0:0:
192,192,149957,1,0,0:0:0:0:
64,192,150041,1,0,0:0:0:0:
320,192,150041,1,0,0:0:0:0:
448,192,150041,1,0,0:0:0:0:
192,192,150124,1,0,0:0:0:0:
320,192,150207,1,0,0:0:0:0:
448,192,150291,1,0,0:0:0:0:
192,192,150374,1,0,0:0:0:0:
64,192,150374,1,0,0:0:0:0:
320,192,150457,1,0,0:0:0:0:
448,192,150541,1,0,0:0:0:0:
192,192,150624,1,0,0:0:0:0:
64,192,150707,1,0,0:0:0:0:
448,192,150707,1,0,0:0:0:0:
320,192,150707,1,0,0:0:0:0:
192,192,150791,1,0,0:0:0:0:
448,192,150874,1,0,0:0:0:0:
320,192,150957,1,0,0:0:0:0:
192,192,151041,1,0,0:0:0:0:
64,192,151041,1,0,0:0:0:0:
448,192,151124,1,0,0:0:0:0:
320,192,151207,1,0,0:0:0:0:
64,192,151291,1,0,0:0:0:0:
192,192,151374,1,0,0:0:0:0:
320,192,151374,1,0,0:0:0:0:
448,192,151374,1,0,0:0:0:0:
64,192,151457,1,0,0:0:0:0:
192,192,151541,1,0,0:0:0:0:
448,192,151624,1,0,0:0:0:0:
320,192,151707,1,0,0:0:0:0:
64,192,151707,1,0,0:0:0:0:
192,192,151707,1,0,0:0:0:0:
448,192,151791,1,0,0:0:0:0:
320,192,151874,1,0,0:0:0:0:
192,192,151957,1,0,0:0:0:0:
64,192,152041,1,0,0:0:0:0:
320,192,152041,1,0,0:0:0:0:
448,192,152041,1,0,0:0:0:0:
192,192,152124,1,0,0:0:0:0:
448,192,152207,1,0,0:0:0:0:
320,192,152291,1,0,0:0:0:0:
192,192,152374,1,0,0:0:0:0:
64,192,152374,1,0,0:0:0:0:
448,192,152374,1,0,0:0:0:0:
320,192,152457,1,0,0:0:0:0:
192,192,152541,1,0,0:0:0:0:
64,192,152624,1,0,0:0:0:0:
320,192,152707,1,0,0:0:0:0:
448,192,152707,1,0,0:0:0:0:
192,192,152707,1,0,0:0:0:0:
64,192,152791,1,0,0:0:0:0:
192,192,152874,1,0,0:0:0:0:
448,192,152957,1,0,0:0:0:0:
320,192,153041,1,0,0:0:0:0:
192,192,153041,1,0,0:0:0:0:
64,192,153041,1,0,0:0:0:0:
448,192,153124,1,0,0:0:0:0:
64,192,153207,128,0,153291:0:0:0:0:
192,192,153291,128,0,153374:0:0:0:0:
448,192,153374,1,0,0:0:0:0:
320,192,153374,128,0,153457:0:0:0:0:
64,192,153457,128,0,153624:0:0:0:0:
320,192,153541,1,0,0:0:0:0:
448,192,153541,1,0,0:0:0:0:
192,192,153541,128,0,153624:0:0:0:0:
320,192,153624,128,0,153707:0:0:0:0:
448,192,153707,1,0,0:0:0:0:
192,192,153707,128,0,153791:0:0:0:0:
64,192,153791,128,0,153874:0:0:0:0:
448,192,153874,1,0,0:0:0:0:
320,192,153874,128,0,153957:0:0:0:0:
64,192,154041,1,0,0:0:0:0:
448,192,154041,128,0,154207:0:0:0:0:
192,192,154041,128,0,154124:0:0:0:0:
320,192,154124,128,0,154291:0:0:0:0:
192,192,154207,128,0,154374:0:0:0:0:
64,192,154291,128,0,154374:0:0:0:0:
320,192,154374,1,0,0:0:0:0:
448,192,154374,128,0,154707:0:0:0:0:
320,192,154541,128,0,154707:0:0:0:0:
192,192,154541,1,0,0:0:0:0:
64,192,154541,1,0,0:0:0:0:
64,192,154707,1,0,0:0:0:0:
192,192,154707,128,0,155041:0:0:0:0:
64,192,155041,128,0,157041:0:0:0:0:
320,192,155041,1,0,0:0:0:0:
448,192,155374,1,0,0:0:0:0:
320,192,155707,1,0,0:0:0:0:
192,192,156041,1,0,0:0:0:0:
320,192,156374,1,0,0:0:0:0:
448,192,156374,1,0,0:0:0:0:
192,192,156541,1,0,0:0:0:0:
320,192,156707,1,0,0:0:0:0:
448,192,157041,1,0,0:0:0:0:
320,192,157374,1,0,0:0:0:0:
64,192,157374,1,0,0:0:0:0:
192,192,157707,1,0,0:0:0:0:
320,192,158041,1,0,0:0:0:0:
448,192,158374,1,0,0:0:0:0:
192,192,158541,1,0,0:0:0:0:
64,192,158541,1,0,0:0:0:0:
320,192,158707,1,0,0:0:0:0:
448,192,159041,1,0,0:0:0:0:
192,192,159041,1,0,0:0:0:0:
64,192,159207,1,0,0:0:0:0:
320,192,159374,1,0,0:0:0:0:
448,192,159707,1,0,0:0:0:0:
320,192,160041,1,0,0:0:0:0:
192,192,160041,1,0,0:0:0:0:
448,192,160207,1,0,0:0:0:0:
192,192,160374,1,0,0:0:0:0:
64,192,160541,1,0,0:0:0:0:
192,192,160707,1,0,0:0:0:0:
320,192,160874,1,0,0:0:0:0:
448,192,161041,1,0,0:0:0:0:
192,192,161207,1,0,0:0:0:0:
64,192,161374,1,0,0:0:0:0:
192,192,161541,1,0,0:0:0:0:
320,192,161707,1,0,0:0:0:0:
448,192,161707,128,0,162041:0:0:0:0:
64,192,161874,1,0,0:0:0:0:
192,192,162041,1,0,0:0:0:0:
320,192,162374,1,0,0:0:0:0:
64,192,162541,1,0,0:0:0:0:
192,192,162707,1,0,0:0:0:0:
448,192,162707,1,0,0:0:0:0:
320,192,163041,1,0,0:0:0:0:
64,192,163207,1,0,0:0:0:0:
192,192,163374,1,0,0:0:0:0:
448,192,163541,1,0,0:0:0:0:
320,192,163707,1,0,0:0:0:0:
192,192,163874,1,0,0:0:0:0:
448,192,163874,1,0,0:0:0:0:
64,192,164041,1,0,0:0:0:0:
320,192,164374,1,0,0:0:0:0:
448,192,164374,1,0,0:0:0:0:
192,192,164541,1,0,0:0:0:0:
64,192,164707,1,0,0:0:0:0:
448,192,165041,128,0,165374:0:0:0:0:
320,192,165374,1,0,0:0:0:0:
64,192,165374,1,0,0:0:0:0:
192,192,165707,1,0,0:0:0:0:
448,192,165874,1,0,0:0:0:0:
320,192,166041,1,0,0:0:0:0:
192,192,166374,1,0,0:0:0:0:
64,192,166707,1,0,0:0:0:0:
192,192,167041,1,0,0:0:0:0:
320,192,167041,1,0,0:0:0:0:
448,192,167207,1,0,0:0:0:0:
320,192,167374,1,0,0:0:0:0:
64,192,167374,1,0,0:0:0:0:
64,192,167707,1,0,0:0:0:0:
192,192,168041,1,0,0:0:0:0:
320,192,168374,1,0,0:0:0:0:
448,192,168541,1,0,0:0:0:0:
320,192,168707,1,0,0:0:0:0:
64,192,168707,1,0,0:0:0:0:
448,192,169041,1,0,0:0:0:0:
192,192,169374,1,0,0:0:0:0:
320,192,169707,1,0,0:0:0:0:
64,192,169874,1,0,0:0:0:0:
192,192,170041,1,0,0:0:0:0:
448,192,170041,1,0,0:0:0:0:
320,192,170374,1,0,0:0:0:0:
64,192,170707,1,0,0:0:0:0:
192,192,170707,1,0,0:0:0:0:
320,192,170874,1,0,0:0:0:0:
192,192,171041,1,0,0:0:0:0:
448,192,171207,1,0,0:0:0:0:
320,192,171374,1,0,0:0:0:0:
64,192,171374,1,0,0:0:0:0:
192,192,171541,1,0,0:0:0:0:
448,192,171707,1,0,0:0:0:0:
320,192,171874,1,0,0:0:0:0:
64,192,172041,1,0,0:0:0:0:
192,192,172374,1,0,0:0:0:0:
448,192,172374,1,0,0:0:0:0:
320,192,172541,1,0,0:0:0:0:
192,192,172707,1,0,0:0:0:0:
448,192,172707,1,0,0:0:0:0:
320,192,173041,1,0,0:0:0:0:
64,192,173374,1,0,0:0:0:0:
192,192,173374,1,0,0:0:0:0:
320,192,173707,1,0,0:0:0:0:
448,192,173707,1,0,0:0:0:0:
192,192,173874,1,0,0:0:0:0:
320,192,174041,1,0,0:0:0:0:
64,192,174207,1,0,0:0:0:0:
192,192,174374,1,0,0:0:0:0:
448,192,174541,1,0,0:0:0:0:
320,192,174707,1,0,0:0:0:0:
64,192,175041,1,0,0:0:0:0:
448,192,175041,1,0,0:0:0:0:
192,192,175207,1,0,0:0:0:0:
320,192,175374,1,0,0:0:0:0:
192,192,175541,1,0,0:0:0:0:
64,192,175707,128,0,176041:0:0:0:0:
448,192,175707,128,0,176041:0:0:0:0:
