osu file format v14

[General]
AudioFilename: audio.mp3
AudioLeadIn: 0
PreviewTime: 44842
Countdown: 1
SampleSet: Normal
StackLeniency: 0.7
Mode: 1
LetterboxInBreaks: 0
WidescreenStoryboard: 0

[Editor]
Bookmarks: 209446
DistanceSpacing: 1
BeatDivisor: 6
GridSize: 8
TimelineZoom: 2.1

[Metadata]
Title:Synthesized Angel
TitleUnicode:Synthesized Angel
Artist:Sakuzyo
ArtistUnicode:Sakuzyo
Creator:ac02140603
Version:End
Source:
Tags:
BeatmapID:1344222
BeatmapSetID:633343

[Difficulty]
HPDrainRate:5
CircleSize:5
OverallDifficulty:6
ApproachRate:5
SliderMultiplier:1.4
SliderTickRate:1

[Events]
//Background and Video events
0,0,"maxresdefault (3).jpg",0,0
//Break Periods
2,97840,115640
//Storyboard Layer 0 (Background)
//Storyboard Layer 1 (Fail)
//Storyboard Layer 2 (Pass)
//Storyboard Layer 3 (Foreground)
//Storyboard Sound Samples

[TimingPoints]
4442,400,4,1,0,100,1,0
32028,-83.3333333333333,4,1,0,100,0,0
44646,-100,4,1,0,100,0,0
72046,-100,4,1,0,100,0,1
72840,-50,4,1,0,100,0,1
73640,-66.6666666666667,4,1,0,100,0,1
75640,-66.6666666666667,4,1,0,100,0,1
77246,-50,4,1,0,100,0,1
79240,-50,4,1,0,100,0,1
80038,-66.6666666666667,4,1,0,100,0,1
82438,-50,4,1,0,100,0,1
83238,-66.6666666666667,4,1,0,100,0,1
84038,-50,4,1,0,100,0,1
84838,-66.6666666666667,4,1,0,100,0,1
104038,-83.3333333333333,4,1,0,100,0,0
116840,-100,4,1,0,100,0,0
116840,-100,4,1,0,100,0,0
129640,-83.3333333333333,4,1,0,100,0,0
156446,-50,4,1,0,100,0,1
158040,-100,4,1,0,100,0,1
161640,-66.6666666666667,4,1,0,100,0,1
164640,-100,4,1,0,100,0,1
166440,-100,4,1,0,100,0,1
169540,-83.3333333333333,4,1,0,100,0,0
181838,-100,4,1,0,100,0,0
207642,-66.6666666666667,4,1,0,100,0,0
214440,-66.6666666666667,4,1,0,100,0,0

[Colours]
Combo1 : 0,64,128
Combo2 : 255,0,0

[HitObjects]
240,96,5640,5,4,0:0:0:0:
512,32,6440,1,0,0:0:0:0:
480,40,6540,1,0,0:0:0:0:
448,48,6640,1,2,0:0:0:0:
416,56,6740,1,2,0:0:0:0:
384,64,6840,1,0,0:0:0:0:
352,88,6940,1,0,0:0:0:0:
328,112,7040,1,2,0:0:0:0:
256,120,7240,5,0,0:0:0:0:
224,128,7340,1,0,0:0:0:0:
192,144,7440,1,2,0:0:0:0:
160,152,7540,1,2,0:0:0:0:
160,152,7640,1,0,0:0:0:0:
192,168,7740,1,0,0:0:0:0:
224,184,7840,1,2,0:0:0:0:
296,184,8040,1,0,0:0:0:0:
296,184,8140,1,0,0:0:0:0:
296,184,8240,1,2,0:0:0:0:
296,184,8340,1,2,0:0:0:0:
296,184,8440,1,0,0:0:0:0:
224,184,8540,1,0,0:0:0:0:
224,184,8640,1,2,0:0:0:0:
296,184,8840,1,0,0:0:0:0:
296,184,8940,1,0,0:0:0:0:
296,184,9040,1,2,0:0:0:0:
296,184,9140,1,2,0:0:0:0:
296,184,9240,1,0,0:0:0:0:
224,184,9340,1,0,0:0:0:0:
224,184,9440,1,2,0:0:0:0:
288,216,9640,1,2,0:0:0:0:
320,224,9740,1,2,0:0:0:0:
352,240,9840,1,0,0:0:0:0:
384,248,9940,1,2,0:0:0:0:
416,264,10040,1,2,0:0:0:0:
416,264,10140,1,2,0:0:0:0:
416,264,10240,1,0,0:0:0:0:
480,232,10440,1,2,0:0:0:0:
448,224,10540,1,2,0:0:0:0:
448,224,10640,1,0,0:0:0:0:
448,224,10740,1,2,0:0:0:0:
448,224,10840,1,2,0:0:0:0:
448,224,10940,1,2,0:0:0:0:
448,224,11040,1,0,0:0:0:0:
376,216,11240,1,2,0:0:0:0:
344,216,11340,1,2,0:0:0:0:
312,216,11440,1,0,0:0:0:0:
280,208,11540,1,2,0:0:0:0:
248,208,11640,1,2,0:0:0:0:
248,208,11740,1,2,0:0:0:0:
248,208,11840,1,0,0:0:0:0:
312,184,12040,1,2,0:0:0:0:
312,184,12140,1,2,0:0:0:0:
312,184,12240,1,0,0:0:0:0:
312,184,12340,1,2,0:0:0:0:
312,184,12440,1,2,0:0:0:0:
312,184,12540,1,2,0:0:0:0:
312,184,12640,1,0,0:0:0:0:
464,176,12840,1,0,0:0:0:0:
328,192,13240,1,0,0:0:0:0:
192,208,13640,1,2,0:0:0:0:
456,312,14440,1,0,0:0:0:0:
200,192,15240,1,2,0:0:0:0:
480,200,16040,1,0,0:0:0:0:
344,192,16440,1,0,0:0:0:0:
208,192,16840,1,2,0:0:0:0:
160,240,17640,1,0,0:0:0:0:
16,196,18440,1,4,0:0:0:0:
85,198,18640,1,0,0:0:0:0:
125,283,18840,1,0,0:0:0:0:
338,129,19040,1,0,0:0:0:0:
344,24,19240,1,2,0:0:0:0:
176,248,20040,1,0,0:0:0:0:
328,16,20840,1,2,0:0:0:0:
192,264,21640,1,0,0:0:0:0:
192,264,22440,1,2,0:0:0:0:
440,128,23240,1,0,0:0:0:0:
184,240,24040,1,2,0:0:0:0:
120,256,24840,1,0,0:0:0:0:
188,242,25040,1,0,0:0:0:0:
215,220,25140,1,0,0:0:0:0:
256,228,25240,1,0,0:0:0:0:
290,221,25340,1,0,0:0:0:0:
324,221,25440,1,2,0:0:0:0:
120,256,25640,1,6,0:0:0:0:
64,176,26440,1,0,0:0:0:0:
136,96,27240,1,0,0:0:0:0:
352,280,28040,1,2,0:0:0:0:
80,200,28840,1,0,0:0:0:0:
352,256,29640,1,2,0:0:0:0:
80,184,30440,1,0,0:0:0:0:
360,216,31240,1,2,0:0:0:0:
351,190,32040,1,0,0:0:0:0:
176,175,32240,1,2,0:0:0:0:
486,225,32440,1,2,0:0:0:0:
312,201,32640,1,2,0:0:0:0:
350,189,32840,1,0,0:0:0:0:
175,184,33040,1,2,0:0:0:0:
486,217,33240,1,2,0:0:0:0:
313,187,33440,1,2,0:0:0:0:
349,187,33640,1,0,0:0:0:0:
175,163,33840,1,2,0:0:0:0:
485,217,34040,1,2,0:0:0:0:
175,163,34240,1,2,0:0:0:0:
348,186,34440,1,0,0:0:0:0:
174,163,34640,1,2,0:0:0:0:
405,313,34840,1,2,0:0:0:0:
174,163,35040,1,2,0:0:0:0:
405,313,35240,1,0,0:0:0:0:
255,220,35440,1,2,0:0:0:0:
405,313,35640,1,2,0:0:0:0:
263,208,35840,1,2,0:0:0:0:
405,313,36040,1,0,0:0:0:0:
283,186,36240,1,2,0:0:0:0:
405,313,36440,1,2,0:0:0:0:
281,188,36640,1,2,0:0:0:0:
405,313,36840,1,0,0:0:0:0:
281,188,37040,1,2,0:0:0:0:
405,313,37240,1,2,0:0:0:0:
281,188,37440,1,2,0:0:0:0:
301,218,37640,1,0,0:0:0:0:
361,183,37840,1,2,0:0:0:0:
389,163,37940,1,2,0:0:0:0:
409,306,38040,1,0,0:0:0:0:
350,266,38240,1,0,0:0:0:0:
286,237,38440,1,2,0:0:0:0:
416,287,38840,1,0,0:0:0:0:
279,177,39040,1,0,0:0:0:0:
282,244,39240,1,2,0:0:0:0:
174,105,39440,1,0,0:0:0:0:
413,292,39640,1,0,0:0:0:0:
174,105,39840,1,0,0:0:0:0:
281,243,40040,1,2,0:0:0:0:
174,105,40240,1,0,0:0:0:0:
412,291,40440,1,0,0:0:0:0:
174,105,40640,1,0,0:0:0:0:
281,240,40840,1,2,0:0:0:0:
174,105,41040,1,0,0:0:0:0:
384,146,41240,1,0,0:0:0:0:
174,105,41440,1,0,0:0:0:0:
283,243,41640,1,2,0:0:0:0:
174,105,41840,1,0,0:0:0:0:
383,146,42040,1,0,0:0:0:0:
174,105,42240,1,0,0:0:0:0:
284,244,42440,1,2,0:0:0:0:
174,105,42640,1,0,0:0:0:0:
383,146,42840,1,0,0:0:0:0:
174,105,43040,1,0,0:0:0:0:
250,190,43240,1,2,0:0:0:0:
174,105,43440,1,0,0:0:0:0:
250,190,43640,1,0,0:0:0:0:
174,105,43840,1,0,0:0:0:0:
250,190,44040,1,2,0:0:0:0:
174,105,44240,1,0,0:0:0:0:
250,190,44440,1,0,0:0:0:0:
250,190,44840,1,0,0:0:0:0:
319,187,45040,1,0,0:0:0:0:
388,176,45240,1,2,0:0:0:0:
456,162,45440,1,2,0:0:0:0:
387,176,45640,1,0,0:0:0:0:
456,165,45840,1,0,0:0:0:0:
395,129,46040,1,2,0:0:0:0:
451,169,46240,1,2,0:0:0:0:
392,130,46440,1,0,0:0:0:0:
449,169,46640,1,0,0:0:0:0:
391,129,46840,1,2,0:0:0:0:
438,179,47040,1,2,0:0:0:0:
238,169,47240,1,0,0:0:0:0:
302,142,47440,1,0,0:0:0:0:
375,196,47640,1,2,0:0:0:0:
340,193,47740,1,2,0:0:0:0:
305,191,47840,1,2,0:0:0:0:
305,191,48040,1,0,0:0:0:0:
245,228,48240,1,0,0:0:0:0:
177,247,48440,1,2,0:0:0:0:
116,282,48640,1,2,0:0:0:0:
177,248,48840,1,0,0:0:0:0:
116,283,49040,1,0,0:0:0:0:
177,248,49240,1,2,0:0:0:0:
117,284,49440,1,2,0:0:0:0:
177,248,49640,1,0,0:0:0:0:
119,288,49840,1,0,0:0:0:0:
180,255,50040,1,2,0:0:0:0:
244,229,50240,1,2,0:0:0:0:
148,91,50440,1,0,0:0:0:0:
216,105,50640,5,0,0:0:0:0:
250,111,50740,1,2,0:0:0:0:
84,215,50840,1,0,0:0:0:0:
84,215,51140,1,2,0:0:0:0:
84,215,51240,1,0,0:0:0:0:
150,235,51440,1,2,0:0:0:0:
218,247,51640,1,0,0:0:0:0:
287,254,51840,1,0,0:0:0:0:
356,261,52040,1,2,0:0:0:0:
84,215,52240,1,2,0:0:0:0:
84,215,52440,1,0,0:0:0:0:
84,215,52640,1,0,0:0:0:0:
84,215,52840,1,2,0:0:0:0:
153,211,53040,1,2,0:0:0:0:
223,211,53240,1,0,0:0:0:0:
153,212,53440,1,0,0:0:0:0:
222,214,53640,1,2,0:0:0:0:
153,198,53840,1,0,0:0:0:0:
172,227,53940,1,0,0:0:0:0:
331,126,54040,1,2,0:0:0:0:
304,149,54140,1,2,0:0:0:0:
304,149,54240,1,0,0:0:0:0:
304,149,54340,1,0,0:0:0:0:
304,149,54440,1,2,0:0:0:0:
234,140,54640,1,0,0:0:0:0:
234,140,54840,1,0,0:0:0:0:
234,140,55040,1,0,0:0:0:0:
234,140,55240,1,2,0:0:0:0:
234,140,55440,1,0,0:0:0:0:
234,140,55640,1,0,0:0:0:0:
234,140,55840,1,0,0:0:0:0:
234,140,56040,1,2,0:0:0:0:
164,141,56240,1,0,0:0:0:0:
94,134,56440,1,0,0:0:0:0:
134,190,56640,1,0,0:0:0:0:
203,182,56840,1,2,0:0:0:0:
272,175,57040,1,0,0:0:0:0:
341,168,57240,1,0,0:0:0:0:
271,173,57440,1,0,0:0:0:0:
229,130,57640,1,0,0:0:0:0:
246,160,57740,1,0,0:0:0:0:
232,199,57840,1,2,0:0:0:0:
236,268,58040,1,0,0:0:0:0:
242,337,58240,1,2,0:0:0:0:
236,267,58440,1,0,0:0:0:0:
269,278,58540,1,0,0:0:0:0:
242,336,58640,1,2,0:0:0:0:
236,266,58840,1,0,0:0:0:0:
239,335,59040,1,2,0:0:0:0:
237,265,59240,1,0,0:0:0:0:
213,249,59340,1,0,0:0:0:0:
236,267,59440,1,2,0:0:0:0:
296,231,59640,1,0,0:0:0:0:
356,196,59840,1,2,0:0:0:0:
416,162,60040,1,0,0:0:0:0:
384,160,60140,1,2,0:0:0:0:
352,152,60240,1,0,0:0:0:0:
320,152,60340,1,2,0:0:0:0:
288,152,60440,1,0,0:0:0:0:
256,152,60540,1,0,0:0:0:0:
365,330,60640,1,2,0:0:0:0:
304,296,60840,1,0,0:0:0:0:
362,339,61040,1,2,0:0:0:0:
304,304,61240,1,0,0:0:0:0:
272,288,61340,1,0,0:0:0:0:
240,272,61440,1,2,0:0:0:0:
184,232,61640,1,0,0:0:0:0:
128,192,61840,1,2,0:0:0:0:
128,192,62040,1,0,0:0:0:0:
128,192,62140,1,0,0:0:0:0:
128,192,62240,1,2,0:0:0:0:
200,200,62440,1,0,0:0:0:0:
272,208,62640,1,2,0:0:0:0:
200,208,62840,1,0,0:0:0:0:
176,184,62940,1,0,0:0:0:0:
165,267,63040,1,2,0:0:0:0:
192,244,63240,1,2,0:0:0:0:
176,208,63340,1,2,0:0:0:0:
172,176,63440,1,0,0:0:0:0:
136,176,63540,1,0,0:0:0:0:
193,242,63640,1,2,0:0:0:0:
160,224,63740,1,0,0:0:0:0:
193,242,63840,1,2,0:0:0:0:
192,244,64040,1,2,0:0:0:0:
192,244,64240,1,0,0:0:0:0:
192,244,64440,1,2,0:0:0:0:
193,242,64540,1,2,0:0:0:0:
244,197,64640,1,0,0:0:0:0:
325,202,64840,1,2,0:0:0:0:
325,202,65040,1,0,0:0:0:0:
255,202,65240,1,2,0:0:0:0:
240,176,65340,1,2,0:0:0:0:
185,194,65440,1,0,0:0:0:0:
254,186,65640,1,2,0:0:0:0:
294,243,65840,1,0,0:0:0:0:
358,216,66040,1,2,0:0:0:0:
328,192,66140,1,2,0:0:0:0:
293,243,66240,1,0,0:0:0:0:
294,243,66440,1,2,0:0:0:0:
330,183,66640,1,0,0:0:0:0:
293,242,66840,1,2,0:0:0:0:
272,216,66940,1,2,0:0:0:0:
356,270,67040,1,0,0:0:0:0:
420,297,67240,1,0,0:0:0:0:
484,324,67440,1,2,0:0:0:0:
356,270,67640,1,2,0:0:0:0:
328,248,67740,1,2,0:0:0:0:
356,270,67840,1,0,0:0:0:0:
356,270,68040,1,2,0:0:0:0:
356,270,68240,1,0,0:0:0:0:
356,270,68440,1,2,0:0:0:0:
288,251,68640,1,0,0:0:0:0:
255,264,68740,1,0,0:0:0:0:
288,251,68840,1,2,0:0:0:0:
253,243,68940,1,0,0:0:0:0:
219,233,69040,1,0,0:0:0:0:
250,216,69140,1,2,0:0:0:0:
250,216,69240,1,0,0:0:0:0:
250,216,69340,1,0,0:0:0:0:
250,216,69440,1,2,0:0:0:0:
250,216,69540,1,0,0:0:0:0:
250,216,69640,1,0,0:0:0:0:
250,216,69740,1,2,0:0:0:0:
216,225,69840,1,0,0:0:0:0:
156,264,70040,1,0,0:0:0:0:
281,172,72040,1,4,0:0:0:0:
237,110,72840,1,0,0:0:0:0:
384,232,73108,1,0,0:0:0:0:
158,304,73173,1,0,0:0:0:0:
300,318,73640,1,0,0:0:0:0:
237,233,73840,1,0,0:0:0:0:
169,267,74040,1,2,0:0:0:0:
280,197,74140,1,2,0:0:0:0:
162,162,74240,1,0,0:0:0:0:
67,171,74440,1,0,0:0:0:0:
187,242,74840,1,2,0:0:0:0:
218,227,74940,1,2,0:0:0:0:
249,212,75040,1,2,0:0:0:0:
280,197,75140,1,2,0:0:0:0:
311,181,75240,1,0,0:0:0:0:
179,230,75640,1,0,0:0:0:0:
55,296,76040,1,0,0:0:0:0:
168,208,76308,1,0,0:0:0:0:
212,220,76373,1,2,0:0:0:0:
61,175,76840,1,0,0:0:0:0:
70,70,77440,1,0,0:0:0:0:
185,156,77640,1,2,0:0:0:0:
226,311,78440,1,0,0:0:0:0:
227,311,79240,1,2,0:0:0:0:
88,184,79508,1,0,0:0:0:0:
242,101,79573,1,0,0:0:0:0:
4,236,80040,1,4,0:0:0:0:
143,239,80440,1,0,0:0:0:0:
126,135,80640,1,0,0:0:0:0:
10,193,80840,1,2,0:0:0:0:
24,261,81040,1,0,0:0:0:0:
46,234,81140,1,0,0:0:0:0:
92,276,81240,1,2,0:0:0:0:
219,218,81640,1,0,0:0:0:0:
194,193,81740,1,2,0:0:0:0:
169,167,81840,1,0,0:0:0:0:
142,143,81940,1,2,0:0:0:0:
142,143,82040,1,0,0:0:0:0:
194,193,82442,1,2,0:0:0:0:
96,32,82708,1,0,0:0:0:0:
489,114,82773,1,0,0:0:0:0:
283,175,83240,1,0,0:0:0:0:
232,213,83340,1,2,0:0:0:0:
282,175,83440,1,0,0:0:0:0:
231,213,83540,1,2,0:0:0:0:
152,226,83640,1,0,0:0:0:0:
175,87,84040,5,2,0:0:0:0:
312,216,84308,1,0,0:0:0:0:
328,230,84373,1,0,0:0:0:0:
155,236,84840,1,0,0:0:0:0:
220,211,85040,1,2,0:0:0:0:
220,211,85240,1,2,0:0:0:0:
220,211,85440,1,2,0:0:0:0:
220,211,85640,1,0,0:0:0:0:
220,211,85840,1,2,0:0:0:0:
220,211,86040,1,2,0:0:0:0:
220,211,86240,1,2,0:0:0:0:
152,136,86440,1,0,0:0:0:0:
200,160,86540,1,0,0:0:0:0:
152,136,86640,1,0,0:0:0:0:
200,152,86740,1,0,0:0:0:0:
152,136,86840,1,2,0:0:0:0:
256,128,87040,1,0,0:0:0:0:
220,211,87240,1,0,0:0:0:0:
264,184,87340,1,0,0:0:0:0:
289,212,87440,1,0,0:0:0:0:
240,200,87540,1,0,0:0:0:0:
358,213,87640,1,2,0:0:0:0:
147,228,87840,1,2,0:0:0:0:
357,207,88040,1,0,0:0:0:0:
287,214,88240,1,2,0:0:0:0:
217,221,88440,1,2,0:0:0:0:
215,250,88640,1,2,0:0:0:0:
215,250,88840,1,0,0:0:0:0:
146,243,89040,1,2,0:0:0:0:
146,243,89240,1,2,0:0:0:0:
214,227,89440,1,2,0:0:0:0:
262,321,89640,1,0,0:0:0:0:
233,301,89740,1,0,0:0:0:0:
204,281,89840,1,2,0:0:0:0:
204,281,89940,1,2,0:0:0:0:
204,281,90040,1,0,0:0:0:0:
145,243,90240,1,2,0:0:0:0:
195,194,90440,1,0,0:0:0:0:
145,243,90640,1,2,0:0:0:0:
209,216,90840,1,2,0:0:0:0:
146,248,91040,1,2,0:0:0:0:
207,215,91240,1,0,0:0:0:0:
137,203,91440,1,2,0:0:0:0:
137,203,91640,1,2,0:0:0:0:
146,248,91840,1,2,0:0:0:0:
146,248,92040,1,0,0:0:0:0:
146,248,92240,1,0,0:0:0:0:
146,248,92440,1,2,0:0:0:0:
146,248,92640,1,2,0:0:0:0:
196,199,92840,1,2,0:0:0:0:
247,211,92940,1,0,0:0:0:0:
247,211,93040,1,0,0:0:0:0:
194,208,93140,1,2,0:0:0:0:
287,305,93240,1,0,0:0:0:0:
185,279,93440,1,0,0:0:0:0:
308,328,93640,1,2,0:0:0:0:
261,302,93740,1,0,0:0:0:0:
214,276,93840,1,0,0:0:0:0:
167,251,93940,1,2,0:0:0:0:
308,328,94040,1,0,0:0:0:0:
256,240,94240,1,0,0:0:0:0:
160,176,94440,1,2,0:0:0:0:
128,136,94540,1,0,0:0:0:0:
128,136,94640,1,2,0:0:0:0:
128,136,94740,1,0,0:0:0:0:
128,136,94840,1,0,0:0:0:0:
224,184,95040,1,0,0:0:0:0:
177,278,95240,1,2,0:0:0:0:
195,228,95340,1,2,0:0:0:0:
197,175,95440,1,0,0:0:0:0:
187,226,95540,1,2,0:0:0:0:
62,197,95640,1,2,0:0:0:0:
114,200,95740,1,2,0:0:0:0:
166,204,95840,1,0,0:0:0:0:
218,208,95940,1,2,0:0:0:0:
183,265,96040,1,0,0:0:0:0:
71,181,96440,1,0,0:0:0:0:
205,143,96840,1,2,0:0:0:0:
256,154,96940,1,2,0:0:0:0:
305,172,97040,1,0,0:0:0:0:
255,154,97140,1,0,0:0:0:0:
115,250,97240,1,2,0:0:0:0:
118,197,97340,1,0,0:0:0:0:
167,179,97440,1,0,0:0:0:0:
460,258,97640,1,0,0:0:0:0:
339,258,116840,5,2,0:0:0:0:
256,144,117240,1,2,0:0:0:0:
372,220,117640,1,0,0:0:0:0:
239,174,118040,1,0,0:0:0:0:
180,212,118240,1,2,0:0:0:0:
180,212,118440,1,2,0:0:0:0:
319,226,118840,1,2,0:0:0:0:
249,219,119040,1,2,0:0:0:0:
249,219,119240,1,0,0:0:0:0:
147,122,119640,1,0,0:0:0:0:
210,151,119840,1,0,0:0:0:0:
121,277,120040,1,0,0:0:0:0:
121,277,120440,1,0,0:0:0:0:
159,288,120840,1,2,0:0:0:0:
192,296,121240,1,2,0:0:0:0:
375,284,121640,1,0,0:0:0:0:
305,288,121840,1,0,0:0:0:0:
305,288,122040,1,2,0:0:0:0:
305,288,122240,1,2,0:0:0:0:
305,288,122440,1,0,0:0:0:0:
305,288,122640,1,0,0:0:0:0:
305,288,122840,1,2,0:0:0:0:
240,260,123040,1,2,0:0:0:0:
177,229,123240,1,0,0:0:0:0:
314,203,123640,1,0,0:0:0:0:
245,216,123840,1,0,0:0:0:0:
245,216,124040,1,2,0:0:0:0:
261,354,124440,1,2,0:0:0:0:
305,299,124640,1,2,0:0:0:0:
305,299,124840,1,0,0:0:0:0:
177,241,125240,1,0,0:0:0:0:
41,277,125640,1,0,0:0:0:0:
180,260,126040,1,2,0:0:0:0:
248,247,126240,1,2,0:0:0:0:
248,247,126440,1,2,0:0:0:0:
320,127,126840,1,2,0:0:0:0:
284,187,127040,1,2,0:0:0:0:
250,248,127240,1,0,0:0:0:0:
345,350,127640,1,0,0:0:0:0:
235,262,128040,1,2,0:0:0:0:
242,295,128840,1,4,0:0:0:0:
144,240,129640,1,0,0:0:0:0:
203,276,129840,1,0,0:0:0:0:
264,309,130040,1,2,0:0:0:0:
325,342,130240,1,2,0:0:0:0:
263,308,130440,1,0,0:0:0:0:
324,341,130640,1,0,0:0:0:0:
261,309,130840,1,2,0:0:0:0:
322,342,131040,1,2,0:0:0:0:
260,308,131240,1,0,0:0:0:0:
328,294,131440,1,0,0:0:0:0:
396,280,131640,1,2,0:0:0:0:
465,270,131840,1,2,0:0:0:0:
396,283,132040,1,0,0:0:0:0:
326,283,132240,1,2,0:0:0:0:
316,249,132340,1,2,0:0:0:0:
256,283,132440,1,2,0:0:0:0:
221,289,132540,1,2,0:0:0:0:
186,295,132640,1,2,0:0:0:0:
174,262,132740,1,2,0:0:0:0:
117,306,132840,1,0,0:0:0:0:
177,270,133040,1,0,0:0:0:0:
237,235,133240,1,2,0:0:0:0:
298,200,133440,1,2,0:0:0:0:
359,166,133640,1,0,0:0:0:0:
421,134,133840,1,0,0:0:0:0:
358,165,134040,1,2,0:0:0:0:
291,186,134240,1,2,0:0:0:0:
225,210,134440,1,0,0:0:0:0:
225,210,134640,1,0,0:0:0:0:
225,210,134840,1,2,0:0:0:0:
289,183,135040,1,2,0:0:0:0:
364,206,135240,1,0,0:0:0:0:
294,200,135440,1,2,0:0:0:0:
289,183,135540,1,2,0:0:0:0:
289,183,135640,1,0,0:0:0:0:
289,183,135740,1,2,0:0:0:0:
289,183,135840,1,2,0:0:0:0:
254,185,135940,1,2,0:0:0:0:
268,116,136040,1,0,0:0:0:0:
325,155,136240,1,0,0:0:0:0:
378,200,136440,1,2,0:0:0:0:
430,245,136640,1,2,0:0:0:0:
430,245,136840,1,0,0:0:0:0:
430,245,137040,1,0,0:0:0:0:
430,245,137240,1,2,0:0:0:0:
430,245,137440,1,2,0:0:0:0:
430,245,137640,1,0,0:0:0:0:
362,226,137840,1,0,0:0:0:0:
292,223,138040,1,2,0:0:0:0:
222,222,138240,1,2,0:0:0:0:
253,159,138440,1,0,0:0:0:0:
253,159,138640,1,0,0:0:0:0:
222,142,138740,1,0,0:0:0:0:
253,159,138840,1,2,0:0:0:0:
281,138,138940,1,0,0:0:0:0:
281,138,139040,1,2,0:0:0:0:
246,140,139140,1,2,0:0:0:0:
211,142,139240,1,0,0:0:0:0:
141,146,139440,1,0,0:0:0:0:
72,160,139640,1,2,0:0:0:0:
141,146,139840,1,2,0:0:0:0:
210,139,140040,1,0,0:0:0:0:
278,155,140240,1,0,0:0:0:0:
345,172,140440,1,2,0:0:0:0:
412,189,140640,1,2,0:0:0:0:
479,206,140840,1,0,0:0:0:0:
422,247,141040,1,2,0:0:0:0:
394,268,141140,1,2,0:0:0:0:
366,289,141240,1,0,0:0:0:0:
296,279,141440,1,2,0:0:0:0:
227,267,141640,1,0,0:0:0:0:
158,255,141840,1,2,0:0:0:0:
123,249,141940,1,2,0:0:0:0:
123,249,142040,1,0,0:0:0:0:
59,220,142240,1,0,0:0:0:0:
26,282,142440,1,0,0:0:0:0:
60,277,142540,1,0,0:0:0:0:
95,271,142640,1,2,0:0:0:0:
164,259,142840,1,0,0:0:0:0:
198,254,142940,1,0,0:0:0:0:
232,250,143040,1,2,0:0:0:0:
254,183,143240,1,0,0:0:0:0:
242,216,143340,1,2,0:0:0:0:
159,200,143540,1,2,0:0:0:0:
172,214,143640,1,0,0:0:0:0:
101,260,143840,1,0,0:0:0:0:
32,211,144040,1,0,0:0:0:0:
32,211,144140,1,0,0:0:0:0:
32,211,144240,1,2,0:0:0:0:
100,225,144440,1,0,0:0:0:0:
134,233,144540,1,0,0:0:0:0:
162,252,144640,1,2,0:0:0:0:
229,235,144840,1,0,0:0:0:0:
290,202,145040,1,2,0:0:0:0:
261,222,145140,1,0,0:0:0:0:
261,222,145240,1,0,0:0:0:0:
261,222,145340,1,0,0:0:0:0:
261,222,145440,1,2,0:0:0:0:
261,222,145540,1,0,0:0:0:0:
261,222,145640,1,0,0:0:0:0:
240,155,145840,1,0,0:0:0:0:
304,180,146040,1,0,0:0:0:0:
328,204,146140,1,0,0:0:0:0:
328,204,146240,1,2,0:0:0:0:
328,204,146440,1,0,0:0:0:0:
328,204,146540,1,0,0:0:0:0:
328,204,146640,1,2,0:0:0:0:
328,204,146840,1,0,0:0:0:0:
328,204,146940,1,2,0:0:0:0:
285,131,147140,5,2,0:0:0:0:
328,204,147240,1,0,0:0:0:0:
262,151,147440,1,0,0:0:0:0:
258,211,147640,1,2,0:0:0:0:
223,213,147740,1,2,0:0:0:0:
223,213,147840,1,0,0:0:0:0:
164,251,148040,1,0,0:0:0:0:
232,237,148240,1,2,0:0:0:0:
232,237,148340,1,0,0:0:0:0:
232,237,148440,1,0,0:0:0:0:
232,237,148540,1,0,0:0:0:0:
232,237,148640,1,2,0:0:0:0:
232,237,148740,1,0,0:0:0:0:
232,237,148840,1,0,0:0:0:0:
232,237,149040,1,0,0:0:0:0:
232,237,149240,1,2,0:0:0:0:
232,237,149340,1,0,0:0:0:0:
232,237,149440,1,2,0:0:0:0:
168,267,149640,1,0,0:0:0:0:
147,238,149740,1,2,0:0:0:0:
166,209,149840,1,0,0:0:0:0:
166,209,150040,1,2,0:0:0:0:
166,209,150140,1,0,0:0:0:0:
166,209,150240,1,2,0:0:0:0:
166,209,150440,1,2,0:0:0:0:
166,209,150540,1,0,0:0:0:0:
184,171,150640,1,2,0:0:0:0:
142,176,150740,1,0,0:0:0:0:
269,200,150840,1,0,0:0:0:0:
184,171,151040,1,0,0:0:0:0:
269,200,151240,1,0,0:0:0:0:
269,200,151340,1,0,0:0:0:0:
269,200,151440,1,2,0:0:0:0:
246,226,151540,1,2,0:0:0:0:
269,200,151640,1,0,0:0:0:0:
269,200,151740,1,0,0:0:0:0:
269,200,151840,1,2,0:0:0:0:
244,224,151940,1,2,0:0:0:0:
219,249,152040,1,0,0:0:0:0:
286,231,152240,1,0,0:0:0:0:
251,234,152340,1,0,0:0:0:0:
353,211,152440,1,2,0:0:0:0:
286,232,152640,1,0,0:0:0:0:
244,224,152740,1,0,0:0:0:0:
352,210,152840,1,2,0:0:0:0:
285,232,153040,1,0,0:0:0:0:
244,224,153140,1,0,0:0:0:0:
351,211,153240,1,2,0:0:0:0:
283,230,153440,1,2,0:0:0:0:
248,232,153540,1,2,0:0:0:0:
213,235,153640,1,0,0:0:0:0:
155,195,153840,1,2,0:0:0:0:
170,212,153907,1,0,0:0:0:0:
186,228,153973,1,0,0:0:0:0:
202,245,154040,1,0,0:0:0:0:
129,162,154140,1,2,0:0:0:0:
162,170,154240,1,0,0:0:0:0:
195,178,154340,1,0,0:0:0:0:
228,186,154440,1,0,0:0:0:0:
261,194,154540,1,2,0:0:0:0:
294,203,154640,1,0,0:0:0:0:
327,212,154740,1,0,0:0:0:0:
261,194,154840,1,0,0:0:0:0:
226,199,154940,1,2,0:0:0:0:
123,219,155040,1,0,0:0:0:0:
123,219,155140,1,2,0:0:0:0:
123,219,155240,1,0,0:0:0:0:
39,274,156040,1,0,0:0:0:0:
256,192,156840,12,0,157640,0:0:0:0:
459,187,158040,5,0,0:0:0:0:
367,292,158440,1,0,0:0:0:0:
353,259,158540,1,2,0:0:0:0:
306,256,158640,1,0,0:0:0:0:
309,221,158740,1,2,0:0:0:0:
505,275,158840,1,0,0:0:0:0:
473,260,158940,1,2,0:0:0:0:
438,253,159040,1,0,0:0:0:0:
407,236,159140,1,0,0:0:0:0:
369,238,159240,1,2,0:0:0:0:
280,216,159508,1,0,0:0:0:0:
289,152,159573,1,0,0:0:0:0:
278,79,160040,1,2,0:0:0:0:
251,164,160140,1,2,0:0:0:0:
221,182,160240,1,2,0:0:0:0:
221,182,160340,1,2,0:0:0:0:
221,182,160440,1,0,0:0:0:0:
221,182,160540,1,0,0:0:0:0:
221,182,160640,1,0,0:0:0:0:
221,182,160740,1,0,0:0:0:0:
221,182,160840,1,2,0:0:0:0:
221,182,160940,1,2,0:0:0:0:
457,185,161040,1,2,0:0:0:0:
506,221,161240,1,0,0:0:0:0:
386,147,161640,1,0,0:0:0:0:
248,136,161908,1,0,0:0:0:0:
272,192,161975,1,0,0:0:0:0:
129,83,162440,1,0,0:0:0:0:
144,224,162708,1,0,0:0:0:0:
152,256,162775,1,0,0:0:0:0:
157,166,163240,1,0,0:0:0:0:
22,204,163640,1,0,0:0:0:0:
91,193,163840,1,2,0:0:0:0:
125,188,163940,1,2,0:0:0:0:
159,183,164040,1,0,0:0:0:0:
296,176,164308,1,0,0:0:0:0:
271,153,164373,1,2,0:0:0:0:
144,200,164842,1,0,0:0:0:0:
375,143,164940,1,0,0:0:0:0:
412,133,165040,1,2,0:0:0:0:
398,165,165140,1,0,0:0:0:0:
412,133,165240,1,0,0:0:0:0:
398,165,165340,1,2,0:0:0:0:
412,133,165440,1,0,0:0:0:0:
398,165,165540,1,0,0:0:0:0:
412,133,165640,1,2,0:0:0:0:
342,128,165840,1,0,0:0:0:0:
307,124,165940,1,0,0:0:0:0:
272,120,166040,1,2,0:0:0:0:
132,123,166440,1,2,0:0:0:0:
133,157,166540,1,2,0:0:0:0:
167,156,166640,1,2,0:0:0:0:
201,154,166740,1,2,0:0:0:0:
201,154,166840,1,0,0:0:0:0:
201,154,166940,1,0,0:0:0:0:
201,154,167040,1,0,0:0:0:0:
201,154,167140,1,0,0:0:0:0:
201,154,167240,1,2,0:0:0:0:
61,150,167640,1,0,0:0:0:0:
200,163,168040,1,0,0:0:0:0:
231,147,168140,1,0,0:0:0:0:
135,135,168240,1,2,0:0:0:0:
169,132,168340,1,2,0:0:0:0:
199,107,168440,1,0,0:0:0:0:
233,112,168540,1,0,0:0:0:0:
216,174,168640,1,2,0:0:0:0:
243,152,168740,1,2,0:0:0:0:
264,123,168840,1,0,0:0:0:0:
264,123,169040,1,0,0:0:0:0:
264,123,169240,1,2,0:0:0:0:
194,130,169440,1,2,0:0:0:0:
125,141,169640,1,0,0:0:0:0:
159,135,169740,1,0,0:0:0:0:
193,131,169840,1,2,0:0:0:0:
227,127,169940,1,0,0:0:0:0:
227,127,170040,1,0,0:0:0:0:
157,121,170240,1,0,0:0:0:0:
404,133,170440,1,0,0:0:0:0:
368,129,170540,1,0,0:0:0:0:
333,125,170640,1,2,0:0:0:0:
298,121,170740,1,0,0:0:0:0:
263,117,170840,1,0,0:0:0:0:
193,109,171040,1,0,0:0:0:0:
247,153,171240,1,0,0:0:0:0:
247,153,171340,1,0,0:0:0:0:
247,153,171440,1,2,0:0:0:0:
247,153,171540,1,0,0:0:0:0:
247,153,171640,1,0,0:0:0:0:
247,153,171840,1,0,0:0:0:0:
247,153,172040,1,0,0:0:0:0:
247,153,172140,1,0,0:0:0:0:
247,153,172340,1,0,0:0:0:0:
247,153,172440,1,2,0:0:0:0:
281,92,172640,1,0,0:0:0:0:
211,93,172840,1,0,0:0:0:0:
246,93,172940,1,0,0:0:0:0:
246,93,173040,1,0,0:0:0:0:
246,93,173140,1,0,0:0:0:0:
246,93,173240,1,2,0:0:0:0:
246,93,173440,1,0,0:0:0:0:
246,93,173640,1,0,0:0:0:0:
246,93,173740,1,0,0:0:0:0:
246,93,173840,1,0,0:0:0:0:
246,93,173940,1,0,0:0:0:0:
246,93,174040,1,2,0:0:0:0:
314,108,174240,1,0,0:0:0:0:
382,123,174440,1,0,0:0:0:0:
416,130,174540,1,0,0:0:0:0:
450,137,174640,1,0,0:0:0:0:
484,144,174740,1,0,0:0:0:0:
484,144,174840,1,2,0:0:0:0:
465,211,175040,1,0,0:0:0:0:
465,211,175240,1,2,0:0:0:0:
465,211,175340,1,2,0:0:0:0:
465,211,175540,1,2,0:0:0:0:
465,211,175640,1,0,0:0:0:0:
400,183,175840,1,0,0:0:0:0:
335,155,176040,1,0,0:0:0:0:
366,169,176140,1,0,0:0:0:0:
366,169,176240,1,0,0:0:0:0:
366,169,176340,1,2,0:0:0:0:
366,169,176440,1,0,0:0:0:0:
366,169,176540,1,0,0:0:0:0:
366,169,176640,1,0,0:0:0:0:
366,169,176740,1,2,0:0:0:0:
366,169,176840,1,0,0:0:0:0:
366,169,176940,1,0,0:0:0:0:
366,169,177040,1,2,0:0:0:0:
366,169,177140,1,2,0:0:0:0:
366,169,177240,1,0,0:0:0:0:
296,174,177440,1,2,0:0:0:0:
306,295,177640,1,0,0:0:0:0:
312,155,177740,1,0,0:0:0:0:
311,225,177840,1,0,0:0:0:0:
312,155,177940,1,0,0:0:0:0:
312,155,178040,1,0,0:0:0:0:
313,85,178240,1,2,0:0:0:0:
313,155,178440,1,0,0:0:0:0:
347,157,178540,1,0,0:0:0:0:
306,85,178640,1,0,0:0:0:0:
347,157,178740,1,0,0:0:0:0:
238,103,178840,1,0,0:0:0:0:
170,120,179040,1,2,0:0:0:0:
97,110,179240,1,0,0:0:0:0:
131,109,179340,1,0,0:0:0:0:
166,109,179440,1,0,0:0:0:0:
166,109,179540,1,0,0:0:0:0:
166,109,179640,1,2,0:0:0:0:
166,109,179740,1,2,0:0:0:0:
166,109,179840,1,2,0:0:0:0:
166,109,179940,1,2,0:0:0:0:
166,109,180040,1,0,0:0:0:0:
199,119,180140,1,0,0:0:0:0:
231,131,180240,1,2,0:0:0:0:
263,143,180340,1,0,0:0:0:0:
263,143,180440,1,2,0:0:0:0:
193,131,180640,1,0,0:0:0:0:
123,140,180840,1,2,0:0:0:0:
154,124,180940,1,0,0:0:0:0:
60,140,181140,1,2,0:0:0:0:
135,94,181240,1,0,0:0:0:0:
204,89,181440,1,0,0:0:0:0:
169,88,181540,1,0,0:0:0:0:
134,92,181640,1,0,0:0:0:0:
155,158,181840,1,2,0:0:0:0:
222,200,182040,1,2,0:0:0:0:
184,140,182240,1,2,0:0:0:0:
223,197,182440,1,2,0:0:0:0:
190,184,182540,1,2,0:0:0:0:
184,140,182640,1,0,0:0:0:0:
149,132,182740,1,2,0:0:0:0:
114,123,182840,1,0,0:0:0:0:
181,103,183040,1,0,0:0:0:0:
391,109,183240,1,2,0:0:0:0:
356,114,183340,1,2,0:0:0:0:
184,140,183440,1,0,0:0:0:0:
184,140,183540,1,2,0:0:0:0:
184,140,183640,1,0,0:0:0:0:
145,81,183840,1,0,0:0:0:0:
182,139,184040,1,2,0:0:0:0:
161,110,184140,1,2,0:0:0:0:
161,110,184240,1,0,0:0:0:0:
161,110,184340,1,2,0:0:0:0:
161,110,184440,1,0,0:0:0:0:
161,110,184640,1,0,0:0:0:0:
161,110,184840,1,2,0:0:0:0:
161,110,184940,1,2,0:0:0:0:
161,110,185040,1,0,0:0:0:0:
161,110,185140,1,2,0:0:0:0:
161,110,185240,1,0,0:0:0:0:
151,40,185440,1,0,0:0:0:0:
159,109,185640,1,2,0:0:0:0:
155,74,185740,1,2,0:0:0:0:
155,74,185840,1,0,0:0:0:0:
155,74,185940,1,2,0:0:0:0:
155,74,186040,1,2,0:0:0:0:
224,78,186240,1,0,0:0:0:0:
224,78,186440,1,2,0:0:0:0:
224,78,186540,1,2,0:0:0:0:
224,78,186640,1,0,0:0:0:0:
224,78,186740,1,2,0:0:0:0:
224,78,186840,1,0,0:0:0:0:
275,125,187040,1,0,0:0:0:0:
336,159,187240,1,2,0:0:0:0:
306,140,187340,1,2,0:0:0:0:
306,140,187440,1,0,0:0:0:0:
306,140,187540,1,2,0:0:0:0:
306,140,187640,1,0,0:0:0:0:
236,136,187840,1,0,0:0:0:0:
182,90,188040,1,0,0:0:0:0:
250,102,188240,1,2,0:0:0:0:
284,110,188340,1,2,0:0:0:0:
317,118,188440,1,0,0:0:0:0:
252,144,188640,1,0,0:0:0:0:
184,162,188840,1,2,0:0:0:0:
150,153,188940,1,0,0:0:0:0:
150,153,189040,1,0,0:0:0:0:
150,153,189140,1,0,0:0:0:0:
150,153,189240,1,2,0:0:0:0:
81,165,189440,1,0,0:0:0:0:
184,162,189640,1,2,0:0:0:0:
184,162,189740,1,0,0:0:0:0:
184,162,189840,1,0,0:0:0:0:
184,162,189940,1,0,0:0:0:0:
184,162,190040,1,2,0:0:0:0:
150,153,190240,1,0,0:0:0:0:
150,153,190440,1,2,0:0:0:0:
150,153,190540,1,0,0:0:0:0:
150,153,190640,1,0,0:0:0:0:
150,153,190740,1,0,0:0:0:0:
150,153,190840,1,2,0:0:0:0:
218,169,191040,1,0,0:0:0:0:
286,185,191240,1,0,0:0:0:0:
319,193,191340,1,0,0:0:0:0:
352,201,191440,1,2,0:0:0:0:
418,217,191640,1,0,0:0:0:0:
352,201,191840,1,0,0:0:0:0:
352,201,192040,1,0,0:0:0:0:
352,201,192140,1,0,0:0:0:0:
352,201,192240,1,2,0:0:0:0:
352,201,192340,1,0,0:0:0:0:
352,201,192440,1,2,0:0:0:0:
282,208,192640,1,2,0:0:0:0:
212,212,192840,1,0,0:0:0:0:
246,210,192940,1,0,0:0:0:0:
246,210,193040,1,2,0:0:0:0:
246,210,193140,1,0,0:0:0:0:
246,210,193240,1,2,0:0:0:0:
223,276,193440,1,0,0:0:0:0:
251,212,193640,1,2,0:0:0:0:
223,276,193840,1,2,0:0:0:0:
183,222,194240,1,2,0:0:0:0:
113,232,194440,1,2,0:0:0:0:
18,209,194840,1,0,0:0:0:0:
151,168,195240,1,0,0:0:0:0:
151,168,195340,1,0,0:0:0:0:
151,168,195440,1,2,0:0:0:0:
84,188,195640,1,2,0:0:0:0:
117,179,195740,1,0,0:0:0:0:
150,170,195840,1,2,0:0:0:0:
150,168,196040,1,0,0:0:0:0:
185,168,196140,1,0,0:0:0:0:
219,169,196240,1,2,0:0:0:0:
288,178,196440,1,2,0:0:0:0:
253,174,196540,1,0,0:0:0:0:
253,174,196640,1,2,0:0:0:0:
253,174,196840,1,0,0:0:0:0:
253,174,196940,1,0,0:0:0:0:
253,174,197040,1,2,0:0:0:0:
253,174,197240,1,2,0:0:0:0:
253,174,197340,1,0,0:0:0:0:
253,174,197440,1,2,0:0:0:0:
312,210,197640,1,0,0:0:0:0:
341,228,197740,1,0,0:0:0:0:
370,246,197840,1,2,0:0:0:0:
376,280,197940,1,2,0:0:0:0:
429,283,198040,1,0,0:0:0:0:
458,302,198140,1,0,0:0:0:0:
458,302,198240,1,2,0:0:0:0:
423,301,198340,1,2,0:0:0:0:
388,300,198440,1,0,0:0:0:0:
339,249,198640,1,2,0:0:0:0:
314,224,198740,1,2,0:0:0:0:
287,201,198840,1,0,0:0:0:0:
327,258,199040,1,2,0:0:0:0:
350,283,199140,1,2,0:0:0:0:
350,283,199240,1,0,0:0:0:0:
350,283,199440,1,2,0:0:0:0:
350,283,199540,1,2,0:0:0:0:
350,283,199640,1,0,0:0:0:0:
280,293,199840,1,2,0:0:0:0:
280,293,199940,1,2,0:0:0:0:
280,293,200040,1,0,0:0:0:0:
213,313,200240,1,0,0:0:0:0:
213,313,200340,1,0,0:0:0:0:
213,313,200440,1,2,0:0:0:0:
213,313,200540,1,0,0:0:0:0:
213,313,200640,1,0,0:0:0:0:
213,313,200740,1,0,0:0:0:0:
213,313,200840,1,2,0:0:0:0:
247,320,200940,1,0,0:0:0:0:
281,321,201040,1,0,0:0:0:0:
315,322,201140,1,0,0:0:0:0:
349,323,201240,1,2,0:0:0:0:
279,320,201440,1,2,0:0:0:0:
298,291,201540,1,2,0:0:0:0:
209,316,201640,1,0,0:0:0:0:
139,306,201840,1,2,0:0:0:0:
170,290,201940,1,2,0:0:0:0:
207,292,202040,1,0,0:0:0:0:
275,282,202240,1,2,0:0:0:0:
296,254,202340,1,2,0:0:0:0:
344,275,202440,1,0,0:0:0:0:
309,278,202640,1,2,0:0:0:0:
282,255,202740,1,2,0:0:0:0:
239,274,202840,1,0,0:0:0:0:
169,268,203040,1,2,0:0:0:0:
201,255,203140,1,2,0:0:0:0:
99,263,203240,1,0,0:0:0:0:
64,260,203440,1,0,0:0:0:0:
309,278,203640,1,2,0:0:0:0:
309,278,204040,1,2,0:0:0:0:
244,153,204440,1,2,0:0:0:0:
244,153,204840,1,0,0:0:0:0:
272,157,205640,1,0,0:0:0:0:
464,240,206240,1,2,0:0:0:0:
431,226,206340,1,2,0:0:0:0:
398,212,206440,1,0,0:0:0:0:
258,225,206840,1,0,0:0:0:0:
119,203,207240,1,0,0:0:0:0:
23,186,208040,1,0,0:0:0:0:
56,177,208140,1,0,0:0:0:0:
90,173,208240,1,2,0:0:0:0:
124,169,208340,1,0,0:0:0:0:
158,166,208440,1,0,0:0:0:0:
193,163,208540,1,2,0:0:0:0:
227,160,208640,1,0,0:0:0:0:
261,156,208740,1,0,0:0:0:0:
295,153,208840,1,2,0:0:0:0:
329,150,208940,1,0,0:0:0:0:
363,147,209040,1,0,0:0:0:0:
363,147,209140,1,2,0:0:0:0:
328,144,209242,1,0,0:0:0:0:
336,211,209440,1,0,0:0:0:0:
363,147,209640,1,0,0:0:0:0:
363,147,209740,1,0,0:0:0:0:
363,147,209840,1,2,0:0:0:0:
363,147,209940,1,0,0:0:0:0:
363,147,210040,1,0,0:0:0:0:
363,147,210140,1,2,0:0:0:0:
363,147,210240,1,0,0:0:0:0:
363,147,210340,1,0,0:0:0:0:
363,147,210440,1,2,0:0:0:0:
358,181,210540,1,0,0:0:0:0:
355,216,210640,1,0,0:0:0:0:
351,250,210740,1,2,0:0:0:0:
320,232,210842,1,0,0:0:0:0:
326,312,211040,1,0,0:0:0:0:
264,344,211240,1,2,0:0:0:0:
295,327,211340,1,2,0:0:0:0:
295,327,211440,1,0,0:0:0:0:
295,327,211540,1,2,0:0:0:0:
295,327,211640,1,2,0:0:0:0:
260,320,211740,1,0,0:0:0:0:
225,312,211840,1,2,0:0:0:0:
190,305,211940,1,2,0:0:0:0:
155,298,212040,1,0,0:0:0:0:
184,317,212140,1,2,0:0:0:0:
216,302,212240,1,2,0:0:0:0:
248,288,212340,1,0,0:0:0:0:
232,256,212442,1,0,0:0:0:0:
280,274,212640,1,2,0:0:0:0:
347,290,212840,1,2,0:0:0:0:
381,291,212940,1,2,0:0:0:0:
415,293,213040,1,0,0:0:0:0:
415,293,213140,1,2,0:0:0:0:
415,293,213240,1,2,0:0:0:0:
380,295,213340,1,0,0:0:0:0:
345,296,213440,1,2,0:0:0:0:
310,297,213540,1,2,0:0:0:0:
275,298,213640,1,0,0:0:0:0:
240,299,213740,1,2,0:0:0:0:
205,300,213840,1,2,0:0:0:0:
170,302,213940,1,0,0:0:0:0:
135,304,214040,1,0,0:0:0:0:
137,349,214440,1,4,0:0:0:0:
