osu file format v14

[General]
AudioFilename: audio.mp3
AudioLeadIn: 0
PreviewTime: 129462
Countdown: 0
SampleSet: None
StackLeniency: 0.7
Mode: 0
LetterboxInBreaks: 0
WidescreenStoryboard: 0

[Editor]
Bookmarks: 6464,12864,19262,32062,44862,57662,70462,72062,84862,97662,104062,116862,129662,142462,155262,156862,169662,182462,195262,208062,220862
DistanceSpacing: 2.4
BeatDivisor: 4
GridSize: 32
TimelineZoom: 2.1

[Metadata]
Title:Synthesized Angel
TitleUnicode:Synthesized Angel
Artist:Sakuzyo
ArtistUnicode:Sakuzyo
Creator:Voltaeyx
Version:Ethereal Existence
Source:AngelFalse
Tags:
BeatmapID:1242523
BeatmapSetID:586754

[Difficulty]
HPDrainRate:5.4
CircleSize:4
OverallDifficulty:8.7
ApproachRate:9.4
SliderMultiplier:1.4
SliderTickRate:1

[Events]
//Background and Video events
0,0,"falling.jpg",0,0
//Break Periods
2,97862,100322
//Storyboard Layer 0 (Background)
//Storyboard Layer 1 (Fail)
//Storyboard Layer 2 (Pass)
//Storyboard Layer 3 (Foreground)
//Storyboard Sound Samples

[TimingPoints]
6462.75675675676,400,4,2,0,40,1,0
12862,-100,4,2,0,50,0,0
19262,-100,4,2,0,60,0,0
32062,-100,4,2,0,70,0,0
44862,-100,4,2,0,50,0,0
57662,-100,4,2,0,60,0,0
70462,-200,4,2,0,70,0,0
71662,-33.33333333,4,2,0,85,0,0
72062,-40,4,3,0,80,0,1
84462,-200,4,2,0,65,0,1
84862,-100,4,3,0,50,0,0
103262,-100,4,2,0,15,0,0
103862,-100,4,2,0,45,0,0
116862,-100,4,3,0,55,0,0
117162,-100,4,2,0,55,0,0
118262,-100,4,3,0,55,0,0
118762,-100,4,2,0,55,0,0
118862,-100,4,3,0,55,0,0
119162,-100,4,2,0,55,0,0
120062,-100,4,3,0,55,0,0
120362,-100,4,2,0,55,0,0
121462,-100,4,3,0,55,0,0
121862,-100,4,2,0,55,0,0
123262,-100,4,3,0,55,0,0
123562,-100,4,2,0,55,0,0
124662,-100,4,3,0,55,0,0
125162,-100,4,2,0,55,0,0
125262,-100,4,3,0,55,0,0
125562,-100,4,2,0,55,0,0
126462,-100,4,3,0,55,0,0
126762,-100,4,2,0,55,0,0
127862,-100,4,3,0,55,0,0
128062,-200,4,2,0,60,0,0
129662,-100,4,2,0,50,0,0
142462,-100,4,2,0,60,0,0
155262,-100,4,2,0,70,0,0
156462,-66.6666666666667,4,2,0,85,0,0
156862,-40,4,3,0,80,0,1
159862,-200,4,2,0,65,0,1
160062,-40,4,2,0,80,0,1
161262,-40,4,3,0,80,0,1
164862,-100,4,2,0,80,0,1
165762,-40,4,3,0,80,0,1
166462,-40,4,2,0,80,0,1
168862,-40,4,2,0,80,0,0
169662,-100,4,3,0,50,0,0
182462,-100,4,2,0,60,0,0
195262,-100,4,2,0,50,0,0
208062,-100,4,2,0,40,0,0

[HitObjects]
81,96,6462,6,0,L|65:56,3,35
178,96,6862,2,0,L|165:128,3,35
276,66,7262,2,0,L|289:28,1,35
297,116,7462,2,0,L|286:160,1,35
392,73,7662,2,0,L|404:105,3,35
400,177,8062,6,0,L|412:209,3,35
334,244,8462,2,0,L|321:277,3,35
237,244,8862,2,0,L|250:206,1,35
192,279,9062,2,0,L|181:323,1,35
127,206,9262,2,0,L|140:173,3,35
209,142,9662,6,0,L|241:129,3,35
283,212,10062,2,0,L|315:224,3,35
274,309,10462,2,0,L|236:296,1,35
309,353,10662,2,0,L|353:364,1,35
390,277,10862,2,0,L|422:264,3,35
441,192,11262,6,0,L|408:179,3,35
434,91,11662,2,0,L|466:78,3,35
351,39,12062,2,0,L|384:30,1,35
333,95,12262,2,0,L|299:106,1,35
237,46,12462,2,0,L|204:58,3,35
115,129,12862,5,0,3:0:0:0:
91,154,12962,1,0,0:0:0:0:
85,188,13062,1,0,0:0:0:0:
94,221,13162,1,0,0:0:0:0:
116,247,13262,2,0,L|168:282,3,35
263,286,13662,5,0,3:0:0:0:
296,276,13762,1,0,0:0:0:0:
324,255,13862,1,0,0:0:0:0:
338,223,13962,1,0,0:0:0:0:
345,188,14062,2,0,L|344:139,3,35
289,55,14462,5,0,3:0:0:0:
268,26,14562,1,0,0:0:0:0:
236,11,14662,1,0,0:0:0:0:
201,10,14762,1,0,0:0:0:0:
170,27,14862,2,0,L|134:50,3,35
77,145,15262,5,0,3:0:0:0:
75,179,15362,1,0,0:0:0:0:
84,212,15462,1,0,0:0:0:0:
107,238,15562,1,0,0:0:0:0:
135,257,15662,2,0,L|166:277,1,35
228,205,15862,2,0,L|197:186,1,35,0|0,3:0|3:0,3:0:0:0:
293,138,16062,5,0,3:0:0:0:
323,121,16162,1,0,0:0:0:0:
357,114,16262,1,0,0:0:0:0:
391,120,16362,1,0,0:0:0:0:
422,134,16462,2,0,L|454:169,3,35
448,275,16862,5,0,3:0:0:0:
434,307,16962,1,0,0:0:0:0:
407,329,17062,1,0,0:0:0:0:
372,334,17162,1,0,0:0:0:0:
337,328,17262,2,0,L|304:302,3,35
260,201,17662,5,0,3:0:0:0:
260,166,17762,1,0,0:0:0:0:
273,133,17862,1,0,0:0:0:0:
302,113,17962,1,0,0:0:0:0:
336,108,18062,2,0,L|396:115,3,35
497,172,18462,5,0,3:0:0:0:
347,237,18662,1,0,0:0:0:0:
356,255,18862,1,0,0:0:0:0:
365,273,19062,1,0,0:0:0:0:
216,238,19262,5,0,3:0:0:0:
269,148,19462,1,0,0:0:0:0:
285,157,19662,1,0,0:0:0:0:
270,165,19862,1,0,0:0:0:0:
360,89,20062,5,0,3:0:0:0:
276,167,20262,1,0,0:0:0:0:
265,153,20462,1,0,0:0:0:0:
282,150,20662,1,0,0:0:0:0:
157,172,20862,5,0,3:0:0:0:
276,146,21062,1,0,0:0:0:0:
282,163,21262,1,0,0:0:0:0:
265,160,21462,1,0,0:0:0:0:
389,157,21662,5,0,3:0:0:0:
273,167,21862,1,0,0:0:0:0:
267,150,22062,1,0,0:0:0:0:
357,245,22262,1,0,3:0:0:0:
405,155,22462,5,0,3:0:0:0:
273,167,22662,1,0,0:0:0:0:
267,150,22862,1,0,0:0:0:0:
284,153,23062,1,0,0:0:0:0:
146,174,23262,5,0,3:0:0:0:
276,146,23462,1,0,0:0:0:0:
282,163,23662,1,0,0:0:0:0:
265,160,23862,1,0,0:0:0:0:
375,75,24062,5,0,3:0:0:0:
276,167,24262,1,0,0:0:0:0:
265,153,24462,1,0,0:0:0:0:
282,150,24662,1,0,0:0:0:0:
211,261,24862,5,0,3:0:0:0:
268,32,25062,1,0,0:0:0:0:
328,266,25262,1,0,0:0:0:0:
122,228,25462,1,0,0:0:0:0:
220,92,25662,5,0,3:0:0:0:
278,192,25862,1,0,0:0:0:0:
297,198,26062,1,0,0:0:0:0:
317,202,26262,1,0,0:0:0:0:
322,328,26462,5,0,3:0:0:0:
313,208,26662,1,0,0:0:0:0:
297,196,26862,1,0,0:0:0:0:
280,186,27062,1,0,0:0:0:0:
331,66,27262,5,0,3:0:0:0:
285,180,27462,1,0,0:0:0:0:
296,197,27662,1,0,0:0:0:0:
309,213,27862,1,0,0:0:0:0:
210,313,28062,5,0,3:0:0:0:
302,216,28262,1,0,0:0:0:0:
298,197,28462,1,0,0:0:0:0:
163,198,28662,1,0,3:0:0:0:
197,328,28862,5,0,3:0:0:0:
302,216,29062,1,0,0:0:0:0:
298,197,29262,1,0,0:0:0:0:
289,175,29462,2,0,L|271:118,1,35
335,49,29662,5,0,0:0:0:0:
285,180,29862,1,0,0:0:0:0:
296,197,30062,1,0,0:0:0:0:
309,213,30262,1,0,0:0:0:0:
324,348,30462,5,0,3:0:0:0:
317,207,30662,2,0,L|373:196,1,35
297,196,30862,1,0,0:0:0:0:
280,186,31062,1,0,0:0:0:0:
203,60,31262,5,0,3:0:0:0:
278,192,31462,1,0,0:0:0:0:
434,302,31662,1,0,3:0:0:0:
317,202,31862,1,0,3:0:0:0:
141,151,32062,5,0,3:0:0:0:
287,95,32262,1,0,0:0:0:0:
366,6,32462,1,0,3:0:0:0:
326,117,32662,1,0,0:0:0:0:
212,224,32862,5,0,3:0:0:0:
326,117,33062,1,0,0:0:0:0:
366,5,33262,1,0,3:0:0:0:
370,123,33462,1,0,0:0:0:0:
305,265,33662,5,0,3:0:0:0:
370,123,33862,1,0,0:0:0:0:
365,5,34062,1,0,3:0:0:0:
413,112,34262,1,0,0:0:0:0:
406,269,34462,5,0,3:0:0:0:
440,34,34662,1,0,0:0:0:0:
219,117,34862,1,0,3:0:0:0:
252,333,35062,1,0,0:0:0:0:
406,269,35262,5,0,3:0:0:0:
370,123,35462,1,0,0:0:0:0:
364,6,35662,1,0,3:0:0:0:
317,147,35862,1,0,0:0:0:0:
378,285,36062,5,0,3:0:0:0:
317,147,36262,1,0,0:0:0:0:
290,33,36462,1,0,3:0:0:0:
269,180,36662,1,0,0:0:0:0:
353,305,36862,5,0,3:0:0:0:
269,180,37062,1,0,0:0:0:0:
223,72,37262,1,0,3:0:0:0:
228,221,37462,1,0,0:0:0:0:
332,329,37662,5,0,3:0:0:0:
137,184,37862,1,0,0:0:0:0:
362,93,38062,1,0,3:0:0:0:
142,261,38262,1,0,0:0:0:0:
362,93,38462,5,0,3:0:0:0:
177,111,38662,1,0,0:0:0:0:
52,199,38862,1,0,3:0:0:0:
177,111,39062,1,0,0:0:0:0:
352,83,39262,5,0,3:0:0:0:
184,163,39462,1,0,0:0:0:0:
96,288,39662,1,0,3:0:0:0:
184,163,39862,1,0,0:0:0:0:
342,73,40062,5,0,3:0:0:0:
211,205,40262,1,0,0:0:0:0:
171,353,40462,1,0,3:0:0:0:
360,239,40662,1,0,0:0:0:0:
332,63,40862,5,0,3:0:0:0:
254,231,41062,1,0,0:0:0:0:
355,365,41262,1,0,3:0:0:0:
407,169,41462,1,0,0:0:0:0:
268,357,41662,5,0,3:0:0:0:
250,92,41862,1,0,0:0:0:0:
352,259,42062,1,0,3:0:0:0:
107,226,42262,1,0,0:0:0:0:
328,113,42462,5,0,3:0:0:0:
284,293,42662,1,0,0:0:0:0:
89,142,42862,1,0,3:0:0:0:
328,113,43062,2,0,L|313:171,1,35
284,293,43262,5,0,3:0:0:0:
233,32,43462,1,0,0:0:0:0:
178,220,43662,1,0,3:0:0:0:
406,124,43862,1,0,0:0:0:0:
163,72,44062,5,0,3:0:0:0:
252,235,44262,1,0,0:0:0:0:
402,38,44462,1,0,3:0:0:0:
163,72,44662,1,0,0:0:0:0:
373,194,44862,5,0,3:0:0:0:
196,162,45062,1,0,0:0:0:0:
138,274,45262,1,0,0:0:0:0:
196,162,45462,1,0,0:0:0:0:
102,301,45662,5,0,0:0:0:0:
196,162,45862,1,0,0:0:0:0:
103,340,46062,1,0,0:0:0:0:
196,162,46262,1,0,0:0:0:0:
289,340,46462,5,0,0:0:0:0:
196,162,46662,1,0,0:0:0:0:
290,301,46862,1,0,0:0:0:0:
196,162,47062,1,0,0:0:0:0:
254,274,47262,5,0,0:0:0:0:
196,162,47462,1,0,0:0:0:0:
207,140,47562,1,0,0:0:0:0:
221,120,47662,1,0,0:0:0:0:
244,127,47762,1,0,0:0:0:0:
267,134,47862,1,0,0:0:0:0:
290,141,47962,1,0,0:0:0:0:
313,147,48062,5,0,3:0:0:0:
464,85,48262,1,0,0:0:0:0:
330,233,48462,1,0,0:0:0:0:
464,85,48662,1,0,0:0:0:0:
330,233,48862,5,0,0:0:0:0:
351,72,49062,1,0,0:0:0:0:
412,261,49262,1,0,0:0:0:0:
351,72,49462,1,0,0:0:0:0:
412,261,49662,5,0,0:0:0:0:
283,162,49862,1,0,0:0:0:0:
477,203,50062,1,0,0:0:0:0:
283,162,50262,1,0,0:0:0:0:
477,203,50462,5,0,0:0:0:0:
326,265,50662,1,0,0:0:0:0:
308,282,50762,1,0,0:0:0:0:
290,299,50862,1,0,0:0:0:0:
268,287,50962,1,0,0:0:0:0:
245,276,51062,1,0,0:0:0:0:
223,263,51162,1,0,0:0:0:0:
201,250,51262,5,0,3:0:0:0:
105,97,51462,1,0,0:0:0:0:
239,184,51662,1,0,0:0:0:0:
58,157,51862,1,0,0:0:0:0:
239,184,52062,5,0,0:0:0:0:
58,158,52262,1,0,0:0:0:0:
211,111,52462,1,0,0:0:0:0:
74,232,52662,1,0,0:0:0:0:
211,111,52862,5,0,0:0:0:0:
74,232,53062,1,0,0:0:0:0:
136,85,53262,1,0,0:0:0:0:
141,267,53462,1,0,0:0:0:0:
136,85,53662,5,0,0:0:0:0:
139,267,53862,1,0,0:0:0:0:
153,286,53962,1,0,0:0:0:0:
169,304,54062,1,0,0:0:0:0:
152,321,54162,1,0,0:0:0:0:
132,336,54262,1,0,0:0:0:0:
110,348,54362,1,0,0:0:0:0:
88,359,54462,5,0,3:0:0:0:
322,319,54662,1,0,0:0:0:0:
88,359,54862,1,0,0:0:0:0:
234,303,55062,1,0,0:0:0:0:
88,359,55262,5,0,0:0:0:0:
294,241,55462,1,0,0:0:0:0:
88,359,55662,1,0,0:0:0:0:
206,256,55862,2,0,L|174:287,1,35
88,359,56062,6,0,L|133:317,1,35
241,177,56262,2,0,L|208:219,1,35
88,359,56462,2,0,L|117:315,1,35
163,221,56662,1,0,0:0:0:0:
88,359,56862,5,0,0:0:0:0:
169,136,57062,1,0,0:0:0:0:
169,111,57162,1,0,0:0:0:0:
169,86,57262,1,0,0:0:0:0:
193,84,57362,1,0,0:0:0:0:
217,82,57462,1,0,0:0:0:0:
241,80,57562,1,0,0:0:0:0:
265,84,57662,5,0,3:0:0:0:
265,84,57862,1,0,0:0:0:0:
365,222,58062,1,0,0:0:0:0:
365,222,58262,1,0,0:0:0:0:
180,181,58462,5,0,0:0:0:0:
180,181,58662,1,0,0:0:0:0:
360,83,58862,1,0,0:0:0:0:
360,83,59062,1,0,0:0:0:0:
248,277,59262,5,0,0:0:0:0:
248,277,59462,1,0,0:0:0:0:
224,71,59662,1,0,0:0:0:0:
224,71,59862,1,0,0:0:0:0:
391,250,60062,5,0,0:0:0:0:
391,250,60262,1,0,0:0:0:0:
400,272,60362,1,0,0:0:0:0:
397,296,60462,1,0,0:0:0:0:
388,318,60562,1,0,0:0:0:0:
367,331,60662,1,0,0:0:0:0:
342,328,60762,1,0,0:0:0:0:
319,317,60862,5,0,3:0:0:0:
319,317,61062,1,0,0:0:0:0:
172,186,61262,1,0,0:0:0:0:
172,186,61462,1,0,0:0:0:0:
398,177,61662,5,0,0:0:0:0:
398,177,61862,1,0,0:0:0:0:
202,312,62062,1,0,0:0:0:0:
202,312,62262,1,0,0:0:0:0:
276,75,62462,5,0,0:0:0:0:
276,75,62662,1,0,0:0:0:0:
400,264,62862,1,0,0:0:0:0:
400,264,63062,1,0,0:0:0:0:
155,252,63262,5,0,0:0:0:0:
155,252,63462,1,0,0:0:0:0:
133,240,63562,1,0,0:0:0:0:
116,221,63662,1,0,0:0:0:0:
112,196,63762,1,0,0:0:0:0:
124,174,63862,1,0,0:0:0:0:
145,162,63962,1,0,0:0:0:0:
169,161,64062,5,0,3:0:0:0:
169,161,64262,1,0,0:0:0:0:
425,148,64462,1,0,0:0:0:0:
425,148,64662,1,0,0:0:0:0:
242,310,64862,5,0,0:0:0:0:
242,310,65062,1,0,0:0:0:0:
262,55,65262,1,0,0:0:0:0:
262,55,65462,1,0,0:0:0:0:
403,263,65662,5,0,0:0:0:0:
433,279,65862,1,0,0:0:0:0:
169,215,66062,1,0,0:0:0:0:
134,221,66262,1,0,0:0:0:0:
381,84,66462,5,0,0:0:0:0:
381,84,66662,1,0,0:0:0:0:
414,72,66762,1,0,0:0:0:0:
448,78,66862,1,0,0:0:0:0:
468,106,66962,1,0,0:0:0:0:
474,140,67062,1,0,0:0:0:0:
460,172,67162,1,0,0:0:0:0:
434,195,67262,5,0,3:0:0:0:
434,195,67462,1,0,0:0:0:0:
169,269,67662,1,0,0:0:0:0:
125,290,67862,1,0,0:0:0:0:
362,100,68062,5,0,0:0:0:0:
394,63,68262,1,0,0:0:0:0:
316,321,68462,1,0,0:0:0:0:
318,369,68662,1,0,0:0:0:0:
197,130,68862,5,0,3:0:0:0:
166,100,68962,1,0,3:0:0:0:
125,88,69062,1,0,3:0:0:0:
86,104,69162,1,0,3:0:0:0:
64,140,69262,1,0,3:0:0:0:
68,181,69362,1,0,3:0:0:0:
91,215,69462,1,0,3:0:0:0:
130,228,69562,1,0,3:0:0:0:
171,229,69662,5,0,3:0:0:0:
207,209,69762,1,0,3:0:0:0:
240,183,69862,1,0,3:0:0:0:
275,159,69962,1,0,3:0:0:0:
316,153,70062,1,0,3:0:0:0:
357,161,70162,1,0,3:0:0:0:
393,181,70262,1,0,3:0:0:0:
422,211,70362,1,0,3:0:0:0:
440,248,70462,6,0,L|445:265,1,17.5
380,311,70662,2,0,L|369:328,1,17.5
292,334,70862,2,0,L|214:342,1,70
58,319,71662,6,0,B|52:289|52:289|80:279|80:279|57:252|57:252|86:245|86:245|66:214|66:214|97:211|97:211|80:180|80:180|108:166|108:166|97:136|97:136|123:115,1,315.000012016297
247,87,72062,6,0,B|369:48|369:48|439:167|439:167|356:264|356:264|234:215|234:215|247:91,1,612.5
330,157,72862,1,0,0:0:0:0:
330,157,73062,1,0,0:0:0:0:
228,340,73162,2,0,P|64:267|121:111,1,350
3,182,73662,6,0,P|25:48|8:190,1,612.5
94,177,74462,2,0,P|49:125|98:177,1,262.5
296,103,74862,5,0,2:0:0:0:
361,43,74962,1,0,2:0:0:0:
436,87,75062,1,0,2:0:0:0:
418,173,75162,1,0,2:0:0:0:
331,182,75262,6,0,P|256:376|371:202,1,612.5
309,287,76062,1,0,0:0:0:0:
309,287,76262,6,0,B|308:223|308:223|244:255|244:255|245:318|245:318|308:360|308:360|373:322|373:322|371:249|371:249|349:233,1,437.5
309,287,76862,6,0,P|276:80|263:288,1,612.5
282,187,77662,6,0,P|87:113|261:228,1,612.5
156,117,78462,5,0,2:0:0:0:
135,144,78562,1,0,2:0:0:0:
134,178,78662,1,0,2:0:0:0:
158,203,78762,1,0,2:0:0:0:
193,208,78862,1,0,2:0:0:0:
222,187,78962,1,0,2:0:0:0:
232,153,79062,2,0,P|209:110|164:109,1,87.5,0|0,2:0|2:0,2:0:0:0:
187,161,79262,5,0,0:0:0:0:
187,161,79462,1,0,0:0:0:0:
86,345,79562,2,0,P|265:335|409:232,1,350
468,158,80062,6,0,P|353:331|427:137,1,612.5
401,240,80862,2,0,L|308:234,1,87.5
313,234,81062,1,0,0:0:0:0:
347,193,81262,2,0,P|289:279|326:182,1,262.5
313,234,81662,6,0,P|507:308|333:193,1,612.5
414,261,82462,6,0,P|219:187|393:302,1,612.5
312,236,83262,6,0,P|117:161|291:276,1,612.5
210,208,84062,1,0,0:0:0:0:
210,208,84262,1,0,0:0:0:0:
55,65,84362,1,0,0:0:0:0:
36,274,84462,2,0,L|78:319,1,52.5,0|0,3:0|3:0,3:0:0:0:
133,363,84862,6,0,B|170:339|170:339|196:369|221:363|243:341|243:341|265:356|293:367|316:345|341:330|373:305,1,245
408,280,85662,2,0,B|405:214|363:216|363:216|369:177|336:144|330:110|330:110|358:72,1,245
405,14,86462,6,0,B|426:27|464:13|464:13|459:68|481:60|512:66|520:93|495:124|464:134|422:104,1,245
357,75,87262,2,0,B|303:101|272:87|272:87|282:173|235:252,1,245
205,301,88062,6,0,B|143:296|112:250|112:250|147:239|174:221|174:221|171:182|151:158,1,245
118,95,88862,2,0,B|87:48|81:35|81:35|130:42|151:53|179:-28|179:124|205:-18|226:110|247:34|269:34,1,245
323,42,89662,6,0,B|382:54|409:94|422:154|422:154|379:130|316:133,1,245
262,135,90462,2,0,B|231:145|231:145|202:210|218:251|227:308|310:225|327:275|352:296,1,245
393,315,91262,6,0,B|423:335|462:336|462:336|456:272|462:234|487:197|487:197|469:168|430:160,1,280
367,147,92862,6,0,B|293:82|213:259|133:139,1,245
102,96,93662,2,0,B|69:56|96:26|144:22|187:22|242:30|240:87|195:116,1,245
145,155,94462,6,0,B|104:203|104:203|135:254|195:231|232:260|232:260|166:323,1,280
124,357,95662,2,0,P|83:317|127:275,1,105
172,240,96062,6,0,B|248:232|262:128|200:98|140:100|110:157|183:183,1,245
225,198,96862,2,0,B|275:206|318:215|328:237|316:258|225:265|211:297|245:321|326:325,1,245
379,331,97662,1,0,0:0:0:0:
256,192,100862,12,0,103262,0:0:0:0:
202,178,103862,5,0,0:0:0:0:
202,178,104062,2,0,L|137:130,1,70
264,138,104462,2,0,L|231:63,1,70
338,137,104862,2,0,L|347:56,1,70
349,218,105262,1,0,0:0:0:0:
349,218,105462,1,0,0:0:0:0:
349,218,105662,6,0,L|408:287,1,70
277,246,106062,2,0,L|293:335,1,70
202,233,106462,2,0,L|171:318,1,70
182,157,106862,1,0,0:0:0:0:
182,157,107062,1,0,0:0:0:0:
182,157,107262,6,0,L|89:142,1,70
185,230,107662,2,0,L|96:263,1,70
241,284,108062,2,0,L|181:357,1,70
321,292,108462,2,0,L|306:384,1,70
358,220,108862,5,0,0:0:0:0:
382,206,109062,1,0,0:0:0:0:
397,182,109262,1,0,0:0:0:0:
405,155,109462,1,0,0:0:0:0:
402,127,109662,1,0,0:0:0:0:
375,136,109862,1,0,0:0:0:0:
347,140,110062,1,0,0:0:0:0:
319,137,110262,1,0,0:0:0:0:
292,129,110462,6,0,L|325:56,1,70
216,129,110862,1,0,0:0:0:0:
189,138,111062,1,0,0:0:0:0:
161,132,111262,1,0,0:0:0:0:
86,274,111462,5,0,0:0:0:0:
67,294,111662,1,0,0:0:0:0:
47,314,111862,1,0,0:0:0:0:
235,268,112062,6,0,L|265:345,1,70
297,224,112462,2,0,L|361:275,1,70
332,153,112862,2,0,L|413:165,1,70
260,123,113262,1,0,0:0:0:0:
260,123,113462,1,0,0:0:0:0:
260,123,113662,6,0,L|258:47,1,70
263,204,114062,1,0,0:0:0:0:
263,231,114262,1,0,0:0:0:0:
263,259,114462,1,0,0:0:0:0:
71,205,114662,5,0,0:0:0:0:
52,185,114862,1,0,0:0:0:0:
32,165,115062,1,0,0:0:0:0:
216,110,115262,5,0,0:0:0:0:
241,96,115462,1,0,0:0:0:0:
269,88,115662,1,0,0:0:0:0:
297,89,115862,1,0,0:0:0:0:
323,98,116062,2,0,L|409:68,1,70
344,168,116462,2,0,L|433:185,1,70
303,241,116862,6,0,P|364:257|402:312,1,105
445,335,117262,2,0,P|395:358|332:324,1,105
271,333,117662,2,0,B|201:345|180:256,1,105
126,126,118062,1,0,0:0:0:0:
98,212,118262,1,0,0:0:0:0:
188,204,118462,6,0,P|218:155|267:139,1,105
293,202,118862,2,0,P|332:151|322:107,1,105
290,43,119262,2,0,P|233:24|195:48,1,105
32,41,119662,1,0,0:0:0:0:
121,17,119862,1,0,0:0:0:0:
99,105,120062,6,0,P|118:159|87:199,1,105
85,268,120462,2,0,P|35:235|28:171,1,105
192,267,120862,2,0,P|241:234|248:170,1,105
193,153,121262,2,0,P|243:120|269:135,1,70
470,52,121662,5,0,0:0:0:0:
357,127,121862,1,0,0:0:0:0:
480,176,122062,1,0,3:0:0:0:
389,45,122262,1,0,0:0:0:0:
261,267,122462,1,0,0:0:0:0:
431,117,122662,1,0,0:0:0:0:
502,336,122862,1,0,0:0:0:0:
261,267,123062,1,0,0:0:0:0:
431,117,123262,6,0,P|485:126|511:186,1,105
422,370,123662,1,0,0:0:0:0:
485,245,123862,1,0,0:0:0:0:
345,257,124062,1,0,0:0:0:0:
106,281,124262,5,0,0:0:0:0:
67,311,124462,1,0,0:0:0:0:
29,342,124662,1,0,0:0:0:0:
66,90,124862,6,0,P|106:51|160:53,1,105
208,4,125262,2,0,P|226:60|184:111,1,105
130,148,125662,2,0,P|175:176|180:229,1,105
231,384,126062,1,0,0:0:0:0:
261,247,126262,1,0,0:0:0:0:
128,291,126462,6,0,P|87:270|70:216,1,105
94,12,126862,1,0,0:0:0:0:
29,136,127062,1,0,0:0:0:0:
168,123,127262,2,0,P|212:101|265:109,1,105
283,179,127662,2,0,P|331:142|337:110,1,70
330,18,128062,6,0,B|320:10|320:10|316:24|316:24|307:10|307:10|298:25|298:25|294:8|294:8|285:24|285:24|279:10|279:10|271:21|271:21|266:14,1,122.5
134,88,128862,1,0,0:0:0:0:
106,283,129662,5,0,3:0:0:0:
160,135,129862,1,0,0:0:0:0:
111,288,130062,1,0,0:0:0:0:
212,167,130262,1,0,0:0:0:0:
116,293,130462,5,0,0:0:0:0:
251,213,130662,1,0,0:0:0:0:
121,298,130862,1,0,0:0:0:0:
275,268,131062,1,0,0:0:0:0:
126,303,131262,5,0,0:0:0:0:
280,327,131462,1,0,0:0:0:0:
121,298,131662,1,0,0:0:0:0:
275,268,131862,1,0,0:0:0:0:
116,293,132062,5,0,0:0:0:0:
251,213,132262,1,0,0:0:0:0:
271,199,132362,1,0,0:0:0:0:
291,185,132462,1,0,0:0:0:0:
279,163,132562,1,0,0:0:0:0:
263,143,132662,1,0,0:0:0:0:
249,123,132762,1,0,0:0:0:0:
234,102,132862,5,0,3:0:0:0:
26,83,133062,1,0,0:0:0:0:
189,178,133262,1,0,0:0:0:0:
72,21,133462,1,0,0:0:0:0:
102,193,133662,5,0,0:0:0:0:
159,11,133862,1,0,0:0:0:0:
35,136,134062,1,0,0:0:0:0:
224,49,134262,1,0,0:0:0:0:
35,48,134462,5,0,0:0:0:0:
224,137,134662,1,0,0:0:0:0:
106,17,134862,1,0,0:0:0:0:
157,193,135062,1,0,0:0:0:0:
190,7,135262,5,0,0:0:0:0:
69,178,135462,1,0,0:0:0:0:
56,199,135562,1,0,0:0:0:0:
44,219,135662,1,0,0:0:0:0:
62,234,135762,1,0,0:0:0:0:
80,249,135862,1,0,0:0:0:0:
98,265,135962,1,0,0:0:0:0:
116,280,136062,5,0,3:0:0:0:
270,354,136262,1,0,0:0:0:0:
157,228,136462,1,0,0:0:0:0:
275,349,136662,1,0,0:0:0:0:
211,190,136862,5,0,0:0:0:0:
280,344,137062,1,0,0:0:0:0:
273,171,137262,1,0,0:0:0:0:
285,339,137462,1,0,0:0:0:0:
337,172,137662,5,0,0:0:0:0:
290,334,137862,1,0,0:0:0:0:
396,197,138062,1,0,0:0:0:0:
295,329,138262,1,0,0:0:0:0:
441,235,138462,5,0,0:0:0:0:
300,324,138662,1,0,0:0:0:0:
277,333,138762,1,0,0:0:0:0:
254,342,138862,1,0,0:0:0:0:
244,319,138962,1,0,0:0:0:0:
238,295,139062,1,0,0:0:0:0:
232,271,139162,1,0,0:0:0:0:
226,247,139262,5,0,3:0:0:0:
355,137,139462,1,0,0:0:0:0:
169,248,139662,1,0,0:0:0:0:
407,159,139862,1,0,0:0:0:0:
209,194,140062,5,0,0:0:0:0:
378,193,140262,1,0,0:0:0:0:
165,159,140462,1,0,0:0:0:0:
404,244,140662,2,0,L|361:219,1,35
230,143,140862,6,0,L|274:179,1,35
360,251,141062,2,0,L|321:210,1,35
219,88,141262,2,0,L|249:134,1,35
347,307,141462,1,0,0:0:0:0:
280,114,141662,5,0,0:0:0:0:
310,281,141862,1,0,0:0:0:0:
330,296,141962,1,0,0:0:0:0:
349,310,142062,1,0,0:0:0:0:
369,296,142162,1,0,0:0:0:0:
387,279,142262,1,0,0:0:0:0:
404,261,142362,1,0,0:0:0:0:
419,247,142462,5,0,3:0:0:0:
419,247,142662,1,0,0:0:0:0:
312,94,142862,1,0,0:0:0:0:
312,94,143062,1,0,0:0:0:0:
241,273,143262,5,0,0:0:0:0:
241,273,143462,1,0,0:0:0:0:
399,139,143662,1,0,0:0:0:0:
399,139,143862,1,0,0:0:0:0:
207,184,144062,5,0,0:0:0:0:
207,184,144262,1,0,0:0:0:0:
368,278,144462,1,0,0:0:0:0:
368,278,144662,1,0,0:0:0:0:
324,95,144862,5,0,0:0:0:0:
324,95,145062,1,0,0:0:0:0:
324,71,145162,1,0,0:0:0:0:
313,49,145262,1,0,0:0:0:0:
297,32,145362,1,0,0:0:0:0:
276,33,145462,1,0,0:0:0:0:
252,42,145562,1,0,0:0:0:0:
233,56,145662,5,0,3:0:0:0:
233,56,145862,1,0,0:0:0:0:
187,252,146062,1,0,0:0:0:0:
187,252,146262,1,0,0:0:0:0:
379,182,146462,5,0,0:0:0:0:
379,182,146662,1,0,0:0:0:0:
163,102,146862,1,0,0:0:0:0:
163,102,147062,1,0,0:0:0:0:
283,302,147262,5,0,0:0:0:0:
283,302,147462,1,0,0:0:0:0:
369,77,147662,1,0,0:0:0:0:
369,77,147862,1,0,0:0:0:0:
136,188,148062,5,0,0:0:0:0:
136,188,148262,1,0,0:0:0:0:
114,200,148362,1,0,0:0:0:0:
97,219,148462,1,0,0:0:0:0:
93,244,148562,1,0,0:0:0:0:
105,266,148662,1,0,0:0:0:0:
126,278,148762,1,0,0:0:0:0:
150,279,148862,5,0,3:0:0:0:
150,279,149062,1,0,0:0:0:0:
390,179,149262,1,0,0:0:0:0:
390,179,149462,1,0,0:0:0:0:
179,88,149662,5,0,0:0:0:0:
179,88,149862,1,0,0:0:0:0:
266,318,150062,1,0,0:0:0:0:
266,318,150262,1,0,0:0:0:0:
388,85,150462,5,0,0:0:0:0:
418,69,150662,1,0,0:0:0:0:
119,158,150862,1,0,0:0:0:0:
84,152,151062,1,0,0:0:0:0:
385,306,151262,5,0,0:0:0:0:
385,306,151462,1,0,0:0:0:0:
418,318,151562,1,0,0:0:0:0:
452,312,151662,1,0,0:0:0:0:
472,284,151762,1,0,0:0:0:0:
478,250,151862,1,0,0:0:0:0:
464,218,151962,1,0,0:0:0:0:
438,195,152062,5,0,3:0:0:0:
438,195,152262,1,0,0:0:0:0:
216,86,152462,1,0,0:0:0:0:
172,65,152662,1,0,0:0:0:0:
254,281,152862,5,0,0:0:0:0:
247,329,153062,1,0,0:0:0:0:
399,136,153262,1,0,0:0:0:0:
424,94,153462,1,0,0:0:0:0:
153,143,153662,5,0,3:0:0:0:
113,157,153762,1,0,3:0:0:0:
71,153,153862,1,0,3:0:0:0:
37,127,153962,1,0,3:0:0:0:
35,85,154062,1,0,3:0:0:0:
56,48,154162,1,0,3:0:0:0:
97,40,154262,1,0,3:0:0:0:
136,52,154362,1,0,3:0:0:0:
167,79,154462,5,0,3:0:0:0:
181,118,154562,1,0,3:0:0:0:
179,159,154662,1,0,3:0:0:0:
163,198,154762,1,0,3:0:0:0:
143,235,154862,1,0,3:0:0:0:
142,276,154962,1,0,3:0:0:0:
156,315,155062,1,0,3:0:0:0:
190,339,155162,1,0,3:0:0:0:
231,334,155262,5,0,0:0:0:0:
313,306,155362,1,0,0:0:0:0:
331,220,155462,1,0,0:0:0:0:
298,138,155562,1,0,0:0:0:0:
316,52,155662,1,0,0:0:0:0:
391,6,155762,1,0,0:0:0:0:
476,26,155862,1,0,0:0:0:0:
492,111,155962,1,0,0:0:0:0:
441,182,156062,2,0,L|434:174,12,8.75
412,284,156462,6,0,B|400:294|400:294|389:284|389:284|383:301|383:301|372:290|372:290|364:306|364:306|355:294|355:294|346:309|346:309|333:300|333:300|323:312|323:312|307:306,1,157.500006008148
119,338,156862,6,0,B|148:308|200:292|223:286|223:286|224:282|224:282|223:286|223:286|224:282|224:282|223:286|223:286|224:282|224:282|223:286|223:286|224:282|224:282|223:286|223:286|224:282|224:282|223:286|223:286|224:282|224:282|223:286|223:286|224:282|224:282|223:286|223:286|224:282|224:282|223:286|223:286|224:282|224:282|223:286|223:286|224:282|224:282|223:286|223:286|224:282|224:282|223:286|223:286|224:282|224:282|223:286|223:286|224:282|224:282|223:286|223:286|224:282|224:282|223:286|223:286|224:282|224:282|223:286|223:286|224:282|224:282|223:286|223:286|224:282|224:282|223:286|223:286|224:282|224:282|223:286|223:286|224:282|224:282|223:286|223:286|224:282|224:282|186:224|252:225|252:225|255:221|255:221|252:225|252:225|255:221|255:221|252:225|252:225|255:221|255:221|252:225|252:225|255:221|255:221|252:225|252:225|255:221|255:221|252:225|252:225|255:221|255:221|252:225|252:225|255:221|255:221|252:225|252:225|255:221|255:221|252:225|252:225|255:221|255:221|252:225|252:225|255:221|255:221|252:225|252:225|255:221|255:221|252:225|252:225|255:221|255:221|252:225|252:225|255:221|255:221|252:225|252:225|255:221|255:221|252:225|252:225|255:221|255:221|252:225|252:225|255:221|255:221|252:225|252:225|255:221|255:221|252:225|252:225|255:221|255:221|252:225|252:225|255:221|255:221|252:225|252:225|255:221|255:221|317:202|267:164|267:164|268:159|268:159|267:164|267:164|268:159|268:159|267:164|267:164|268:159|268:159|267:164|267:164|268:159|268:159|267:164|267:164|268:159|268:159|267:164|267:164|268:159|268:159|267:164|267:164|268:159|268:159|267:164|267:164|268:159|268:159|267:164|267:164|268:159|268:159|267:164|267:164|268:159|268:159|267:164|267:164|268:159|268:159|267:164|267:164|268:159|268:159|267:164|267:164|268:159|268:159|267:164|267:164|268:159|268:159|267:164|267:164|268:159|268:159|267:164|267:164|268:159|268:159|267:164|267:164|268:159|268:159|267:164|267:164|268:159|268:159|267:164|267:164|268:159|268:159|267:164|267:164|268:159|268:159|320:152|352:144|368:124|376:88,1,962.5
344,18,158062,2,0,P|192:4|46:45,1,262.5
86,28,158462,6,0,B|63:89|166:41|48:170|216:81|138:202,1,175
192,357,158762,1,0,0:0:0:0:
192,357,158962,5,0,2:0:0:0:
92,323,159062,1,0,2:0:0:0:
192,293,159162,1,0,2:0:0:0:
91,264,159262,2,0,L|3:309,1,87.5,0|0,2:0|2:0,2:0:0:0:
89,200,159462,5,0,0:0:0:0:
194,233,159562,2,0,L|282:188,1,87.5
360,118,159862,2,0,L|379:117,1,17.5
461,177,160062,5,0,0:0:0:0:
449,263,160162,1,0,0:0:0:0:
377,314,160262,1,0,0:0:0:0:
296,280,160362,1,0,0:0:0:0:
271,193,160462,1,0,0:0:0:0:
285,106,160562,1,0,0:0:0:0:
245,28,160662,1,0,0:0:0:0:
159,11,160762,1,0,0:0:0:0:
88,62,160862,6,0,L|60:260,1,175
63,235,161262,2,0,P|180:278|271:189,1,262.5
167,219,161662,6,0,P|374:186|166:173,1,612.5
270,193,162462,6,0,P|344:-2|229:172,1,612.5
243,114,163262,5,0,2:0:0:0:
248,70,163362,1,0,2:0:0:0:
283,43,163462,1,0,2:0:0:0:
326,49,163562,1,0,2:0:0:0:
353,84,163662,1,0,2:0:0:0:
347,127,163762,1,0,3:0:0:0:
313,154,163862,2,0,P|277:148|241:110,1,87.5,0|0,3:0|3:0,3:0:0:0:
295,102,164062,5,0,0:0:0:0:
295,102,164262,1,0,0:0:0:0:
379,292,164362,2,0,P|227:262|122:104,1,350
123,108,164862,6,0,L|92:192,1,70
312,164,165162,2,0,L|343:247,1,70
161,232,165462,2,0,L|121:334,1,105
209,335,165862,1,0,0:0:0:0:
414,293,165962,1,0,0:0:0:0:
277,133,166062,2,0,P|198:69|215:169,1,262.5
326,162,166462,5,0,3:0:0:0:
301,198,166562,1,0,0:0:0:0:
265,222,166662,1,0,0:0:0:0:
222,231,166762,1,0,0:0:0:0:
179,222,166862,1,0,3:0:0:0:
143,198,166962,1,0,0:0:0:0:
118,161,167062,1,0,0:0:0:0:
110,119,167162,1,0,0:0:0:0:
118,76,167262,5,0,3:0:0:0:
143,39,167362,1,0,0:0:0:0:
179,15,167462,1,0,0:0:0:0:
222,6,167562,1,0,0:0:0:0:
265,15,167662,1,0,3:0:0:0:
301,39,167762,1,0,0:0:0:0:
326,76,167862,1,0,0:0:0:0:
334,119,167962,1,0,0:0:0:0:
326,162,168062,5,0,3:0:0:0:
301,198,168162,1,0,0:0:0:0:
265,222,168262,1,0,0:0:0:0:
222,231,168362,1,0,3:0:0:0:
179,222,168462,1,0,0:0:0:0:
143,198,168562,1,0,3:0:0:0:
118,161,168662,1,0,3:0:0:0:
110,119,168762,1,0,3:0:0:0:
118,76,168862,5,0,3:0:0:0:
218,101,169062,1,0,0:0:0:0:
227,119,169262,1,0,0:0:0:0:
236,137,169462,1,0,0:0:0:0:
304,52,169662,6,0,B|368:88|368:88|372:132|440:160|432:196|408:228|344:196,1,245
292,188,170462,2,0,B|204:188|124:288|216:124|124:88,1,245
80,44,171262,6,0,B|28:40|28:40|64:104|96:176|48:236,1,245
36,292,172062,2,0,P|12:328|125:317,1,245
129,268,172862,6,0,B|139:243|129:218|129:218|185:200|217:144|217:144|266:210,1,245
285,272,173662,2,0,B|285:316|304:354|304:354|249:359|201:330|201:330|218:308|207:276,1,245
192,208,174462,6,0,B|170:130|170:130|234:115|234:115|299:152|354:134,1,245
406,143,175262,2,0,B|486:119|433:188|433:188|446:237|446:237|519:260|440:290,1,245
368,306,176062,6,0,B|283:370|267:126|172:348|123:200,1,280
99,149,177662,6,0,B|49:80|49:80|-13:112|-13:112|-2:167|-2:167|42:155,1,245
99,149,178462,2,0,B|189:177|225:61|339:83,1,245
397,87,179262,6,0,P|433:74|380:143,1,280
336,82,180462,2,0,P|286:56|218:77,1,105
171,99,180862,6,0,L|98:138,1,70
211,159,181162,2,0,L|173:181,1,35
264,231,181362,1,0,0:0:0:0:
264,231,181462,1,0,0:0:0:0:
264,231,181562,1,0,0:0:0:0:
264,231,181662,5,0,0:0:0:0:
393,244,181862,1,0,2:0:0:0:
402,262,182062,1,0,2:0:0:0:
411,280,182262,1,0,2:0:0:0:
467,140,182462,5,0,3:0:0:0:
458,32,182662,1,0,0:0:0:0:
447,22,182862,1,0,0:0:0:0:
440,34,183062,1,0,0:0:0:0:
457,150,183262,5,0,3:0:0:0:
388,50,183462,1,0,0:0:0:0:
372,47,183662,1,0,0:0:0:0:
372,63,183862,1,0,0:0:0:0:
447,160,184062,5,0,3:0:0:0:
328,103,184262,1,0,0:0:0:0:
310,108,184462,1,0,0:0:0:0:
318,124,184662,1,0,0:0:0:0:
437,170,184862,5,0,3:0:0:0:
294,180,185062,1,0,0:0:0:0:
279,194,185262,1,0,0:0:0:0:
427,180,185462,1,0,3:0:0:0:
437,170,185662,5,0,3:0:0:0:
301,114,185862,1,0,0:0:0:0:
291,95,186062,1,0,0:0:0:0:
312,90,186262,1,0,0:0:0:0:
447,160,186462,5,0,3:0:0:0:
357,40,186662,1,0,0:0:0:0:
357,21,186862,1,0,0:0:0:0:
377,25,187062,1,0,0:0:0:0:
457,150,187262,5,0,3:0:0:0:
440,34,187462,1,0,0:0:0:0:
447,22,187662,1,0,0:0:0:0:
458,32,187862,1,0,0:0:0:0:
467,140,188062,5,0,3:0:0:0:
255,151,188262,1,0,0:0:0:0:
373,0,188462,1,0,0:0:0:0:
405,226,188662,1,0,0:0:0:0:
170,224,188862,5,0,3:0:0:0:
53,309,189062,1,0,0:0:0:0:
37,285,189262,1,0,0:0:0:0:
36,257,189462,1,0,0:0:0:0:
170,224,189662,5,0,3:0:0:0:
309,184,189862,1,0,0:0:0:0:
315,212,190062,1,0,0:0:0:0:
307,238,190262,1,0,0:0:0:0:
170,224,190462,5,0,3:0:0:0:
25,214,190662,1,0,0:0:0:0:
29,185,190862,1,0,0:0:0:0:
46,163,191062,1,0,0:0:0:0:
170,224,191262,5,0,3:0:0:0:
302,282,191462,1,0,0:0:0:0:
289,308,191662,1,0,0:0:0:0:
170,224,191862,1,0,3:0:0:0:
170,224,192062,5,0,3:0:0:0:
265,323,192262,1,0,0:0:0:0:
289,308,192462,1,0,0:0:0:0:
302,282,192662,2,0,L|251:262,1,35
170,224,192862,5,0,3:0:0:0:
46,163,193062,1,0,0:0:0:0:
29,185,193262,1,0,0:0:0:0:
26,214,193462,1,0,0:0:0:0:
170,224,193662,5,0,3:0:0:0:
307,238,193862,2,0,L|355:253,1,35
315,212,194062,1,0,0:0:0:0:
308,184,194262,1,0,0:0:0:0:
170,224,194462,5,0,3:0:0:0:
36,257,194662,1,0,0:0:0:0:
170,224,194862,1,0,3:0:0:0:
54,308,195062,1,0,0:0:0:0:
169,224,195262,5,0,3:0:0:0:
151,256,195462,1,0,0:0:0:0:
151,195,195662,1,0,0:0:0:0:
204,225,195862,1,0,0:0:0:0:
170,224,196062,5,0,3:0:0:0:
123,252,196262,1,0,0:0:0:0:
169,172,196462,1,0,0:0:0:0:
215,252,196662,1,0,0:0:0:0:
171,225,196862,5,0,3:0:0:0:
88,226,197062,1,0,0:0:0:0:
208,156,197262,1,0,0:0:0:0:
208,294,197462,1,0,0:0:0:0:
172,226,197662,5,0,3:0:0:0:
64,165,197862,1,0,0:0:0:0:
272,165,198062,1,0,0:0:0:0:
172,226,198262,1,0,3:0:0:0:
172,226,198462,5,0,3:0:0:0:
64,286,198662,1,0,0:0:0:0:
271,286,198862,1,0,0:0:0:0:
168,107,199062,1,0,0:0:0:0:
170,224,199262,5,0,3:0:0:0:
126,299,199462,1,0,0:0:0:0:
251,226,199662,1,0,0:0:0:0:
126,154,199862,1,0,0:0:0:0:
169,224,200062,5,0,3:0:0:0:
168,285,200262,1,0,0:0:0:0:
219,197,200462,1,0,0:0:0:0:
118,197,200662,1,0,0:0:0:0:
168,222,200862,5,0,3:0:0:0:
230,334,201062,1,0,0:0:0:0:
230,120,201262,1,0,0:0:0:0:
45,227,201462,1,0,0:0:0:0:
155,343,201662,5,0,3:0:0:0:
238,257,201862,1,0,0:0:0:0:
255,234,202062,1,0,0:0:0:0:
272,211,202262,1,0,0:0:0:0:
377,340,202462,5,0,3:0:0:0:
274,257,202662,1,0,0:0:0:0:
257,234,202862,1,0,0:0:0:0:
240,211,203062,1,0,0:0:0:0:
93,317,203262,5,0,3:0:0:0:
238,257,203462,1,0,0:0:0:0:
255,234,203662,1,0,0:0:0:0:
272,211,203862,1,0,0:0:0:0:
443,316,204062,5,0,3:0:0:0:
274,257,204262,1,0,0:0:0:0:
257,234,204462,1,0,0:0:0:0:
493,261,204662,1,0,3:0:0:0:
443,316,204862,5,0,3:0:0:0:
274,257,205062,1,0,0:0:0:0:
257,234,205262,1,0,0:0:0:0:
240,211,205462,1,0,0:0:0:0:
93,317,205662,5,0,3:0:0:0:
238,257,205862,1,0,0:0:0:0:
255,234,206062,1,0,0:0:0:0:
272,211,206262,2,0,L|298:174,1,35
377,340,206462,5,0,3:0:0:0:
274,257,206662,1,0,0:0:0:0:
257,234,206862,1,0,0:0:0:0:
240,211,207062,1,0,0:0:0:0:
155,343,207262,5,0,3:0:0:0:
238,257,207462,1,0,0:0:0:0:
228,355,207662,1,0,3:0:0:0:
272,211,207862,1,0,0:0:0:0:
300,350,208062,6,0,L|323:306,3,35
399,277,208462,2,0,L|376:233,3,35
346,153,208862,1,0,0:0:0:0:
319,130,208962,1,0,0:0:0:0:
291,109,209062,1,0,0:0:0:0:
257,99,209162,1,0,0:0:0:0:
222,95,209262,2,0,L|205:126,3,35
106,84,209662,6,0,L|122:115,3,35
51,176,210062,2,0,L|34:207,3,35
92,274,210462,1,0,0:0:0:0:
121,292,210562,1,0,0:0:0:0:
154,301,210662,1,0,0:0:0:0:
188,302,210762,1,0,0:0:0:0:
221,290,210862,2,0,L|230:257,3,35
212,170,211262,6,0,L|189:142,3,35
270,101,211662,2,0,L|282:69,3,35
361,52,212062,1,0,0:0:0:0:
394,62,212162,1,0,0:0:0:0:
418,86,212262,1,0,0:0:0:0:
434,116,212362,1,0,0:0:0:0:
439,150,212462,2,0,L|402:164,3,35
455,265,212862,6,0,L|432:237,3,35
368,339,213262,2,0,L|380:307,3,35
262,319,213662,1,0,0:0:0:0:
228,309,213762,1,0,0:0:0:0:
201,285,213862,1,0,0:0:0:0:
191,251,213962,1,0,0:0:0:0:
199,217,214062,2,0,L|235:213,3,35
196,97,214462,5,0,3:0:0:0:
256,192,214862,12,0,220062,0:0:0:0:
