osu file format v14

[General]
AudioFilename: audio.mp3
AudioLeadIn: 0
PreviewTime: -1
Countdown: 0
SampleSet: Soft
StackLeniency: 0.5
Mode: 0
LetterboxInBreaks: 0
WidescreenStoryboard: 0

[Editor]
DistanceSpacing: 1
BeatDivisor: 4
GridSize: 4
TimelineZoom: 1.9

[Metadata]
Title:Synthesized Angel
TitleUnicode:Synthesized Angel
Artist:Sakuzyo
ArtistUnicode:削除
Creator:Exow
Version:Creation
Source:
Tags:Sakuzyo Synthesized Angel Exow Mirrored
BeatmapID:1852957
BeatmapSetID:886376

[Difficulty]
HPDrainRate:6
CircleSize:4
OverallDifficulty:8.5
ApproachRate:9
SliderMultiplier:1.39999990463257
SliderTickRate:1

[Events]
//Background and Video events
0,0,"angel.jpg",0,0
//Break Periods
2,103912,116216
//Storyboard Layer 0 (Background)
//Storyboard Layer 1 (Fail)
//Storyboard Layer 2 (Pass)
//Storyboard Layer 3 (Foreground)
//Storyboard Sound Samples

[TimingPoints]
6416,400,4,2,0,100,1,0
6416,-66.6666666666667,4,2,0,33,0,0
11216,-50,4,2,0,100,0,0
12516,-74.0740740740741,4,2,0,100,0,0
12816,-50,4,2,0,33,0,0
19216,-250,4,2,0,100,0,0
23416,-50,4,2,0,100,0,0
24816,-250,4,2,0,100,0,0
32216,-100,4,2,0,100,0,0
45016,-133.333333333333,4,2,0,33,0,0
47416,-44.4444444444445,4,2,0,100,0,0
48216,-133.333333333333,4,2,0,33,0,0
50616,-44.4444444444445,4,2,0,100,0,0
51416,-133.333333333333,4,2,0,33,0,0
53816,-44.4444444444444,4,2,0,100,0,0
54616,-133.333333333333,4,2,0,33,0,0
57616,-100,4,2,0,100,0,0
57816,-100,4,2,0,50,0,0
60216,-44.4444444444444,4,2,0,100,0,0
60816,-133.333333333333,4,2,0,100,0,0
61016,-133.333333333333,4,2,0,50,0,0
63416,-44.4444444444444,4,2,0,100,0,0
64016,-133.333333333333,4,2,0,100,0,0
64216,-133.333333333333,4,2,0,50,0,0
66616,-44.4444444444444,4,2,0,100,0,0
67216,-133.333333333333,4,2,0,100,0,0
67416,-133.333333333333,4,2,0,50,0,0
68816,-100,4,2,0,75,0,1
70416,-100,4,2,0,75,0,0
71616,-25,4,2,0,100,0,0
72016,-100,4,2,0,33,0,0
72816,-33.3333333333333,4,2,0,100,0,0
73516,-100,4,2,0,33,0,0
74916,-50,4,2,0,100,0,0
75316,-100,4,2,0,33,0,0
76016,-50,4,2,0,100,0,0
76816,-100,4,2,0,33,0,0
79216,-50,4,2,0,100,0,0
80016,-100,4,2,0,33,0,0
80816,-50,4,2,0,100,0,0
81616,-100,4,2,0,33,0,0
84016,-50,4,2,0,100,0,0
84316,-100,4,2,0,100,0,0
84516,-100,4,2,0,33,0,0
116816,-100,4,2,0,33,0,0
129816,-133.333333333333,4,2,0,33,0,0
132216,-44.4444444444444,4,2,0,100,0,0
133016,-133.333333333333,4,2,0,33,0,0
135416,-44.4444444444444,4,2,0,100,0,0
136216,-133.333333333333,4,2,0,33,0,0
138616,-44.4444444444444,4,2,0,100,0,0
139416,-133.333333333333,4,2,0,33,0,0
142416,-100,4,2,0,100,0,0
142616,-133.333333333333,4,2,0,33,0,0
145016,-44.4444444444445,4,2,0,100,0,0
145616,-133.333333333333,4,2,0,100,0,0
145816,-133.333333333333,4,2,0,33,0,0
148216,-44.4444444444444,4,2,0,100,0,0
148816,-133.333333333333,4,2,0,100,0,0
149016,-133.333333333333,4,2,0,33,0,0
151416,-44.4444444444444,4,2,0,100,0,0
152016,-133.333333333333,4,2,0,100,0,0
152216,-133.333333333333,4,2,0,33,0,0
153616,-44.4444444444445,4,2,0,50,0,1
155216,-100,4,2,0,33,0,0
156816,-363.636363636364,4,2,0,33,0,0
158016,-44.4444444444445,4,2,0,5,0,0
158416,-44.4444444444445,4,2,0,33,0,0
159516,-44.4444444444445,4,2,0,5,0,0
160016,-357.142857142857,4,2,0,33,0,0
161216,-44.4444444444445,4,2,0,5,0,0
161616,-44.4444444444445,4,2,0,33,0,0
163216,-357.142857142857,4,2,0,5,0,0
163716,-44.4444444444444,4,2,0,5,0,0
166016,-133.333333333333,4,2,0,5,0,0
169216,-100,4,2,0,33,0,0
180716,-44.4444444444445,4,2,0,5,0,0
182416,-250,4,2,0,100,0,0
186616,-50,4,2,0,100,0,0
188216,-250,4,2,0,100,0,0
195416,-100,4,2,0,100,0,0
214416,-123.456790123457,5,2,0,5,0,0

[HitObjects]
256,192,1416,12,0,5616,0:0:0:0:
425,275,6416,6,0,L|290:284,1,104.999996852875,4|0,0:0|0:0,0:0:0:0:
392,175,6816,2,0,L|298:112,1,104.999996852875,4|0,0:0|0:0,0:0:0:0:
432,94,7216,2,0,L|381:-15,1,104.999996852875,4|0,0:0|0:0,0:0:0:0:
249,166,7616,1,2,0:0:0:0:
249,166,7716,1,0,0:0:0:0:
249,166,7816,1,0,0:0:0:0:
162,28,8016,6,0,L|279:96,1,104.999996852875,4|0,0:0|0:0,0:0:0:0:
147,60,8316,2,0,L|190:164,1,104.999996852875,4|0,0:0|0:0,0:0:0:0:
105,79,8616,2,0,L|86:198,1,104.999996852875,4|0,0:0|0:0,0:0:0:0:
221,157,9016,1,0,0:0:0:0:
348,205,9216,1,2,0:0:0:0:
348,205,9316,1,0,0:0:0:0:
348,205,9416,1,0,0:0:0:0:
166,198,9616,6,0,L|112:294,1,104.999996852875,4|0,0:0|0:0,0:0:0:0:
257,202,10016,2,0,L|306:95,1,104.999996852875,4|0,0:0|0:0,0:0:0:0:
382,218,10416,2,0,L|312:324,1,104.999996852875,4|0,0:0|0:0,0:0:0:0:
331,292,10816,1,2,0:0:0:0:
331,292,10916,1,0,0:0:0:0:
331,292,11016,1,0,0:0:0:0:
158,136,11216,5,4,0:0:0:0:
317,98,11416,2,0,P|266:184|289:203,1,139.999990463257,4|4,0:0|0:0,0:0:0:0:
268,324,11816,1,0,0:0:0:0:
142,159,12016,2,0,P|171:222|241:245,1,139.999990463257,2|2,0:0|0:0,0:0:0:0:
297,82,12416,1,2,0:0:0:0:
297,82,12516,2,0,P|232:131|223:185,1,139.999990463257,0|4,0:0|0:0,0:0:0:0:
310,152,13016,5,0,0:0:0:0:
310,117,13116,1,0,0:0:0:0:
298,84,13216,1,0,0:0:0:0:
274,59,13316,1,0,0:0:0:0:
242,45,13416,1,0,0:0:0:0:
207,45,13516,1,0,0:0:0:0:
175,58,13616,1,8,0:0:0:0:
194,196,13816,6,0,L|242:145,6,70,0|0|0|0|0|0|4,0:0|0:0|0:0|0:0|0:0|0:0|0:0,0:0:0:0:
300,287,14616,5,0,0:0:0:0:
330,303,14716,1,0,0:0:0:0:
365,306,14816,1,0,0:0:0:0:
398,297,14916,1,0,0:0:0:0:
426,275,15016,1,0,0:0:0:0:
443,245,15116,1,0,0:0:0:0:
448,210,15216,1,8,0:0:0:0:
315,163,15416,6,0,L|363:235,6,70,0|0|0|0|0|0|4,0:0|0:0|0:0|0:0|0:0|0:0|0:0,0:0:0:0:
196,87,16216,5,0,0:0:0:0:
162,82,16316,1,0,0:0:0:0:
128,90,16416,1,0,0:0:0:0:
100,110,16516,1,0,0:0:0:0:
82,140,16616,1,0,0:0:0:0:
77,175,16716,1,0,0:0:0:0:
87,208,16816,1,8,0:0:0:0:
226,218,17016,6,0,L|158:160,6,70,0|0|0|0|0|0|4,0:0|0:0|0:0|0:0|0:0|0:0|0:0,0:0:0:0:
312,107,17816,5,0,0:0:0:0:
314,141,17916,1,0,0:0:0:0:
327,174,18016,1,0,0:0:0:0:
349,200,18116,1,0,0:0:0:0:
379,219,18216,1,0,0:0:0:0:
413,227,18316,1,0,0:0:0:0:
448,225,18416,1,8,0:0:0:0:
283,280,18616,5,2,0:0:0:0:
170,197,18816,1,2,0:0:0:0:
279,132,19016,1,2,0:0:0:0:
381,176,19216,2,0,P|357:236|312:246,1,112,0|8,0:0|0:0,0:0:0:0:
186,116,20216,2,0,L|170:148,1,27.9999980926514,2|2,0:0|0:0,0:0:0:0:
191,257,20616,1,2,0:0:0:0:
290,208,20816,2,0,L|310:177,1,27.9999980926514
303,60,21216,1,0,0:0:0:0:
171,131,21416,2,0,L|160:168,1,27.9999980926514,0|8,0:0|0:0,0:0:0:0:
243,263,21816,5,2,0:0:0:0:
351,144,22016,1,2,0:0:0:0:
394,273,22216,1,2,0:0:0:0:
226,152,22416,2,0,P|286:173|298:218,1,112,0|8,0:0|0:0,0:0:0:0:
386,126,23416,1,2,0:0:0:0:
323,70,23616,2,0,P|254:68|196:110,1,139.999990463257,2|2,0:0|0:0,0:0:0:0:
153,197,24016,2,0,P|248:187|287:158,1,139.999990463257
358,246,24416,1,0,0:0:0:0:
360,160,24616,2,0,P|398:95|461:78,1,139.999990463257,0|8,0:0|0:0,0:0:0:0:
318,57,25016,5,2,0:0:0:0:
199,101,25216,1,2,0:0:0:0:
282,197,25416,1,2,0:0:0:0:
131,181,25616,1,0,0:0:0:0:
213,64,25816,5,0,0:0:0:0:
364,94,26016,1,0,0:0:0:0:
286,265,26216,1,0,0:0:0:0:
214,130,26416,1,0,0:0:0:0:
161,287,26616,5,2,0:0:0:0:
297,163,26816,1,2,0:0:0:0:
299,322,27016,1,2,0:0:0:0:
143,189,27216,2,0,P|188:143|233:151,1,112,0|8,0:0|0:0,0:0:0:0:
368,213,28216,5,2,0:3:0:0:
221,258,28416,1,2,0:3:0:0:
275,79,28616,1,2,0:3:0:0:
168,183,28816,2,0,P|104:193|73:160,1,112,0|8,0:3|0:3,0:3:0:0:
192,57,29816,5,2,0:0:0:0:
221,221,30016,1,2,0:0:0:0:
337,106,30216,1,2,0:0:0:0:
386,259,30416,2,0,P|353:301|299:298,1,112,0|8,0:0|0:0,0:0:0:0:
195,222,31416,5,0,0:0:0:0:
231,87,31616,1,0,0:0:0:0:
344,182,31816,1,0,0:0:0:0:
158,151,32016,1,0,0:0:0:0:
277,252,32216,2,0,P|184:288|173:323,1,139.999990463257
149,172,32816,5,0,0:0:0:0:
321,193,33016,1,0,0:0:0:0:
173,76,33216,1,0,0:0:0:0:
337,93,33416,1,0,0:0:0:0:
210,232,33616,1,4,0:0:0:0:
351,169,33816,2,0,P|303:111|234:101,1,139.999990463257,8|0,0:0|0:0,0:0:0:0:
129,131,34416,5,0,0:0:0:0:
223,231,34616,1,0,0:0:0:0:
229,74,34816,1,0,0:0:0:0:
111,231,35016,1,0,0:0:0:0:
302,185,35216,1,4,0:0:0:0:
180,85,35416,2,0,P|89:114|63:148,1,139.999990463257,8|0,0:0|0:0,0:0:0:0:
186,244,36016,5,0,0:0:0:0:
299,121,36216,1,0,0:0:0:0:
353,275,36416,1,0,0:0:0:0:
426,132,36616,1,0,0:0:0:0:
260,216,36816,1,4,0:0:0:0:
194,100,37016,2,0,P|140:155|73:157,1,139.999990463257,8|0,0:0|0:0,0:0:0:0:
221,253,37616,5,0,0:0:0:0:
299,139,37816,1,0,0:0:0:0:
130,133,38016,1,0,0:0:0:0:
242,28,38216,1,0,0:0:0:0:
163,190,38416,1,4,0:0:0:0:
311,210,38616,2,0,P|365:117|403:96,1,139.999990463257,8|0,0:0|0:0,0:0:0:0:
207,63,39216,5,0,0:0:0:0:
159,220,39416,1,0,0:0:0:0:
340,129,39616,1,0,0:0:0:0:
121,130,39816,1,0,0:0:0:0:
267,213,40016,1,4,0:0:0:0:
360,49,40216,2,0,P|302:99|231:90,1,139.999990463257,8|0,0:0|0:0,0:0:0:0:
133,102,40816,5,0,0:0:0:0:
125,263,41016,1,0,0:0:0:0:
248,172,41216,1,0,0:0:0:0:
73,171,41416,1,0,0:0:0:0:
216,258,41616,1,4,0:0:0:0:
269,48,41816,2,0,P|245:124|179:141,1,139.999990463257,8|0,0:0|0:0,0:0:0:0:
106,211,42416,5,0,0:0:0:0:
279,223,42616,1,0,0:0:0:0:
218,75,42816,1,0,0:0:0:0:
183,269,43016,1,0,0:0:0:0:
105,110,43216,1,4,0:0:0:0:
279,161,43416,2,0,P|336:232|405:249,1,139.999990463257,8|0,0:0|0:0,0:0:0:0:
288,291,44016,5,0,0:0:0:0:
171,253,44216,1,0,0:0:0:0:
171,130,44416,1,0,0:0:0:0:
288,92,44616,1,0,0:0:0:0:
360,192,44816,1,2,0:0:0:0:
250,105,45016,6,0,L|276:58,1,52.4999984264374
186,189,45416,6,0,L|131:159,1,52.4999984264374
142,33,45816,6,0,L|182:0,1,52.4999984264374
285,64,46216,6,0,L|312:109,1,52.4999984264374
194,147,46616,6,0,L|153:179,1,52.4999984264374
302,197,47016,6,0,L|348:234,1,52.4999984264374
232,318,47416,6,0,L|370:312,1,78.7499976396561
228,212,47616,2,0,L|149:210,1,78.7499976396561
60,310,47816,2,0,L|150:310,1,78.7499976396561
66,182,48016,1,0,0:0:0:0:
255,247,48216,6,0,L|201:264,1,52.4999984264374
235,168,48616,6,0,L|225:109,1,52.4999984264374
325,145,49016,6,0,L|389:130,1,52.4999984264374
346,224,49416,6,0,L|377:291,1,52.4999984264374
253,271,49816,6,0,L|191:297,1,52.4999984264374
227,178,50216,6,0,L|204:113,1,52.4999984264374
305,75,50616,6,0,L|352:223,1,78.7499976396561
134,135,50816,2,0,L|87:205,1,78.7499976396561
243,253,51016,2,0,L|284:324,1,78.7499976396561
145,342,51216,1,0,0:0:0:0:
151,240,51416,6,0,P|111:218|98:194,1,52.4999984264374
156,133,51816,6,0,P|151:88|163:63,1,52.4999984264374
246,76,52216,6,0,P|281:46|308:42,1,52.4999984264374
344,118,52616,6,0,P|389:129|408:149,1,52.4999984264374
367,222,53016,6,0,P|383:265|378:292,1,52.4999984264374
294,300,53416,6,0,P|269:338|244:349,1,52.4999984264374
137,235,53816,6,0,L|226:288,1,78.7499976396561
297,320,54016,2,0,L|312:230,1,78.7499976396561
318,98,54216,2,0,L|224:157,1,78.7499976396561
245,219,54416,1,0,0:0:0:0:
422,117,54616,6,0,P|411:141|391:159,1,52.4999984264374
411,285,55016,6,0,P|386:290|360:284,1,52.4999984264374
268,373,55416,6,0,P|250:355|240:330,1,52.4999984264374
114,306,55816,6,0,P|119:280|133:258,1,52.4999984264374
81,141,56216,6,0,P|104:130|130:129,1,52.4999984264374
196,20,56616,6,0,P|219:32|235:53,1,52.4999984264374
256,192,57016,12,0,57616,0:0:0:0:
168,257,57816,5,0,0:0:0:0:
224,117,58016,1,0,0:0:0:0:
75,168,58216,1,0,0:0:0:0:
247,220,58416,1,0,0:0:0:0:
159,83,58616,1,0,0:0:0:0:
113,269,58816,1,0,0:0:0:0:
230,136,59016,1,0,0:0:0:0:
40,211,59216,1,0,0:0:0:0:
225,279,59416,1,0,0:0:0:0:
144,101,59616,1,0,0:0:0:0:
98,307,59816,1,0,0:0:0:0:
203,135,60016,1,0,0:0:0:0:
274,294,60216,2,0,L|215:182,1,78.7499976396561
271,107,60416,2,0,L|315:184,1,78.7499976396561
430,205,60616,2,0,L|360:106,1,78.7499976396561
408,295,60816,1,0,0:0:0:0:
203,279,61016,5,0,0:0:0:0:
276,98,61216,1,0,0:0:0:0:
331,239,61416,1,0,0:0:0:0:
201,110,61616,1,0,0:0:0:0:
248,275,61816,1,0,0:0:0:0:
341,137,62016,1,0,0:0:0:0:
164,200,62216,1,0,0:0:0:0:
358,262,62416,1,0,0:0:0:0:
264,90,62616,1,0,0:0:0:0:
227,285,62816,1,0,0:0:0:0:
370,139,63016,1,0,0:0:0:0:
137,202,63216,1,0,0:0:0:0:
262,275,63416,2,0,L|321:163,1,78.7499976396561
254,97,63616,2,0,L|213:174,1,78.7499976396561
84,216,63816,2,0,L|117:144,1,78.7499976396561
148,316,64016,1,0,0:0:0:0:
176,193,64216,5,0,0:0:0:0:
224,36,64416,1,0,0:0:0:0:
286,185,64616,1,0,0:0:0:0:
318,66,64816,1,0,0:0:0:0:
154,115,65016,1,0,0:0:0:0:
333,140,65216,1,0,0:0:0:0:
195,213,65416,1,0,0:0:0:0:
145,69,65616,1,0,0:0:0:0:
298,198,65816,1,0,0:0:0:0:
230,32,66016,1,0,0:0:0:0:
135,170,66216,1,0,0:0:0:0:
297,67,66416,1,0,0:0:0:0:
329,135,66616,6,0,L|329:221,1,78.7499976396561
329,295,66816,2,0,L|226:295,1,78.7499976396561
160,295,67016,2,0,L|160:187,1,78.7499976396561
161,137,67216,1,0,0:0:0:0:
310,97,67416,1,0,0:0:0:0:
350,246,67616,1,0,0:0:0:0:
201,286,67816,1,0,0:0:0:0:
256,43,68016,5,0,0:0:0:0:
404,192,68216,1,0,0:0:0:0:
255,340,68416,1,0,0:0:0:0:
107,191,68616,1,0,0:0:0:0:
211,67,68816,5,0,0:0:0:0:
244,78,68916,1,0,0:0:0:0:
274,95,69016,1,0,0:0:0:0:
299,120,69116,1,0,0:0:0:0:
317,149,69216,1,0,0:0:0:0:
329,182,69316,1,0,0:0:0:0:
335,217,69416,1,0,0:0:0:0:
336,252,69516,1,0,0:0:0:0:
303,246,69616,1,0,0:0:0:0:
269,242,69716,1,0,0:0:0:0:
234,244,69816,1,0,0:0:0:0:
199,251,69916,1,0,0:0:0:0:
168,265,70016,1,0,0:0:0:0:
141,288,70116,1,0,0:0:0:0:
123,317,70216,1,0,0:0:0:0:
99,309,70316,1,0,0:0:0:0:
72,287,70416,5,0,0:0:0:0:
174,224,71616,2,0,B|260:191|260:191|241:198|241:198|260:191|260:191|241:198|241:198|260:191|260:191|241:198|241:198|260:191|260:191|241:198|241:198|286:182,1,262.499992132187
227,101,72016,2,0,B|299:109|299:109|311:165|311:165|388:149|388:149|384:214,1,244.9999833107
132,246,72816,2,0,B|182:177|182:177|233:181,1,104.999996852875
272,243,73016,6,0,B|251:285|251:285|183:298,1,104.999996852875
329,112,73516,2,0,B|275:62|275:62|263:32|263:32|231:15|172:32|172:32|164:91,1,244.9999833107
92,195,74416,2,0,B|139:234|139:234|214:177,1,139.999990463257
365,196,74916,2,0,L|319:252,1,69.9999952316285
204,297,75116,2,0,L|261:341,1,69.9999952316285
246,215,75316,6,0,B|226:99|272:64|272:64|169:79,1,244.9999833107
108,197,76116,2,0,L|171:241,1,69.9999952316285
271,224,76316,1,0,0:0:0:0:
116,157,76816,6,0,B|189:144|189:144|200:92|231:140|231:140|296:152,1,209.999985694886
264,210,77616,2,0,P|340:220|365:166,1,139.999990463257
158,278,78416,2,0,B|146:220|146:220|118:208|118:208|141:184|141:184|126:91|126:91|181:115,1,244.9999833107
264,153,79216,2,0,B|307:173|307:173|316:216,1,69.9999952316285
243,277,79416,2,0,B|206:222|206:222|186:221,1,69.9999952316285
227,114,80016,6,0,B|120:100|120:100|170:201|213:187,1,244.9999833107
365,218,80816,2,0,L|326:283,1,69.9999952316285
72,154,81216,2,0,L|146:47,1,69.9999952316285
138,271,81616,6,0,B|207:273|207:273|179:217|179:217|264:183|264:183|288:229,1,244.9999833107
102,61,82416,2,0,B|146:113|146:113|202:74|202:74|231:182,1,244.9999833107
333,180,83216,2,0,B|287:187|287:187|223:270|223:270|184:196|184:196|141:200,1,244.9999833107
352,103,84016,2,0,L|308:46,1,69.9999952316285
181,33,84216,2,0,L|232:92,1,69.9999952316285
194,206,84516,6,0,B|136:249,1,69.9999952316285
77,235,84816,2,0,B|65:94|65:94|137:85|137:85|143:142,1,244.9999833107
145,180,85616,2,0,B|263:159|263:159|236:238|236:238|289:222,1,244.9999833107
332,188,86416,1,0,0:0:0:0:
356,135,86616,1,0,0:0:0:0:
332,91,86816,1,0,0:0:0:0:
277,83,87016,1,0,0:0:0:0:
212,101,87216,6,0,B|143:164|143:164|164:174|168:182|168:182|167:242|167:242|217:193,1,244.9999833107
283,180,88016,2,0,B|303:259|303:259|349:212|349:212|363:313,1,244.9999833107
305,329,88816,1,0,0:0:0:0:
242,305,89016,1,0,0:0:0:0:
183,281,89216,1,0,0:0:0:0:
130,247,89416,1,0,0:0:0:0:
80,206,89616,6,0,B|46:130|46:130|145:156|153:144|153:144|177:197,1,244.9999833107
249,214,90416,2,0,B|280:149|276:136|276:136|319:91|319:91|218:82|211:94|211:94,1,244.9999833107
167,132,91216,2,0,B|92:193|92:193|133:203|128:216|128:216|198:207|198:207|211:262,1,244.9999833107
294,258,92016,1,0,0:0:0:0:
348,210,92216,1,0,0:0:0:0:
356,141,92416,1,0,0:0:0:0:
312,80,92616,1,0,0:0:0:0:
243,111,92816,6,0,B|190:172|190:172|173:148|173:148|172:83|172:83|121:93|121:93|84:91,1,244.9999833107
76,157,93616,2,0,B|68:219|68:219|100:218|109:227|109:227|79:304|91:309|91:309|38:339,1,244.9999833107
123,340,94416,2,0,B|186:286|175:283|175:283|240:265|205:363|205:363|269:324,1,244.9999833107
281,309,95216,1,0,0:0:0:0:
317,278,95416,1,0,0:0:0:0:
357,240,95616,1,0,0:0:0:0:
391,207,95816,1,0,0:0:0:0:
416,174,96016,6,0,B|415:102|338:79|338:79|262:136|262:136|256:97,1,244.9999833107
191,91,96816,2,0,B|91:137|91:137|118:173|174:172|174:182|174:182|156:233,1,244.9999833107
256,192,97616,12,0,103712,0:0:0:0:
256,192,116816,5,0,0:0:0:0:
256,190,117616,1,0,0:0:0:0:
116,192,118216,1,0,0:0:0:0:
396,192,118416,1,0,0:0:0:0:
256,84,118816,1,0,0:0:0:0:
256,284,119216,1,0,0:0:0:0:
256,192,120016,5,0,0:0:0:0:
256,192,120816,1,0,0:0:0:0:
256,64,121416,1,0,0:0:0:0:
256,312,121616,1,0,0:0:0:0:
152,192,122016,1,0,0:0:0:0:
360,192,122416,1,0,0:0:0:0:
256,192,123216,5,0,0:0:0:0:
256,192,124016,1,0,0:0:0:0:
376,80,124616,1,0,0:0:0:0:
136,304,124816,1,0,0:0:0:0:
188,128,125216,1,0,0:0:0:0:
324,256,125616,1,0,0:0:0:0:
256,192,126416,5,0,0:0:0:0:
256,192,127216,1,0,0:0:0:0:
136,80,127816,1,0,0:0:0:0:
376,304,128016,1,0,0:0:0:0:
324,128,128416,1,0,0:0:0:0:
188,256,128816,1,0,0:0:0:0:
360,192,129616,5,2,0:0:0:0:
262,105,129816,2,0,L|236:58,1,52.4999984264374
326,189,130216,2,0,L|381:159,1,52.4999984264374
370,33,130616,2,0,L|330:0,1,52.4999984264374
227,64,131016,2,0,L|200:109,1,52.4999984264374
318,147,131416,2,0,L|359:179,1,52.4999984264374
210,197,131816,2,0,L|164:234,1,52.4999984264374
232,318,132216,6,0,L|370:312,1,78.7499976396561
228,212,132416,2,0,L|149:210,1,78.7499976396561
60,310,132616,2,0,L|150:310,1,78.7499976396561
66,182,132816,1,0,0:0:0:0:
302,128,133016,6,0,L|285:178,1,52.4999984264374
307,291,133416,2,0,L|259:271,1,52.4999984264374
143,271,133816,2,0,L|166:224,1,52.4999984264374
135,133,134217,2,0,L|187:145,1,52.4999984264374
285,116,134616,2,0,L|277:168,1,52.4999984264374
307,262,135016,2,0,L|257:247,1,52.4999984264374
207,75,135416,6,0,L|160:223,1,78.7499976396561
378,135,135616,2,0,L|425:205,1,78.7499976396561
269,253,135816,2,0,L|228:324,1,78.7499976396561
367,342,136016,1,0,0:0:0:0:
90,117,136216,6,0,P|100:140|120:158,1,52.4999984264374
101,285,136617,2,0,P|126:289|151:284,1,52.4999984264374
244,372,137016,2,0,P|262:354|271:330,1,52.4999984264374
397,305,137415,2,0,P|393:280|379:258,1,52.4999984264374
431,141,137817,2,0,P|407:129|381:129,1,52.4999984264374
315,20,138215,2,0,P|292:32|277:52,1,52.4999984264374
375,149,138616,6,0,L|307:108,1,78.7499976396561
215,64,138816,2,0,L|202:141,1,78.7499976396561
194,286,139016,2,0,L|260:244,1,78.7499976396561
267,165,139216,1,0,0:0:0:0:
360,240,139416,6,0,P|385:231|404:213,1,52.4999984264374
355,133,139817,2,0,P|362:107|359:81,1,52.4999984264374
266,76,140216,2,0,P|249:56|225:44,1,52.4999984264374
168,118,140617,2,0,P|141:120|118:132,1,52.4999984264374
145,221,141017,2,0,P|132:244|129:270,1,52.4999984264374
217,299,141416,2,0,P|228:323|248:341,1,52.4999984264374
256,192,141816,12,0,142416,0:0:0:0:
211,248,142616,5,0,0:0:0:0:
293,59,142816,1,0,0:0:0:0:
87,131,143016,1,0,0:0:0:0:
319,212,143216,1,0,0:0:0:0:
195,42,143416,1,0,0:0:0:0:
123,259,143616,1,0,0:0:0:0:
322,110,143816,1,0,0:0:0:0:
95,188,144016,1,0,0:0:0:0:
319,281,144216,1,0,0:0:0:0:
135,79,144416,1,0,0:0:0:0:
161,313,144616,1,0,0:0:0:0:
258,95,144816,1,0,0:0:0:0:
274,294,145016,6,0,L|215:182,1,78.7499976396561
88,144,145216,2,0,L|132:221,1,78.7499976396561
293,134,145416,2,0,L|223:35,1,78.7499976396561
145,41,145616,1,0,0:0:0:0:
203,279,145816,5,0,0:0:0:0:
296,58,146016,1,0,0:0:0:0:
366,271,146216,1,0,0:0:0:0:
148,94,146416,1,0,0:0:0:0:
284,308,146616,1,0,0:0:0:0:
395,86,146816,1,0,0:0:0:0:
113,229,147016,1,0,0:0:0:0:
396,239,147216,1,0,0:0:0:0:
234,38,147416,1,0,0:0:0:0:
216,318,147616,1,0,0:0:0:0:
358,116,147816,1,0,0:0:0:0:
90,149,148016,1,0,0:0:0:0:
262,109,148216,6,0,L|321:221,1,78.7499976396561
254,287,148416,2,0,L|213:210,1,78.7499976396561
84,168,148616,2,0,L|117:240,1,78.7499976396561
148,68,148816,1,0,0:0:0:0:
172,250,149016,5,0,0:0:0:0:
224,36,149216,1,0,0:0:0:0:
335,243,149416,1,0,0:0:0:0:
354,55,149616,1,0,0:0:0:0:
84,168,149816,1,0,0:0:0:0:
346,137,150016,1,0,0:0:0:0:
156,289,150216,1,0,0:0:0:0:
145,69,150416,1,0,0:0:0:0:
357,237,150616,1,0,0:0:0:0:
230,32,150816,1,0,0:0:0:0:
86,239,151016,1,0,0:0:0:0:
324,112,151216,1,0,0:0:0:0:
183,135,151416,6,0,L|183:221,1,78.7499976396561
183,295,151616,2,0,L|286:295,1,78.7499976396561
352,295,151816,2,0,L|352:187,1,78.7499976396561
351,137,152016,1,0,0:0:0:0:
207,264,152216,5,0,0:0:0:0:
151,116,152416,1,0,0:0:0:0:
306,141,152616,1,0,0:0:0:0:
95,208,152816,1,0,0:0:0:0:
265,43,153016,1,0,0:0:0:0:
321,272,153216,1,0,0:0:0:0:
112,64,153416,1,0,0:3:0:0:
409,88,153616,5,0,0:0:0:0:
331,100,153716,1,0,0:0:0:0:
253,113,153816,1,0,0:0:0:0:
175,126,153916,1,0,0:0:0:0:
98,139,154016,1,0,0:0:0:0:
20,152,154116,1,0,0:0:0:0:
72,168,154216,1,0,0:0:0:0:
149,185,154316,1,0,0:0:0:0:
226,202,154416,1,0,0:0:0:0:
303,219,154516,1,0,0:0:0:0:
363,236,154616,1,0,0:0:0:0:
289,261,154716,1,0,0:0:0:0:
214,286,154816,1,0,0:0:0:0:
139,311,154916,1,0,0:0:0:0:
63,328,155016,1,0,0:0:0:0:
85,252,155116,5,0,0:0:0:0:
113,173,155216,2,0,B|290:173|290:173|271:173|271:173|290:173|290:173|271:173|271:173|290:173|290:173|271:173|271:173|290:173|290:173|271:173|271:173|290:173|290:173|271:173|271:173|290:173|290:173|271:173|271:173|300:173,1,384.999973773957
171,182,156816,2,0,P|194:123|239:116,1,104.999992847443
274,175,158016,2,0,L|346:222,1,78.7499976396561
239,264,158416,6,0,L|183:323,1,78.7499976396561
180,201,158616,2,0,L|103:266,1,78.7499976396561
63,160,158816,1,0,0:0:0:0:
142,111,158916,2,0,P|229:92|297:127,1,157.499995279312
371,152,159216,1,0,0:0:0:0:
371,152,159316,1,0,0:0:0:0:
371,152,159416,1,0,0:0:0:0:
246,160,159516,6,0,P|260:203|305:220,1,78.7499976396561
196,292,160016,2,0,P|148:273|137:224,1,104.999992847443
164,136,161216,2,0,L|236:76,1,78.7499976396561
328,196,161616,2,0,L|276:256,1,78.7499976396561
176,232,161816,2,0,L|240:160,1,78.7499976396561
312,76,162016,1,0,0:0:0:0:
188,68,162116,2,0,L|96:84,1,78.7499976396561
72,172,162316,1,0,0:0:0:0:
88,247,162416,1,0,0:0:0:0:
142,303,162516,1,0,0:0:0:0:
218,322,162616,1,0,0:0:0:0:
292,298,162716,1,0,0:0:0:0:
344,228,162816,2,0,L|260:192,1,78.7499976396561
192,164,163216,6,0,L|212:128,1,39.1999978082276
340,136,163716,1,0,0:0:0:0:
340,136,163816,1,0,0:0:0:0:
340,136,163916,1,0,0:0:0:0:
360,224,164016,2,0,L|272:256,1,78.7499976396561
160,212,164216,2,0,L|248:184,1,78.7499976396561
256,192,164816,1,0,0:0:0:0:
64,88,165116,1,0,0:0:0:0:
408,92,165416,1,0,0:0:0:0:
144,168,165716,1,0,0:0:0:0:
144,168,165816,1,0,0:0:0:0:
144,168,165916,1,0,0:0:0:0:
160,260,166016,2,0,L|244:228,1,78.7499976396561
296,128,166416,6,0,L|368:96,1,78.7499976396561
96,144,167216,1,0,0:0:0:0:
336,268,167616,1,0,0:0:0:0:
344,92,168016,2,0,L|280:152,1,78.7499976396561
148,228,168516,1,0,0:0:0:0:
148,228,168616,1,0,0:0:0:0:
256,272,168716,1,0,0:0:0:0:
256,272,168816,1,0,0:0:0:0:
303,157,169216,6,0,B|360:116,1,69.9999952316285
184,208,169516,2,0,B|128:112|128:112|196:128|196:128|260:72,1,244.9999833107
400,228,170316,2,0,B|312:228|312:228|300:232|320:296|312:304|312:304|236:268,1,244.9999833107
136,184,171116,5,0,0:0:0:0:
276,28,171316,1,0,0:0:0:0:
320,236,171516,1,0,0:0:0:0:
164,48,171716,1,0,0:0:0:0:
104,200,171916,6,0,B|84:240|88:252|88:252|40:288|40:288|80:320|112:312|112:312|148:348,1,244.9999833107
312,272,172716,2,0,B|268:224|272:212|272:212|208:204|208:204|240:160|168:128|168:128|168:160,1,244.9999833107
96,72,173516,5,0,0:0:0:0:
352,108,173716,1,0,0:0:0:0:
204,256,173916,1,0,0:0:0:0:
192,48,174116,1,0,0:0:0:0:
280,192,174316,6,0,B|316:232|316:232|276:86|276:86|224:96,1,244.9999833107
120,192,175116,2,0,B|67:217|67:217|110:265|111:290|111:290|209:208,1,244.9999833107,0|0,0:3|0:3,0:3:0:0:
216,100,175916,2,0,B|252:44|252:44|260:44|300:148|312:152|312:152|280:224,1,244.9999833107
212,280,176716,5,0,0:0:0:0:
104,112,176916,1,0,0:0:0:0:
304,60,177116,1,0,0:0:0:0:
304,260,177316,1,0,0:0:0:0:
112,240,177516,6,0,B|144:148|132:148|132:148|224:204|224:204|276:152,1,244.9999833107
372,164,178316,2,0,B|356:264|356:264|368:260|280:248|280:248|316:168,1,244.9999833107
272,88,179116,2,0,B|152:108|152:108|164:92|228:184|228:184|196:204,1,244.9999833107
144,228,179916,5,0,0:0:0:0:
312,312,180116,1,0,0:0:0:0:
308,152,180316,1,0,0:0:0:0:
144,284,180516,1,0,0:0:0:0:
136,160,180716,6,0,L|268:28,1,157.499995279312
247,48,181116,1,0,0:0:0:0:
352,72,181316,1,0,0:0:0:0:
352,72,181416,1,0,0:0:0:0:
328,184,181516,1,0,0:0:0:0:
328,184,181616,1,0,0:0:0:0:
432,169,182416,6,0,P|424:240|388:268,1,111.999992370606,0|8,0:0|0:0,0:0:0:0:
157,84,183416,6,0,L|148:120,1,27.9999980926514,2|2,0:0|0:0,0:0:0:0:
164,283,183816,1,2,0:0:0:0:
303,214,184016,2,0,L|324:184,1,27.9999980926514
322,6,184416,1,0,0:0:0:0:
136,106,184616,2,0,L|124:144,1,27.9999980926514,0|8,0:0|0:0,0:0:0:0:
237,292,185016,5,2,0:0:0:0:
389,124,185216,1,2,0:0:0:0:
450,306,185416,1,2,0:0:0:0:
213,135,185616,2,0,P|280:144|300:188,1,111.999992370606,0|8,0:0|0:0,0:0:0:0:
439,99,186616,1,2,0:0:0:0:
323,70,186816,2,0,P|254:68|196:110,1,139.999990463257,2|2,0:0|0:0,0:0:0:0:
136,280,187216,2,0,P|231:270|270:241,1,139.999990463257
420,176,187616,1,0,0:0:0:0:
168,168,187816,2,0,P|206:103|269:86,1,139.999990463257,0|8,0:0|0:0,0:0:0:0:
335,19,188216,5,2,0:0:0:0:
183,75,188416,1,2,0:0:0:0:
289,198,188616,1,2,0:0:0:0:
96,177,188816,1,0,0:0:0:0:
201,28,189016,5,0,0:0:0:0:
394,66,189216,1,0,0:0:0:0:
294,285,189416,1,0,0:0:0:0:
202,112,189616,1,0,0:0:0:0:
134,313,189816,5,2,0:0:0:0:
308,154,190016,1,2,0:0:0:0:
310,358,190216,1,2,0:0:0:0:
143,189,190416,2,0,P|188:143|233:151,1,112,0|8,0:0|0:0,0:0:0:0:
420,212,191416,5,2,0:3:0:0:
208,272,191616,1,2,0:3:0:0:
284,56,191816,1,2,0:3:0:0:
168,183,192016,2,0,P|104:193|73:160,1,112,0|8,0:3|0:3,0:3:0:0:
228,40,193016,5,2,0:0:0:0:
240,240,193216,1,2,0:0:0:0:
364,84,193416,1,2,0:0:0:0:
420,272,193616,2,0,P|387:314|333:311,1,112,0|8,0:0|0:0,0:0:0:0:
164,220,194616,5,0,0:0:0:0:
264,48,194816,1,0,0:0:0:0:
380,220,195016,1,0,0:0:0:0:
156,108,195216,1,0,0:0:0:0:
277,252,195416,2,0,P|184:288|173:323,1,139.999990463257
128,156,196016,5,0,0:0:0:0:
372,200,196216,1,0,0:0:0:0:
176,36,196416,1,0,0:0:0:0:
356,76,196616,1,0,0:0:0:0:
200,232,196816,1,4,0:0:0:0:
368,152,197016,2,0,P|320:94|251:84,1,139.999990463257,8|0,0:0|0:0,0:0:0:0:
112,104,197616,5,0,0:0:0:0:
260,256,197816,1,0,0:0:0:0:
272,88,198016,1,0,0:0:0:0:
104,256,198216,1,0,0:0:0:0:
320,192,198416,1,4,0:0:0:0:
180,85,198616,2,0,P|89:114|63:148,1,139.999990463257,8|0,0:0|0:0,0:0:0:0:
216,272,199216,5,0,0:0:0:0:
288,92,199416,1,0,0:0:0:0:
360,312,199616,1,0,0:0:0:0:
408,136,199816,1,0,0:0:0:0:
208,256,200016,1,4,0:0:0:0:
194,100,200216,2,0,P|140:155|73:157,1,139.999990463257,8|0,0:0|0:0,0:0:0:0:
264,288,200816,5,0,0:0:0:0:
328,108,201016,1,0,0:0:0:0:
120,216,201216,1,0,0:0:0:0:
208,12,201416,1,0,0:0:0:0:
196,208,201616,1,4,0:0:0:0:
372,208,201816,2,0,P|426:115|464:94,1,139.999990463257,8|0,0:0|0:0,0:0:0:0:
272,64,202416,5,0,0:0:0:0:
159,220,202616,1,0,0:0:0:0:
340,129,202816,1,0,0:0:0:0:
116,108,203016,1,0,0:0:0:0:
280,232,203216,1,4,0:0:0:0:
360,28,203416,2,0,P|302:78|231:69,1,139.999990463257,8|0,0:0|0:0,0:0:0:0:
68,164,204016,5,0,0:0:0:0:
200,308,204216,1,0,0:0:0:0:
280,108,204416,1,0,0:0:0:0:
73,171,204616,1,0,0:0:0:0:
220,308,204816,1,4,0:0:0:0:
269,48,205016,2,0,P|245:124|179:141,1,139.999990463257,8|0,0:0|0:0,0:0:0:0:
80,256,205616,5,0,0:0:0:0:
279,223,205816,1,0,0:0:0:0:
180,64,206016,1,0,0:0:0:0:
192,300,206216,1,0,0:0:0:0:
84,124,206416,1,4,0:0:0:0:
288,136,206616,2,0,P|345:207|414:224,1,139.999990463257,8|0,0:0|0:0,0:0:0:0:
268,316,207216,5,0,0:0:0:0:
101,261,207416,1,0,0:0:0:0:
101,86,207616,1,0,0:0:0:0:
268,32,207816,1,0,0:0:0:0:
370,174,208016,1,2,0:0:0:0:
256,192,208216,12,0,214016,0:0:0:0:
345,230,214416,6,0,B|303:252|307:296|336:341|417:346|463:301|466:227|448:173|371:111|259:104|189:100|108:37|108:37|181:104|225:123|225:123|158:158|57:121|57:121|155:169|201:198|201:198|149:234|77:228|77:228|153:241|208:256|208:256|176:292|105:326|105:326|173:333|230:302,1,1603.70003915283,0|4,0:0|0:0,0:0:0:0:
