osu file format v14

[General]
AudioFilename: audio.mp3
AudioLeadIn: 0
PreviewTime: -1
Countdown: 0
SampleSet: Soft
StackLeniency: 0.2
Mode: 0
LetterboxInBreaks: 0
WidescreenStoryboard: 0

[Editor]
Bookmarks: 821,5482,10142,19462,38103,56744,75385,84705,94025,103346,112666,132472,141792,160433,176744,179074,188394,197715
DistanceSpacing: 1
BeatDivisor: 4
GridSize: 4
TimelineZoom: 1.2

[Metadata]
Title:Stoicism
TitleUnicode:Stoicism
Artist:Sakuzyo
ArtistUnicode:削除
Creator:dsco
Version:Jazz!
Source:
Tags:jazz fusion last dance diverse system
BeatmapID:1491800
BeatmapSetID:705318

[Difficulty]
HPDrainRate:5
CircleSize:5
OverallDifficulty:8.5
ApproachRate:9
SliderMultiplier:1.4
SliderTickRate:1

[Events]
//Background and Video events
0,0,"fgdh.jpg",0,0
//Break Periods
2,132672,140755
//Storyboard Layer 0 (Background)
//Storyboard Layer 1 (Fail)
//Storyboard Layer 2 (Pass)
//Storyboard Layer 3 (Foreground)
//Storyboard Sound Samples

[TimingPoints]
821.95145631068,291.26213592233,4,2,0,40,1,0
20045,-90.9090909090909,4,2,0,40,0,0
20627,-100,4,2,0,40,0,0
22375,-90.9090909090909,4,2,0,40,0,0
22957,-100,4,2,0,40,0,0
24705,-90.9090909090909,4,2,0,40,0,0
25287,-100,4,2,0,40,0,0
27035,-90.9090909090909,4,2,0,40,0,0
27618,-100,4,2,0,40,0,0
29365,-90.9090909090909,4,2,0,40,0,0
29948,-100,4,2,0,40,0,0
31695,-90.9090909090909,4,2,0,40,0,0
32278,-100,4,2,0,40,0,0
34025,-90.9090909090909,4,2,0,40,0,0
34608,-100,4,2,0,40,0,0
36355,-90.9090909090909,4,2,0,40,0,0
36938,-100,4,2,0,40,0,0
38103,-133.333333333333,4,2,0,40,0,0
38321,-133.333333333333,4,2,0,15,0,0
38394,-133.333333333333,4,2,0,40,0,0
40506,-133.333333333333,4,2,0,15,0,0
40579,-133.333333333333,4,2,0,40,0,0
42836,-133.333333333333,4,2,0,15,0,0
42909,-133.333333333333,4,2,0,40,0,0
45166,-133.333333333333,4,2,0,15,0,0
45239,-133.333333333333,4,2,0,40,0,0
46331,-133.333333333333,4,2,0,15,0,0
46404,-133.333333333333,4,2,0,40,0,0
47642,-133.333333333333,4,2,0,15,0,0
47715,-133.333333333333,4,2,0,40,0,0
49826,-133.333333333333,4,2,0,15,0,0
49899,-133.333333333333,4,2,0,40,0,0
52156,-133.333333333333,4,2,0,15,0,0
52229,-133.333333333333,4,2,0,40,0,0
54486,-133.333333333333,4,2,0,15,0,0
54559,-133.333333333333,4,2,0,40,0,0
55652,-133.333333333333,4,2,0,15,0,0
55724,-133.333333333333,4,2,0,40,0,0
56744,-80,4,2,0,40,0,0
56889,-1000,4,2,0,40,0,0
58054,-80,4,2,0,40,0,0
58346,-50,4,2,0,40,0,0
58783,-80,4,2,0,40,0,0
59656,-90.9090909090909,4,2,0,40,0,0
59948,-80,4,2,0,40,0,0
61550,-1000,4,2,0,40,0,0
62715,-80,4,2,0,40,0,0
66210,-1000,4,2,0,40,0,0
67375,-80,4,2,0,40,0,0
67666,-50,4,2,0,40,0,0
68103,-80,4,2,0,40,0,0
68977,-90.9090909090909,4,2,0,40,0,0
69268,-80,4,2,0,40,0,0
73491,-100,4,2,0,40,0,0
73783,-133.333333333333,4,2,0,40,0,0
74074,-200,4,2,0,40,0,0
75385,-100,4,2,0,40,0,0
75967,-90.9090909090909,4,2,0,40,0,0
76550,-100,4,2,0,40,0,0
78297,-90.9090909090909,4,2,0,40,0,0
78880,-100,4,2,0,40,0,0
80627,-90.9090909090909,4,2,0,40,0,0
81210,-100,4,2,0,40,0,0
82957,-90.9090909090909,4,2,0,40,0,0
83540,-100,4,2,0,40,0,0
87035,-111.111111111111,4,2,0,40,0,0
87472,-125,4,2,0,40,0,0
88054,-129.87012987013,4,2,0,40,0,0
89365,-100,4,2,0,40,0,0
91695,-111.111111111111,4,2,0,40,0,0
92132,-125,4,2,0,40,0,0
92715,-200,4,2,0,40,0,0
94025,-133.333333333333,4,2,0,40,0,0
103783,-160,4,2,0,40,0,0
104365,-200,4,2,0,40,0,0
105676,-133.333333333333,4,2,0,40,0,0
106113,-160,4,2,0,40,0,0
106841,-133.333333333333,4,2,0,40,0,0
107278,-160,4,2,0,40,0,0
107569,-133.333333333333,4,2,0,40,0,0
108443,-160,4,2,0,40,0,0
109025,-200,4,2,0,40,0,0
109608,-250,4,2,0,40,0,0
110336,-166.666666666667,4,2,0,40,0,0
113831,-200,4,2,0,40,0,0
114996,-133.333333333333,4,2,0,40,0,0
130142,-200,4,2,0,40,0,0
141938,-1000,4,2,0,40,0,0
142957,-80,4,2,0,40,0,0
143394,-50,4,2,0,40,0,0
144122,-80,4,2,0,40,0,0
144705,-90.9090909090909,4,2,0,40,0,0
145287,-80,4,2,0,40,0,0
146598,-1000,4,2,0,40,0,0
147618,-80,4,2,0,40,0,0
151258,-1000,4,2,0,40,0,0
152423,-80,4,2,0,40,0,0
152715,-50,4,2,0,40,0,0
153152,-80,4,2,0,40,0,0
153880,-90.9090909090909,4,2,0,40,0,0
154317,-80,4,2,0,40,0,0
158540,-100,4,2,0,40,0,0
158831,-133.333333333333,4,2,0,40,0,0
159122,-200,4,2,0,40,0,0
160433,-80,4,2,0,40,0,0
161016,-100,4,2,0,40,0,0
161598,-80,4,2,0,40,0,0
165676,-133.333333333333,4,2,0,40,0,0
166113,-80,4,2,0,40,0,0
170336,-100,4,2,0,40,0,0
171064,-80,4,2,0,40,0,0
174851,-80,4,2,0,40,0,0
177181,-100,4,2,0,40,0,0
177472,-133.333333333333,4,2,0,40,0,0
177763,-200,4,2,0,40,0,0
179074,-100,4,2,0,40,0,0
179656,-90.9090909090909,4,2,0,40,0,0
180239,-100,4,2,0,40,0,0
181986,-90.9090909090909,4,2,0,40,0,0
182569,-100,4,2,0,40,0,0
184317,-90.9090909090909,4,2,0,40,0,0
184899,-100,4,2,0,40,0,0
186647,-90.9090909090909,4,2,0,40,0,0
187229,-100,4,2,0,40,0,0
190724,-111.111111111111,4,2,0,40,0,0
191016,-125,4,2,0,40,0,0
191744,-128.584287000129,4,2,0,40,0,0
193054,-100,4,2,0,40,0,0
195385,-111.111111111111,4,2,0,40,0,0
195821,-125,4,2,0,40,0,0
196404,-200,4,2,0,40,0,0

[Colours]
Combo1 : 238,230,181
Combo2 : 248,218,243
Combo3 : 187,220,236
Combo4 : 242,143,130

[HitObjects]
40,114,5482,5,0,0:0:0:0:
31,44,5627,1,0,0:0:0:0:
101,35,5773,1,0,0:0:0:0:
110,105,5919,1,0,0:0:0:0:
110,105,6210,5,0,0:0:0:0:
161,152,6355,1,0,0:0:0:0:
230,155,6501,1,0,0:0:0:0:
285,113,6647,5,0,0:0:0:0:
340,71,6792,1,0,0:0:0:0:
409,74,6938,1,0,0:0:0:0:
460,121,7083,1,0,0:0:0:0:
460,121,7375,5,0,0:0:0:0:
468,189,7520,1,0,0:0:0:0:
430,246,7666,1,0,0:0:0:0:
362,254,7812,5,0,0:0:0:0:
430,246,7958,1,0,0:0:0:0:
438,314,8104,1,0,0:0:0:0:
370,323,8249,1,0,0:0:0:0:
362,254,8394,5,0,0:0:0:0:
294,263,8540,1,0,0:0:0:0:
286,194,8686,1,0,0:0:0:0:
354,185,8831,1,0,0:0:0:0:
354,185,9122,5,0,0:0:0:0:
401,135,9268,1,0,0:0:0:0:
404,66,9414,1,0,0:0:0:0:
351,254,9559,5,0,0:0:0:0:
351,254,9851,1,0,0:0:0:0:
351,254,10142,5,0,0:0:0:0:
279,320,10287,1,0,0:0:0:0:
348,323,10433,1,0,0:0:0:0:
282,251,10579,1,0,0:0:0:0:
210,317,10724,5,0,0:0:0:0:
155,359,10870,1,0,0:0:0:0:
85,355,11016,1,0,0:0:0:0:
34,307,11161,1,0,0:0:0:0:
64,179,11307,5,0,0:0:0:0:
25,237,11453,1,0,0:0:0:0:
132,160,11598,1,0,0:0:0:0:
64,179,11744,1,0,0:0:0:0:
197,190,11889,5,0,0:0:0:0:
262,220,12034,1,0,0:0:0:0:
330,201,12180,1,0,0:0:0:0:
369,143,12325,1,0,0:0:0:0:
338,271,12472,5,0,0:0:0:0:
416,333,12618,1,0,0:0:0:0:
346,341,12763,1,0,0:0:0:0:
408,263,12909,1,0,0:0:0:0:
330,201,13054,5,0,0:0:0:0:
392,123,13200,1,0,0:0:0:0:
322,131,13345,1,0,0:0:0:0:
400,193,13491,1,0,0:0:0:0:
276,349,13637,5,0,0:0:0:0:
212,380,13783,1,0,0:0:0:0:
143,363,13928,1,0,0:0:0:0:
101,307,14074,1,0,0:0:0:0:
224,176,14220,5,0,0:0:0:0:
101,307,14365,1,0,0:0:0:0:
106,236,14511,1,0,0:0:0:0:
155,184,14656,1,0,0:0:0:0:
282,215,14802,5,0,0:0:0:0:
339,253,14948,1,0,0:0:0:0:
410,244,15093,1,0,0:0:0:0:
460,193,15239,1,0,0:0:0:0:
211,224,15385,5,0,0:0:0:0:
282,215,15530,1,0,0:0:0:0:
273,144,15676,1,0,0:0:0:0:
202,153,15821,1,0,0:0:0:0:
220,295,15967,5,0,0:0:0:0:
273,344,16113,1,0,0:0:0:0:
345,347,16258,1,0,0:0:0:0:
402,303,16404,1,0,0:0:0:0:
418,233,16550,5,0,0:0:0:0:
402,303,16695,1,0,0:0:0:0:
345,347,16841,1,0,0:0:0:0:
273,344,16986,1,0,0:0:0:0:
220,295,17132,5,0,0:0:0:0:
95,243,17278,1,0,0:0:0:0:
167,246,17423,1,0,0:0:0:0:
38,287,17569,1,0,0:0:0:0:
111,173,17715,5,0,0:0:0:0:
95,243,17860,1,0,0:0:0:0:
79,110,18006,1,0,0:0:0:0:
111,173,18151,1,0,0:0:0:0:
14,83,18297,5,0,0:0:0:0:
111,173,18443,1,0,0:0:0:0:
85,44,18588,1,0,0:0:0:0:
29,164,18734,1,0,0:0:0:0:
144,99,18880,5,0,0:0:0:0:
256,301,19171,1,0,0:0:0:0:
368,99,19462,5,0,0:0:0:0:
195,219,19608,2,0,L|74:202,1,105,0|0,0:0|0:0,0:0:0:0:
74,201,19899,1,0,0:0:0:0:
368,99,20045,5,0,0:0:0:0:
177,231,20191,2,0,L|43:212,1,115.50000352478,0|0,0:0|0:0,0:0:0:0:
44,211,20482,1,0,0:0:0:0:
368,99,20627,5,0,0:0:0:0:
160,243,20773,1,0,0:0:0:0:
413,249,20919,1,0,0:0:0:0:
279,146,21064,1,0,0:0:0:0:
327,309,21210,5,0,0:0:0:0:
333,219,21355,1,0,0:0:0:0:
279,146,21501,1,0,0:0:0:0:
190,124,21647,1,0,0:0:0:0:
327,309,21792,5,0,0:0:0:0:
190,124,21938,2,0,L|52:109,1,105,0|0,0:0|0:0,0:0:0:0:
68,109,22229,1,0,0:0:0:0:
327,309,22375,5,0,0:0:0:0:
176,105,22521,2,0,L|24:88,1,115.50000352478,0|0,0:0|0:0,0:0:0:0:
42,89,22812,1,0,0:0:0:0:
327,309,22957,5,0,0:0:0:0:
162,87,23103,1,0,0:0:0:0:
426,170,23249,1,0,0:0:0:0:
252,229,23394,1,0,0:0:0:0:
359,79,23540,5,0,0:0:0:0:
327,309,23686,1,0,0:0:0:0:
327,309,23831,1,0,0:0:0:0:
97,277,24122,5,0,0:0:0:0:
330,173,24268,2,0,P|277:155|215:154,1,105,0|0,0:0|0:0,0:0:0:0:
211,156,24559,1,0,0:0:0:0:
97,277,24705,5,0,0:0:0:0:
354,163,24851,2,0,P|297:139|229:133,1,115.50000352478,0|0,0:0|0:0,0:0:0:0:
224,134,25142,1,0,0:0:0:0:
97,277,25287,5,0,0:0:0:0:
378,152,25433,1,0,0:0:0:0:
102,18,25579,1,0,0:0:0:0:
151,216,25724,1,0,0:0:0:0:
272,52,25870,5,0,0:0:0:0:
342,81,26016,1,0,0:0:0:0:
378,152,26161,1,0,0:0:0:0:
359,229,26307,1,0,0:0:0:0:
272,52,26453,5,0,0:0:0:0:
359,229,26598,2,0,P|358:287|333:333,1,105,0|0,0:0|0:0,0:0:0:0:
325,341,26889,1,0,0:0:0:0:
272,52,27035,5,0,0:0:0:0:
367,245,27181,2,0,P|357:308|322:354,1,115.50000352478,0|0,0:0|0:0,0:0:0:0:
313,361,27472,1,0,0:0:0:0:
272,52,27618,5,0,0:0:0:0:
376,264,27763,1,0,0:0:0:0:
141,279,27909,1,0,0:0:0:0:
228,119,28054,1,0,0:0:0:0:
298,260,28200,5,0,0:0:0:0:
63,245,28346,1,0,0:0:0:0:
63,245,28491,1,0,0:0:0:0:
192,48,28783,5,0,0:0:0:0:
63,245,28928,2,0,B|38:201|38:201|50:140,1,105,0|0,0:0|0:0,0:0:0:0:
54,131,29220,1,0,0:0:0:0:
192,48,29365,5,0,0:0:0:0:
49,254,29510,2,0,B|21:205|21:205|34:138,1,115.50000352478,0|0,0:0|0:0,0:0:0:0:
39,129,29802,1,0,0:0:0:0:
192,48,29948,5,0,0:0:0:0:
30,266,30093,1,0,0:0:0:0:
108,6,30239,1,0,0:0:0:0:
119,188,30385,1,0,0:0:0:0:
192,48,30530,5,0,0:0:0:0:
130,105,30676,1,0,0:0:0:0:
119,188,30821,1,0,0:0:0:0:
163,258,30967,1,0,0:0:0:0:
192,48,31113,5,0,0:0:0:0:
163,258,31258,2,0,B|194:274|194:274|268:268,1,105,0|0,0:0|0:0,0:0:0:0:
282,266,31550,1,0,0:0:0:0:
192,48,31695,5,0,0:0:0:0:
156,277,31840,2,0,B|190:294|190:294|271:288,1,115.50000352478,0|0,0:0|0:0,0:0:0:0:
287,285,32132,1,0,0:0:0:0:
192,48,32278,5,0,0:0:0:0:
149,297,32423,1,0,0:0:0:0:
38,71,32569,1,0,0:0:0:0:
187,150,32715,1,0,0:0:0:0:
21,174,32860,5,0,0:0:0:0:
265,103,33006,1,0,0:0:0:0:
265,103,33152,1,0,0:0:0:0:
133,371,33443,5,0,0:0:0:0:
206,147,33588,2,0,L|79:134,1,105,0|0,0:0|0:0,0:0:0:0:
84,133,33880,1,0,0:0:0:0:
133,371,34025,5,0,0:0:0:0:
213,124,34170,2,0,L|73:109,1,115.50000352478,0|0,0:0|0:0,0:0:0:0:
79,109,34462,1,0,0:0:0:0:
133,371,34608,5,0,0:0:0:0:
220,102,34753,1,0,0:0:0:0:
500,67,34899,1,0,0:0:0:0:
443,245,35045,1,0,0:0:0:0:
258,222,35190,5,0,0:0:0:0:
355,200,35336,1,0,0:0:0:0:
443,245,35482,1,0,0:0:0:0:
481,336,35627,1,0,0:0:0:0:
258,222,35773,5,0,0:0:0:0:
481,336,35919,2,0,L|374:343,1,105,0|0,0:0|0:0,0:0:0:0:
359,345,36210,1,0,0:0:0:0:
258,222,36355,5,0,0:0:0:0:
491,347,36501,2,0,L|373:354,1,115.50000352478,0|0,0:0|0:0,0:0:0:0:
357,357,36792,1,0,0:0:0:0:
258,222,36938,5,0,0:0:0:0:
500,361,37084,1,0,0:0:0:0:
404,99,37229,1,0,0:0:0:0:
242,6,37375,1,0,0:0:0:0:
58,38,37520,5,0,0:0:0:0:
342,20,37666,1,0,0:0:0:0:
342,20,37812,1,0,0:0:0:0:
137,305,38103,6,0,L|131:205,1,78.7500030040742,0|0,0:0|0:0,0:0:0:0:
139,331,38394,1,0,0:0:0:0:
130,200,38540,1,0,0:0:0:0:
261,191,38686,1,0,0:0:0:0:
270,322,38831,1,0,0:0:0:0:
270,322,39122,1,0,0:0:0:0:
270,322,39705,5,0,0:0:0:0:
261,191,39851,1,0,0:0:0:0:
319,111,39996,1,0,0:0:0:0:
390,92,40142,1,0,0:0:0:0:
390,92,40433,6,0,L|395:57,1,26.2500010013581,0|0,0:0|0:0,0:0:0:0:
261,191,40579,1,0,0:0:0:0:
360,320,40724,1,0,0:0:0:0:
319,111,40870,1,0,0:0:0:0:
157,89,41016,1,0,0:0:0:0:
341,249,41161,2,0,P|386:248|430:228,1,78.7500030040742,0|0,0:0|0:0,0:0:0:0:
261,191,41453,1,0,0:0:0:0:
261,191,41889,5,0,0:0:0:0:
319,111,42035,1,0,0:0:0:0:
76,146,42181,2,0,L|91:269,1,105.000004005432,0|0,0:0|0:0,0:0:0:0:
87,250,42763,6,0,L|41:246,1,26.2500010013581,0|0,0:0|0:0,0:0:0:0:
280,266,42909,1,0,0:0:0:0:
218,310,43055,1,0,0:0:0:0:
141,305,43200,1,0,0:0:0:0:
79,173,43346,5,0,0:0:0:0:
46,315,43491,1,0,0:0:0:0:
88,250,43637,1,0,0:0:0:0:
22,120,43783,1,0,0:0:0:0:
22,120,44220,5,0,0:0:0:0:
157,177,44365,1,0,0:0:0:0:
297,133,44511,1,0,0:0:0:0:
161,75,44656,2,0,L|162:50,3,17.500000667572
157,177,44948,1,0,0:0:0:0:
310,365,45093,6,0,L|307:319,1,26.2500010013581,0|0,0:0|0:0,0:0:0:0:
303,236,45239,1,0,0:0:0:0:
242,304,45385,1,0,0:0:0:0:
371,298,45530,1,0,0:0:0:0:
495,162,45676,5,0,0:0:0:0:
359,38,45821,1,0,0:0:0:0:
235,174,45967,1,0,0:0:0:0:
371,298,46112,1,0,0:0:0:0:
365,168,46258,6,0,L|367:213,1,26.2500010013581,0|0,0:0|0:0,0:0:0:0:
371,298,46404,1,0,0:0:0:0:
433,230,46550,1,0,0:0:0:0:
235,174,46695,1,0,0:0:0:0:
107,222,46841,1,0,0:0:0:0:
297,107,46986,2,0,B|291:28|291:28|274:60,1,105.000004005432,0|0,0:0|0:0,0:0:0:0:
312,146,47423,6,0,L|306:46,1,78.7500030040742,0|0,0:0|0:0,0:0:0:0:
314,172,47715,1,0,0:0:0:0:
305,41,47860,1,0,0:0:0:0:
436,32,48007,1,0,0:0:0:0:
445,163,48152,1,0,0:0:0:0:
445,163,48443,1,0,0:0:0:0:
445,163,49025,5,0,0:0:0:0:
305,41,49171,1,0,0:0:0:0:
337,177,49317,1,0,0:0:0:0:
378,81,49462,1,0,0:0:0:0:
378,81,49753,6,0,L|424:85,1,26.2500010013581,0|0,0:0|0:0,0:0:0:0:
193,64,49899,1,0,0:0:0:0:
337,177,50045,1,0,0:0:0:0:
304,60,50190,1,0,0:0:0:0:
220,287,50336,1,0,0:0:0:0:
456,87,50482,2,0,L|359:78,1,78.7500030040742,0|0,0:0|0:0,0:0:0:0:
337,177,50773,1,0,0:0:0:0:
337,177,51210,5,0,0:0:0:0:
259,211,51355,1,0,0:0:0:0:
95,161,51501,2,0,P|74:121|94:54,1,105.000004005432,0|0,0:0|0:0,0:0:0:0:
84,64,52084,6,0,L|135:60,1,26.2500010013581,0|0,0:0|0:0,0:0:0:0:
215,55,52229,1,0,0:0:0:0:
321,132,52375,1,0,0:0:0:0:
344,227,52520,1,0,0:0:0:0:
311,292,52666,5,0,0:0:0:0:
321,132,52812,1,0,0:0:0:0:
481,142,52957,1,0,0:0:0:0:
471,302,53103,1,0,0:0:0:0:
471,302,53540,5,0,0:0:0:0:
311,292,53686,1,0,0:0:0:0:
194,181,53831,1,0,0:0:0:0:
34,171,53977,2,0,L|15:170,3,17.500000667572,0|0|0|0,0:0|0:0|0:0|0:0,0:0:0:0:
123,138,54268,1,0,0:0:0:0:
232,258,54414,6,0,L|200:256,1,26.2500010013581,0|0,0:0|0:0,0:0:0:0:
194,181,54559,1,0,0:0:0:0:
214,97,54705,1,0,0:0:0:0:
283,45,54851,1,0,0:0:0:0:
232,258,54996,5,0,0:0:0:0:
283,45,55142,1,0,0:0:0:0:
496,96,55287,1,0,0:0:0:0:
445,309,55433,1,0,0:0:0:0:
348,244,55579,6,0,L|358:199,1,26.2500010013581,0|0,0:0|0:0,0:0:0:0:
232,258,55724,1,0,0:0:0:0:
329,323,55870,1,0,0:0:0:0:
445,309,56015,1,0,0:0:0:0:
445,309,56307,1,0,0:0:0:0:
155,344,56453,1,0,0:0:0:0:
155,344,56598,1,0,0:0:0:0:
120,54,56744,5,0,0:0:0:0:
410,19,56889,2,0,L|426:17,1,14,0|0,0:0|0:0,0:0:0:0:
187,87,57326,5,0,0:0:0:0:
410,19,57472,2,0,L|426:17,1,14,0|0,0:0|0:0,0:0:0:0:
254,99,57909,5,0,0:0:0:0:
410,19,58054,2,0,L|511:7,1,87.5,0|0,0:0|0:0,0:0:0:0:
381,296,58346,2,0,P|333:300|396:191,1,280
352,238,58783,5,0,0:0:0:0:
186,278,58928,1,0,0:0:0:0:
32,202,59074,2,0,P|18:147|54:27,1,175,0|0,0:0|0:0,0:0:0:0:
186,278,59511,1,0,0:0:0:0:
48,210,59656,2,0,P|32:157|35:108,1,77.0000023498536,0|0,0:0|0:0,0:0:0:0:
186,278,59948,1,0,0:0:0:0:
63,217,60093,1,0,0:0:0:0:
258,165,60239,5,0,0:0:0:0:
186,278,60385,1,0,0:0:0:0:
180,135,60530,1,0,0:0:0:0:
292,308,60676,1,0,0:0:0:0:
63,217,60821,5,0,0:0:0:0:
355,139,60967,1,0,0:0:0:0:
355,139,61113,1,0,0:0:0:0:
210,366,61404,5,0,0:0:0:0:
150,110,61550,2,0,L|150:95,1,14
257,295,61986,5,0,0:0:0:0:
150,110,62132,2,0,L|150:95,1,14,0|0,0:0|0:0,0:0:0:0:
273,228,62569,5,0,0:0:0:0:
150,110,62715,2,0,L|157:14,1,87.5,0|0,0:0|0:0,0:0:0:0:
441,21,63006,2,0,L|438:59,1,21.875
441,21,63297,5,0,0:0:0:0:
372,162,63443,1,0,0:0:0:0:
409,314,63588,2,0,L|422:193,1,87.5,0|0,0:0|0:0,0:0:0:0:
229,90,63880,5,0,0:0:0:0:
75,115,64025,1,0,0:0:0:0:
215,186,64171,1,0,0:0:0:0:
121,2,64317,1,0,0:0:0:0:
79,274,64462,2,0,L|63:377,1,87.5,0|0,0:0|0:0,0:0:0:0:
318,236,64753,6,0,L|304:149,1,87.5,0|0,0:0|0:0,0:0:0:0:
205,292,65045,1,0,0:0:0:0:
444,330,65190,1,0,0:0:0:0:
398,93,65336,2,0,L|384:179,1,87.5,0|0,0:0|0:0,0:0:0:0:
355,352,65627,1,0,0:0:0:0:
318,236,65773,1,0,0:0:0:0:
249,192,65919,1,0,0:0:0:0:
469,37,66064,5,0,0:0:0:0:
112,112,66210,2,0,L|97:111,1,14,0|0,0:0|0:0,0:0:0:0:
397,14,66647,5,0,0:0:0:0:
112,112,66792,2,0,L|97:111,1,14,0|0,0:0|0:0,0:0:0:0:
326,13,67229,5,0,0:0:0:0:
112,112,67375,2,0,L|14:105,1,87.5,0|0,0:0|0:0,0:0:0:0:
336,240,67666,2,0,P|384:244|321:135,1,280,0|0,0:0|0:0,0:0:0:0:
365,182,68103,5,0,0:0:0:0:
493,165,68249,1,0,0:0:0:0:
237,199,68394,2,0,P|218:134|246:21,1,175,0|0,0:0|0:0,0:0:0:0:
493,165,68831,1,0,0:0:0:0:
261,215,68976,2,0,P|237:168|232:100,1,87.5,0|0,0:0|0:0,0:0:0:0:
493,165,69268,1,0,0:0:0:0:
287,226,69414,1,0,0:0:0:0:
490,298,69559,5,0,0:0:0:0:
369,121,69705,1,0,0:0:0:0:
365,264,69851,1,0,0:0:0:0:
496,94,69996,2,0,P|501:45|491:2,1,87.5,0|0,0:0|0:0,0:0:0:0:
265,78,70287,1,0,0:0:0:0:
369,121,70433,1,0,0:0:0:0:
283,329,70579,1,0,0:0:0:0:
75,243,70724,5,0,0:0:0:0:
181,330,70870,1,0,0:0:0:0:
283,329,71016,1,0,0:0:0:0:
341,279,71161,2,0,P|388:267|446:268,1,87.5,0|0,0:0|0:0,0:0:0:0:
233,183,71453,2,0,P|186:171|128:172,1,87.5,0|0,0:0|0:0,0:0:0:0:
341,87,71744,2,0,P|388:75|446:76,1,87.5,0|0,0:0|0:0,0:0:0:0:
253,269,72035,5,0,0:0:0:0:
123,293,72181,1,0,0:0:0:0:
36,244,72326,1,0,0:0:0:0:
9,173,72472,1,0,0:0:0:0:
253,269,72618,5,0,0:0:0:0:
50,322,72763,1,0,0:0:0:0:
216,119,72909,1,0,0:0:0:0:
202,381,73054,5,0,0:0:0:0:
164,226,73200,1,0,0:0:0:0:
216,119,73346,1,0,0:0:0:0:
297,82,73491,2,0,L|384:74,1,70,0|0,0:0|0:0,0:0:0:0:
475,176,73783,2,0,L|408:170,1,52.5000020027161,0|0,0:0|0:0,0:0:0:0:
341,245,74074,6,0,P|363:239|315:336,1,280,0|0,0:0|0:0,0:0:0:0:
368,302,75385,5,0,0:0:0:0:
170,333,75530,2,0,L|54:320,1,105,0|0,0:0|0:0,0:0:0:0:
48,318,75821,1,0,0:0:0:0:
368,302,75967,5,0,0:0:0:0:
159,341,76112,2,0,L|31:326,1,115.50000352478,0|0,0:0|0:0,0:0:0:0:
24,324,76403,1,0,0:0:0:0:
368,302,76550,5,0,0:0:0:0:
149,351,76695,1,0,0:0:0:0:
298,183,76841,1,0,0:0:0:0:
282,351,76986,1,0,0:0:0:0:
196,205,77132,5,0,0:0:0:0:
241,127,77278,1,0,0:0:0:0:
325,97,77423,1,0,0:0:0:0:
409,129,77569,1,0,0:0:0:0:
196,205,77715,5,0,0:0:0:0:
409,129,77860,2,0,P|418:90|397:22,1,105,0|0,0:0|0:0,0:0:0:0:
391,14,78152,1,0,0:0:0:0:
196,205,78297,5,0,0:0:0:0:
426,134,78442,2,0,P|438:91|418:15,1,115.50000352478,0|0,0:0|0:0,0:0:0:0:
413,7,78734,1,0,0:0:0:0:
196,205,78880,5,0,0:0:0:0:
443,139,79025,1,0,0:0:0:0:
282,338,79171,1,0,0:0:0:0:
292,147,79317,1,0,0:0:0:0:
397,308,79462,5,0,0:0:0:0:
141,294,79608,1,0,0:0:0:0:
141,294,79753,1,0,0:0:0:0:
77,86,80045,5,0,0:0:0:0:
333,72,80190,2,0,L|339:187,1,105,0|0,0:0|0:0,0:0:0:0:
340,195,80482,1,0,0:0:0:0:
77,86,80627,5,0,0:0:0:0:
353,71,80772,2,0,L|361:201,1,115.50000352478,0|0,0:0|0:0,0:0:0:0:
361,206,81064,1,0,0:0:0:0:
77,86,81210,5,0,0:0:0:0:
374,70,81355,1,0,0:0:0:0:
390,367,81501,1,0,0:0:0:0:
193,378,81647,1,0,0:0:0:0:
182,181,81792,5,0,0:0:0:0:
278,139,81938,1,0,0:0:0:0:
379,169,82084,1,0,0:0:0:0:
437,256,82229,1,0,0:0:0:0:
182,181,82375,5,0,0:0:0:0:
437,256,82520,2,0,P|381:279|326:273,1,105,0|0,0:0|0:0,0:0:0:0:
321,270,82812,1,0,0:0:0:0:
182,181,82957,5,0,0:0:0:0:
447,269,83102,2,0,P|385:295|325:289,1,115.50000352478,0|0,0:0|0:0,0:0:0:0:
319,285,83394,1,0,0:0:0:0:
182,181,83540,5,0,0:0:0:0:
457,282,83686,1,0,0:0:0:0:
334,17,83831,1,0,0:0:0:0:
268,201,83977,1,0,0:0:0:0:
445,118,84122,1,0,0:0:0:0:
198,28,84268,5,0,0:0:0:0:
108,275,84414,1,0,0:0:0:0:
355,365,84559,1,0,0:0:0:0:
445,118,84705,2,0,P|332:129|410:211,1,280
392,151,85433,5,0,0:0:0:0:
194,78,85579,1,0,0:0:0:0:
122,276,85725,1,0,0:0:0:0:
320,348,85870,2,0,P|308:235|226:314,1,280
286,295,86598,5,0,0:0:0:0:
344,136,86744,1,0,0:0:0:0:
186,79,86890,1,0,0:0:0:0:
128,237,87035,2,0,P|72:267|2:250,1,125.999996154785
140,238,87472,2,0,P|109:266|74:276,1,56
56,172,87763,1,0,0:0:0:0:
245,222,87909,1,0,0:0:0:0:
421,138,88054,6,0,P|409:25|329:107,1,269.499994654083
388,84,88928,5,0,0:0:0:0:
349,335,89074,1,0,0:0:0:0:
98,296,89220,1,0,0:0:0:0:
136,44,89365,2,0,P|207:131|94:134,1,280
150,105,90093,5,0,0:0:0:0:
350,136,90239,1,0,0:0:0:0:
319,337,90385,1,0,0:0:0:0:
118,306,90530,2,0,P|205:234|208:347,1,280
179,292,91258,5,0,0:0:0:0:
203,132,91404,1,0,0:0:0:0:
364,156,91550,1,0,0:0:0:0:
339,317,91695,2,0,P|402:352|474:333,1,125.999996154785
324,313,92132,2,0,P|358:346|386:356,1,56,0|0,0:3|0:3,0:3:0:0:
415,254,92423,1,0,0:0:0:0:
216,298,92569,1,0,0:0:0:0:
448,150,92715,6,0,P|447:115|386:186,1,245
375,182,94025,1,0,0:0:0:0:
375,182,94753,5,0,0:0:0:0:
367,255,94899,1,0,0:0:0:0:
440,263,95045,1,0,0:0:0:0:
448,190,95190,5,0,0:0:0:0:
359,328,95336,1,0,0:0:0:0:
302,174,95482,1,0,0:0:0:0:
302,174,95918,5,0,0:0:0:0:
310,101,96064,1,0,0:0:0:0:
237,93,96210,1,0,0:0:0:0:
229,166,96355,5,0,0:0:0:0:
318,28,96501,1,0,0:0:0:0:
375,182,96647,1,0,0:0:0:0:
286,320,96792,1,0,0:0:0:0:
286,320,97084,5,0,0:0:0:0:
213,312,97230,1,0,0:0:0:0:
140,304,97375,1,0,0:0:0:0:
294,247,97520,5,0,0:0:0:0:
205,384,97666,1,0,0:0:0:0:
148,231,97812,1,0,0:0:0:0:
213,312,97957,5,0,0:0:0:0:
76,223,98103,1,0,0:0:0:0:
229,166,98249,1,0,0:0:0:0:
148,231,98394,5,0,0:0:0:0:
237,94,98540,1,0,0:0:0:0:
294,247,98686,1,0,0:0:0:0:
229,166,98831,5,0,0:0:0:0:
366,255,98977,1,0,0:0:0:0:
213,312,99123,1,0,0:0:0:0:
213,312,99414,2,0,L|129:304,1,78.7500030040742
108,301,99705,5,0,0:0:0:0:
116,228,99851,1,0,0:0:0:0:
124,155,99996,1,0,0:0:0:0:
43,220,100142,5,0,0:0:0:0:
262,244,100287,1,0,0:0:0:0:
262,244,100579,2,0,L|346:252,1,78.7500030040742
367,255,100870,5,0,0:0:0:0:
375,182,101016,1,0,0:0:0:0:
189,236,101161,1,0,0:0:0:0:
359,328,101307,1,0,0:0:0:0:
440,263,101453,1,0,0:0:0:0:
375,182,101598,5,0,0:0:0:0:
294,247,101744,1,0,0:0:0:0:
302,174,101889,1,0,0:0:0:0:
367,255,102035,1,0,0:0:0:0:
286,320,102181,5,0,0:0:0:0:
224,360,102326,1,0,0:0:0:0:
151,351,102472,1,0,0:0:0:0:
101,298,102618,1,0,0:0:0:0:
123,113,102763,5,0,0:0:0:0:
286,320,102909,1,0,0:0:0:0:
308,135,103054,1,0,0:0:0:0:
101,298,103200,6,0,P|67:270|65:154,1,157.500006008148
109,308,103783,2,0,P|70:286|41:194,1,131.25
118,316,104365,2,0,P|76:301|35:246,1,105
128,322,104948,2,0,P|107:321|84:314,1,35
219,257,105239,5,0,0:0:0:0:
330,265,105385,1,0,0:0:0:0:
410,343,105530,1,0,0:0:0:0:
319,154,105676,2,0,P|307:109|326:46,1,105.000004005432
320,170,106113,2,0,P|306:147|300:113,1,43.75
410,105,106404,5,0,0:0:0:0:
444,200,106550,1,0,0:0:0:0:
408,294,106695,1,0,0:0:0:0:
321,53,106841,2,0,P|338:31|412:3,1,105.000004005432
310,61,107278,2,0,P|322:36|338:20,1,43.75
410,105,107569,5,0,0:0:0:0:
247,190,107715,1,0,0:0:0:0:
68,152,107860,2,0,P|41:108|59:1,1,157.500006008148
75,167,108443,2,0,P|40:128|31:43,1,131.25
84,180,109025,2,0,P|43:147|21:100,1,105
95,191,109608,2,0,P|49:166|26:137,1,84
29,142,110336,5,0,0:0:0:0:
160,239,110482,1,0,0:0:0:0:
143,126,110627,1,0,0:0:0:0:
46,257,110773,1,0,0:0:0:0:
95,191,110919,5,0,0:0:0:0:
209,173,111064,1,0,0:0:0:0:
307,232,111210,1,0,0:0:0:0:
345,341,111355,1,0,0:0:0:0:
247,282,111501,5,0,0:0:0:0:
209,173,111646,1,0,0:0:0:0:
250,67,111792,1,0,0:0:0:0:
351,10,111937,1,0,0:0:0:0:
136,46,112084,5,0,0:0:0:0:
387,225,112376,1,0,0:0:0:0:
172,261,112666,5,0,0:0:0:0:
172,261,113249,2,0,P|153:220|172:134,1,125.999996154785
189,291,113831,6,0,P|156:255|188:105,1,210
198,103,114778,2,0,L|228:100,1,23.3333333333333
309,194,114996,6,0,P|339:197|370:191,1,35.0000013351441
440,133,115190,2,0,P|410:130|379:136,1,35.0000013351441
344,98,115385,2,0,P|341:128|347:159,1,35.0000013351441
405,229,115579,1,0,0:0:0:0:
405,229,115870,1,0,0:0:0:0:
416,261,115967,1,0,0:0:0:0:
416,296,116064,1,0,0:0:0:0:
403,328,116161,6,0,L|400:360,1,17.500000667572
374,334,116258,2,0,L|372:351,1,17.500000667572
345,340,116355,2,0,L|343:357,1,17.500000667572
315,355,116453,2,0,L|312:323,1,17.500000667572
286,349,116550,2,0,L|284:331,1,17.500000667572
257,343,116647,2,0,L|242:203,1,140.000005340576
213,184,117132,1,0,0:0:0:0:
179,177,117229,1,0,0:0:0:0:
144,181,117326,5,0,0:0:0:0:
144,181,117618,1,0,0:0:0:0:
109,185,117715,1,0,0:0:0:0:
75,177,117812,1,0,0:0:0:0:
46,158,117909,2,0,L|49:113,1,35.0000013351441
106,84,118103,2,0,L|108:49,1,35.0000013351441
166,10,118297,1,0,0:0:0:0:
199,1,118394,1,0,0:0:0:0:
234,4,118491,6,0,P|239:27|235:52,1,35.0000013351441
306,52,118686,2,0,P|298:74|282:94,1,35.0000013351441
344,129,118880,1,0,0:0:0:0:
316,149,118977,1,0,0:0:0:0:
281,152,119074,6,0,L|235:147,1,35.0000013351441
193,186,119268,1,0,0:0:0:0:
158,181,119365,1,0,0:0:0:0:
123,176,119462,2,0,L|66:167,1,35.0000013351441
31,199,119608,1,0,0:0:0:0:
31,199,119656,5,0,0:0:0:0:
21,232,119753,1,0,0:0:0:0:
26,266,119850,1,0,0:0:0:0:
48,295,119948,1,0,0:0:0:0:
53,329,120045,1,0,0:0:0:0:
44,363,120142,1,0,0:0:0:0:
78,355,120239,6,0,L|129:352,1,35.0000013351441
175,380,120433,1,0,0:0:0:0:
205,362,120530,1,0,0:0:0:0:
239,364,120627,1,0,0:0:0:0:
273,366,120724,1,0,0:0:0:0:
300,344,120821,6,0,L|376:341,2,52.5000020027161
238,257,121331,2,0,P|217:213|238:133,1,131.25000500679
264,114,121792,1,0,0:0:0:0:
298,111,121889,1,0,0:0:0:0:
333,109,121986,5,0,0:0:0:0:
363,128,122084,2,0,L|410:124,1,35.0000013351441
475,179,122278,2,0,L|440:176,1,35.0000013351441
363,230,122472,1,0,0:0:0:0:
397,227,122569,6,0,P|405:250|399:271,1,35.0000013351441
343,299,122763,2,0,P|333:321|315:334,1,35.0000013351441
254,318,122957,2,0,P|232:329|210:327,1,35.0000013351441
173,275,123152,6,0,L|38:265,1,105.000004005432
41,289,123540,2,0,P|34:263|37:227,1,35.0000013351441
71,197,123734,2,0,P|83:168|76:104,1,70.0000026702882
35,87,124025,2,0,L|88:92,1,35.0000013351441
122,45,124220,1,0,0:0:0:0:
156,48,124317,6,0,L|210:43,1,35.0000013351441
242,88,124511,2,0,L|295:93,1,35.0000013351441
325,46,124705,2,0,L|378:40,1,35.0000013351441
410,85,124899,1,0,0:0:0:0:
410,85,125190,1,0,0:0:0:0:
429,113,125287,1,0,0:0:0:0:
434,148,125384,1,0,0:0:0:0:
424,181,125482,6,0,L|422:211,1,17.500000667572
394,187,125579,2,0,L|391:216,1,17.500000667572
361,192,125676,2,0,L|358:221,1,17.500000667572
338,217,125773,2,0,L|340:246,1,17.500000667572
368,222,125870,2,0,L|370:251,1,17.500000667572
400,227,125967,2,0,P|426:293|410:365,1,140.000005340576
387,383,126453,1,0,0:0:0:0:
352,378,126550,1,0,0:0:0:0:
327,353,126647,5,0,0:0:0:0:
327,353,126938,1,0,0:0:0:0:
292,348,127035,1,0,0:0:0:0:
257,343,127132,1,0,0:0:0:0:
232,318,127229,2,0,P|230:291|238:269,1,35.0000013351441
170,252,127423,2,0,P|185:231|206:218,1,35.0000013351441
164,163,127618,2,0,P|189:157|213:161,1,35.0000013351441
217,90,127812,6,0,L|225:53,1,35.0000013351441
287,8,128006,2,0,L|294:42,1,35.0000013351441
357,90,128200,1,0,0:0:0:0:
364,55,128297,1,0,0:0:0:0:
396,40,128394,6,0,L|431:38,1,35.0000013351441
499,101,128588,2,0,L|464:99,1,35.0000013351441
390,159,128783,2,0,L|425:157,1,35.0000013351441
493,220,128928,1,0,0:0:0:0:
493,220,128977,5,0,0:0:0:0:
502,253,129074,1,0,0:0:0:0:
498,287,129171,1,0,0:0:0:0:
464,298,129268,1,0,0:0:0:0:
450,329,129365,1,0,0:0:0:0:
424,353,129462,1,0,0:0:0:0:
391,339,129559,6,0,L|343:333,1,35.0000013351441
284,364,129753,1,0,0:0:0:0:
261,337,129851,1,0,0:0:0:0:
226,332,129948,1,0,0:0:0:0:
191,328,130045,1,0,0:0:0:0:
156,323,130142,6,0,P|118:369|121:261,2,280
89,370,141355,5,0,0:0:0:0:
60,134,141501,1,0,0:0:0:0:
60,134,141647,1,0,0:0:0:0:
316,22,141792,5,0,0:0:0:0:
292,274,141938,2,0,L|293:288,1,14
374,57,142375,5,0,0:0:0:0:
292,274,142520,2,0,L|293:288,1,14
411,117,142957,5,0,0:0:0:0:
292,274,143103,2,0,L|298:363,1,87.5
107,254,143394,2,0,P|79:214|205:214,1,280,0|0,0:0|0:0,0:0:0:0:
142,198,143831,5,0,0:0:0:0:
293,134,143977,1,0,0:0:0:0:
450,183,144122,2,0,P|478:251|455:365,1,175
293,134,144559,1,0,0:0:0:0:
453,169,144705,2,0,P|486:234|492:269,1,77.0000023498536
293,134,144996,1,0,0:0:0:0:
455,154,145142,1,0,0:0:0:0:
232,245,145287,5,0,0:0:0:0:
362,229,145433,1,0,0:0:0:0:
257,328,145579,1,0,0:0:0:0:
293,134,145724,1,0,0:0:0:0:
378,313,145870,5,0,0:0:0:0:
150,187,146016,1,0,0:0:0:0:
150,187,146161,1,0,0:0:0:0:
499,144,146453,5,0,0:0:0:0:
205,52,146598,2,0,L|189:53,1,14
467,80,147035,5,0,0:0:0:0:
205,52,147181,2,0,L|189:53,1,14
417,37,147618,5,0,0:0:0:0:
205,52,147764,2,0,L|98:58,1,87.5
60,282,148054,2,0,L|82:280,1,21.875
60,282,148346,5,0,0:0:0:0:
232,317,148491,1,0,0:0:0:0:
386,233,148637,2,0,L|482:251,1,87.5
325,303,148928,1,0,0:0:0:0:
389,139,149074,1,0,0:0:0:0:
330,68,149220,1,0,0:0:0:0:
386,233,149365,1,0,0:0:0:0:
240,52,149511,2,0,L|135:47,1,87.5
237,307,149802,6,0,L|324:302,1,87.5
172,366,150093,1,0,0:0:0:0:
249,221,150239,1,0,0:0:0:0:
114,34,150385,2,0,P|108:85|118:121,1,87.5
332,175,150676,1,0,0:0:0:0:
459,143,150821,1,0,0:0:0:0:
504,69,150967,1,0,0:0:0:0:
450,364,151113,5,0,0:0:0:0:
380,93,151258,2,0,L|379:77,1,14
505,313,151695,5,0,0:0:0:0:
380,93,151841,2,0,L|379:77,1,14
511,238,152278,5,0,0:0:0:0:
380,93,152423,2,0,L|374:5,1,87.5
259,237,152715,2,0,P|254:285|158:204,1,280,0|0,0:0|0:0,0:0:0:0:
197,257,153152,5,0,0:0:0:0:
73,299,153297,1,0,0:0:0:0:
221,172,153443,2,0,P|230:119|199:0,1,175
73,299,153880,1,0,0:0:0:0:
223,183,154025,2,0,P|234:137|231:76,1,77.0000023498536,0|0,0:3|0:3,0:3:0:0:
73,299,154317,1,0,0:3:0:0:
225,195,154462,1,0,0:0:0:0:
409,214,154608,5,0,0:0:0:0:
257,318,154753,1,0,0:3:0:0:
402,117,154899,1,0,0:0:0:0:
352,293,155045,2,0,L|361:394,1,87.5
485,276,155336,1,0,0:0:0:0:
289,235,155482,1,0,0:0:0:0:
360,380,155627,1,0,0:0:0:0:
335,140,155773,5,0,0:0:0:0:
194,189,155919,1,0,0:0:0:0:
82,146,156064,1,0,0:0:0:0:
36,63,156210,2,0,P|25:26|30:-46,1,87.5
242,35,156501,2,0,P|253:72|248:144,1,87.5
127,313,156792,2,0,P|116:276|121:204,1,87.5
335,140,157084,5,0,0:0:0:0:
161,107,157229,1,0,0:0:0:0:
45,171,157375,1,0,0:0:0:0:
10,264,157520,1,0,0:0:0:0:
231,215,157666,5,0,0:0:0:0:
185,0,157812,1,0,0:0:0:0:
120,241,157957,1,0,0:0:0:0:
335,140,158103,5,0,0:0:0:0:
214,81,158248,1,0,0:0:0:0:
118,105,158394,1,0,0:0:0:0:
75,166,158540,2,0,P|35:190|-6:197,1,70
67,10,158831,2,0,P|95:27|125:32,1,52.5000020027161
292,74,159122,2,0,P|311:67|340:65,1,35
395,75,159414,5,0,0:0:0:0:
461,51,159559,1,0,0:0:0:0:
359,135,159705,1,0,0:0:0:0:
334,265,159851,1,0,0:0:0:0:
399,379,159996,1,0,0:0:0:0:
224,206,160142,1,0,0:0:0:0:
469,242,160287,1,0,0:0:0:0:
248,354,160433,6,0,L|73:338,1,175
469,242,160870,1,0,0:0:0:0:
253,361,161016,2,0,L|107:347,1,140
114,348,161453,1,0,0:0:0:0:
113,209,161598,5,0,0:0:0:0:
200,102,161744,2,0,P|206:52|194:-6,1,87.5
113,209,162035,1,0,0:0:0:0:
336,76,162181,1,0,0:0:0:0:
80,35,162326,1,0,0:0:0:0:
80,35,162472,1,0,0:0:0:0:
128,116,162618,1,0,0:0:0:0:
113,209,162763,5,0,0:0:0:0:
5,287,162909,1,0,0:0:0:0:
20,194,163055,1,0,0:0:0:0:
98,302,163200,1,0,0:0:0:0:
185,148,163346,5,0,0:0:0:0:
257,87,163491,1,0,0:0:0:0:
351,86,163637,1,0,0:0:0:0:
424,146,163783,1,0,0:0:0:0:
170,242,163928,5,0,0:0:0:0:
185,148,164074,1,0,0:0:0:0:
91,133,164220,1,0,0:0:0:0:
76,227,164365,1,0,0:0:0:0:
110,315,164511,5,0,0:0:0:0:
91,133,164656,1,0,0:0:0:0:
273,114,164802,1,0,0:0:0:0:
292,296,164948,1,0,0:0:0:0:
91,133,165093,5,0,0:0:0:0:
185,157,165239,1,0,0:0:0:0:
273,114,165385,1,0,0:0:0:0:
313,26,165530,1,0,0:0:0:0:
298,207,165676,2,0,L|309:334,1,105.000004005432
380,360,166113,1,0,0:0:0:0:
220,321,166258,5,0,0:0:0:0:
146,357,166404,1,0,0:0:0:0:
67,338,166550,1,0,0:0:0:0:
19,273,166695,1,0,0:0:0:0:
80,134,166841,5,0,0:0:0:0:
24,192,166986,1,0,0:0:0:0:
160,125,167132,1,0,0:0:0:0:
80,134,167278,1,0,0:0:0:0:
227,170,167423,5,0,0:0:0:0:
294,214,167569,1,0,0:0:0:0:
375,205,167715,1,0,0:0:0:0:
432,146,167861,1,0,0:0:0:0:
370,287,168006,5,0,0:0:0:0:
483,304,168152,1,0,0:0:0:0:
418,352,168297,1,0,0:0:0:0:
435,239,168443,1,0,0:0:0:0:
305,335,168588,5,0,0:0:0:0:
209,205,168734,1,0,0:0:0:0:
339,109,168880,1,0,0:0:0:0:
435,239,169025,1,0,0:0:0:0:
305,335,169171,5,0,0:0:0:0:
339,109,169317,1,0,0:0:0:0:
435,239,169462,1,0,0:0:0:0:
209,205,169608,1,0,0:0:0:0:
351,13,169753,6,0,L|530:27,1,175
209,205,170190,1,0,0:0:0:0:
345,4,170336,6,0,L|491:15,1,140
484,14,170773,1,0,0:0:0:0:
277,105,170919,5,0,0:0:0:0:
368,313,171064,1,0,0:0:0:0:
355,194,171210,1,0,0:0:0:0:
277,105,171355,1,0,0:0:0:0:
473,220,171501,5,0,0:0:0:0:
247,243,171647,1,0,0:0:0:0:
247,243,171792,1,0,0:0:0:0:
355,194,171938,1,0,0:0:0:0:
395,108,172084,5,0,0:0:0:0:
371,17,172229,1,0,0:0:0:0:
355,194,172375,1,0,0:0:0:0:
456,339,172520,1,0,0:0:0:0:
261,201,172666,5,0,0:0:0:0:
92,153,172812,1,0,0:0:0:0:
185,146,172957,1,0,0:0:0:0:
26,219,173103,1,0,0:0:0:0:
101,61,173249,5,0,0:0:0:0:
228,3,173394,1,0,0:0:0:0:
335,32,173540,1,0,0:0:0:0:
386,105,173686,2,0,L|382:204,1,87.5
454,372,173977,1,0,0:0:0:0:
448,264,174122,1,0,0:0:0:0:
382,192,174268,1,0,0:0:0:0:
303,181,174414,5,0,0:0:0:0:
237,264,174559,1,0,0:0:0:0:
143,282,174705,1,0,0:0:0:0:
68,241,174851,2,0,P|57:208|61:146,1,87.5
319,253,175142,2,0,P|330:286|326:348,1,87.5
105,84,175433,5,0,0:0:0:0:
68,241,175579,1,0,0:0:0:0:
58,156,175724,1,0,0:0:0:0:
105,84,175870,1,0,0:0:0:0:
186,59,176016,2,0,L|280:67,1,87.5
354,42,176307,5,0,0:0:0:0:
105,84,176453,1,0,0:0:0:0:
105,84,176598,1,0,0:0:0:0:
266,279,176744,5,0,0:0:0:0:
239,154,176890,1,0,0:0:0:0:
285,69,177035,1,0,0:0:0:0:
354,42,177181,2,0,L|441:48,1,70
342,205,177472,2,0,L|269:210,1,52.5000020027161
47,123,177763,6,0,P|30:106|140:98,1,280
83,71,179074,5,0,0:0:0:0:
323,113,179220,2,0,L|452:108,1,105
445,106,179511,1,0,0:0:0:0:
83,71,179656,5,0,0:0:0:0:
338,120,179802,2,0,L|479:114,1,115.50000352478
472,115,180093,1,0,0:0:0:0:
83,71,180239,5,0,0:0:0:0:
353,127,180385,1,0,0:0:0:0:
165,213,180530,1,0,0:0:0:0:
242,78,180676,1,0,0:0:0:0:
263,249,180821,5,0,0:0:0:0:
165,213,180967,1,0,0:0:0:0:
67,249,181113,1,0,0:0:0:0:
16,340,181258,1,0,0:0:0:0:
96,162,181404,5,0,0:0:0:0:
363,313,181550,2,0,P|374:260|365:197,1,105
361,189,181841,1,0,0:0:0:0:
96,162,181986,5,0,0:0:0:0:
379,320,182132,2,0,P|392:261|383:192,1,115.50000352478
379,183,182423,1,0,0:0:0:0:
96,162,182569,5,0,0:0:0:0:
393,327,182715,1,0,0:0:0:0:
277,133,182860,1,0,0:0:0:0:
204,265,183006,1,0,0:0:0:0:
379,183,183152,5,0,0:0:0:0:
96,162,183297,1,0,0:0:0:0:
96,162,183443,1,0,0:0:0:0:
152,344,183734,5,0,0:0:0:0:
163,96,183880,2,0,L|41:84,1,105
41,83,184171,1,0,0:0:0:0:
152,344,184317,5,0,0:0:0:0:
164,76,184463,2,0,L|29:62,1,115.50000352478
29,61,184754,1,0,0:0:0:0:
152,344,184899,5,0,0:0:0:0:
166,57,185045,1,0,0:0:0:0:
357,66,185190,1,0,0:0:0:0:
351,193,185336,1,0,0:0:0:0:
302,26,185482,5,0,0:0:0:0:
357,66,185627,1,0,0:0:0:0:
381,131,185773,1,0,0:0:0:0:
351,193,185918,1,0,0:0:0:0:
235,31,186064,5,0,0:0:0:0:
133,264,186210,2,0,P|119:209|133:134,1,105
128,146,186501,1,0,0:0:0:0:
235,31,186647,5,0,0:0:0:0:
139,292,186793,2,0,P|113:235|114:151,1,115.50000352478
111,165,187084,1,0,0:0:0:0:
235,31,187229,5,0,0:0:0:0:
146,317,187375,1,0,0:0:0:0:
60,110,187520,1,0,0:0:0:0:
195,82,187666,1,0,2:0:0:0:
11,289,187812,1,0,0:0:0:0:
281,345,187957,5,0,0:0:0:0:
337,75,188103,1,0,0:0:0:0:
67,19,188249,1,0,0:0:0:0:
11,289,188394,2,0,P|116:337|87:225,1,280
75,288,189122,5,0,0:0:0:0:
116,85,189268,1,0,0:0:0:0:
319,127,189414,1,0,0:0:0:0:
277,330,189559,2,0,P|259:217|361:267,1,280
298,268,190287,5,0,0:0:0:0:
135,235,190433,1,0,0:0:0:0:
169,72,190579,1,0,0:0:0:0:
331,106,190724,2,0,P|393:121|470:95,1,125.999996154785
310,105,191161,2,0,P|348:123|386:129,1,56
461,34,191453,1,0,0:0:0:0:
386,201,191598,1,0,0:0:0:0:
435,377,191744,6,0,P|513:295|399:286,1,272.194994600624
455,317,192618,5,0,0:0:0:0:
436,51,192763,1,0,0:0:0:0:
170,70,192909,1,0,0:0:0:0:
189,336,193054,2,0,P|216:225|113:275,1,280
176,274,193783,5,0,0:0:0:0:
388,258,193928,1,0,0:0:0:0:
373,45,194074,1,0,0:0:0:0:
160,61,194220,2,0,P|132:171|235:121,1,280
173,122,194948,5,0,0:0:0:0:
187,312,195093,1,0,0:0:0:0:
378,299,195239,1,0,0:0:0:0:
364,107,195385,2,0,P|361:59|392:-19,1,125.999996154785
361,122,195821,2,0,P|351:74|355:42,1,56
460,19,196113,1,0,0:0:0:0:
285,96,196258,1,0,0:0:0:0:
106,26,196404,6,0,P|201:50|83:88,1,315
