osu file format v14

[General]
AudioFilename: audio.mp3
AudioLeadIn: 0
PreviewTime: 33434
Countdown: 0
SampleSet: Normal
StackLeniency: 0.7
Mode: 1
LetterboxInBreaks: 0
WidescreenStoryboard: 1

[Editor]
Bookmarks: 33851,37184,39184,39351,39434,44851,54351
DistanceSpacing: 1
BeatDivisor: 4
GridSize: 32
TimelineZoom: 1.5

[Metadata]
Title:Scattered Rose
TitleUnicode:Scattered Rose
Artist:Sakuzyo
ArtistUnicode:削除
Creator:GIGACHAD
Version:Oni
Source:わずか1分で楽しめるBMSイベント
Tags:electronic dako selentia diverse system video game instrumental
BeatmapID:3380447
BeatmapSetID:1110929

[Difficulty]
HPDrainRate:6
CircleSize:2
OverallDifficulty:5
ApproachRate:9.6
SliderMultiplier:1.4
SliderTickRate:1

[Events]
//Background and Video events
0,0,"62644717_p0.jpg",0,-160
//Break Periods
//Storyboard Layer 0 (Background)
//Storyboard Layer 1 (Fail)
//Storyboard Layer 2 (Pass)
//Storyboard Layer 3 (Foreground)
//Storyboard Layer 4 (Overlay)
//Storyboard Sound Samples

[TimingPoints]
1435,333.333333333333,4,1,0,50,1,0
1435,-125,4,1,0,50,0,0
6434,-123.456790123457,4,1,0,50,0,0
6518,-121.951219512195,4,1,0,50,0,0
6601,-120.481927710843,4,1,0,50,0,0
6684,-119.047619047619,4,1,0,50,0,0
6768,-117.647058823529,4,1,0,90,0,0
11434,-111.111111111111,4,1,0,90,0,0
12101,-100,4,1,0,90,0,0
15268,-95.2380952380952,4,1,0,90,0,0
16101,-100,4,1,0,90,0,0
22101,-101.010101010101,4,1,0,90,0,0
22184,-102.040816326531,4,1,0,90,0,0
22268,-103.092783505155,4,1,0,90,0,0
22351,-104.166666666667,4,1,0,90,0,0
22434,-105.263157894737,4,1,0,90,0,0
22518,-106.382978723404,4,1,0,90,0,0
22601,-107.52688172043,4,1,0,90,0,0
22684,-108.695652173913,4,1,0,90,0,0
22768,-109.89010989011,4,1,0,90,0,0
27601,-108.695652173913,4,1,0,90,0,0
27684,-107.52688172043,4,1,0,90,0,0
27768,-106.382978723404,4,1,0,90,0,0
27851,-105.263157894737,4,1,0,90,0,0
27934,-104.166666666667,4,1,0,90,0,0
28018,-103.092783505155,4,1,0,90,0,0
28101,-102.040816326531,4,1,0,90,0,0
28601,-102.040816326531,4,1,0,50,0,0
33101,-99.009900990099,4,1,0,90,0,0
33184,-96.1538461538461,4,1,0,90,0,0
33268,-93.4579439252336,4,1,0,90,0,0
33434,-90.9090909090909,4,1,0,100,0,1
49434,-90.9090909090909,4,1,0,90,0,0
50101,-100,4,1,0,50,0,0
52101,-100,4,1,0,90,0,0

[HitObjects]
162,186,1435,5,0,0:0:0:0:
384,219,1601,1,0,0:0:0:0:
403,203,1768,1,8,0:0:0:0:
196,107,1934,1,8,0:0:0:0:
397,279,2101,1,0,0:0:0:0:
397,279,2268,1,8,0:0:0:0:
340,332,2434,1,8,0:0:0:0:
145,268,2768,1,0,0:0:0:0:
129,154,2934,1,0,0:0:0:0:
352,263,3268,1,0,0:0:0:0:
401,282,3601,1,8,0:0:0:0:
401,282,3768,1,0,0:0:0:0:
226,285,3934,1,0,0:0:0:0:
456,242,4101,1,8,0:0:0:0:
421,188,4768,1,8,0:0:0:0:
387,291,4934,1,8,0:0:0:0:
387,287,5101,1,0,0:0:0:0:
271,273,5268,1,0,0:0:0:0:
148,220,5434,1,8,0:0:0:0:
326,293,5934,1,0,0:0:0:0:
326,293,6268,1,8,0:0:0:0:
416,260,6434,1,0,0:0:0:0:
416,260,6518,1,0,0:0:0:0:
326,293,6601,1,0,0:0:0:0:
206,285,6768,1,12,0:0:0:0:
354,295,7101,1,0,0:0:0:0:
354,295,7268,1,0,0:0:0:0:
354,295,7434,1,8,0:0:0:0:
228,180,7934,1,0,0:0:0:0:
468,307,8101,1,8,0:0:0:0:
346,320,8434,1,0,0:0:0:0:
346,320,8601,1,0,0:0:0:0:
324,261,8768,1,8,0:0:0:0:
402,266,9018,1,0,0:0:0:0:
402,266,9268,1,8,0:0:0:0:
300,289,9434,1,4,0:0:0:0:
297,218,9768,1,0,0:0:0:0:
297,218,9935,1,0,0:0:0:0:
297,218,10101,1,8,0:0:0:0:
233,281,10268,1,8,0:0:0:0:
297,218,10434,1,0,0:0:0:0:
185,213,10601,1,8,0:0:0:0:
411,272,10768,1,0,0:0:0:0:
426,284,11101,1,8,0:0:0:0:
297,347,11268,1,8,0:0:0:0:
277,240,11434,1,4,0:0:0:0:
277,240,11601,1,4,0:0:0:0:
401,257,12101,1,12,0:0:0:0:
391,341,12434,1,0,0:0:0:0:
381,164,12518,1,0,0:0:0:0:
304,278,12601,1,8,0:0:0:0:
306,292,12768,1,0,0:0:0:0:
317,303,12934,1,8,0:0:0:0:
461,252,13101,1,0,0:0:0:0:
461,252,13184,1,0,0:0:0:0:
376,191,13268,1,8,0:0:0:0:
266,192,13434,1,0,0:0:0:0:
245,273,13684,1,0,0:0:0:0:
178,167,13768,1,8,0:0:0:0:
394,284,13934,1,0,0:0:0:0:
378,275,14018,1,8,0:0:0:0:
245,273,14101,1,8,0:0:0:0:
401,135,14351,1,0,0:0:0:0:
420,332,14434,1,8,0:0:0:0:
163,273,14601,1,0,0:0:0:0:
419,281,14768,1,8,0:0:0:0:
385,268,14934,1,0,0:0:0:0:
385,268,15101,1,8,0:0:0:0:
444,184,15184,1,8,0:0:0:0:
334,298,15268,1,4,0:0:0:0:
334,298,15601,1,4,0:0:0:0:
334,298,15934,1,4,0:0:0:0:
369,215,16268,1,0,0:0:0:0:
393,311,16434,1,8,0:0:0:0:
293,303,16518,1,8,0:0:0:0:
191,162,16601,1,8,0:0:0:0:
393,311,16768,1,0,0:0:0:0:
333,278,17018,1,8,0:0:0:0:
333,278,17101,1,0,0:0:0:0:
250,228,17268,1,8,0:0:0:0:
250,228,17434,1,0,0:0:0:0:
212,131,17768,1,8,0:0:0:0:
295,273,17934,1,0,0:0:0:0:
428,274,18018,1,0,0:0:0:0:
428,274,18101,1,8,0:0:0:0:
366,181,18268,1,0,0:0:0:0:
347,311,18434,1,8,0:0:0:0:
347,311,18518,1,0,0:0:0:0:
234,251,18601,1,8,0:0:0:0:
284,169,18768,1,0,0:0:0:0:
381,297,19018,1,0,0:0:0:0:
314,112,19101,1,8,0:0:0:0:
398,207,19268,1,8,0:0:0:0:
336,213,19351,1,8,0:0:0:0:
398,207,19434,1,0,0:0:0:0:
239,202,19684,1,8,0:0:0:0:
239,202,19768,1,0,0:0:0:0:
239,202,19851,1,0,0:0:0:0:
272,100,19934,1,8,0:0:0:0:
443,267,20101,1,0,0:0:0:0:
253,248,20434,1,8,0:0:0:0:
253,248,20601,1,0,0:0:0:0:
457,336,20684,1,0,0:0:0:0:
451,339,20768,1,0,0:0:0:0:
314,280,20934,1,8,0:0:0:0:
345,288,21101,1,0,0:0:0:0:
400,219,21184,1,0,0:0:0:0:
400,219,21268,1,8,0:0:0:0:
248,275,21434,1,0,0:0:0:0:
361,268,21601,1,0,0:0:0:0:
360,266,21768,1,8,0:0:0:0:
360,266,21851,1,8,0:0:0:0:
360,266,21934,1,0,0:0:0:0:
424,323,22101,1,8,0:0:0:0:
291,265,22268,1,0,0:0:0:0:
297,132,22351,1,0,0:0:0:0:
424,323,22434,1,8,0:0:0:0:
424,323,22518,1,8,0:0:0:0:
356,327,22601,1,0,0:0:0:0:
399,219,22768,1,12,0:0:0:0:
263,221,23101,1,0,0:0:0:0:
263,221,23268,1,8,0:0:0:0:
360,243,23434,1,0,0:0:0:0:
182,104,23601,1,0,0:0:0:0:
427,278,23768,1,8,0:0:0:0:
245,214,23934,1,0,0:0:0:0:
363,167,24101,1,8,0:0:0:0:
311,340,24434,1,8,0:0:0:0:
313,347,24601,1,8,0:0:0:0:
307,296,24768,1,0,0:0:0:0:
307,296,24934,1,0,0:0:0:0:
307,296,25101,1,8,0:0:0:0:
307,296,25268,1,8,0:0:0:0:
307,296,25434,1,0,0:0:0:0:
375,172,25768,1,8,0:0:0:0:
219,217,25934,1,0,0:0:0:0:
219,217,26101,1,8,0:0:0:0:
274,193,26268,1,0,0:0:0:0:
274,193,26434,1,8,0:0:0:0:
171,161,26601,1,8,0:0:0:0:
291,99,26768,1,0,0:0:0:0:
390,154,26851,1,8,0:0:0:0:
276,273,27101,1,8,0:0:0:0:
190,276,27268,5,0,0:0:0:0:
196,287,27434,1,8,0:0:0:0:
394,251,27601,1,0,0:0:0:0:
394,251,27684,1,0,0:0:0:0:
394,251,27768,1,8,0:0:0:0:
394,251,27851,1,8,0:0:0:0:
394,251,27934,1,0,0:0:0:0:
351,267,28101,1,12,0:0:0:0:
385,322,28601,1,8,0:0:0:0:
385,322,28768,1,0,0:0:0:0:
385,322,29268,1,8,0:0:0:0:
385,322,29435,1,0,0:0:0:0:
248,149,29934,1,0,0:0:0:0:
370,144,30101,1,8,0:0:0:0:
395,273,30601,1,8,0:0:0:0:
395,273,30768,1,0,0:0:0:0:
190,250,30934,1,0,0:0:0:0:
426,313,31101,1,8,0:0:0:0:
426,313,31268,1,0,0:0:0:0:
233,156,31434,1,8,0:0:0:0:
164,94,31518,1,8,0:0:0:0:
254,182,31601,1,0,0:0:0:0:
233,156,31768,1,0,0:0:0:0:
324,98,31851,1,0,0:0:0:0:
316,173,31934,1,8,0:0:0:0:
428,252,32101,5,0,0:0:0:0:
334,316,32434,1,8,0:0:0:0:
244,287,32601,1,0,0:0:0:0:
381,299,32768,1,12,0:0:0:0:
381,299,32934,1,12,0:0:0:0:
182,81,33101,1,0,0:0:0:0:
182,81,33184,1,0,0:0:0:0:
182,81,33268,1,0,0:0:0:0:
302,191,33434,5,12,0:0:0:0:
429,275,33768,1,8,0:0:0:0:
429,275,33851,1,8,0:0:0:0:
429,275,33934,1,0,0:0:0:0:
429,275,34101,1,8,0:0:0:0:
263,275,34268,1,0,0:0:0:0:
416,227,34351,1,0,0:0:0:0:
326,277,34434,1,8,0:0:0:0:
328,173,34601,1,0,0:0:0:0:
325,191,34768,1,8,0:0:0:0:
317,194,34851,1,8,0:0:0:0:
180,161,35018,1,0,0:0:0:0:
206,192,35101,1,8,0:0:0:0:
393,303,35268,1,0,0:0:0:0:
393,303,35434,1,8,0:0:0:0:
305,91,35684,1,0,0:0:0:0:
305,91,35768,1,8,0:0:0:0:
305,91,35851,1,8,0:0:0:0:
356,245,35934,1,0,0:0:0:0:
356,245,36101,1,8,0:0:0:0:
386,215,36434,1,8,0:0:0:0:
383,222,36601,1,0,0:0:0:0:
438,224,36684,1,8,0:0:0:0:
435,248,36768,1,0,0:0:0:0:
235,168,36934,1,8,0:0:0:0:
284,244,37101,1,0,0:0:0:0:
279,79,37268,1,8,0:0:0:0:
279,79,37351,1,8,0:0:0:0:
111,195,37434,1,0,0:0:0:0:
211,134,37601,1,8,0:0:0:0:
401,251,37768,1,0,0:0:0:0:
401,251,37851,1,0,0:0:0:0:
298,313,37934,1,8,0:0:0:0:
252,94,38018,1,8,0:0:0:0:
298,313,38101,1,0,0:0:0:0:
325,203,38351,1,0,0:0:0:0:
325,203,38434,1,8,0:0:0:0:
220,214,38601,1,0,0:0:0:0:
208,280,38684,1,8,0:0:0:0:
309,268,38768,1,0,0:0:0:0:
361,144,38934,1,8,0:0:0:0:
241,139,39018,1,8,0:0:0:0:
408,247,39101,1,0,0:0:0:0:
386,335,39268,1,8,0:0:0:0:
302,308,39601,1,0,0:0:0:0:
289,221,39768,1,8,0:0:0:0:
289,221,39851,1,8,0:0:0:0:
289,221,39934,1,0,0:0:0:0:
289,221,40101,1,8,0:0:0:0:
373,157,40351,1,0,0:0:0:0:
265,97,40434,1,8,0:0:0:0:
405,272,40601,1,8,0:0:0:0:
237,186,40768,1,0,0:0:0:0:
340,319,40851,1,0,0:0:0:0:
334,314,41018,1,8,0:0:0:0:
249,293,41101,1,0,0:0:0:0:
179,175,41184,1,0,0:0:0:0:
373,157,41268,1,8,0:0:0:0:
373,157,41434,1,0,0:0:0:0:
236,146,41768,1,8,0:0:0:0:
349,305,41934,1,0,0:0:0:0:
264,282,42018,1,8,0:0:0:0:
291,214,42101,1,0,0:0:0:0:
139,195,42268,1,0,0:0:0:0:
220,215,42351,1,0,0:0:0:0:
220,215,42434,1,8,0:0:0:0:
202,274,42518,1,8,0:0:0:0:
265,191,42601,1,0,0:0:0:0:
212,94,42768,1,8,0:0:0:0:
386,107,42851,1,8,0:0:0:0:
327,197,42934,1,0,0:0:0:0:
401,107,43101,1,8,0:0:0:0:
354,231,43268,1,0,0:0:0:0:
354,231,43351,1,0,0:0:0:0:
257,263,43434,1,8,0:0:0:0:
457,293,43601,1,0,0:0:0:0:
457,293,43684,1,0,0:0:0:0:
457,293,43768,1,8,0:0:0:0:
457,293,43851,1,8,0:0:0:0:
457,293,43934,1,0,0:0:0:0:
457,293,44101,1,12,0:0:0:0:
429,275,44434,1,8,0:0:0:0:
429,275,44517,1,8,0:0:0:0:
429,275,44600,1,0,0:0:0:0:
221,121,44684,1,0,0:0:0:0:
429,275,44767,1,8,0:0:0:0:
263,275,44934,1,0,0:0:0:0:
416,227,45018,1,8,0:0:0:0:
326,277,45100,1,0,0:0:0:0:
328,173,45267,1,8,0:0:0:0:
325,191,45434,1,8,0:0:0:0:
317,194,45517,1,0,0:0:0:0:
180,161,45684,1,0,0:0:0:0:
206,192,45767,1,8,0:0:0:0:
393,303,45934,1,0,0:0:0:0:
253,140,46018,1,0,0:0:0:0:
393,303,46100,1,8,0:0:0:0:
357,319,46351,1,0,0:0:0:0:
305,91,46434,1,8,0:0:0:0:
305,91,46517,1,8,0:0:0:0:
356,245,46600,1,0,0:0:0:0:
356,245,46767,1,8,0:0:0:0:
406,214,46934,1,0,0:0:0:0:
406,214,47101,1,0,0:0:0:0:
223,200,47268,1,12,0:0:0:0:
223,200,47601,1,12,0:0:0:0:
223,200,47934,1,12,0:0:0:0:
350,303,48268,1,0,0:0:0:0:
362,254,48434,1,8,0:0:0:0:
362,254,48518,1,8,0:0:0:0:
362,254,48601,1,8,0:0:0:0:
438,256,48768,1,0,0:0:0:0:
200,286,49018,1,0,0:0:0:0:
200,286,49101,1,8,0:0:0:0:
323,202,49268,1,0,0:0:0:0:
323,202,49351,1,0,0:0:0:0:
323,202,49434,1,12,0:0:0:0:
395,260,50101,1,8,0:0:0:0:
395,260,50351,1,0,0:0:0:0:
395,260,50601,1,8,0:0:0:0:
322,157,50768,1,0,0:0:0:0:
341,199,51434,1,0,0:0:0:0:
341,199,51684,1,8,0:0:0:0:
422,243,51934,1,0,0:0:0:0:
276,263,52101,1,8,0:0:0:0:
228,200,52268,1,0,0:0:0:0:
228,200,52351,1,0,0:0:0:0:
411,296,52434,1,8,0:0:0:0:
411,296,52518,1,8,0:0:0:0:
411,296,52684,1,0,0:0:0:0:
411,296,52768,1,8,0:0:0:0:
334,176,52934,1,8,0:0:0:0:
334,176,53018,1,0,0:0:0:0:
226,106,53184,1,0,0:0:0:0:
262,181,53268,1,8,0:0:0:0:
455,303,53434,1,0,0:0:0:0:
282,243,53601,1,0,0:0:0:0:
282,243,53768,1,0,0:0:0:0:
431,200,53934,1,0,0:0:0:0:
294,167,54101,5,8,0:0:0:0:
294,167,54185,1,8,0:0:0:0:
294,167,54268,1,0,0:0:0:0:
294,167,54434,1,0,0:0:0:0:
294,167,54518,1,0,0:0:0:0:
294,167,54601,1,8,0:0:0:0:
294,167,54684,1,8,0:0:0:0:
294,167,54768,1,0,0:0:0:0:
354,244,56768,1,8,0:0:0:0:
354,244,56851,1,8,0:0:0:0:
354,244,56934,1,0,0:0:0:0:
354,244,57101,1,8,0:0:0:0:
396,262,57184,1,8,0:0:0:0:
396,262,57268,1,0,0:0:0:0:
396,262,57351,1,0,0:0:0:0:
396,262,57434,1,12,0:0:0:0:
