osu file format v14

[General]
AudioFilename: audio.mp3
AudioLeadIn: 0
PreviewTime: 33434
Countdown: 0
SampleSet: Normal
StackLeniency: 0.7
Mode: 1
LetterboxInBreaks: 0
WidescreenStoryboard: 1

[Editor]
Bookmarks: 12434,12601,13268,22101,23101,23601,32101,39268,39434,41268,42601,43934,50601,54268
DistanceSpacing: 1
BeatDivisor: 4
GridSize: 32
TimelineZoom: 1.1

[Metadata]
Title:Scattered Rose
TitleUnicode:Scattered Rose
Artist:Sakuzyo
ArtistUnicode:削除
Creator:GIGACHAD
Version:Futsuu
Source:わずか1分で楽しめるBMSイベント
Tags:electronic dako selentia diverse system video game instrumental
BeatmapID:3380443
BeatmapSetID:1110929

[Difficulty]
HPDrainRate:8
CircleSize:2
OverallDifficulty:3
ApproachRate:9.6
SliderMultiplier:1.4
SliderTickRate:1

[Events]
//Background and Video events
0,0,"62644717_p0.jpg",0,-160
//Break Periods
//Storyboard Layer 0 (Background)
//Storyboard Layer 1 (Fail)
//Storyboard Layer 2 (Pass)
//Storyboard Layer 3 (Foreground)
//Storyboard Layer 4 (Overlay)
//Storyboard Sound Samples

[TimingPoints]
1435,333.333333333333,4,1,0,50,1,0
6768,-100,4,1,0,90,0,0
12101,-100,4,1,0,90,0,0
28601,-100,4,1,0,50,0,0
33434,-100,4,1,0,100,0,1
49434,-100,4,1,0,90,0,0
50101,-100,4,1,0,50,0,0
52101,-100,4,1,0,90,0,0

[HitObjects]
162,186,1435,5,0,0:0:0:0:
183,276,2101,1,8,0:0:0:0:
304,324,2768,1,0,0:0:0:0:
352,263,3268,1,0,0:0:0:0:
401,282,3601,1,8,0:0:0:0:
456,242,4101,1,0,0:0:0:0:
421,188,4768,1,8,0:0:0:0:
148,220,5434,1,8,0:0:0:0:
326,293,5934,1,0,0:0:0:0:
326,293,6268,1,8,0:0:0:0:
159,147,6434,1,0,0:0:0:0:
159,147,6601,1,0,0:0:0:0:
206,285,6768,1,12,0:0:0:0:
352,114,7101,1,0,0:0:0:0:
179,138,7434,1,8,0:0:0:0:
453,136,7934,1,0,0:0:0:0:
468,307,8101,1,8,0:0:0:0:
346,320,8434,1,0,0:0:0:0:
165,225,8601,1,0,0:0:0:0:
324,261,8768,1,8,0:0:0:0:
417,227,9268,1,8,0:0:0:0:
300,289,9434,1,4,0:0:0:0:
385,140,10101,1,0,0:0:0:0:
297,218,10434,1,0,0:0:0:0:
411,272,10768,1,8,0:0:0:0:
426,284,11101,1,8,0:0:0:0:
277,240,11434,1,4,0:0:0:0:
139,135,11601,1,4,0:0:0:0:
401,257,12101,1,12,0:0:0:0:
304,278,12601,1,8,0:0:0:0:
317,303,12934,1,0,0:0:0:0:
376,191,13268,1,8,0:0:0:0:
266,192,13434,1,0,0:0:0:0:
178,167,13768,1,8,0:0:0:0:
403,256,13934,1,0,0:0:0:0:
245,273,14101,1,8,0:0:0:0:
401,135,14434,1,8,0:0:0:0:
163,273,14601,1,8,0:0:0:0:
419,281,14768,1,0,0:0:0:0:
334,298,15268,1,12,0:0:0:0:
334,298,15601,1,12,0:0:0:0:
334,298,15934,1,12,0:0:0:0:
393,311,16434,1,4,0:0:0:0:
393,311,16768,1,8,0:0:0:0:
250,228,17434,1,0,0:0:0:0:
295,273,17934,1,0,0:0:0:0:
366,181,18268,1,8,0:0:0:0:
234,251,18601,1,8,0:0:0:0:
284,169,18768,1,0,0:0:0:0:
374,289,19101,1,8,0:0:0:0:
398,207,19268,1,8,0:0:0:0:
398,207,19434,1,0,0:0:0:0:
398,207,19768,1,0,0:0:0:0:
272,100,19934,1,0,0:0:0:0:
443,267,20101,1,8,0:0:0:0:
313,312,20434,1,8,0:0:0:0:
337,171,20601,1,0,0:0:0:0:
155,243,21101,1,8,0:0:0:0:
155,243,21268,1,8,0:0:0:0:
248,275,21434,1,0,0:0:0:0:
357,96,21768,1,8,0:0:0:0:
424,323,21934,1,0,0:0:0:0:
371,207,22101,1,8,0:0:0:0:
424,323,22434,1,0,0:0:0:0:
356,327,22601,1,0,0:0:0:0:
399,219,22768,1,12,0:0:0:0:
263,221,23268,1,8,0:0:0:0:
245,214,23934,1,0,0:0:0:0:
311,340,24434,1,8,0:0:0:0:
307,296,24768,1,0,0:0:0:0:
307,296,25101,1,8,0:0:0:0:
307,296,25434,1,0,0:0:0:0:
374,189,25601,1,0,0:0:0:0:
219,217,25934,1,0,0:0:0:0:
171,161,26601,1,8,0:0:0:0:
276,273,27101,1,0,0:0:0:0:
196,287,27434,1,8,0:0:0:0:
394,251,27768,1,0,0:0:0:0:
394,251,27934,1,0,0:0:0:0:
351,267,28101,1,12,0:0:0:0:
385,322,28601,1,8,0:0:0:0:
385,322,28768,1,0,0:0:0:0:
385,322,29268,1,8,0:0:0:0:
385,322,29435,1,0,0:0:0:0:
248,149,29934,1,0,0:0:0:0:
370,144,30101,1,8,0:0:0:0:
395,273,30601,1,8,0:0:0:0:
395,273,30768,1,0,0:0:0:0:
233,156,31434,1,8,0:0:0:0:
254,182,31601,1,8,0:0:0:0:
233,156,31768,1,0,0:0:0:0:
316,173,31934,1,0,0:0:0:0:
428,252,32101,5,8,0:0:0:0:
334,316,32434,1,0,0:0:0:0:
381,299,32768,1,12,0:0:0:0:
381,299,32934,1,12,0:0:0:0:
302,191,33434,5,12,0:0:0:0:
429,275,33934,1,0,0:0:0:0:
226,116,34268,1,0,0:0:0:0:
263,275,34434,1,0,0:0:0:0:
328,173,34601,1,8,0:0:0:0:
325,191,34768,1,0,0:0:0:0:
180,161,35101,1,8,0:0:0:0:
393,303,35434,1,0,0:0:0:0:
356,245,35934,1,0,0:0:0:0:
356,245,36101,1,8,0:0:0:0:
371,101,36601,1,8,0:0:0:0:
383,222,36768,1,8,0:0:0:0:
235,168,36934,1,0,0:0:0:0:
157,85,37268,1,0,0:0:0:0:
298,313,37768,1,8,0:0:0:0:
381,138,37934,1,8,0:0:0:0:
298,313,38101,1,0,0:0:0:0:
325,203,38434,1,8,0:0:0:0:
220,214,38601,1,0,0:0:0:0:
309,268,38768,1,8,0:0:0:0:
386,335,39268,1,0,0:0:0:0:
302,308,39601,1,8,0:0:0:0:
289,221,39934,1,8,0:0:0:0:
289,221,40101,1,0,0:0:0:0:
429,173,40434,1,0,0:0:0:0:
190,223,40601,1,8,0:0:0:0:
190,223,40768,1,0,0:0:0:0:
249,293,41101,1,8,0:0:0:0:
373,157,41268,1,0,0:0:0:0:
373,157,41434,1,8,0:0:0:0:
349,305,41934,1,0,0:0:0:0:
421,257,42101,1,0,0:0:0:0:
212,94,42768,1,8,0:0:0:0:
354,231,43268,1,0,0:0:0:0:
278,299,43601,1,8,0:0:0:0:
278,299,43768,1,8,0:0:0:0:
278,299,43934,1,0,0:0:0:0:
457,293,44101,1,12,0:0:0:0:
429,275,44601,1,0,0:0:0:0:
226,116,44935,1,0,0:0:0:0:
263,275,45101,1,0,0:0:0:0:
328,173,45268,1,8,0:0:0:0:
325,191,45435,1,0,0:0:0:0:
139,287,45768,1,8,0:0:0:0:
393,303,45935,1,0,0:0:0:0:
393,303,46101,1,8,0:0:0:0:
357,319,46434,1,0,0:0:0:0:
356,245,46601,1,0,0:0:0:0:
356,245,46768,1,8,0:0:0:0:
136,285,47268,1,12,0:0:0:0:
295,299,47601,1,12,0:0:0:0:
391,194,47934,5,12,0:0:0:0:
298,313,48435,1,4,0:0:0:0:
298,313,48768,1,0,0:0:0:0:
402,223,49101,1,8,0:0:0:0:
220,214,49268,1,8,0:0:0:0:
309,268,49435,1,4,0:0:0:0:
395,260,50101,1,8,0:0:0:0:
420,172,50434,1,0,0:0:0:0:
420,172,50601,1,0,0:0:0:0:
420,172,50768,1,8,0:0:0:0:
341,199,51434,1,0,0:0:0:0:
425,285,51768,1,0,0:0:0:0:
425,285,51934,1,8,0:0:0:0:
276,263,52101,1,0,0:0:0:0:
394,177,52434,1,8,0:0:0:0:
394,177,52601,1,8,0:0:0:0:
411,296,52768,1,0,0:0:0:0:
170,222,53268,5,0,0:0:0:0:
455,303,53434,1,8,0:0:0:0:
250,98,53601,1,8,0:0:0:0:
147,150,53768,1,0,0:0:0:0:
294,167,54101,5,8,0:0:0:0:
426,208,54268,1,8,0:0:0:0:
426,208,54434,1,0,0:0:0:0:
426,208,54601,1,0,0:0:0:0:
435,206,54768,1,8,0:0:0:0:
312,358,56768,1,0,0:0:0:0:
316,352,56934,1,0,0:0:0:0:
233,259,57101,1,8,0:0:0:0:
233,259,57268,1,8,0:0:0:0:
251,126,57434,1,4,0:0:0:0:
