osu file format v14

[General]
AudioFilename: audio.mp3
AudioLeadIn: 0
PreviewTime: -1
Countdown: 1
SampleSet: Normal
StackLeniency: 0.7
Mode: 0
LetterboxInBreaks: 0
WidescreenStoryboard: 0

[Editor]
Bookmarks: 16077
DistanceSpacing: 0.9
BeatDivisor: 4
GridSize: 4
TimelineZoom: 1.2

[Metadata]
Title:Refel
TitleUnicode:Refel
Artist:Sakuzyo
ArtistUnicode:Sakuzyo
Creator:Nitronic Techno
Version:4th Wall
Source:VOEZ
Tags:VOEZ Refel Sakuzyo Beat Nitro Nitronic Techno
BeatmapID:1491491
BeatmapSetID:705135

[Difficulty]
HPDrainRate:7
CircleSize:4
OverallDifficulty:8
ApproachRate:8.7
SliderMultiplier:1.95
SliderTickRate:1

[Events]
//Background and Video events
0,0,"refel.jpg",0,0
//Break Periods
//Storyboard Layer 0 (Background)
//Storyboard Layer 1 (Fail)
//Storyboard Layer 2 (Pass)
//Storyboard Layer 3 (Foreground)
//Storyboard Sound Samples

[TimingPoints]
4564,359.281437125748,4,1,0,60,1,0
6719,-133.333333333333,4,1,0,60,0,0
9593,-100,4,1,0,60,0,0
16061,-200,4,2,0,70,0,0
16105,-200,4,2,0,5,0,0
16150,-200,4,2,0,30,0,0
18935,-200,4,2,0,70,0,0
19024,-200,4,2,0,30,0,0
21809,-200,4,2,0,70,0,0
21898,-200,4,2,0,30,0,0
24683,-200,4,2,0,70,0,0
24772,-200,4,2,0,30,0,0
27558,-125,4,2,0,60,0,0
33306,-125,4,1,0,30,0,0
37617,-125,4,1,0,70,0,0
37797,-125,4,1,0,50,0,0
37887,-125,4,2,0,50,0,0
37977,-125,4,2,0,30,0,0
39055,-90.9090909090909,4,1,0,90,0,0
39234,-90.9090909090909,4,2,0,45,0,0
50552,-90.9090909090909,4,1,0,45,0,0
62049,-111.111111111111,4,1,0,45,0,0
79294,-111.111111111111,4,1,0,60,0,0
82168,-111.111111111111,4,1,0,65,0,0
83695,-111.111111111111,4,1,0,10,0,0
84863,-111.111111111111,4,3,0,50,0,0
85043,-83.3333333333333,4,1,0,70,0,1
108037,-100,4,1,0,50,0,0
110192,-133.333333333333,4,1,0,50,0,0
113066,-100,4,1,0,50,0,0

[HitObjects]
167,102,4563,6,0,B|176:71|148:32|148:32|107:39|79:77|122:146|122:146|153:187|149:251,1,292.5,8|0,0:0|0:0,0:0:0:0:
345,102,6719,2,0,B|336:71|364:32|364:32|405:39|433:77|390:146|390:146|359:187|363:251,1,292.5,0|8,0:0|0:0,0:0:0:0:
256,284,8516,5,0,0:0:0:0:
256,192,8695,1,0,0:0:0:0:
256,99,8875,1,0,0:0:0:0:
165,355,9593,6,0,P|240:328|359:360,2,195,0|0|8,0:0|0:0|0:0,0:0:0:0:
164,192,11390,5,0,0:0:0:0:
256,192,11569,1,0,0:0:0:0:
349,192,11749,1,0,0:0:0:0:
165,29,12468,6,0,P|240:56|359:24,1,195
171,132,13186,5,8,0:0:0:0:
140,224,13366,1,0,0:0:0:0:
109,313,13546,1,0,0:0:0:0:
171,132,13725,1,0,0:0:0:0:
341,132,14264,5,0,0:0:0:0:
372,224,14444,1,0,0:0:0:0:
403,313,14624,1,0,0:0:0:0:
341,132,14803,1,0,0:0:0:0:
255,192,15342,5,0,0:0:0:0:
256,192,16061,6,0,L|256:174,1,12.1875,4|0,1:0|0:0,0:0:0:0:
155,111,17498,5,0,0:0:0:0:
257,54,18126,1,0,0:0:0:0:
257,54,18216,1,2,0:0:0:0:
257,330,18755,1,0,0:0:0:0:
257,330,18845,1,0,0:0:0:0:
257,330,18935,1,4,1:0:0:0:
40,192,20372,6,0,L|226:192,1,170.625,2|0,0:0|0:0,0:0:0:0:
255,192,21090,1,0,0:0:0:0:
256,192,21809,5,4,1:0:0:0:
256,192,21899,12,0,23246,0:0:0:0:
159,279,23785,5,0,0:0:0:0:
167,256,23875,1,0,0:0:0:0:
176,233,23965,1,0,0:0:0:0:
316,79,24504,1,0,0:0:0:0:
331,97,24593,1,0,0:0:0:0:
346,115,24683,2,0,B|374:155|344:189|336:214|336:214|330:234|314:267|346:316,1,195,4|2,1:0|0:0,0:0:0:0:
166,115,26120,2,0,B|138:155|168:189|176:214|176:214|182:234|198:267|166:316,1,195,2|2,0:0|0:0,0:0:0:0:
120,31,27558,6,0,L|80:127,1,78,8|0,0:0|0:0,0:0:0:0:
138,205,27917,2,0,L|171:114,1,78,0|8,0:0|0:0,0:0:0:0:
232,113,28186,1,0,0:0:0:0:
232,113,28276,2,0,L|374:113,2,117,8|0|8,0:0|0:0|0:0,0:0:0:0:
164,131,28905,1,0,0:0:0:0:
164,131,28995,6,0,L|218:207,1,78,8|0,0:0|0:0,0:0:0:0:
271,232,29264,1,0,0:0:0:0:
271,232,29354,2,0,L|385:232,1,78
214,306,29713,2,0,L|122:306,1,78,8|0,0:0|0:0,0:0:0:0:
298,278,30072,2,0,L|298:371,1,78
209,203,30432,5,8,0:0:0:0:
204,164,30522,1,0,0:0:0:0:
212,124,30611,1,0,0:0:0:0:
206,85,30701,1,0,0:0:0:0:
141,57,30791,2,0,L|129:184,1,117
62,226,31150,5,8,0:0:0:0:
136,344,31330,1,0,0:0:0:0:
253,263,31510,1,0,0:0:0:0:
13,350,31689,1,8,0:0:0:0:
256,355,31869,6,0,P|319:366|363:349,1,78,8|0,0:0|0:0,0:0:0:0:
309,292,32138,1,0,0:0:0:0:
344,286,32228,2,0,L|389:266,1,39
356,206,32408,2,0,L|403:181,1,39
319,147,32587,2,0,L|258:88,1,78,8|0,0:0|0:0,0:0:0:0:
214,195,32947,2,0,L|230:107,1,78
140,208,33306,5,8,0:0:0:0:
114,238,33396,1,0,0:0:0:0:
124,275,33486,1,0,0:0:0:0:
96,306,33575,1,0,0:0:0:0:
154,365,33665,2,0,L|192:381,3,39,0|0|8|0,0:0|0:0|0:0|0:0,0:0:0:0:
177,302,34025,2,0,P|226:268|242:243,1,78,8|0,0:0|0:0,0:0:0:0:
231,177,34294,1,0,0:0:0:0:
232,142,34384,1,0,0:0:0:0:
262,113,34474,1,0,0:0:0:0:
300,98,34563,1,8,0:0:0:0:
343,84,34653,1,0,0:0:0:0:
380,85,34743,6,0,L|422:102,1,39,8|0,0:0|0:0,0:0:0:0:
336,149,34923,2,0,L|396:177,1,39
275,192,35102,2,0,L|217:223,1,39
315,261,35282,2,0,L|257:294,1,39,8|0,0:0|0:0,0:0:0:0:
368,323,35462,2,0,L|413:339,3,39,8|0|0|0,0:0|0:0|0:0|0:0,0:0:0:0:
290,327,35821,2,0,L|252:346,3,39
171,313,36180,6,0,L|166:268,1,39,8|0,0:0|0:0,0:0:0:0:
97,297,36360,2,0,L|99:238,1,39
27,252,36540,2,0,L|40:203,1,39
63,139,36719,1,8,0:0:0:0:
63,139,36809,1,0,0:0:0:0:
63,139,36899,2,0,P|133:113|158:114,1,78,8|0,0:0|0:0,0:0:0:0:
204,134,37168,1,0,0:0:0:0:
241,144,37258,1,0,0:0:0:0:
278,154,37348,1,0,0:0:0:0:
315,165,37438,1,0,0:0:0:0:
352,177,37528,1,0,0:0:0:0:
342,255,37617,6,0,L|300:324,1,78,8|2,0:0|0:0,0:0:0:0:
294,326,37887,1,2,0:0:0:0:
255,316,37977,1,2,0:0:0:0:
256,192,38066,12,8,39055,0:0:0:0:
133,46,39234,5,0,0:0:0:0:
102,55,39324,1,0,0:0:0:0:
81,73,39414,1,0,0:0:0:0:
307,42,39593,5,4,0:0:0:0:
319,47,40312,5,2,0:0:0:0:
324,49,40851,5,2,0:0:0:0:
357,223,41210,5,0,0:0:0:0:
328,249,41300,1,0,0:0:0:0:
290,260,41390,1,0,0:0:0:0:
253,246,41480,1,0,0:0:0:0:
225,286,41569,5,0,0:0:0:0:
205,319,41659,1,0,0:0:0:0:
118,252,41839,1,0,0:0:0:0:
93,282,41929,6,0,L|54:326,4,53.6250016365052,8|0|0|0|0,0:0|0:0|0:0|0:0|0:0,0:0:0:0:
45,162,42468,1,4,0:0:0:0:
67,139,42647,1,0,0:0:0:0:
89,116,42827,1,0,0:0:0:0:
197,64,43007,6,0,L|151:28,3,53.6250016365052
220,146,43366,6,2,L|253:173,3,35.7500010910034
296,217,43725,6,0,P|355:228|407:212,1,107.25000327301
281,136,44084,5,0,0:0:0:0:
248,122,44174,1,0,0:0:0:0:
212,102,44264,1,0,0:0:0:0:
187,71,44354,1,0,0:0:0:0:
125,39,44444,5,0,0:0:0:0:
104,74,44534,1,0,0:0:0:0:
82,110,44623,1,0,0:0:0:0:
66,147,44713,1,0,0:0:0:0:
59,183,44803,6,0,L|82:291,1,107.25000327301,8|0,0:0|0:0,0:0:0:0:
149,124,45162,2,0,L|125:13,1,107.25000327301,0|2,0:0|0:0,0:0:0:0:
385,19,45522,1,0,0:0:0:0:
369,66,45611,1,0,0:0:0:0:
356,108,45701,1,0,0:0:0:0:
276,185,45881,6,0,L|262:197,12,13.4062504091263
269,259,46240,5,0,0:0:0:0:
309,266,46330,1,0,0:0:0:0:
348,274,46420,1,0,0:0:0:0:
386,283,46510,1,0,0:0:0:0:
448,237,46599,6,0,L|448:118,1,107.25000327301
436,118,46869,1,0,0:0:0:0:
422,108,46959,1,0,0:0:0:0:
389,107,47049,1,0,0:0:0:0:
357,107,47138,1,0,0:0:0:0:
324,107,47228,1,0,0:0:0:0:
291,107,47318,1,0,0:0:0:0:
269,131,47408,1,0,0:0:0:0:
249,105,47498,1,0,0:0:0:0:
233,132,47587,1,0,0:0:0:0:
215,159,47677,5,0,0:0:0:0:
190,180,47767,1,0,0:0:0:0:
219,193,47857,1,0,0:0:0:0:
192,210,47947,1,0,0:0:0:0:
153,263,48037,6,0,L|157:315,3,35.7500010910034
122,250,48306,1,0,0:0:0:0:
83,229,48396,1,0,0:0:0:0:
68,200,48486,1,0,0:0:0:0:
67,168,48575,1,0,0:0:0:0:
69,135,48665,1,0,0:0:0:0:
101,116,48755,5,0,0:0:0:0:
151,134,48845,1,0,0:0:0:0:
201,151,48935,1,0,0:0:0:0:
251,169,49025,1,0,0:0:0:0:
279,183,49114,1,0,0:0:0:0:
292,212,49204,1,0,0:0:0:0:
294,244,49294,1,0,0:0:0:0:
407,169,49474,2,0,L|397:237,1,53.6250016365052
478,78,49743,1,0,0:0:0:0:
467,112,49833,1,0,0:0:0:0:
483,142,49923,1,0,0:0:0:0:
469,174,50013,1,0,0:0:0:0:
487,208,50102,1,0,0:0:0:0:
456,243,50192,1,0,0:0:0:0:
425,271,50282,1,0,0:0:0:0:
386,284,50372,1,0,0:0:0:0:
342,284,50462,1,0,0:0:0:0:
309,257,50552,5,2,0:0:0:0:
281,286,50641,1,0,0:0:0:0:
274,235,50731,1,0,0:0:0:0:
240,266,50821,1,0,0:0:0:0:
243,208,50911,2,0,P|183:186|140:200,1,107.25000327301,0|2,0:0|0:0,0:0:0:0:
121,222,51180,1,0,0:0:0:0:
267,136,51450,1,0,0:0:0:0:
437,67,51629,1,0,0:0:0:0:
428,106,51719,1,0,0:0:0:0:
416,143,51809,1,0,0:0:0:0:
407,187,51899,1,0,0:0:0:0:
399,228,51989,6,0,P|389:290|409:358,1,107.25000327301
256,251,52348,1,0,0:0:0:0:
256,294,52438,1,0,0:0:0:0:
256,133,52617,1,0,0:0:0:0:
256,90,52707,1,2,0:0:0:0:
114,50,52887,2,0,P|123:103|113:156,1,107.25000327301
93,186,53156,1,0,0:0:0:0:
113,215,53246,1,0,0:0:0:0:
106,254,53336,1,0,0:0:0:0:
132,283,53426,6,0,L|150:344,3,53.6250016365052,2|0|0|0,0:0|0:0|0:0|0:0,0:0:0:0:
206,283,53785,2,0,P|263:299|364:267,2,160.875004909516
299,187,54504,2,0,L|361:150,1,53.6250016365052,2|0,0:0|0:0,0:0:0:0:
241,133,54683,2,0,L|287:105,1,53.6250016365052,2|0,0:0|0:0,0:0:0:0:
189,75,54863,2,0,P|238:50|308:28,1,107.25000327301,2|0,0:0|0:0,0:0:0:0:
241,133,55222,1,0,0:0:0:0:
210,170,55312,1,0,0:0:0:0:
269,249,55492,1,0,0:0:0:0:
298,211,55581,2,0,P|348:182|483:250,1,214.500006546021,2|2,0:0|0:0,0:0:0:0:
439,298,56031,1,0,0:0:0:0:
439,298,56120,1,0,0:0:0:0:
439,298,56210,1,0,0:0:0:0:
439,298,56300,6,0,L|226:352,1,214.500006546021,2|0,0:0|0:0,0:0:0:0:
232,215,56929,1,0,0:0:0:0:
98,313,57198,1,0,0:0:0:0:
29,193,57378,1,2,0:0:0:0:
100,121,57558,1,2,0:0:0:0:
171,51,57737,1,2,0:0:0:0:
390,89,57917,6,0,P|371:155|384:221,1,107.25000327301
443,165,58186,2,0,P|452:223|433:277,1,107.25000327301
372,296,58456,1,2,0:0:0:0:
256,303,58635,1,0,0:0:0:0:
226,315,58725,1,0,0:0:0:0:
196,328,58815,1,2,0:0:0:0:
174,304,58905,1,0,0:0:0:0:
154,329,58995,1,0,0:0:0:0:
140,300,59084,1,0,0:0:0:0:
109,328,59174,6,0,L|54:356,3,53.6250016365052,2|0|2|0,0:0|0:0|0:0|0:0,0:0:0:0:
17,298,59534,1,2,0:0:0:0:
149,232,59713,1,2,0:0:0:0:
149,232,59803,1,0,0:0:0:0:
288,156,60072,1,0,0:0:0:0:
495,86,60252,5,2,0:0:0:0:
372,174,60432,1,2,0:0:0:0:
266,252,60611,1,2,0:0:0:0:
175,304,60791,1,2,0:0:0:0:
256,192,60881,12,4,62049,0:0:0:0:
132,94,62767,5,2,0:0:0:0:
132,94,63486,5,2,0:0:0:0:
218,159,64114,1,0,2:0:0:0:
218,159,64204,5,2,0:0:0:0:
444,167,64563,2,2,L|418:78,1,87.7499973220826
472,251,64923,5,0,2:0:0:0:
363,272,65102,2,0,L|260:291,2,87.7499973220826,2|2|2,0:0|0:0|0:0,0:0:0:0:
363,272,65552,1,0,2:0:0:0:
363,272,65641,1,0,2:0:0:0:
140,244,66180,1,0,2:0:0:0:
140,244,66270,1,0,2:0:0:0:
140,244,66360,1,0,2:0:0:0:
255,100,66989,1,0,2:0:0:0:
255,100,67078,6,0,L|256:279,1,175.499994644165,2|2,0:0|0:0,0:0:0:0:
128,68,67617,1,0,2:0:0:0:
109,98,67707,1,0,2:0:0:0:
89,124,67797,5,2,0:0:0:0:
185,267,67977,1,2,0:0:0:0:
86,218,68156,1,2,0:0:0:0:
89,124,68336,1,2,2:1:0:0:
128,112,68426,1,0,2:0:0:0:
166,101,68516,1,0,2:0:0:0:
423,260,69055,1,0,2:0:0:0:
384,272,69145,1,0,2:0:0:0:
346,283,69235,1,0,2:0:0:0:
257,352,69773,1,2,2:1:0:0:
257,311,69863,1,0,2:0:0:0:
255,275,69953,6,0,L|255:100,1,175.499994644165,2|2,0:0|0:0,0:0:0:0:
384,68,70492,1,0,2:0:0:0:
403,98,70582,1,0,2:0:0:0:
423,124,70672,5,2,2:1:0:0:
327,267,70852,1,2,0:0:0:0:
426,218,71031,1,2,0:0:0:0:
423,124,71211,1,2,2:1:0:0:
384,112,71301,1,0,2:0:0:0:
346,101,71391,1,0,2:0:0:0:
89,260,71930,1,0,2:0:0:0:
128,272,72020,1,0,2:0:0:0:
166,283,72110,1,0,2:0:0:0:
254,193,72647,1,0,2:0:0:0:
254,193,72737,1,0,2:0:0:0:
254,193,72827,1,0,2:0:0:0:
206,280,73186,2,8,L|367:280,1,131.624995983124,8|0,2:0|2:0,2:0:0:0:
271,213,73546,6,0,L|315:188,3,43.8749986610413,4|0|0|0,0:0|0:0|0:0|0:0,0:0:0:0:
249,146,73905,2,0,L|249:88,3,43.8749986610413
201,42,74264,2,0,P|166:94|180:181,1,131.624995983124,8|0,0:0|0:0,0:0:0:0:
237,118,74623,2,0,P|240:173|217:228,1,87.7499973220826
220,233,74893,1,0,0:0:0:0:
214,270,74983,6,0,L|242:337,3,43.8749986610413,8|0|0|0,0:0|0:0|0:0|0:0,0:0:0:0:
288,254,75342,2,0,L|312:309,3,43.8749986610413
370,244,75701,2,0,P|372:194|327:111,1,131.624995983124,8|0,0:0|0:0,0:0:0:0:
300,198,76061,1,8,0:0:0:0:
446,143,76240,1,8,0:0:0:0:
453,103,76330,1,0,0:0:0:0:
460,64,76420,6,8,L|348:41,1,87.7499973220826,0|8,0:0|0:0,0:0:0:0:
237,82,76779,2,8,L|334:109,1,87.7499973220826
309,196,77138,2,0,P|228:191|171:218,1,131.624995983124
251,261,77498,2,0,P|175:283|156:279,1,87.7499973220826
137,274,77767,1,0,0:0:0:0:
104,251,77857,6,0,L|98:199,3,43.8749986610413
27,186,78216,2,0,L|38:138,3,43.8749986610413
92,97,78575,2,0,P|139:83|237:107,1,131.624995983124,8|0,0:0|0:0,0:0:0:0:
260,158,78935,2,0,P|308:165|354:156,1,87.7499973220826,8|0,0:0|0:0,0:0:0:0:
377,150,79204,1,0,0:0:0:0:
415,145,79294,6,0,L|472:155,3,43.8749986610413,8|0|8|0,0:0|0:0|0:0|0:0,0:0:0:0:
440,222,79653,2,0,L|388:211,3,43.8749986610413,8|0|8|0,0:0|0:0|0:0|0:0,0:0:0:0:
400,285,80013,2,0,P|339:292|287:263,1,87.7499973220826
300,261,80282,1,0,0:0:0:0:
286,238,80372,1,0,0:0:0:0:
246,218,80462,1,0,0:0:0:0:
204,202,80552,1,0,0:0:0:0:
162,190,80641,1,0,0:0:0:0:
94,172,80731,6,0,L|75:237,3,43.8749986610413
142,273,81090,2,0,L|128:335,3,43.8749986610413,0|0|8|0,0:0|0:0|0:0|0:0,0:0:0:0:
196,357,81450,2,0,P|258:337|368:356,1,175.499994644165,8|8,0:0|0:0,0:0:0:0:
330,261,81989,1,0,0:0:0:0:
344,220,82078,1,0,0:0:0:0:
357,178,82168,5,8,0:0:0:0:
338,133,82258,1,0,0:0:0:0:
298,104,82348,1,8,0:0:0:0:
249,103,82438,1,0,0:0:0:0:
205,123,82528,1,8,0:0:0:0:
180,164,82617,1,0,0:0:0:0:
182,212,82707,1,8,0:0:0:0:
206,253,82797,1,0,0:0:0:0:
242,221,82887,5,0,0:0:0:0:
262,177,82977,1,0,0:0:0:0:
246,131,83066,1,0,0:0:0:0:
209,99,83156,1,0,0:0:0:0:
160,93,83246,1,0,0:0:0:0:
119,119,83336,1,0,0:0:0:0:
100,163,83426,1,0,0:0:0:0:
105,211,83516,1,0,0:0:0:0:
133,249,83605,5,0,0:0:0:0:
256,192,83695,12,4,84863,0:0:0:0:
142,47,85043,6,0,P|119:146|170:253,1,175.499994644165,2|0,0:0|0:0,0:0:0:0:
198,134,85402,2,8,L|403:134,2,175.499994644165
256,223,86120,1,0,0:0:0:0:
228,274,86210,1,0,0:0:0:0:
378,223,86480,6,0,L|432:106,1,116.999996429443,2|8,0:0|0:0,0:0:0:0:
256,161,86839,1,8,0:0:0:0:
284,110,86929,1,8,0:0:0:0:
178,53,87108,1,0,0:0:0:0:
142,99,87198,1,0,0:0:0:0:
142,157,87288,1,0,0:0:0:0:
143,215,87378,1,0,0:0:0:0:
206,313,87558,2,0,P|289:341|332:331,1,116.999996429443
277,270,87827,1,0,0:0:0:0:
277,270,87917,6,0,L|332:131,1,116.999996429443,2|0,0:0|0:0,0:0:0:0:
231,51,88276,2,0,L|211:98,3,38.9999988098145,8|0|0|0,0:0|0:0|0:0|0:0,0:0:0:0:
184,94,88546,2,0,P|168:153|199:268,1,175.499994644165,8|8,0:0|0:0,0:0:0:0:
245,177,88995,2,0,L|447:177,1,175.499994644165
469,115,89354,6,0,P|488:180|471:238,1,116.999996429443,2|8,0:0|0:0,0:0:0:0:
255,252,89713,1,8,0:0:0:0:
256,310,89803,1,8,0:0:0:0:
254,194,89983,1,0,0:0:0:0:
256,74,90162,1,0,0:0:0:0:
255,132,90252,1,0,0:0:0:0:
59,119,90432,1,0,0:0:0:0:
34,172,90522,1,0,0:0:0:0:
36,229,90611,1,0,0:0:0:0:
62,281,90701,1,0,0:0:0:0:
94,319,90791,6,0,P|148:294|224:329,1,116.999996429443,2|0,0:0|0:0,0:0:0:0:
256,277,91150,2,8,L|355:129,2,175.499994644165
139,115,91869,1,0,0:0:0:0:
139,173,91959,1,0,0:0:0:0:
373,173,92138,1,0,0:0:0:0:
373,115,92228,1,2,0:0:0:0:
256,146,92408,1,8,0:0:0:0:
255,255,92587,6,0,L|302:284,3,38.9999988098145,8|0|0|0,0:0|0:0|0:0|0:0,0:0:0:0:
303,304,92857,2,8,P|362:314|482:249,1,175.499994644165
285,39,93306,1,0,0:0:0:0:
309,87,93396,1,0,0:0:0:0:
331,135,93485,1,0,0:0:0:0:
353,184,93575,1,0,0:0:0:0:
375,233,93665,6,0,L|413:106,1,116.999996429443,2|0,0:0|0:0,0:0:0:0:
435,37,94025,2,8,B|476:103|476:103|466:135|465:199|487:250,2,175.499994644165
394,26,94653,1,0,0:0:0:0:
342,38,94743,1,0,0:0:0:0:
256,78,95013,1,0,0:0:0:0:
256,123,95102,6,0,L|256:261,1,116.999996429443,2|8,0:0|0:0,0:0:0:0:
120,326,95462,2,0,P|152:269|143:216,1,116.999996429443,4|0,0:0|0:0,0:0:0:0:
72,223,95731,2,0,P|73:160|124:103,1,116.999996429443,4|0,0:0|0:0,0:0:0:0:
173,91,96001,2,0,P|225:119|298:120,1,116.999996429443,4|0,0:0|0:0,0:0:0:0:
325,152,96270,1,2,0:0:0:0:
368,181,96360,1,2,0:0:0:0:
410,211,96450,1,2,0:0:0:0:
454,240,96540,6,0,L|490:364,1,116.999996429443,4|0,0:0|0:0,0:0:0:0:
352,281,96899,2,0,L|361:231,3,38.9999988098145,8|0|0|0,0:0|0:0|0:0|0:0,0:0:0:0:
317,184,97168,2,0,L|242:351,1,175.499994644165
149,339,97617,2,0,P|194:267|169:171,1,175.499994644165,8|0,0:0|0:0,0:0:0:0:
112,161,97977,6,0,L|145:39,1,116.999996429443,2|0,0:0|0:0,0:0:0:0:
206,183,98336,1,8,0:0:0:0:
182,230,98426,1,0,0:0:0:0:
161,278,98516,1,0,0:0:0:0:
141,326,98605,1,0,0:0:0:0:
123,375,98695,1,2,0:0:0:0:
247,207,98875,2,0,L|297:67,1,116.999996429443,0|8,0:0|0:0,0:0:0:0:
327,85,99144,1,0,0:0:0:0:
356,128,99234,1,0,0:0:0:0:
383,173,99324,1,0,0:0:0:0:
410,217,99414,6,0,L|469:85,1,116.999996429443,2|0,0:0|0:0,0:0:0:0:
328,174,99773,2,0,L|268:311,1,116.999996429443,8|0,0:0|0:0,0:0:0:0:
246,286,100043,2,0,P|182:292|98:205,1,175.499994644165
196,195,100492,2,0,P|257:186|324:217,1,116.999996429443,8|0,0:0|0:0,0:0:0:0:
377,248,100761,1,0,0:0:0:0:
377,248,100851,6,0,L|424:127,1,116.999996429443,2|0,0:0|0:0,0:0:0:0:
327,89,101210,2,0,L|310:143,3,38.9999988098145,8|0|0|0,0:0|0:0|0:0|0:0,0:0:0:0:
245,128,101480,2,0,L|251:311,1,175.499994644165
103,297,101929,1,8,0:0:0:0:
113,245,102019,1,0,0:0:0:0:
123,193,102108,1,0,0:0:0:0:
133,141,102198,1,0,0:0:0:0:
142,89,102288,6,0,P|205:67|287:90,1,116.999996429443,2|0,0:0|0:0,0:0:0:0:
321,109,102558,1,0,0:0:0:0:
321,109,102647,2,0,P|379:111|475:31,2,175.499994644165,8|0|0,0:0|0:0|0:0,0:0:0:0:
272,187,103366,2,0,L|243:330,1,116.999996429443,8|0,0:0|0:0,0:0:0:0:
188,257,103635,1,0,0:0:0:0:
188,257,103725,6,0,L|151:378,1,116.999996429443,2|0,0:0|0:0,0:0:0:0:
108,245,104084,1,8,0:0:0:0:
99,192,104174,1,0,0:0:0:0:
110,140,104264,1,0,0:0:0:0:
123,88,104354,1,0,0:0:0:0:
142,39,104444,2,0,P|201:29|306:49,1,116.999996429443,2|0,0:0|0:0,0:0:0:0:
347,88,104803,1,8,0:0:0:0:
362,138,104893,1,0,0:0:0:0:
342,187,104983,1,0,0:0:0:0:
325,236,105072,1,0,0:0:0:0:
352,280,105162,6,0,P|388:329|462:336,1,116.999996429443,2|0,0:0|0:0,0:0:0:0:
280,294,105522,2,0,P|235:258|129:295,1,175.499994644165,8|0,0:0|0:0,0:0:0:0:
81,232,105881,2,0,P|55:298|74:360,1,116.999996429443,2|0,0:0|0:0,0:0:0:0:
132,292,106240,2,0,L|213:134,1,175.499994644165,8|0,0:0|0:0,0:0:0:0:
245,110,106599,5,2,0:0:0:0:
274,153,106689,1,2,0:0:0:0:
277,205,106779,1,2,0:0:0:0:
255,253,106869,1,2,0:0:0:0:
214,286,106959,1,2,0:0:0:0:
161,293,107049,1,2,0:0:0:0:
114,269,107138,1,2,0:0:0:0:
84,225,107228,1,2,0:0:0:0:
134,210,107318,5,8,0:0:0:0:
185,221,107408,1,8,0:0:0:0:
225,255,107498,1,8,0:0:0:0:
236,305,107587,1,8,0:0:0:0:
215,353,107677,1,8,0:0:0:0:
165,370,107767,1,8,0:0:0:0:
114,355,107857,1,8,0:0:0:0:
91,307,107947,1,8,0:0:0:0:
94,263,108037,6,2,B|168:206|200:226|222:244|222:244|252:266|308:273|360:214,1,292.5
418,121,110192,6,2,B|344:178|312:158|290:140|290:140|260:118|204:111|152:170,1,292.5
168,192,111989,5,2,0:0:0:0:
256,280,112168,1,2,0:0:0:0:
344,192,112348,1,2,0:0:0:0:
256,208,113066,6,2,L|256:12,2,195,2|2|6,0:0|0:0|0:0,0:0:0:0:
