osu file format v14

[General]
AudioFilename: audio.mp3
AudioLeadIn: 0
PreviewTime: -1
Countdown: 1
SampleSet: Normal
StackLeniency: 0.7
Mode: 0
LetterboxInBreaks: 0
WidescreenStoryboard: 0

[Editor]
Bookmarks: 10137,51516,78620,91758,123206,129206,136964,139964
DistanceSpacing: 2.7
BeatDivisor: 4
GridSize: 16
TimelineZoom: 2.3

[Metadata]
Title:Magicatz
TitleUnicode:Magicatz
Artist:Sakuzyo
ArtistUnicode:削除
Creator:Daitsuku
Version:Extra
Source:Deemo
Tags:deemo magicatz sakuzyo 削除 piano
BeatmapID:2003196
BeatmapSetID:956867

[Difficulty]
HPDrainRate:5
CircleSize:4
OverallDifficulty:7
ApproachRate:9
SliderMultiplier:1.1
SliderTickRate:1

[Events]
//Background and Video events
0,0,"bg.jpg",0,0
//Break Periods
2,19273,21567
//Storyboard Layer 0 (Background)
//Storyboard Layer 1 (Fail)
//Storyboard Layer 2 (Pass)
//Storyboard Layer 3 (Foreground)
//Storyboard Sound Samples

[TimingPoints]
827,412.371134020619,4,1,0,100,1,0
827,-133.333333333333,4,1,0,10,0,0
10105,-100,4,1,0,74,0,0
18352,-40,4,1,0,74,0,0
19177,-100,4,3,0,74,0,0
25569,-100,4,2,0,74,0,0
26187,409.556313993174,4,2,0,74,1,0
38883,-66.6666666666667,4,1,0,74,0,0
51374,409.556313993174,4,1,0,74,1,0
51516,-83.3333333333333,4,2,0,60,0,0
64582,-1000,4,1,0,60,0,0
65197,-83.3333333333333,4,1,0,60,0,0
78620,-133.333333333333,4,1,0,10,0,0
85163,315.789473684211,4,1,0,70,1,0
85163,-133.333333333333,4,1,0,70,0,0
89978,409.556313993174,4,1,0,70,1,0
91716,-83.3333333333333,4,2,0,90,0,0
91821,-83.3333333333333,4,2,0,90,0,1
92230,-83.3333333333333,4,1,0,90,0,1
123206,-133.333333333333,4,1,0,10,0,1
123354,416.666666666667,4,1,0,10,1,0
129206,-1000,4,1,0,10,0,0
136895,-133.333333333333,4,1,0,10,0,0
139916,-100,4,1,0,10,0,0

[HitObjects]
144,102,826,6,0,P|141:139|161:208,1,110
255,172,1651,1,0,0:0:0:0:
356,174,1857,2,0,L|378:132,1,41.2500015735627
397,251,2270,2,0,L|377:291,1,41.2500015735627
302,294,2682,1,0,0:0:0:0:
186,294,2888,2,0,L|153:259,1,41.2500015735627
167,219,3507,5,0,0:0:0:0:
101,81,3713,1,0,0:0:0:0:
253,85,3919,1,0,0:0:0:0:
300,229,4125,1,0,0:0:0:0:
386,325,4538,5,0,0:0:0:0:
420,232,4950,1,0,0:0:0:0:
456,139,5363,1,0,0:0:0:0:
459,38,5569,2,0,L|476:13,2,20.6250007867813
370,87,5981,1,0,0:0:0:0:
334,94,6084,1,0,0:0:0:0:
304,106,6187,1,0,0:0:0:0:
286,141,6290,1,0,0:0:0:0:
268,174,6393,5,0,0:0:0:0:
228,177,6496,1,0,0:0:0:0:
187,183,6599,1,0,0:0:0:0:
148,159,6702,1,0,0:0:0:0:
122,125,6806,2,0,P|104:93|102:73,1,41.2500015735627
216,87,7218,5,0,0:0:0:0:
328,106,7424,1,0,0:0:0:0:
356,212,7837,2,0,L|304:279,1,82.5000031471254
169,181,8662,1,0,0:0:0:0:
311,125,9074,5,0,0:0:0:0:
427,166,9280,1,0,0:0:0:0:
216,280,9486,1,0,0:0:0:0:
339,299,9692,1,0,0:0:0:0:
379,90,10105,6,0,P|325:81|314:81,1,55
183,156,10517,2,0,P|227:136|255:134,1,55
357,178,11136,1,0,0:0:0:0:
69,104,11548,1,0,0:0:0:0:
218,168,11961,2,0,P|262:153|276:151,1,55
428,185,12373,6,0,P|399:241|386:153,1,220
84,185,14022,6,0,P|113:241|126:153,1,220
270,59,15672,6,0,B|189:101|189:101|187:134|189:138|232:168|288:154|288:154|241:293,1,357.5
197,253,17321,2,0,B|92:195|94:112|94:112|164:104,1,247.5
193,99,18352,2,0,B|320:286|320:286|391:66|405:188|290:256|331:113|274:143|360:56,1,481.25
132,140,22167,5,0,0:0:0:0:
252,249,22373,1,0,0:0:0:0:
320,86,22579,1,0,0:0:0:0:
432,202,22785,1,0,0:0:0:0:
400,302,22991,2,0,P|356:311|328:311,1,55
287,228,23404,2,0,P|243:226|207:228,1,55
135,320,23816,5,0,0:0:0:0:
213,207,24022,1,0,0:0:0:0:
279,90,24229,2,0,P|326:126|328:132,1,55
315,263,24641,2,0,P|343:230|348:208,1,55
275,88,25053,2,0,P|308:115|318:132,1,55
316,261,25466,6,0,P|342:225|357:176,1,82.5
362,184,25878,2,0,P|377:150|377:130,1,55
307,63,26289,1,0,0:0:0:0:
258,113,26391,6,0,P|243:148|240:156,1,27.5
109,132,26698,2,0,L|135:187,1,55
55,220,27108,2,0,L|105:246,1,55
219,294,27518,5,0,0:0:0:0:
267,276,27620,2,0,L|288:254,1,27.5
394,234,27927,2,0,L|362:183,1,55
408,74,28337,2,0,L|342:87,1,55
336,112,28644,2,0,L|312:132,1,27.5
296,158,28849,1,0,0:0:0:0:
265,190,28951,6,0,L|249:252,1,55
173,291,29361,2,0,L|140:307,1,27.5
48,287,29668,1,0,0:0:0:0:
74,191,29873,6,0,L|76:157,1,27.5
92,146,30077,2,0,L|94:109,1,27.5
122,90,30282,2,0,L|146:69,1,27.5
177,81,30487,2,0,L|207:96,1,27.5
237,115,30692,2,0,L|276:124,1,27.5
353,173,30999,6,0,L|376:198,1,27.5
296,252,31306,1,0,0:0:0:0:
196,283,31511,2,0,L|169:273,1,27.5
147,258,31716,2,0,L|135:230,1,27.5
114,205,31818,2,0,L|81:198,1,27.5
60,173,32023,2,0,L|51:144,1,27.5
62,112,32227,1,0,0:0:0:0:
85,73,32330,6,0,P|152:61|184:66,1,82.5
264,92,32842,1,0,0:0:0:0:
362,143,33047,2,0,L|386:169,1,27.5
396,272,33354,1,0,0:0:0:0:
362,143,33559,1,0,0:0:0:0:
438,45,33763,2,0,L|464:71,1,27.5
429,174,34070,5,0,0:0:0:0:
424,280,34275,2,0,L|384:289,1,27.5
250,319,34582,2,0,L|238:284,1,27.5
224,152,34890,1,0,0:0:0:0:
112,241,35094,2,0,L|130:204,1,27.5
131,178,35299,2,0,L|115:154,1,27.5
111,109,35504,2,0,B|55:103|39:143|39:167,1,82.5
43,186,35913,6,0,L|57:216,1,27.5
78,245,36118,1,0,0:0:0:0:
105,277,36221,2,0,L|141:285,1,27.5
246,251,36528,2,0,L|276:238,1,27.5
300,215,36733,2,0,L|318:192,1,27.5
348,163,36937,2,0,L|377:144,1,27.5
410,128,37142,5,0,0:0:0:0:
350,279,37347,1,0,0:0:0:0:
274,178,37552,2,0,L|250:153,2,27.5
135,133,38064,5,0,0:0:0:0:
144,107,38166,1,0,0:0:0:0:
136,82,38268,1,0,0:0:0:0:
114,67,38371,1,0,0:0:0:0:
87,70,38473,5,0,0:0:0:0:
68,89,38575,1,0,0:0:0:0:
65,115,38678,1,0,0:0:0:0:
80,138,38780,1,0,0:0:0:0:
104,166,38883,2,0,P|145:194|181:208,1,82.5000031471254
245,123,39292,5,0,0:0:0:0:
372,99,39497,2,0,L|376:185,1,82.5000031471254
339,306,39907,1,0,0:0:0:0:
212,250,40111,1,0,0:0:0:0:
105,277,40316,1,0,0:0:0:0:
97,139,40521,2,0,P|126:108|168:94,1,82.5000031471254
339,179,40931,2,0,P|325:216|290:250,1,82.5000031471254
259,62,41340,5,0,0:0:0:0:
228,180,41545,1,0,0:0:0:0:
201,295,41750,1,0,0:0:0:0:
254,371,41954,2,0,P|298:369|299:368,1,41.2500015735627
411,300,42262,6,0,P|416:242|409:211,1,82.5000031471254
355,161,42671,2,0,P|337:140|305:128,1,41.2500015735627
226,123,42978,1,0,0:0:0:0:
196,263,43183,1,0,0:0:0:0:
132,350,43388,2,0,P|90:346|67:341,1,41.2500015735627
54,322,43593,6,0,L|68:282,1,41.2500015735627
73,233,43798,2,0,L|47:194,1,41.2500015735627
54,120,44002,6,0,L|80:88,1,41.2500015735627
164,109,44309,1,0,0:0:0:0:
235,146,44514,1,0,0:0:0:0:
300,191,44719,1,0,0:0:0:0:
345,220,44821,2,0,L|336:264,1,41.2500015735627
300,297,45026,1,0,0:0:0:0:
205,304,45231,6,0,P|158:270|137:204,1,123.750004720688
