osu file format v14

[General]
AudioFilename: audio.mp3
AudioLeadIn: 0
PreviewTime: 84276
Countdown: 0
SampleSet: Normal
StackLeniency: 0.7
Mode: 3
LetterboxInBreaks: 0
SpecialStyle: 0
WidescreenStoryboard: 1

[Editor]
DistanceSpacing: 0.5
BeatDivisor: 6
GridSize: 8
TimelineZoom: 3

[Metadata]
Title:Lost Memory
TitleUnicode:Lost Memory
Artist:Sakuzyo
ArtistUnicode:Sakuzyo
Creator:aha_1431962
Version:Hyper
Source:
Tags:
BeatmapID:1300561
BeatmapSetID:616113

[Difficulty]
HPDrainRate:8.5
CircleSize:4
OverallDifficulty:8.4
ApproachRate:5
SliderMultiplier:1.4
SliderTickRate:1

[Events]
//Background and Video events
0,0,"BG.jpg",0,0
//Break Periods
//Storyboard Layer 0 (Background)
//Storyboard Layer 1 (Fail)
//Storyboard Layer 2 (Pass)
//Storyboard Layer 3 (Foreground)
//Storyboard Sound Samples

[TimingPoints]
276,315.789473684211,3,1,0,30,1,0
198919,-10,3,1,0,30,0,0
199381,-1000,3,1,0,30,0,0
199854,-133.333333333333,3,1,0,30,0,0
201118,-100,3,1,0,30,0,0

[HitObjects]
64,192,276,128,0,4065:0:0:0:0:
448,192,486,128,0,4065:0:0:0:0:
320,192,591,128,0,4381:0:0:0:0:
192,192,4065,128,0,7854:0:0:0:0:
448,192,4381,128,0,7854:0:0:0:0:
192,192,8170,128,0,11328:0:0:0:0:
320,192,8170,128,0,12276:0:0:0:0:
64,192,11328,128,0,11486:0:0:0:0:
192,192,11486,128,0,11644:0:0:0:0:
448,192,11644,128,0,11960:0:0:0:0:
192,192,11960,128,0,15433:0:0:0:0:
64,192,12276,128,0,14644:0:0:0:0:
448,192,14644,128,0,14802:0:0:0:0:
320,192,14802,128,0,14960:0:0:0:0:
64,192,14960,128,0,15118:0:0:0:0:
320,192,15118,128,0,15276:0:0:0:0:
448,192,15276,128,0,15433:0:0:0:0:
64,192,15433,128,0,17328:0:0:0:0:
320,192,15433,1,0,0:0:0:0:
448,192,15591,1,0,0:0:0:0:
192,192,15749,1,0,0:0:0:0:
320,192,15907,1,0,0:0:0:0:
192,192,16065,1,0,0:0:0:0:
448,192,16223,1,0,0:0:0:0:
320,192,16381,1,0,0:0:0:0:
192,192,16381,1,0,0:0:0:0:
448,192,16539,1,0,0:0:0:0:
192,192,16697,1,0,0:0:0:0:
320,192,16854,1,0,0:0:0:0:
192,192,17012,1,0,0:0:0:0:
448,192,17170,128,0,17328:0:0:0:0:
320,192,17328,128,0,17486:0:0:0:0:
192,192,17328,1,0,0:0:0:0:
192,192,17486,128,0,19223:0:0:0:0:
448,192,17486,1,0,0:0:0:0:
64,192,17644,1,0,0:0:0:0:
320,192,17802,1,0,0:0:0:0:
64,192,17960,1,0,0:0:0:0:
448,192,18118,1,0,0:0:0:0:
64,192,18276,1,0,0:0:0:0:
448,192,18276,1,0,0:0:0:0:
320,192,18433,1,0,0:0:0:0:
64,192,18591,1,0,0:0:0:0:
64,192,18749,1,0,0:0:0:0:
320,192,18907,1,0,0:0:0:0:
64,192,19065,1,0,0:0:0:0:
320,192,19065,128,0,19223:0:0:0:0:
448,192,19223,128,0,21118:0:0:0:0:
64,192,19223,1,0,0:0:0:0:
320,192,19381,1,0,0:0:0:0:
64,192,19539,1,0,0:0:0:0:
192,192,19697,1,0,0:0:0:0:
320,192,19854,1,0,0:0:0:0:
64,192,20012,1,0,0:0:0:0:
192,192,20170,1,0,0:0:0:0:
320,192,20170,1,0,0:0:0:0:
320,192,20328,1,0,0:0:0:0:
64,192,20486,1,0,0:0:0:0:
192,192,20644,1,0,0:0:0:0:
64,192,20802,1,0,0:0:0:0:
192,192,20960,128,0,21118:0:0:0:0:
320,192,21118,128,0,21276:0:0:0:0:
192,192,21276,128,0,23012:0:0:0:0:
64,192,21276,1,0,0:0:0:0:
320,192,21433,1,0,0:0:0:0:
448,192,21591,128,0,21591:0:0:0:0:
64,192,21749,1,0,0:0:0:0:
320,192,21907,1,0,0:0:0:0:
448,192,22065,1,0,0:0:0:0:
320,192,22065,1,0,0:0:0:0:
448,192,22223,1,0,0:0:0:0:
64,192,22381,1,0,0:0:0:0:
320,192,22539,1,0,0:0:0:0:
448,192,22697,1,0,0:0:0:0:
320,192,22854,128,0,23012:0:0:0:0:
448,192,23012,128,0,24907:0:0:0:0:
64,192,23012,128,0,23065:0:0:0:0:
64,192,23170,128,0,23328:0:0:0:0:
64,192,23486,128,0,23644:0:0:0:0:
64,192,23802,128,0,23854:0:0:0:0:
64,192,23960,128,0,24012:0:0:0:0:
64,192,24118,128,0,24276:0:0:0:0:
320,192,24433,128,0,24486:0:0:0:0:
320,192,24591,128,0,24644:0:0:0:0:
320,192,24749,128,0,24802:0:0:0:0:
64,192,24907,128,0,26802:0:0:0:0:
320,192,24907,128,0,24960:0:0:0:0:
320,192,25065,128,0,25223:0:0:0:0:
192,192,25381,128,0,25539:0:0:0:0:
192,192,25697,128,0,25749:0:0:0:0:
192,192,25854,128,0,26170:0:0:0:0:
192,192,26328,128,0,26381:0:0:0:0:
192,192,26486,128,0,26539:0:0:0:0:
192,192,26644,128,0,26697:0:0:0:0:
320,192,26802,128,0,28697:0:0:0:0:
448,192,26802,128,0,26854:0:0:0:0:
448,192,26960,128,0,27118:0:0:0:0:
448,192,27276,128,0,27433:0:0:0:0:
448,192,27591,128,0,27644:0:0:0:0:
448,192,27749,128,0,28065:0:0:0:0:
448,192,28223,128,0,28276:0:0:0:0:
448,192,28381,128,0,28433:0:0:0:0:
64,192,28539,128,0,28591:0:0:0:0:
64,192,28697,128,0,28749:0:0:0:0:
192,192,28697,128,0,30276:0:0:0:0:
64,192,28854,128,0,28907:0:0:0:0:
320,192,29012,128,0,29065:0:0:0:0:
320,192,29170,128,0,29328:0:0:0:0:
320,192,29486,128,0,29539:0:0:0:0:
320,192,29644,128,0,29697:0:0:0:0:
320,192,29802,128,0,29854:0:0:0:0:
320,192,29960,128,0,30012:0:0:0:0:
448,192,30118,128,0,30170:0:0:0:0:
448,192,30276,128,0,30591:0:0:0:0:
320,192,30276,128,0,30328:0:0:0:0:
192,192,30433,128,0,30486:0:0:0:0:
320,192,30591,1,0,0:0:0:0:
64,192,30591,1,0,0:0:0:0:
192,192,30749,1,0,0:0:0:0:
448,192,30907,1,0,0:0:0:0:
320,192,31065,1,0,0:0:0:0:
64,192,31223,1,0,0:0:0:0:
192,192,31223,1,0,0:0:0:0:
320,192,31381,1,0,0:0:0:0:
448,192,31539,1,0,0:0:0:0:
64,192,31539,1,0,0:0:0:0:
192,192,31539,1,0,0:0:0:0:
320,192,31697,1,0,0:0:0:0:
64,192,31854,1,0,0:0:0:0:
448,192,32012,1,0,0:0:0:0:
320,192,32170,1,0,0:0:0:0:
64,192,32170,1,0,0:0:0:0:
192,192,32328,1,0,0:0:0:0:
320,192,32328,1,0,0:0:0:0:
64,192,32486,1,0,0:0:0:0:
192,192,32486,1,0,0:0:0:0:
448,192,32486,1,0,0:0:0:0:
192,192,32644,1,0,0:0:0:0:
320,192,32802,1,0,0:0:0:0:
64,192,32960,1,0,0:0:0:0:
192,192,33118,1,0,0:0:0:0:
320,192,33118,1,0,0:0:0:0:
448,192,33276,1,0,0:0:0:0:
64,192,33276,1,0,0:0:0:0:
64,192,33433,1,0,0:0:0:0:
320,192,33433,1,0,0:0:0:0:
192,192,33433,1,0,0:0:0:0:
192,192,33749,1,0,0:0:0:0:
320,192,33749,1,0,0:0:0:0:
448,192,33749,1,0,0:0:0:0:
448,192,34065,1,0,0:0:0:0:
192,192,34065,1,0,0:0:0:0:
64,192,34065,1,0,0:0:0:0:
64,192,34381,1,0,0:0:0:0:
192,192,34381,1,0,0:0:0:0:
448,192,34381,1,0,0:0:0:0:
64,192,34539,1,0,0:0:0:0:
192,192,34697,1,0,0:0:0:0:
448,192,34854,1,0,0:0:0:0:
320,192,35012,1,0,0:0:0:0:
192,192,35012,1,0,0:0:0:0:
192,192,35170,1,0,0:0:0:0:
64,192,35170,1,0,0:0:0:0:
192,192,35328,1,0,0:0:0:0:
320,192,35328,1,0,0:0:0:0:
448,192,35328,1,0,0:0:0:0:
64,192,35486,1,0,0:0:0:0:
192,192,35644,1,0,0:0:0:0:
64,192,35802,1,0,0:0:0:0:
192,192,35960,1,0,0:0:0:0:
448,192,35960,1,0,0:0:0:0:
64,192,35960,1,0,0:0:0:0:
64,192,36118,1,0,0:0:0:0:
192,192,36118,1,0,0:0:0:0:
320,192,36118,1,0,0:0:0:0:
448,192,36276,1,0,0:0:0:0:
320,192,36276,1,0,0:0:0:0:
192,192,36276,1,0,0:0:0:0:
64,192,36433,1,0,0:0:0:0:
192,192,36591,1,0,0:0:0:0:
448,192,36591,1,0,0:0:0:0:
64,192,36749,1,0,0:0:0:0:
192,192,36907,1,0,0:0:0:0:
320,192,36907,1,0,0:0:0:0:
448,192,37065,1,0,0:0:0:0:
320,192,37223,1,0,0:0:0:0:
64,192,37223,1,0,0:0:0:0:
192,192,37223,1,0,0:0:0:0:
64,192,37539,1,0,0:0:0:0:
192,192,37539,1,0,0:0:0:0:
192,192,37854,1,0,0:0:0:0:
448,192,37854,1,0,0:0:0:0:
320,192,38170,1,0,0:0:0:0:
448,192,38170,128,0,38802:0:0:0:0:
64,192,38170,1,0,0:0:0:0:
192,192,38328,1,0,0:0:0:0:
320,192,38486,1,0,0:0:0:0:
192,192,38644,1,0,0:0:0:0:
320,192,38802,128,0,39118:0:0:0:0:
64,192,38802,1,0,0:0:0:0:
192,192,38960,1,0,0:0:0:0:
64,192,39118,128,0,41012:0:0:0:0:
448,192,39118,1,0,0:0:0:0:
192,192,39118,1,0,0:0:0:0:
320,192,39276,1,0,0:0:0:0:
192,192,39433,1,0,0:0:0:0:
448,192,39591,1,0,0:0:0:0:
320,192,39749,1,0,0:0:0:0:
192,192,39907,1,0,0:0:0:0:
448,192,40065,1,0,0:0:0:0:
320,192,40065,1,0,0:0:0:0:
192,192,40065,1,0,0:0:0:0:
448,192,40223,1,0,0:0:0:0:
192,192,40381,1,0,0:0:0:0:
320,192,40539,1,0,0:0:0:0:
192,192,40697,1,0,0:0:0:0:
448,192,40697,1,0,0:0:0:0:
448,192,40854,1,0,0:0:0:0:
192,192,41012,128,0,41328:0:0:0:0:
448,192,41012,128,0,41328:0:0:0:0:
320,192,41328,128,0,41644:0:0:0:0:
64,192,41328,1,0,0:0:0:0:
448,192,41644,128,0,41960:0:0:0:0:
192,192,41644,1,0,0:0:0:0:
64,192,41644,1,0,0:0:0:0:
192,192,41960,128,0,43539:0:0:0:0:
64,192,41960,1,0,0:0:0:0:
320,192,41960,1,0,0:0:0:0:
448,192,42118,1,0,0:0:0:0:
320,192,42276,1,0,0:0:0:0:
64,192,42433,1,0,0:0:0:0:
320,192,42591,1,0,0:0:0:0:
448,192,42591,1,0,0:0:0:0:
448,192,42749,1,0,0:0:0:0:
448,192,42907,1,0,0:0:0:0:
64,192,42907,1,0,0:0:0:0:
320,192,42907,1,0,0:0:0:0:
64,192,43065,1,0,0:0:0:0:
320,192,43223,1,0,0:0:0:0:
448,192,43381,1,0,0:0:0:0:
64,192,43539,128,0,43697:0:0:0:0:
448,192,43539,128,0,43697:0:0:0:0:
192,192,43697,128,0,43854:0:0:0:0:
320,192,43697,1,0,0:0:0:0:
320,192,43854,128,0,44170:0:0:0:0:
448,192,43854,1,0,0:0:0:0:
64,192,43854,128,0,44170:0:0:0:0:
192,192,44170,1,0,0:0:0:0:
448,192,44170,128,0,44486:0:0:0:0:
320,192,44486,128,0,44802:0:0:0:0:
64,192,44486,1,0,0:0:0:0:
192,192,44486,128,0,44802:0:0:0:0:
64,192,44802,1,0,0:0:0:0:
448,192,44802,1,0,0:0:0:0:
448,192,45118,1,0,0:0:0:0:
320,192,45118,1,0,0:0:0:0:
192,192,45118,1,0,0:0:0:0:
320,192,45433,1,0,0:0:0:0:
192,192,45433,1,0,0:0:0:0:
64,192,45433,1,0,0:0:0:0:
320,192,45749,128,0,46697:0:0:0:0:
192,192,45749,128,0,46381:0:0:0:0:
448,192,45749,128,0,46381:0:0:0:0:
64,192,46381,1,0,0:0:0:0:
192,192,46539,1,0,0:0:0:0:
64,192,46697,128,0,47644:0:0:0:0:
192,192,46697,1,0,0:0:0:0:
448,192,46697,128,0,47012:0:0:0:0:
320,192,47012,128,0,47328:0:0:0:0:
192,192,47012,1,0,0:0:0:0:
448,192,47328,128,0,47644:0:0:0:0:
192,192,47328,1,0,0:0:0:0:
192,192,47644,128,0,48591:0:0:0:0:
320,192,47644,128,0,47960:0:0:0:0:
64,192,47960,128,0,48276:0:0:0:0:
448,192,47960,1,0,0:0:0:0:
448,192,48276,128,0,48591:0:0:0:0:
320,192,48276,1,0,0:0:0:0:
320,192,48591,128,0,49539:0:0:0:0:
64,192,48591,128,0,48907:0:0:0:0:
192,192,48907,128,0,49223:0:0:0:0:
448,192,48907,128,0,49223:0:0:0:0:
64,192,49223,128,0,49539:0:0:0:0:
448,192,49539,128,0,50486:0:0:0:0:
192,192,49539,128,0,50170:0:0:0:0:
320,192,50170,1,0,0:0:0:0:
64,192,50328,1,0,0:0:0:0:
64,192,50486,128,0,51433:0:0:0:0:
320,192,50486,128,0,50802:0:0:0:0:
192,192,50486,1,0,0:0:0:0:
448,192,50802,128,0,51118:0:0:0:0:
192,192,50802,1,0,0:0:0:0:
320,192,51118,128,0,51433:0:0:0:0:
192,192,51118,1,0,0:0:0:0:
192,192,51433,128,0,52381:0:0:0:0:
448,192,51433,128,0,51749:0:0:0:0:
64,192,51749,128,0,52065:0:0:0:0:
320,192,51749,1,0,0:0:0:0:
320,192,52065,128,0,52381:0:0:0:0:
448,192,52065,1,0,0:0:0:0:
448,192,52381,128,0,53328:0:0:0:0:
64,192,52381,128,0,53328:0:0:0:0:
320,192,52697,1,0,0:0:0:0:
192,192,53012,1,0,0:0:0:0:
320,192,53328,1,0,0:0:0:0:
192,192,53328,1,0,0:0:0:0:
64,192,53486,1,0,0:0:0:0:
192,192,53644,1,0,0:0:0:0:
448,192,53802,1,0,0:0:0:0:
320,192,53960,1,0,0:0:0:0:
64,192,53960,1,0,0:0:0:0:
192,192,54118,1,0,0:0:0:0:
448,192,54118,1,0,0:0:0:0:
448,192,54276,1,0,0:0:0:0:
320,192,54276,1,0,0:0:0:0:
192,192,54276,1,0,0:0:0:0:
64,192,54433,1,0,0:0:0:0:
192,192,54591,1,0,0:0:0:0:
320,192,54591,1,0,0:0:0:0:
64,192,54749,1,0,0:0:0:0:
192,192,54907,1,0,0:0:0:0:
448,192,54907,1,0,0:0:0:0:
448,192,55065,1,0,0:0:0:0:
320,192,55223,1,0,0:0:0:0:
192,192,55223,1,0,0:0:0:0:
64,192,55223,1,0,0:0:0:0:
192,192,55381,1,0,0:0:0:0:
448,192,55539,1,0,0:0:0:0:
320,192,55539,1,0,0:0:0:0:
64,192,55697,1,0,0:0:0:0:
192,192,55854,1,0,0:0:0:0:
448,192,55854,1,0,0:0:0:0:
64,192,55854,1,0,0:0:0:0:
320,192,56012,1,0,0:0:0:0:
192,192,56012,1,0,0:0:0:0:
64,192,56170,1,0,0:0:0:0:
448,192,56170,1,0,0:0:0:0:
320,192,56170,1,0,0:0:0:0:
64,192,56328,1,0,0:0:0:0:
192,192,56486,1,0,0:0:0:0:
448,192,56486,1,0,0:0:0:0:
320,192,56644,1,0,0:0:0:0:
192,192,56802,1,0,0:0:0:0:
64,192,56802,1,0,0:0:0:0:
64,192,56960,1,0,0:0:0:0:
192,192,57118,1,0,0:0:0:0:
320,192,57118,1,0,0:0:0:0:
448,192,57118,1,0,0:0:0:0:
64,192,57276,1,0,0:0:0:0:
192,192,57433,1,0,0:0:0:0:
320,192,57433,1,0,0:0:0:0:
64,192,57591,1,0,0:0:0:0:
192,192,57749,1,0,0:0:0:0:
320,192,57749,1,0,0:0:0:0:
448,192,57907,1,0,0:0:0:0:
64,192,57907,1,0,0:0:0:0:
320,192,58065,1,0,0:0:0:0:
192,192,58065,1,0,0:0:0:0:
64,192,58065,1,0,0:0:0:0:
64,192,58223,1,0,0:0:0:0:
192,192,58381,1,0,0:0:0:0:
448,192,58381,1,0,0:0:0:0:
320,192,58539,1,0,0:0:0:0:
64,192,58697,1,0,0:0:0:0:
192,192,58697,1,0,0:0:0:0:
448,192,58854,1,0,0:0:0:0:
192,192,58854,1,0,0:0:0:0:
192,192,59012,1,0,0:0:0:0:
320,192,59012,1,0,0:0:0:0:
64,192,59012,128,0,59960:0:0:0:0:
448,192,59012,1,0,0:0:0:0:
320,192,59170,1,0,0:0:0:0:
448,192,59328,1,0,0:0:0:0:
192,192,59486,1,0,0:0:0:0:
320,192,59644,1,0,0:0:0:0:
448,192,59644,1,0,0:0:0:0:
448,192,59802,1,0,0:0:0:0:
192,192,59960,1,0,0:0:0:0:
320,192,59960,128,0,60276:0:0:0:0:
448,192,60118,1,0,0:0:0:0:
192,192,60276,128,0,60591:0:0:0:0:
64,192,60276,1,0,0:0:0:0:
320,192,60433,1,0,0:0:0:0:
64,192,60591,128,0,60907:0:0:0:0:
448,192,60591,1,0,0:0:0:0:
320,192,60749,1,0,0:0:0:0:
448,192,60907,128,0,61854:0:0:0:0:
320,192,60907,1,0,0:0:0:0:
192,192,60907,1,0,0:0:0:0:
64,192,61065,1,0,0:0:0:0:
192,192,61223,1,0,0:0:0:0:
320,192,61381,1,0,0:0:0:0:
320,192,61539,1,0,0:0:0:0:
64,192,61539,128,0,61697:0:0:0:0:
192,192,61697,128,0,61854:0:0:0:0:
64,192,61854,128,0,62802:0:0:0:0:
320,192,61854,1,0,0:0:0:0:
448,192,62012,1,0,0:0:0:0:
192,192,62170,1,0,0:0:0:0:
320,192,62170,1,0,0:0:0:0:
448,192,62328,1,0,0:0:0:0:
448,192,62486,1,0,0:0:0:0:
192,192,62486,128,0,62644:0:0:0:0:
320,192,62644,128,0,62802:0:0:0:0:
192,192,62802,128,0,63749:0:0:0:0:
448,192,62802,1,0,0:0:0:0:
448,192,62960,1,0,0:0:0:0:
320,192,63118,1,0,0:0:0:0:
64,192,63118,1,0,0:0:0:0:
448,192,63276,1,0,0:0:0:0:
64,192,63433,128,0,63591:0:0:0:0:
448,192,63591,128,0,63749:0:0:0:0:
320,192,63749,128,0,64697:0:0:0:0:
64,192,63749,1,0,0:0:0:0:
192,192,63907,1,0,0:0:0:0:
448,192,64065,1,0,0:0:0:0:
64,192,64065,1,0,0:0:0:0:
192,192,64223,1,0,0:0:0:0:
448,192,64381,1,0,0:0:0:0:
64,192,64381,1,0,0:0:0:0:
192,192,64539,1,0,0:0:0:0:
64,192,64539,1,0,0:0:0:0:
448,192,64697,128,0,65644:0:0:0:0:
192,192,64697,1,0,0:0:0:0:
64,192,64697,1,0,0:0:0:0:
192,192,64854,1,0,0:0:0:0:
320,192,65012,1,0,0:0:0:0:
64,192,65012,1,0,0:0:0:0:
192,192,65170,1,0,0:0:0:0:
64,192,65328,1,0,0:0:0:0:
320,192,65328,128,0,65486:0:0:0:0:
192,192,65486,128,0,65644:0:0:0:0:
64,192,65644,128,0,66591:0:0:0:0:
320,192,65644,1,0,0:0:0:0:
448,192,65802,1,0,0:0:0:0:
448,192,65960,1,0,0:0:0:0:
192,192,65960,1,0,0:0:0:0:
320,192,66118,1,0,0:0:0:0:
320,192,66276,128,0,66433:0:0:0:0:
192,192,66433,128,0,66591:0:0:0:0:
448,192,66591,128,0,67539:0:0:0:0:
320,192,66591,128,0,66907:0:0:0:0:
192,192,66907,128,0,67223:0:0:0:0:
64,192,66907,1,0,0:0:0:0:
64,192,67223,128,0,67539:0:0:0:0:
320,192,67223,1,0,0:0:0:0:
320,192,67539,128,0,68486:0:0:0:0:
192,192,67539,1,0,0:0:0:0:
448,192,67854,1,0,0:0:0:0:
192,192,67854,1,0,0:0:0:0:
192,192,68170,1,0,0:0:0:0:
64,192,68170,1,0,0:0:0:0:
448,192,68170,1,0,0:0:0:0:
192,192,68486,128,0,69433:0:0:0:0:
448,192,68486,1,0,0:0:0:0:
64,192,68486,1,0,0:0:0:0:
448,192,68644,1,0,0:0:0:0:
320,192,68802,1,0,0:0:0:0:
448,192,68802,1,0,0:0:0:0:
64,192,68960,1,0,0:0:0:0:
448,192,69118,128,0,69276:0:0:0:0:
320,192,69276,128,0,69433:0:0:0:0:
448,192,69433,128,0,70381:0:0:0:0:
64,192,69433,1,0,0:0:0:0:
320,192,69591,1,0,0:0:0:0:
192,192,69749,1,0,0:0:0:0:
64,192,69749,1,0,0:0:0:0:
320,192,69907,1,0,0:0:0:0:
320,192,70065,128,0,70223:0:0:0:0:
192,192,70223,128,0,70381:0:0:0:0:
64,192,70381,128,0,71012:0:0:0:0:
320,192,70381,1,0,0:0:0:0:
448,192,70539,1,0,0:0:0:0:
192,192,70697,1,0,0:0:0:0:
320,192,70697,1,0,0:0:0:0:
448,192,70854,1,0,0:0:0:0:
192,192,71012,128,0,71170:0:0:0:0:
448,192,71012,128,0,71170:0:0:0:0:
320,192,71170,128,0,71328:0:0:0:0:
448,192,71328,128,0,72276:0:0:0:0:
64,192,71328,1,0,0:0:0:0:
192,192,71328,1,0,0:0:0:0:
64,192,71486,1,0,0:0:0:0:
64,192,71644,1,0,0:0:0:0:
320,192,71644,1,0,0:0:0:0:
192,192,71802,1,0,0:0:0:0:
320,192,71960,1,0,0:0:0:0:
64,192,71960,1,0,0:0:0:0:
192,192,72118,1,0,0:0:0:0:
64,192,72118,1,0,0:0:0:0:
320,192,72276,128,0,73223:0:0:0:0:
192,192,72276,1,0,0:0:0:0:
64,192,72276,1,0,0:0:0:0:
448,192,72433,1,0,0:0:0:0:
192,192,72591,1,0,0:0:0:0:
448,192,72591,1,0,0:0:0:0:
192,192,72749,1,0,0:0:0:0:
64,192,72907,128,0,73065:0:0:0:0:
448,192,73065,128,0,73223:0:0:0:0:
192,192,73223,128,0,74170:0:0:0:0:
64,192,73223,1,0,0:0:0:0:
448,192,73381,1,0,0:0:0:0:
448,192,73539,1,0,0:0:0:0:
64,192,73539,1,0,0:0:0:0:
320,192,73697,1,0,0:0:0:0:
64,192,73854,1,0,0:0:0:0:
448,192,73854,1,0,0:0:0:0:
320,192,74012,1,0,0:0:0:0:
64,192,74170,128,0,75118:0:0:0:0:
320,192,74170,1,0,0:0:0:0:
448,192,74170,1,0,0:0:0:0:
448,192,74328,1,0,0:0:0:0:
320,192,74486,1,0,0:0:0:0:
192,192,74644,1,0,0:0:0:0:
320,192,74802,1,0,0:0:0:0:
448,192,74960,1,0,0:0:0:0:
320,192,75118,1,0,0:0:0:0:
448,192,75276,1,0,0:0:0:0:
320,192,75433,1,0,0:0:0:0:
192,192,75591,1,0,0:0:0:0:
64,192,75749,1,0,0:0:0:0:
192,192,75907,1,0,0:0:0:0:
320,192,76065,1,0,0:0:0:0:
448,192,76065,1,0,0:0:0:0:
192,192,76223,128,0,76276:0:0:0:0:
64,192,76223,1,0,0:0:0:0:
320,192,76223,1,0,0:0:0:0:
320,192,76381,1,0,0:0:0:0:
192,192,76381,128,0,76433:0:0:0:0:
64,192,76381,1,0,0:0:0:0:
192,192,76539,128,0,76591:0:0:0:0:
320,192,76539,1,0,0:0:0:0:
64,192,76539,1,0,0:0:0:0:
192,192,76697,128,0,76749:0:0:0:0:
320,192,76697,1,0,0:0:0:0:
64,192,76697,1,0,0:0:0:0:
192,192,76854,128,0,76907:0:0:0:0:
64,192,76854,1,0,0:0:0:0:
320,192,76854,1,0,0:0:0:0:
448,192,77012,1,0,0:0:0:0:
64,192,77012,1,0,0:0:0:0:
192,192,77170,128,0,77223:0:0:0:0:
320,192,77170,1,0,0:0:0:0:
448,192,77170,1,0,0:0:0:0:
192,192,77328,128,0,77381:0:0:0:0:
320,192,77328,1,0,0:0:0:0:
448,192,77328,1,0,0:0:0:0:
192,192,77486,128,0,77539:0:0:0:0:
320,192,77486,1,0,0:0:0:0:
448,192,77486,1,0,0:0:0:0:
192,192,77644,128,0,77697:0:0:0:0:
448,192,77644,1,0,0:0:0:0:
320,192,77644,1,0,0:0:0:0:
192,192,77802,128,0,77854:0:0:0:0:
320,192,77802,1,0,0:0:0:0:
448,192,77802,1,0,0:0:0:0:
448,192,77960,1,0,0:0:0:0:
64,192,77960,1,0,0:0:0:0:
320,192,78118,128,0,78170:0:0:0:0:
64,192,78118,1,0,0:0:0:0:
448,192,78118,1,0,0:0:0:0:
320,192,78276,128,0,78328:0:0:0:0:
448,192,78276,1,0,0:0:0:0:
64,192,78276,1,0,0:0:0:0:
448,192,78433,1,0,0:0:0:0:
320,192,78433,128,0,78486:0:0:0:0:
64,192,78433,1,0,0:0:0:0:
320,192,78591,128,0,78644:0:0:0:0:
64,192,78591,1,0,0:0:0:0:
448,192,78591,1,0,0:0:0:0:
320,192,78749,128,0,78802:0:0:0:0:
64,192,78749,1,0,0:0:0:0:
448,192,78749,1,0,0:0:0:0:
192,192,78907,1,0,0:0:0:0:
320,192,78907,1,0,0:0:0:0:
448,192,79065,128,0,79118:0:0:0:0:
192,192,79065,1,0,0:0:0:0:
64,192,79065,1,0,0:0:0:0:
448,192,79223,128,0,79276:0:0:0:0:
192,192,79223,1,0,0:0:0:0:
64,192,79223,1,0,0:0:0:0:
448,192,79381,128,0,79433:0:0:0:0:
192,192,79381,1,0,0:0:0:0:
64,192,79381,1,0,0:0:0:0:
448,192,79539,128,0,79591:0:0:0:0:
192,192,79539,1,0,0:0:0:0:
64,192,79539,1,0,0:0:0:0:
448,192,79697,128,0,79749:0:0:0:0:
192,192,79697,1,0,0:0:0:0:
64,192,79697,1,0,0:0:0:0:
320,192,79854,128,0,80802:0:0:0:0:
192,192,79854,128,0,79907:0:0:0:0:
448,192,79854,1,0,0:0:0:0:
64,192,80012,128,0,80065:0:0:0:0:
448,192,80170,1,0,0:0:0:0:
192,192,80170,128,0,80223:0:0:0:0:
64,192,80328,128,0,80381:0:0:0:0:
448,192,80486,1,0,0:0:0:0:
192,192,80486,128,0,80539:0:0:0:0:
64,192,80644,128,0,80697:0:0:0:0:
448,192,80802,128,0,81749:0:0:0:0:
64,192,80802,1,0,0:0:0:0:
192,192,80802,128,0,80854:0:0:0:0:
320,192,80960,128,0,81012:0:0:0:0:
192,192,81118,128,0,81170:0:0:0:0:
64,192,81118,1,0,0:0:0:0:
320,192,81276,128,0,81328:0:0:0:0:
192,192,81433,128,0,81486:0:0:0:0:
64,192,81433,1,0,0:0:0:0:
64,192,81591,128,0,81644:0:0:0:0:
320,192,81749,128,0,82697:0:0:0:0:
192,192,81749,128,0,81802:0:0:0:0:
64,192,81907,128,0,81960:0:0:0:0:
448,192,82065,1,0,0:0:0:0:
192,192,82065,128,0,82118:0:0:0:0:
64,192,82223,128,0,82276:0:0:0:0:
448,192,82381,1,0,0:0:0:0:
192,192,82381,128,0,82433:0:0:0:0:
64,192,82539,128,0,82591:0:0:0:0:
64,192,82697,128,0,83644:0:0:0:0:
192,192,82697,1,0,0:0:0:0:
448,192,82697,128,0,82749:0:0:0:0:
320,192,82854,128,0,82907:0:0:0:0:
448,192,83012,1,0,0:0:0:0:
192,192,83012,128,0,83065:0:0:0:0:
320,192,83170,128,0,83223:0:0:0:0:
448,192,83328,128,0,83381:0:0:0:0:
192,192,83328,1,0,0:0:0:0:
320,192,83486,128,0,83539:0:0:0:0:
192,192,83644,1,0,0:0:0:0:
320,192,83644,1,0,0:0:0:0:
448,192,83644,1,0,0:0:0:0:
320,192,84276,128,0,84591:0:0:0:0:
192,192,84591,128,0,85223:0:0:0:0:
320,192,85223,128,0,85539:0:0:0:0:
448,192,85539,1,0,0:0:0:0:
64,192,85539,1,0,0:0:0:0:
192,192,85539,1,0,0:0:0:0:
320,192,85697,1,0,0:0:0:0:
64,192,85697,1,0,0:0:0:0:
192,192,85854,1,0,0:0:0:0:
320,192,85854,1,0,0:0:0:0:
448,192,86012,1,0,0:0:0:0:
320,192,86012,1,0,0:0:0:0:
320,192,86170,1,0,0:0:0:0:
64,192,86170,1,0,0:0:0:0:
192,192,86328,1,0,0:0:0:0:
448,192,86328,1,0,0:0:0:0:
320,192,86486,1,0,0:0:0:0:
192,192,86486,1,0,0:0:0:0:
64,192,86486,1,0,0:0:0:0:
192,192,86644,1,0,0:0:0:0:
448,192,86644,1,0,0:0:0:0:
448,192,86802,1,0,0:0:0:0:
320,192,86802,1,0,0:0:0:0:
320,192,86960,1,0,0:0:0:0:
64,192,86960,1,0,0:0:0:0:
64,192,87118,1,0,0:0:0:0:
192,192,87118,1,0,0:0:0:0:
192,192,87276,1,0,0:0:0:0:
448,192,87276,1,0,0:0:0:0:
448,192,87433,1,0,0:0:0:0:
320,192,87433,1,0,0:0:0:0:
64,192,87433,1,0,0:0:0:0:
320,192,87591,1,0,0:0:0:0:
64,192,87591,1,0,0:0:0:0:
192,192,87749,1,0,0:0:0:0:
320,192,87749,1,0,0:0:0:0:
448,192,87907,1,0,0:0:0:0:
64,192,87907,1,0,0:0:0:0:
192,192,88065,1,0,0:0:0:0:
448,192,88065,1,0,0:0:0:0:
320,192,88223,1,0,0:0:0:0:
448,192,88223,1,0,0:0:0:0:
448,192,88381,1,0,0:0:0:0:
192,192,88381,1,0,0:0:0:0:
64,192,88381,1,0,0:0:0:0:
192,192,88539,1,0,0:0:0:0:
320,192,88539,1,0,0:0:0:0:
320,192,88697,1,0,0:0:0:0:
448,192,88697,1,0,0:0:0:0:
320,192,88854,1,0,0:0:0:0:
192,192,88854,1,0,0:0:0:0:
448,192,89012,1,0,0:0:0:0:
64,192,89012,1,0,0:0:0:0:
192,192,89012,1,0,0:0:0:0:
192,192,89170,1,0,0:0:0:0:
320,192,89170,1,0,0:0:0:0:
448,192,89328,1,0,0:0:0:0:
320,192,89328,1,0,0:0:0:0:
64,192,89328,1,0,0:0:0:0:
192,192,89328,1,0,0:0:0:0:
448,192,89486,1,0,0:0:0:0:
192,192,89486,1,0,0:0:0:0:
320,192,89644,1,0,0:0:0:0:
64,192,89644,1,0,0:0:0:0:
192,192,89802,1,0,0:0:0:0:
320,192,89802,1,0,0:0:0:0:
448,192,89960,1,0,0:0:0:0:
64,192,89960,1,0,0:0:0:0:
320,192,90118,1,0,0:0:0:0:
192,192,90118,1,0,0:0:0:0:
448,192,90276,1,0,0:0:0:0:
320,192,90276,1,0,0:0:0:0:
64,192,90276,1,0,0:0:0:0:
192,192,90433,1,0,0:0:0:0:
320,192,90433,1,0,0:0:0:0:
448,192,90591,1,0,0:0:0:0:
320,192,90591,1,0,0:0:0:0:
64,192,90749,1,0,0:0:0:0:
192,192,90749,1,0,0:0:0:0:
192,192,90907,1,0,0:0:0:0:
320,192,90907,1,0,0:0:0:0:
448,192,91065,1,0,0:0:0:0:
64,192,91065,1,0,0:0:0:0:
320,192,91223,1,0,0:0:0:0:
192,192,91223,1,0,0:0:0:0:
64,192,91223,1,0,0:0:0:0:
192,192,91381,1,0,0:0:0:0:
320,192,91381,1,0,0:0:0:0:
448,192,91539,1,0,0:0:0:0:
320,192,91539,1,0,0:0:0:0:
64,192,91697,1,0,0:0:0:0:
448,192,91697,1,0,0:0:0:0:
320,192,91854,1,0,0:0:0:0:
192,192,91854,1,0,0:0:0:0:
320,192,92012,1,0,0:0:0:0:
448,192,92012,1,0,0:0:0:0:
64,192,92012,1,0,0:0:0:0:
64,192,92170,1,0,0:0:0:0:
192,192,92170,1,0,0:0:0:0:
448,192,92170,128,0,92328:0:0:0:0:
320,192,92328,1,0,0:0:0:0:
192,192,92328,1,0,0:0:0:0:
64,192,92328,128,0,92486:0:0:0:0:
192,192,92486,128,0,92644:0:0:0:0:
320,192,92486,1,0,0:0:0:0:
448,192,92644,128,0,92802:0:0:0:0:
64,192,92644,128,0,92802:0:0:0:0:
192,192,92802,128,0,92960:0:0:0:0:
320,192,92802,1,0,0:0:0:0:
448,192,92960,128,0,93118:0:0:0:0:
64,192,92960,128,0,93118:0:0:0:0:
320,192,93118,1,0,0:0:0:0:
192,192,93118,1,0,0:0:0:0:
320,192,93276,1,0,0:0:0:0:
64,192,93276,1,0,0:0:0:0:
192,192,93433,1,0,0:0:0:0:
448,192,93433,1,0,0:0:0:0:
320,192,93591,1,0,0:0:0:0:
192,192,93591,1,0,0:0:0:0:
448,192,93749,1,0,0:0:0:0:
64,192,93749,1,0,0:0:0:0:
192,192,93907,1,0,0:0:0:0:
64,192,93907,1,0,0:0:0:0:
192,192,94065,1,0,0:0:0:0:
320,192,94065,1,0,0:0:0:0:
448,192,94065,1,0,0:0:0:0:
448,192,94223,1,0,0:0:0:0:
192,192,94223,1,0,0:0:0:0:
320,192,94381,1,0,0:0:0:0:
64,192,94381,1,0,0:0:0:0:
192,192,94539,1,0,0:0:0:0:
448,192,94539,1,0,0:0:0:0:
320,192,94697,1,0,0:0:0:0:
448,192,94697,1,0,0:0:0:0:
448,192,94854,1,0,0:0:0:0:
192,192,94854,1,0,0:0:0:0:
320,192,95012,1,0,0:0:0:0:
192,192,95012,1,0,0:0:0:0:
64,192,95012,1,0,0:0:0:0:
448,192,95170,1,0,0:0:0:0:
320,192,95170,1,0,0:0:0:0:
320,192,95328,1,0,0:0:0:0:
64,192,95328,1,0,0:0:0:0:
192,192,95486,1,0,0:0:0:0:
64,192,95486,1,0,0:0:0:0:
192,192,95644,1,0,0:0:0:0:
448,192,95644,1,0,0:0:0:0:
320,192,95802,1,0,0:0:0:0:
448,192,95802,1,0,0:0:0:0:
448,192,95960,1,0,0:0:0:0:
64,192,95960,1,0,0:0:0:0:
192,192,95960,1,0,0:0:0:0:
448,192,96118,1,0,0:0:0:0:
192,192,96118,1,0,0:0:0:0:
320,192,96276,1,0,0:0:0:0:
192,192,96276,1,0,0:0:0:0:
448,192,96433,1,0,0:0:0:0:
64,192,96433,1,0,0:0:0:0:
320,192,96591,1,0,0:0:0:0:
192,192,96591,1,0,0:0:0:0:
64,192,96591,1,0,0:0:0:0:
192,192,96749,1,0,0:0:0:0:
448,192,96749,1,0,0:0:0:0:
320,192,96749,1,0,0:0:0:0:
448,192,96907,1,0,0:0:0:0:
320,192,96907,1,0,0:0:0:0:
192,192,96907,1,0,0:0:0:0:
64,192,96907,1,0,0:0:0:0:
448,192,97065,1,0,0:0:0:0:
192,192,97065,1,0,0:0:0:0:
320,192,97223,1,0,0:0:0:0:
448,192,97223,1,0,0:0:0:0:
320,192,97381,1,0,0:0:0:0:
64,192,97381,1,0,0:0:0:0:
192,192,97539,1,0,0:0:0:0:
320,192,97539,1,0,0:0:0:0:
64,192,97697,1,0,0:0:0:0:
192,192,97697,1,0,0:0:0:0:
64,192,97854,1,0,0:0:0:0:
192,192,97854,1,0,0:0:0:0:
448,192,97854,1,0,0:0:0:0:
192,192,98012,1,0,0:0:0:0:
320,192,98012,1,0,0:0:0:0:
448,192,98170,1,0,0:0:0:0:
320,192,98170,1,0,0:0:0:0:
320,192,98328,1,0,0:0:0:0:
64,192,98328,1,0,0:0:0:0:
64,192,98486,1,0,0:0:0:0:
192,192,98486,1,0,0:0:0:0:
192,192,98644,1,0,0:0:0:0:
448,192,98644,1,0,0:0:0:0:
448,192,98802,1,0,0:0:0:0:
320,192,98802,1,0,0:0:0:0:
64,192,98802,1,0,0:0:0:0:
320,192,98960,1,0,0:0:0:0:
192,192,98960,1,0,0:0:0:0:
320,192,99118,1,0,0:0:0:0:
64,192,99118,1,0,0:0:0:0:
64,192,99276,1,0,0:0:0:0:
192,192,99276,1,0,0:0:0:0:
192,192,99433,1,0,0:0:0:0:
448,192,99433,1,0,0:0:0:0:
320,192,99591,1,0,0:0:0:0:
448,192,99591,1,0,0:0:0:0:
448,192,99749,128,0,99907:0:0:0:0:
320,192,99749,128,0,99907:0:0:0:0:
192,192,99749,1,0,0:0:0:0:
64,192,99907,128,0,100065:0:0:0:0:
192,192,99907,1,0,0:0:0:0:
192,192,100065,128,0,100223:0:0:0:0:
448,192,100065,128,0,100223:0:0:0:0:
320,192,100065,1,0,0:0:0:0:
64,192,100223,1,0,0:0:0:0:
320,192,100223,128,0,100381:0:0:0:0:
192,192,100381,128,0,100539:0:0:0:0:
64,192,100381,128,0,100539:0:0:0:0:
448,192,100381,1,0,0:0:0:0:
320,192,100539,128,0,100697:0:0:0:0:
448,192,100539,1,0,0:0:0:0:
192,192,100697,1,0,0:0:0:0:
64,192,100697,1,0,0:0:0:0:
448,192,100697,128,0,101644:0:0:0:0:
320,192,101012,1,0,0:0:0:0:
64,192,101170,1,0,0:0:0:0:
192,192,101328,1,0,0:0:0:0:
64,192,101486,1,0,0:0:0:0:
320,192,101644,1,0,0:0:0:0:
64,192,101644,1,0,0:0:0:0:
64,192,101960,1,0,0:0:0:0:
192,192,101960,1,0,0:0:0:0:
320,192,101960,1,0,0:0:0:0:
64,192,102276,1,0,0:0:0:0:
320,192,102276,1,0,0:0:0:0:
448,192,102276,1,0,0:0:0:0:
320,192,102433,1,0,0:0:0:0:
320,192,102591,1,0,0:0:0:0:
64,192,102591,1,0,0:0:0:0:
192,192,102591,1,0,0:0:0:0:
192,192,102907,1,0,0:0:0:0:
320,192,102907,1,0,0:0:0:0:
448,192,102907,1,0,0:0:0:0:
448,192,103223,1,0,0:0:0:0:
192,192,103223,1,0,0:0:0:0:
64,192,103223,1,0,0:0:0:0:
320,192,103381,1,0,0:0:0:0:
192,192,103381,1,0,0:0:0:0:
192,192,103539,1,0,0:0:0:0:
64,192,103539,1,0,0:0:0:0:
448,192,103539,1,0,0:0:0:0:
192,192,103854,1,0,0:0:0:0:
320,192,103854,1,0,0:0:0:0:
448,192,103854,1,0,0:0:0:0:
448,192,104170,1,0,0:0:0:0:
64,192,104170,1,0,0:0:0:0:
192,192,104170,1,0,0:0:0:0:
320,192,104328,1,0,0:0:0:0:
448,192,104486,1,0,0:0:0:0:
320,192,104486,1,0,0:0:0:0:
64,192,104486,1,0,0:0:0:0:
192,192,104486,1,0,0:0:0:0:
192,192,104644,1,0,0:0:0:0:
320,192,104802,1,0,0:0:0:0:
64,192,104960,1,0,0:0:0:0:
192,192,105118,1,0,0:0:0:0:
320,192,105118,1,0,0:0:0:0:
448,192,105276,1,0,0:0:0:0:
64,192,105276,1,0,0:0:0:0:
320,192,105433,1,0,0:0:0:0:
192,192,105433,1,0,0:0:0:0:
64,192,105433,1,0,0:0:0:0:
192,192,105591,1,0,0:0:0:0:
320,192,105749,1,0,0:0:0:0:
448,192,105749,1,0,0:0:0:0:
64,192,105907,1,0,0:0:0:0:
192,192,106065,1,0,0:0:0:0:
448,192,106065,1,0,0:0:0:0:
320,192,106223,1,0,0:0:0:0:
448,192,106381,1,0,0:0:0:0:
64,192,106381,1,0,0:0:0:0:
192,192,106381,1,0,0:0:0:0:
64,192,106539,1,0,0:0:0:0:
448,192,106697,1,0,0:0:0:0:
192,192,106854,1,0,0:0:0:0:
320,192,107012,1,0,0:0:0:0:
64,192,107012,1,0,0:0:0:0:
64,192,107328,1,0,0:0:0:0:
192,192,107328,1,0,0:0:0:0:
448,192,107328,1,0,0:0:0:0:
320,192,107433,1,0,0:0:0:0:
192,192,107539,1,0,0:0:0:0:
64,192,107644,1,0,0:0:0:0:
448,192,107644,1,0,0:0:0:0:
192,192,107749,1,0,0:0:0:0:
320,192,107854,1,0,0:0:0:0:
448,192,107960,1,0,0:0:0:0:
64,192,107960,1,0,0:0:0:0:
320,192,108065,1,0,0:0:0:0:
192,192,108170,1,0,0:0:0:0:
64,192,108276,1,0,0:0:0:0:
320,192,108276,1,0,0:0:0:0:
448,192,108276,1,0,0:0:0:0:
192,192,108433,1,0,0:0:0:0:
448,192,108591,1,0,0:0:0:0:
64,192,108591,1,0,0:0:0:0:
320,192,108749,1,0,0:0:0:0:
192,192,108907,1,0,0:0:0:0:
64,192,108907,1,0,0:0:0:0:
320,192,109065,1,0,0:0:0:0:
448,192,109223,1,0,0:0:0:0:
320,192,109223,1,0,0:0:0:0:
192,192,109223,1,0,0:0:0:0:
320,192,109539,1,0,0:0:0:0:
64,192,109539,1,0,0:0:0:0:
192,192,109539,1,0,0:0:0:0:
448,192,109854,1,0,0:0:0:0:
320,192,109854,1,0,0:0:0:0:
192,192,109854,1,0,0:0:0:0:
64,192,110012,1,0,0:0:0:0:
320,192,110170,1,0,0:0:0:0:
192,192,110170,1,0,0:0:0:0:
64,192,110170,1,0,0:0:0:0:
448,192,110170,1,0,0:0:0:0:
192,192,110486,1,0,0:0:0:0:
320,192,110486,1,0,0:0:0:0:
448,192,110486,1,0,0:0:0:0:
448,192,110802,1,0,0:0:0:0:
320,192,110802,1,0,0:0:0:0:
192,192,110802,1,0,0:0:0:0:
320,192,110960,1,0,0:0:0:0:
64,192,110960,1,0,0:0:0:0:
320,192,111118,1,0,0:0:0:0:
192,192,111118,1,0,0:0:0:0:
64,192,111118,1,0,0:0:0:0:
192,192,111433,1,0,0:0:0:0:
320,192,111433,1,0,0:0:0:0:
448,192,111433,1,0,0:0:0:0:
448,192,111749,1,0,0:0:0:0:
64,192,111749,1,0,0:0:0:0:
320,192,111749,1,0,0:0:0:0:
448,192,111907,1,0,0:0:0:0:
448,192,112065,1,0,0:0:0:0:
192,192,112065,1,0,0:0:0:0:
64,192,112065,1,0,0:0:0:0:
320,192,112223,1,0,0:0:0:0:
320,192,112381,1,0,0:0:0:0:
64,192,112381,1,0,0:0:0:0:
64,192,112539,1,0,0:0:0:0:
192,192,112697,1,0,0:0:0:0:
320,192,112697,1,0,0:0:0:0:
448,192,112854,1,0,0:0:0:0:
320,192,112854,1,0,0:0:0:0:
320,192,113012,1,0,0:0:0:0:
192,192,113012,1,0,0:0:0:0:
64,192,113012,1,0,0:0:0:0:
448,192,113170,1,0,0:0:0:0:
192,192,113328,1,0,0:0:0:0:
64,192,113486,1,0,0:0:0:0:
320,192,113486,1,0,0:0:0:0:
192,192,113644,1,0,0:0:0:0:
320,192,113644,1,0,0:0:0:0:
64,192,113802,1,0,0:0:0:0:
448,192,113802,1,0,0:0:0:0:
448,192,113960,1,0,0:0:0:0:
320,192,113960,1,0,0:0:0:0:
192,192,113960,1,0,0:0:0:0:
64,192,114118,1,0,0:0:0:0:
192,192,114276,1,0,0:0:0:0:
320,192,114276,1,0,0:0:0:0:
64,192,114433,1,0,0:0:0:0:
448,192,114591,1,0,0:0:0:0:
192,192,114591,1,0,0:0:0:0:
320,192,114749,1,0,0:0:0:0:
448,192,114907,1,0,0:0:0:0:
192,192,114907,1,0,0:0:0:0:
64,192,114907,1,0,0:0:0:0:
320,192,115012,1,0,0:0:0:0:
192,192,115118,1,0,0:0:0:0:
320,192,115223,1,0,0:0:0:0:
64,192,115223,1,0,0:0:0:0:
448,192,115328,1,0,0:0:0:0:
320,192,115433,1,0,0:0:0:0:
192,192,115539,1,0,0:0:0:0:
448,192,115539,1,0,0:0:0:0:
64,192,115644,1,0,0:0:0:0:
192,192,115749,1,0,0:0:0:0:
320,192,115854,1,0,0:0:0:0:
64,192,115854,1,0,0:0:0:0:
448,192,115854,1,0,0:0:0:0:
192,192,116012,128,0,116170:0:0:0:0:
320,192,116170,128,0,116328:0:0:0:0:
448,192,116328,128,0,116486:0:0:0:0:
320,192,116486,128,0,116644:0:0:0:0:
192,192,116644,128,0,116802:0:0:0:0:
448,192,116802,1,0,0:0:0:0:
64,192,116802,1,0,0:0:0:0:
64,192,116960,128,0,117118:0:0:0:0:
192,192,117118,128,0,117276:0:0:0:0:
320,192,117276,128,0,117433:0:0:0:0:
448,192,117433,128,0,117591:0:0:0:0:
320,192,117591,128,0,117749:0:0:0:0:
192,192,117749,1,0,0:0:0:0:
64,192,117749,1,0,0:0:0:0:
448,192,117907,128,0,118065:0:0:0:0:
320,192,118065,128,0,118223:0:0:0:0:
192,192,118223,128,0,118381:0:0:0:0:
64,192,118381,128,0,118539:0:0:0:0:
192,192,118539,128,0,118697:0:0:0:0:
448,192,118697,1,0,0:0:0:0:
64,192,118697,1,0,0:0:0:0:
64,192,118854,128,0,119012:0:0:0:0:
192,192,119012,128,0,119170:0:0:0:0:
320,192,119170,128,0,119328:0:0:0:0:
192,192,119328,128,0,119486:0:0:0:0:
64,192,119486,128,0,119644:0:0:0:0:
320,192,119644,1,0,0:0:0:0:
448,192,119644,1,0,0:0:0:0:
192,192,119802,1,0,0:0:0:0:
320,192,119960,1,0,0:0:0:0:
448,192,120118,1,0,0:0:0:0:
192,192,120276,1,0,0:0:0:0:
64,192,120433,1,0,0:0:0:0:
448,192,120591,1,0,0:0:0:0:
192,192,120591,1,0,0:0:0:0:
320,192,120591,1,0,0:0:0:0:
448,192,120749,1,0,0:0:0:0:
64,192,120907,1,0,0:0:0:0:
192,192,121065,1,0,0:0:0:0:
448,192,121223,1,0,0:0:0:0:
192,192,121381,1,0,0:0:0:0:
64,192,121539,1,0,0:0:0:0:
320,192,121539,1,0,0:0:0:0:
192,192,121539,1,0,0:0:0:0:
448,192,121697,1,0,0:0:0:0:
192,192,121854,1,0,0:0:0:0:
448,192,122012,1,0,0:0:0:0:
320,192,122170,1,0,0:0:0:0:
192,192,122328,1,0,0:0:0:0:
64,192,122486,128,0,123433:0:0:0:0:
192,192,122486,128,0,122644:0:0:0:0:
320,192,122644,128,0,122802:0:0:0:0:
448,192,122802,128,0,122960:0:0:0:0:
320,192,122960,128,0,123118:0:0:0:0:
192,192,123118,128,0,123276:0:0:0:0:
320,192,123276,128,0,123433:0:0:0:0:
448,192,123433,1,0,0:0:0:0:
192,192,123591,1,0,0:0:0:0:
64,192,123749,1,0,0:0:0:0:
192,192,123907,1,0,0:0:0:0:
448,192,124065,1,0,0:0:0:0:
320,192,124065,1,0,0:0:0:0:
192,192,124223,1,0,0:0:0:0:
64,192,124381,1,0,0:0:0:0:
320,192,124381,1,0,0:0:0:0:
448,192,124381,1,0,0:0:0:0:
320,192,124539,1,0,0:0:0:0:
192,192,124697,1,0,0:0:0:0:
64,192,124854,1,0,0:0:0:0:
192,192,125012,1,0,0:0:0:0:
320,192,125012,1,0,0:0:0:0:
64,192,125170,1,0,0:0:0:0:
192,192,125328,1,0,0:0:0:0:
320,192,125328,1,0,0:0:0:0:
448,192,125328,1,0,0:0:0:0:
448,192,125486,1,0,0:0:0:0:
320,192,125644,1,0,0:0:0:0:
64,192,125802,1,0,0:0:0:0:
192,192,125960,1,0,0:0:0:0:
320,192,125960,1,0,0:0:0:0:
64,192,126118,1,0,0:0:0:0:
192,192,126276,1,0,0:0:0:0:
320,192,126276,1,0,0:0:0:0:
448,192,126276,1,0,0:0:0:0:
64,192,126433,1,0,0:0:0:0:
192,192,126591,1,0,0:0:0:0:
448,192,126749,1,0,0:0:0:0:
320,192,126907,1,0,0:0:0:0:
64,192,126907,1,0,0:0:0:0:
192,192,127065,1,0,0:0:0:0:
64,192,127223,1,0,0:0:0:0:
192,192,127223,1,0,0:0:0:0:
448,192,127223,1,0,0:0:0:0:
448,192,127381,1,0,0:0:0:0:
320,192,127539,1,0,0:0:0:0:
192,192,127697,1,0,0:0:0:0:
64,192,127854,1,0,0:0:0:0:
192,192,127854,1,0,0:0:0:0:
320,192,128012,1,0,0:0:0:0:
448,192,128170,1,0,0:0:0:0:
320,192,128170,1,0,0:0:0:0:
192,192,128170,1,0,0:0:0:0:
64,192,128328,1,0,0:0:0:0:
192,192,128486,1,0,0:0:0:0:
448,192,128644,1,0,0:0:0:0:
320,192,128802,1,0,0:0:0:0:
192,192,128960,1,0,0:0:0:0:
64,192,129118,1,0,0:0:0:0:
320,192,129118,1,0,0:0:0:0:
448,192,129118,1,0,0:0:0:0:
192,192,129276,1,0,0:0:0:0:
320,192,129433,1,0,0:0:0:0:
192,192,129591,1,0,0:0:0:0:
64,192,129749,1,0,0:0:0:0:
448,192,129749,1,0,0:0:0:0:
192,192,129907,1,0,0:0:0:0:
448,192,130065,1,0,0:0:0:0:
320,192,130065,1,0,0:0:0:0:
64,192,130065,1,0,0:0:0:0:
192,192,130223,1,0,0:0:0:0:
320,192,130381,128,0,131012:0:0:0:0:
448,192,130381,1,0,0:0:0:0:
64,192,130539,1,0,0:0:0:0:
192,192,130697,1,0,0:0:0:0:
448,192,130854,1,0,0:0:0:0:
192,192,131012,128,0,132907:0:0:0:0:
448,192,131012,128,0,131065:0:0:0:0:
448,192,131170,128,0,131328:0:0:0:0:
448,192,131486,128,0,131644:0:0:0:0:
448,192,131802,128,0,131854:0:0:0:0:
448,192,131960,128,0,132276:0:0:0:0:
64,192,132433,128,0,132486:0:0:0:0:
64,192,132591,128,0,132644:0:0:0:0:
64,192,132749,128,0,132802:0:0:0:0:
320,192,132907,128,0,134802:0:0:0:0:
64,192,132907,128,0,132960:0:0:0:0:
64,192,133065,128,0,133118:0:0:0:0:
64,192,133223,128,0,133276:0:0:0:0:
192,192,133328,128,0,133539:0:0:0:0:
192,192,133697,128,0,133749:0:0:0:0:
192,192,133854,128,0,133907:0:0:0:0:
192,192,134012,128,0,134065:0:0:0:0:
192,192,134170,128,0,134223:0:0:0:0:
192,192,134328,128,0,134486:0:0:0:0:
192,192,134644,128,0,134697:0:0:0:0:
448,192,134802,128,0,136697:0:0:0:0:
64,192,134802,128,0,134854:0:0:0:0:
64,192,134960,128,0,135118:0:0:0:0:
64,192,135276,128,0,135433:0:0:0:0:
64,192,135591,128,0,135644:0:0:0:0:
64,192,135749,128,0,136065:0:0:0:0:
64,192,136223,128,0,136276:0:0:0:0:
64,192,136381,128,0,136433:0:0:0:0:
320,192,136539,128,0,136591:0:0:0:0:
64,192,136697,128,0,138591:0:0:0:0:
320,192,136697,128,0,136749:0:0:0:0:
320,192,136854,128,0,136907:0:0:0:0:
320,192,137012,128,0,137065:0:0:0:0:
320,192,137170,128,0,137328:0:0:0:0:
320,192,137486,128,0,137539:0:0:0:0:
320,192,137644,128,0,137697:0:0:0:0:
320,192,137802,128,0,137854:0:0:0:0:
320,192,137960,128,0,138012:0:0:0:0:
320,192,138118,128,0,138170:0:0:0:0:
448,192,138276,1,0,0:0:0:0:
320,192,138433,1,0,0:0:0:0:
192,192,138591,128,0,138907:0:0:0:0:
448,192,138749,1,0,0:0:0:0:
320,192,138907,128,0,139223:0:0:0:0:
448,192,139065,1,0,0:0:0:0:
192,192,139223,128,0,139539:0:0:0:0:
320,192,139381,1,0,0:0:0:0:
448,192,139539,1,0,0:0:0:0:
64,192,139539,1,0,0:0:0:0:
320,192,139697,1,0,0:0:0:0:
192,192,139697,1,0,0:0:0:0:
448,192,139854,1,0,0:0:0:0:
320,192,139854,1,0,0:0:0:0:
64,192,139854,1,0,0:0:0:0:
320,192,140012,1,0,0:0:0:0:
192,192,140012,1,0,0:0:0:0:
448,192,140170,1,0,0:0:0:0:
64,192,140170,1,0,0:0:0:0:
192,192,140328,1,0,0:0:0:0:
320,192,140328,1,0,0:0:0:0:
64,192,140486,128,0,140802:0:0:0:0:
320,192,140486,1,0,0:0:0:0:
448,192,140644,1,0,0:0:0:0:
192,192,140802,128,0,141118:0:0:0:0:
320,192,140802,1,0,0:0:0:0:
448,192,140960,1,0,0:0:0:0:
320,192,141118,1,0,0:0:0:0:
64,192,141118,128,0,141433:0:0:0:0:
448,192,141276,1,0,0:0:0:0:
320,192,141433,1,0,0:0:0:0:
192,192,141591,1,0,0:0:0:0:
448,192,141749,1,0,0:0:0:0:
320,192,141749,1,0,0:0:0:0:
192,192,141907,1,0,0:0:0:0:
64,192,142065,1,0,0:0:0:0:
192,192,142065,1,0,0:0:0:0:
448,192,142223,1,0,0:0:0:0:
192,192,142223,1,0,0:0:0:0:
320,192,142381,128,0,142697:0:0:0:0:
64,192,142381,1,0,0:0:0:0:
192,192,142539,1,0,0:0:0:0:
448,192,142697,128,0,143012:0:0:0:0:
64,192,142697,1,0,0:0:0:0:
192,192,142854,1,0,0:0:0:0:
320,192,143012,128,0,143328:0:0:0:0:
64,192,143012,1,0,0:0:0:0:
192,192,143170,1,0,0:0:0:0:
64,192,143328,1,0,0:0:0:0:
448,192,143328,1,0,0:0:0:0:
192,192,143486,1,0,0:0:0:0:
448,192,143644,1,0,0:0:0:0:
320,192,143644,1,0,0:0:0:0:
320,192,143802,1,0,0:0:0:0:
64,192,143802,1,0,0:0:0:0:
192,192,143960,1,0,0:0:0:0:
64,192,143960,1,0,0:0:0:0:
448,192,143960,1,0,0:0:0:0:
320,192,144118,1,0,0:0:0:0:
192,192,144276,128,0,144591:0:0:0:0:
64,192,144276,1,0,0:0:0:0:
448,192,144433,1,0,0:0:0:0:
320,192,144591,128,0,144907:0:0:0:0:
64,192,144591,1,0,0:0:0:0:
448,192,144749,1,0,0:0:0:0:
192,192,144907,128,0,145223:0:0:0:0:
64,192,144907,1,0,0:0:0:0:
448,192,145065,1,0,0:0:0:0:
64,192,145223,1,0,0:0:0:0:
320,192,145223,1,0,0:0:0:0:
448,192,145381,1,0,0:0:0:0:
320,192,145539,1,0,0:0:0:0:
192,192,145539,1,0,0:0:0:0:
64,192,145697,1,0,0:0:0:0:
192,192,145854,1,0,0:0:0:0:
448,192,145854,1,0,0:0:0:0:
320,192,145854,1,0,0:0:0:0:
448,192,146012,1,0,0:0:0:0:
320,192,146012,1,0,0:0:0:0:
64,192,146012,1,0,0:0:0:0:
64,192,146170,1,0,0:0:0:0:
192,192,146170,1,0,0:0:0:0:
320,192,146170,1,0,0:0:0:0:
192,192,146802,128,0,147118:0:0:0:0:
448,192,147118,1,0,0:0:0:0:
448,192,149012,128,0,149328:0:0:0:0:
320,192,149328,128,0,149644:0:0:0:0:
192,192,149644,128,0,149960:0:0:0:0:
64,192,149960,1,0,0:0:0:0:
448,192,149986,1,0,0:0:0:0:
448,192,151539,128,0,151697:0:0:0:0:
192,192,151697,128,0,151854:0:0:0:0:
320,192,151854,1,0,0:0:0:0:
448,192,152170,1,0,0:0:0:0:
64,192,152486,1,0,0:0:0:0:
64,192,152802,1,0,0:0:0:0:
192,192,152802,128,0,153118:0:0:0:0:
320,192,153118,128,0,153433:0:0:0:0:
448,192,153433,1,0,0:0:0:0:
448,192,153749,1,0,0:0:0:0:
192,192,153749,1,0,0:0:0:0:
192,192,154381,128,0,154697:0:0:0:0:
448,192,154697,1,0,0:0:0:0:
448,192,156591,128,0,156907:0:0:0:0:
192,192,156907,128,0,157223:0:0:0:0:
64,192,157223,128,0,157539:0:0:0:0:
320,192,157539,1,0,0:0:0:0:
448,192,157565,1,0,0:0:0:0:
320,192,159118,128,0,159276:0:0:0:0:
192,192,159276,128,0,159433:0:0:0:0:
448,192,159433,1,0,0:0:0:0:
320,192,159749,1,0,0:0:0:0:
64,192,160065,1,0,0:0:0:0:
192,192,160381,128,0,160697:0:0:0:0:
320,192,160697,128,0,161012:0:0:0:0:
448,192,161012,128,0,161328:0:0:0:0:
64,192,161328,128,0,162276:0:0:0:0:
320,192,161328,128,0,161960:0:0:0:0:
448,192,161960,1,0,0:0:0:0:
192,192,162118,1,0,0:0:0:0:
320,192,162276,128,0,163223:0:0:0:0:
448,192,162276,1,0,0:0:0:0:
192,192,162433,1,0,0:0:0:0:
64,192,162591,1,0,0:0:0:0:
192,192,162749,1,0,0:0:0:0:
64,192,162907,1,0,0:0:0:0:
192,192,163065,1,0,0:0:0:0:
448,192,163223,128,0,164170:0:0:0:0:
64,192,163223,128,0,163539:0:0:0:0:
320,192,163539,1,0,0:0:0:0:
192,192,163539,128,0,163854:0:0:0:0:
320,192,163854,128,0,164170:0:0:0:0:
64,192,163854,1,0,0:0:0:0:
64,192,164170,128,0,165118:0:0:0:0:
192,192,164170,128,0,164486:0:0:0:0:
448,192,164486,128,0,164802:0:0:0:0:
320,192,164486,1,0,0:0:0:0:
320,192,164802,128,0,165118:0:0:0:0:
192,192,164802,1,0,0:0:0:0:
192,192,165118,128,0,166065:0:0:0:0:
448,192,165118,128,0,165749:0:0:0:0:
320,192,165749,1,0,0:0:0:0:
64,192,165907,1,0,0:0:0:0:
320,192,166065,128,0,167012:0:0:0:0:
64,192,166065,1,0,0:0:0:0:
192,192,166223,1,0,0:0:0:0:
448,192,166381,1,0,0:0:0:0:
192,192,166539,1,0,0:0:0:0:
448,192,166697,1,0,0:0:0:0:
64,192,166854,1,0,0:0:0:0:
448,192,167012,128,0,167960:0:0:0:0:
192,192,167012,128,0,167328:0:0:0:0:
64,192,167012,1,0,0:0:0:0:
320,192,167328,128,0,167644:0:0:0:0:
64,192,167328,1,0,0:0:0:0:
192,192,167644,128,0,167960:0:0:0:0:
64,192,167644,1,0,0:0:0:0:
64,192,167960,128,0,168907:0:0:0:0:
320,192,167960,128,0,168276:0:0:0:0:
448,192,168276,1,0,0:0:0:0:
192,192,168276,1,0,0:0:0:0:
192,192,168591,1,0,0:0:0:0:
320,192,168591,1,0,0:0:0:0:
192,192,168907,128,0,169854:0:0:0:0:
320,192,168907,128,0,169539:0:0:0:0:
448,192,169539,1,0,0:0:0:0:
64,192,169697,1,0,0:0:0:0:
320,192,169854,1,0,0:0:0:0:
448,192,169854,128,0,170802:0:0:0:0:
320,192,170012,1,0,0:0:0:0:
192,192,170170,1,0,0:0:0:0:
64,192,170328,1,0,0:0:0:0:
192,192,170486,1,0,0:0:0:0:
320,192,170486,1,0,0:0:0:0:
64,192,170644,1,0,0:0:0:0:
320,192,170802,128,0,171749:0:0:0:0:
192,192,170802,128,0,171118:0:0:0:0:
64,192,170802,1,0,0:0:0:0:
64,192,171118,128,0,171433:0:0:0:0:
448,192,171118,1,0,0:0:0:0:
192,192,171433,128,0,171591:0:0:0:0:
448,192,171591,128,0,171749:0:0:0:0:
64,192,171749,128,0,172697:0:0:0:0:
192,192,171749,128,0,172065:0:0:0:0:
320,192,172065,128,0,172381:0:0:0:0:
448,192,172065,128,0,172381:0:0:0:0:
192,192,172381,128,0,172697:0:0:0:0:
448,192,172697,128,0,173644:0:0:0:0:
320,192,172697,128,0,173328:0:0:0:0:
64,192,173328,1,0,0:0:0:0:
320,192,173486,1,0,0:0:0:0:
192,192,173644,128,0,174591:0:0:0:0:
64,192,173644,1,0,0:0:0:0:
320,192,173644,1,0,0:0:0:0:
320,192,173960,1,0,0:0:0:0:
448,192,174276,1,0,0:0:0:0:
64,192,174276,1,0,0:0:0:0:
320,192,174591,1,0,0:0:0:0:
64,192,174591,1,0,0:0:0:0:
448,192,174591,128,0,175539:0:0:0:0:
320,192,174907,1,0,0:0:0:0:
192,192,174907,1,0,0:0:0:0:
320,192,175223,1,0,0:0:0:0:
64,192,175223,1,0,0:0:0:0:
320,192,175539,1,0,0:0:0:0:
192,192,175539,1,0,0:0:0:0:
64,192,175539,1,0,0:0:0:0:
448,192,176486,1,0,0:0:0:0:
320,192,176486,1,0,0:0:0:0:
64,192,176486,1,0,0:0:0:0:
192,192,176591,1,0,0:0:0:0:
320,192,176697,1,0,0:0:0:0:
192,192,176802,1,0,0:0:0:0:
448,192,176802,1,0,0:0:0:0:
64,192,176907,1,0,0:0:0:0:
192,192,177012,1,0,0:0:0:0:
320,192,177118,1,0,0:0:0:0:
64,192,177118,1,0,0:0:0:0:
448,192,177223,1,0,0:0:0:0:
320,192,177328,1,0,0:0:0:0:
192,192,177433,1,0,0:0:0:0:
448,192,177433,1,0,0:0:0:0:
64,192,177433,1,0,0:0:0:0:
320,192,177539,1,0,0:0:0:0:
192,192,177644,1,0,0:0:0:0:
64,192,177749,1,0,0:0:0:0:
448,192,177749,1,0,0:0:0:0:
320,192,177854,1,0,0:0:0:0:
192,192,177960,1,0,0:0:0:0:
320,192,178065,1,0,0:0:0:0:
448,192,178065,1,0,0:0:0:0:
192,192,178170,1,0,0:0:0:0:
64,192,178276,1,0,0:0:0:0:
192,192,178381,1,0,0:0:0:0:
320,192,178381,1,0,0:0:0:0:
448,192,178381,1,0,0:0:0:0:
320,192,178486,1,0,0:0:0:0:
192,192,178591,1,0,0:0:0:0:
64,192,178697,1,0,0:0:0:0:
448,192,178697,1,0,0:0:0:0:
192,192,178802,1,0,0:0:0:0:
320,192,178907,1,0,0:0:0:0:
448,192,179012,1,0,0:0:0:0:
192,192,179012,1,0,0:0:0:0:
320,192,179118,1,0,0:0:0:0:
64,192,179223,1,0,0:0:0:0:
192,192,179328,1,0,0:0:0:0:
448,192,179328,128,0,179644:0:0:0:0:
320,192,179328,128,0,179644:0:0:0:0:
192,192,179644,128,0,179960:0:0:0:0:
64,192,179644,1,0,0:0:0:0:
64,192,179960,128,0,180276:0:0:0:0:
320,192,179960,1,0,0:0:0:0:
448,192,179960,128,0,180276:0:0:0:0:
192,192,180276,1,0,0:0:0:0:
320,192,180276,1,0,0:0:0:0:
448,192,180381,1,0,0:0:0:0:
320,192,180486,1,0,0:0:0:0:
64,192,180591,1,0,0:0:0:0:
448,192,180591,1,0,0:0:0:0:
192,192,180697,1,0,0:0:0:0:
320,192,180802,1,0,0:0:0:0:
192,192,180907,1,0,0:0:0:0:
64,192,180907,1,0,0:0:0:0:
320,192,181012,1,0,0:0:0:0:
192,192,181118,1,0,0:0:0:0:
64,192,181223,1,0,0:0:0:0:
320,192,181223,1,0,0:0:0:0:
448,192,181223,1,0,0:0:0:0:
192,192,181328,1,0,0:0:0:0:
320,192,181433,1,0,0:0:0:0:
448,192,181539,1,0,0:0:0:0:
320,192,181539,1,0,0:0:0:0:
192,192,181644,1,0,0:0:0:0:
320,192,181749,1,0,0:0:0:0:
192,192,181854,1,0,0:0:0:0:
64,192,181854,1,0,0:0:0:0:
448,192,181960,1,0,0:0:0:0:
320,192,182065,1,0,0:0:0:0:
448,192,182170,1,0,0:0:0:0:
192,192,182170,1,0,0:0:0:0:
64,192,182170,1,0,0:0:0:0:
320,192,182276,1,0,0:0:0:0:
192,192,182381,1,0,0:0:0:0:
64,192,182486,1,0,0:0:0:0:
320,192,182486,1,0,0:0:0:0:
192,192,182591,1,0,0:0:0:0:
448,192,182697,1,0,0:0:0:0:
320,192,182802,1,0,0:0:0:0:
192,192,182802,1,0,0:0:0:0:
64,192,182960,1,0,0:0:0:0:
320,192,183118,1,0,0:0:0:0:
448,192,183118,128,0,184065:0:0:0:0:
192,192,183118,128,0,183433:0:0:0:0:
64,192,183433,128,0,183749:0:0:0:0:
320,192,183433,1,0,0:0:0:0:
320,192,183749,128,0,184065:0:0:0:0:
192,192,183749,128,0,184065:0:0:0:0:
64,192,184065,1,0,0:0:0:0:
192,192,184170,1,0,0:0:0:0:
320,192,184276,1,0,0:0:0:0:
448,192,184381,1,0,0:0:0:0:
192,192,184381,1,0,0:0:0:0:
320,192,184486,1,0,0:0:0:0:
192,192,184591,1,0,0:0:0:0:
320,192,184697,1,0,0:0:0:0:
448,192,184697,1,0,0:0:0:0:
192,192,184802,1,0,0:0:0:0:
64,192,184907,1,0,0:0:0:0:
320,192,185012,1,0,0:0:0:0:
192,192,185012,1,0,0:0:0:0:
64,192,185012,1,0,0:0:0:0:
448,192,185118,1,0,0:0:0:0:
320,192,185223,1,0,0:0:0:0:
192,192,185328,1,0,0:0:0:0:
448,192,185328,1,0,0:0:0:0:
320,192,185433,1,0,0:0:0:0:
192,192,185539,1,0,0:0:0:0:
64,192,185644,1,0,0:0:0:0:
320,192,185644,1,0,0:0:0:0:
448,192,185749,1,0,0:0:0:0:
320,192,185854,1,0,0:0:0:0:
192,192,185960,1,0,0:0:0:0:
64,192,185960,1,0,0:0:0:0:
448,192,185960,1,0,0:0:0:0:
448,192,186276,1,0,0:0:0:0:
320,192,186276,1,0,0:0:0:0:
192,192,186276,1,0,0:0:0:0:
448,192,186591,1,0,0:0:0:0:
192,192,186591,1,0,0:0:0:0:
320,192,186591,1,0,0:0:0:0:
320,192,186749,1,0,0:0:0:0:
192,192,186749,1,0,0:0:0:0:
64,192,186749,1,0,0:0:0:0:
192,192,186907,1,0,0:0:0:0:
64,192,186907,1,0,0:0:0:0:
448,192,186907,1,0,0:0:0:0:
320,192,187012,1,0,0:0:0:0:
192,192,187118,1,0,0:0:0:0:
320,192,187223,1,0,0:0:0:0:
448,192,187223,1,0,0:0:0:0:
192,192,187328,1,0,0:0:0:0:
64,192,187433,1,0,0:0:0:0:
192,192,187539,1,0,0:0:0:0:
448,192,187539,1,0,0:0:0:0:
320,192,187644,1,0,0:0:0:0:
192,192,187749,1,0,0:0:0:0:
64,192,187854,1,0,0:0:0:0:
320,192,187854,1,0,0:0:0:0:
448,192,187854,1,0,0:0:0:0:
192,192,187960,1,0,0:0:0:0:
320,192,188065,1,0,0:0:0:0:
448,192,188170,1,0,0:0:0:0:
192,192,188170,1,0,0:0:0:0:
320,192,188276,1,0,0:0:0:0:
192,192,188381,1,0,0:0:0:0:
64,192,188486,1,0,0:0:0:0:
448,192,188486,1,0,0:0:0:0:
320,192,188591,1,0,0:0:0:0:
192,192,188697,1,0,0:0:0:0:
320,192,188802,1,0,0:0:0:0:
448,192,188802,128,0,189118:0:0:0:0:
64,192,188802,128,0,189118:0:0:0:0:
320,192,189118,128,0,189433:0:0:0:0:
192,192,189118,1,0,0:0:0:0:
192,192,189433,128,0,189749:0:0:0:0:
64,192,189433,128,0,189749:0:0:0:0:
320,192,189749,1,0,0:0:0:0:
448,192,189749,1,0,0:0:0:0:
448,192,189854,1,0,0:0:0:0:
320,192,189960,1,0,0:0:0:0:
192,192,190065,1,0,0:0:0:0:
448,192,190065,1,0,0:0:0:0:
320,192,190170,1,0,0:0:0:0:
192,192,190276,1,0,0:0:0:0:
64,192,190381,1,0,0:0:0:0:
320,192,190381,1,0,0:0:0:0:
192,192,190486,1,0,0:0:0:0:
320,192,190591,1,0,0:0:0:0:
192,192,190697,1,0,0:0:0:0:
64,192,190697,1,0,0:0:0:0:
448,192,190697,1,0,0:0:0:0:
320,192,190854,1,0,0:0:0:0:
192,192,191012,1,0,0:0:0:0:
64,192,191170,1,0,0:0:0:0:
192,192,191328,1,0,0:0:0:0:
320,192,191486,1,0,0:0:0:0:
448,192,191644,1,0,0:0:0:0:
192,192,191644,1,0,0:0:0:0:
320,192,191644,128,0,191697:0:0:0:0:
320,192,191802,128,0,191854:0:0:0:0:
192,192,191802,1,0,0:0:0:0:
448,192,191802,1,0,0:0:0:0:
320,192,191960,128,0,192012:0:0:0:0:
192,192,191960,1,0,0:0:0:0:
448,192,191960,1,0,0:0:0:0:
320,192,192118,128,0,192170:0:0:0:0:
192,192,192118,1,0,0:0:0:0:
448,192,192118,1,0,0:0:0:0:
320,192,192276,128,0,192328:0:0:0:0:
192,192,192276,1,0,0:0:0:0:
448,192,192276,1,0,0:0:0:0:
64,192,192433,1,0,0:0:0:0:
320,192,192433,1,0,0:0:0:0:
192,192,192591,128,0,192644:0:0:0:0:
64,192,192591,1,0,0:0:0:0:
448,192,192591,1,0,0:0:0:0:
448,192,192749,1,0,0:0:0:0:
192,192,192749,128,0,192802:0:0:0:0:
64,192,192749,1,0,0:0:0:0:
192,192,192907,128,0,192960:0:0:0:0:
64,192,192907,1,0,0:0:0:0:
448,192,192907,1,0,0:0:0:0:
192,192,193065,128,0,193118:0:0:0:0:
64,192,193065,1,0,0:0:0:0:
448,192,193065,1,0,0:0:0:0:
192,192,193223,128,0,193276:0:0:0:0:
64,192,193223,1,0,0:0:0:0:
448,192,193223,1,0,0:0:0:0:
320,192,193381,1,0,0:0:0:0:
192,192,193381,1,0,0:0:0:0:
64,192,193539,128,0,193591:0:0:0:0:
320,192,193539,1,0,0:0:0:0:
448,192,193539,1,0,0:0:0:0:
64,192,193697,128,0,193749:0:0:0:0:
320,192,193697,1,0,0:0:0:0:
448,192,193697,1,0,0:0:0:0:
64,192,193854,128,0,193907:0:0:0:0:
320,192,193854,1,0,0:0:0:0:
448,192,193854,1,0,0:0:0:0:
320,192,194012,1,0,0:0:0:0:
448,192,194012,1,0,0:0:0:0:
64,192,194012,128,0,194065:0:0:0:0:
320,192,194170,1,0,0:0:0:0:
448,192,194170,1,0,0:0:0:0:
64,192,194170,128,0,194223:0:0:0:0:
192,192,194328,1,0,0:0:0:0:
320,192,194328,1,0,0:0:0:0:
192,192,194486,128,0,194539:0:0:0:0:
448,192,194486,1,0,0:0:0:0:
64,192,194486,1,0,0:0:0:0:
448,192,194644,1,0,0:0:0:0:
64,192,194644,1,0,0:0:0:0:
192,192,194644,128,0,194697:0:0:0:0:
64,192,194802,1,0,0:0:0:0:
448,192,194802,1,0,0:0:0:0:
192,192,194802,128,0,194854:0:0:0:0:
448,192,194960,1,0,0:0:0:0:
64,192,194960,1,0,0:0:0:0:
192,192,194960,128,0,195012:0:0:0:0:
192,192,195118,128,0,195170:0:0:0:0:
64,192,195118,1,0,0:0:0:0:
448,192,195118,1,0,0:0:0:0:
320,192,195276,1,0,0:0:0:0:
64,192,195276,1,0,0:0:0:0:
448,192,195433,128,0,196381:0:0:0:0:
320,192,195433,128,0,195486:0:0:0:0:
192,192,195433,1,0,0:0:0:0:
64,192,195591,128,0,195644:0:0:0:0:
192,192,195749,1,0,0:0:0:0:
320,192,195749,128,0,195802:0:0:0:0:
64,192,195907,128,0,195960:0:0:0:0:
192,192,196065,1,0,0:0:0:0:
320,192,196065,128,0,196118:0:0:0:0:
64,192,196223,128,0,196276:0:0:0:0:
320,192,196381,128,0,197328:0:0:0:0:
192,192,196381,128,0,196433:0:0:0:0:
64,192,196539,128,0,196591:0:0:0:0:
192,192,196697,128,0,196749:0:0:0:0:
448,192,196697,1,0,0:0:0:0:
64,192,196854,128,0,196907:0:0:0:0:
448,192,197012,1,0,0:0:0:0:
192,192,197012,128,0,197065:0:0:0:0:
64,192,197170,128,0,197223:0:0:0:0:
192,192,197328,128,0,198276:0:0:0:0:
64,192,197328,1,0,0:0:0:0:
448,192,197328,128,0,197381:0:0:0:0:
320,192,197486,128,0,197539:0:0:0:0:
448,192,197644,128,0,197697:0:0:0:0:
64,192,197644,1,0,0:0:0:0:
320,192,197802,128,0,197854:0:0:0:0:
448,192,197960,128,0,198012:0:0:0:0:
64,192,197960,1,0,0:0:0:0:
320,192,198118,128,0,198170:0:0:0:0:
64,192,198276,128,0,198907:0:0:0:0:
448,192,198276,128,0,198328:0:0:0:0:
192,192,198433,128,0,198486:0:0:0:0:
448,192,198591,128,0,198644:0:0:0:0:
320,192,198591,1,0,0:0:0:0:
192,192,198749,128,0,198802:0:0:0:0:
320,192,198907,1,0,0:0:0:0:
320,192,199854,128,0,200170:0:0:0:0:
64,192,200170,128,0,200802:0:0:0:0:
192,192,200802,128,0,201118:0:0:0:0:
320,192,201118,1,0,0:0:0:0:
64,192,201118,1,0,0:0:0:0:
448,192,201118,1,0,0:0:0:0:
64,192,201276,1,0,0:0:0:0:
448,192,201276,1,0,0:0:0:0:
64,192,201433,1,0,0:0:0:0:
320,192,201433,1,0,0:0:0:0:
192,192,201591,1,0,0:0:0:0:
320,192,201591,1,0,0:0:0:0:
320,192,201749,1,0,0:0:0:0:
448,192,201749,1,0,0:0:0:0:
64,192,201907,1,0,0:0:0:0:
192,192,201907,1,0,0:0:0:0:
64,192,202065,1,0,0:0:0:0:
448,192,202065,1,0,0:0:0:0:
320,192,202065,1,0,0:0:0:0:
320,192,202223,1,0,0:0:0:0:
192,192,202223,1,0,0:0:0:0:
320,192,202381,1,0,0:0:0:0:
448,192,202381,1,0,0:0:0:0:
192,192,202539,1,0,0:0:0:0:
320,192,202539,1,0,0:0:0:0:
192,192,202697,1,0,0:0:0:0:
64,192,202697,1,0,0:0:0:0:
448,192,202854,1,0,0:0:0:0:
320,192,202854,1,0,0:0:0:0:
64,192,203012,1,0,0:0:0:0:
192,192,203012,1,0,0:0:0:0:
448,192,203012,1,0,0:0:0:0:
320,192,203170,1,0,0:0:0:0:
448,192,203170,1,0,0:0:0:0:
64,192,203328,1,0,0:0:0:0:
192,192,203328,1,0,0:0:0:0:
192,192,203486,1,0,0:0:0:0:
448,192,203486,1,0,0:0:0:0:
320,192,203644,1,0,0:0:0:0:
192,192,203644,1,0,0:0:0:0:
448,192,203802,1,0,0:0:0:0:
64,192,203802,1,0,0:0:0:0:
320,192,203960,1,0,0:0:0:0:
192,192,203960,1,0,0:0:0:0:
448,192,203960,1,0,0:0:0:0:
448,192,204118,1,0,0:0:0:0:
320,192,204118,1,0,0:0:0:0:
192,192,204276,1,0,0:0:0:0:
320,192,204276,1,0,0:0:0:0:
64,192,204433,1,0,0:0:0:0:
320,192,204433,1,0,0:0:0:0:
192,192,204591,1,0,0:0:0:0:
320,192,204591,1,0,0:0:0:0:
448,192,204591,1,0,0:0:0:0:
448,192,204749,1,0,0:0:0:0:
192,192,204749,1,0,0:0:0:0:
64,192,204907,1,0,0:0:0:0:
192,192,204907,1,0,0:0:0:0:
448,192,204907,1,0,0:0:0:0:
320,192,204907,1,0,0:0:0:0:
64,192,205065,1,0,0:0:0:0:
320,192,205065,1,0,0:0:0:0:
192,192,205223,1,0,0:0:0:0:
448,192,205223,1,0,0:0:0:0:
64,192,205381,1,0,0:0:0:0:
192,192,205381,1,0,0:0:0:0:
192,192,205539,1,0,0:0:0:0:
448,192,205539,1,0,0:0:0:0:
192,192,205697,1,0,0:0:0:0:
448,192,205697,1,0,0:0:0:0:
64,192,205854,1,0,0:0:0:0:
320,192,205854,1,0,0:0:0:0:
448,192,205854,1,0,0:0:0:0:
64,192,206012,1,0,0:0:0:0:
192,192,206012,1,0,0:0:0:0:
192,192,206170,1,0,0:0:0:0:
448,192,206170,1,0,0:0:0:0:
192,192,206328,1,0,0:0:0:0:
320,192,206328,1,0,0:0:0:0:
64,192,206486,1,0,0:0:0:0:
192,192,206486,1,0,0:0:0:0:
320,192,206644,1,0,0:0:0:0:
448,192,206644,1,0,0:0:0:0:
64,192,206802,1,0,0:0:0:0:
448,192,206802,1,0,0:0:0:0:
320,192,206802,1,0,0:0:0:0:
64,192,206960,1,0,0:0:0:0:
192,192,206960,1,0,0:0:0:0:
192,192,207118,1,0,0:0:0:0:
448,192,207118,1,0,0:0:0:0:
320,192,207276,1,0,0:0:0:0:
64,192,207276,1,0,0:0:0:0:
192,192,207433,1,0,0:0:0:0:
448,192,207433,1,0,0:0:0:0:
64,192,207591,1,0,0:0:0:0:
448,192,207591,1,0,0:0:0:0:
192,192,207591,1,0,0:0:0:0:
192,192,207749,128,0,207907:0:0:0:0:
320,192,207749,1,0,0:0:0:0:
64,192,207749,1,0,0:0:0:0:
64,192,207907,128,0,208065:0:0:0:0:
448,192,207907,1,0,0:0:0:0:
320,192,207907,1,0,0:0:0:0:
192,192,208065,1,0,0:0:0:0:
320,192,208065,128,0,208223:0:0:0:0:
192,192,208223,128,0,208381:0:0:0:0:
448,192,208223,128,0,208381:0:0:0:0:
320,192,208381,1,0,0:0:0:0:
64,192,208381,128,0,208539:0:0:0:0:
192,192,208539,128,0,208697:0:0:0:0:
320,192,208539,128,0,208697:0:0:0:0:
64,192,208697,1,0,0:0:0:0:
448,192,208697,1,0,0:0:0:0:
192,192,208854,1,0,0:0:0:0:
320,192,208854,1,0,0:0:0:0:
64,192,209012,1,0,0:0:0:0:
192,192,209012,1,0,0:0:0:0:
448,192,209170,1,0,0:0:0:0:
320,192,209170,1,0,0:0:0:0:
64,192,209328,1,0,0:0:0:0:
320,192,209328,1,0,0:0:0:0:
320,192,209486,1,0,0:0:0:0:
192,192,209486,1,0,0:0:0:0:
448,192,209644,1,0,0:0:0:0:
64,192,209644,1,0,0:0:0:0:
192,192,209644,1,0,0:0:0:0:
64,192,209802,1,0,0:0:0:0:
320,192,209802,1,0,0:0:0:0:
320,192,209960,1,0,0:0:0:0:
192,192,209960,1,0,0:0:0:0:
448,192,210118,1,0,0:0:0:0:
320,192,210118,1,0,0:0:0:0:
448,192,210276,1,0,0:0:0:0:
192,192,210276,1,0,0:0:0:0:
192,192,210433,1,0,0:0:0:0:
64,192,210433,1,0,0:0:0:0:
64,192,210591,1,0,0:0:0:0:
448,192,210591,1,0,0:0:0:0:
320,192,210591,1,0,0:0:0:0:
192,192,210749,1,0,0:0:0:0:
448,192,210749,1,0,0:0:0:0:
64,192,210907,1,0,0:0:0:0:
320,192,210907,1,0,0:0:0:0:
448,192,211065,1,0,0:0:0:0:
192,192,211065,1,0,0:0:0:0:
320,192,211223,1,0,0:0:0:0:
192,192,211223,1,0,0:0:0:0:
448,192,211381,1,0,0:0:0:0:
192,192,211381,1,0,0:0:0:0:
64,192,211539,1,0,0:0:0:0:
320,192,211539,1,0,0:0:0:0:
448,192,211539,1,0,0:0:0:0:
192,192,211697,1,0,0:0:0:0:
320,192,211697,1,0,0:0:0:0:
192,192,211854,1,0,0:0:0:0:
448,192,211854,1,0,0:0:0:0:
64,192,212012,1,0,0:0:0:0:
320,192,212012,1,0,0:0:0:0:
64,192,212170,1,0,0:0:0:0:
192,192,212170,1,0,0:0:0:0:
448,192,212170,1,0,0:0:0:0:
320,192,212328,1,0,0:0:0:0:
448,192,212328,1,0,0:0:0:0:
192,192,212328,1,0,0:0:0:0:
192,192,212486,1,0,0:0:0:0:
64,192,212486,1,0,0:0:0:0:
448,192,212486,1,0,0:0:0:0:
320,192,212486,1,0,0:0:0:0:
192,192,212644,1,0,0:0:0:0:
64,192,212644,1,0,0:0:0:0:
448,192,212802,1,0,0:0:0:0:
192,192,212802,1,0,0:0:0:0:
64,192,212960,1,0,0:0:0:0:
320,192,212960,1,0,0:0:0:0:
320,192,213118,1,0,0:0:0:0:
448,192,213118,1,0,0:0:0:0:
320,192,213276,1,0,0:0:0:0:
64,192,213276,1,0,0:0:0:0:
448,192,213433,1,0,0:0:0:0:
192,192,213433,1,0,0:0:0:0:
64,192,213433,1,0,0:0:0:0:
448,192,213591,1,0,0:0:0:0:
192,192,213591,1,0,0:0:0:0:
192,192,213749,1,0,0:0:0:0:
320,192,213749,1,0,0:0:0:0:
448,192,213907,1,0,0:0:0:0:
320,192,213907,1,0,0:0:0:0:
320,192,214065,1,0,0:0:0:0:
64,192,214065,1,0,0:0:0:0:
192,192,214223,1,0,0:0:0:0:
64,192,214223,1,0,0:0:0:0:
64,192,214381,1,0,0:0:0:0:
320,192,214381,1,0,0:0:0:0:
448,192,214381,1,0,0:0:0:0:
192,192,214539,1,0,0:0:0:0:
448,192,214539,1,0,0:0:0:0:
64,192,214697,1,0,0:0:0:0:
320,192,214697,1,0,0:0:0:0:
320,192,214854,1,0,0:0:0:0:
64,192,214854,1,0,0:0:0:0:
320,192,215012,1,0,0:0:0:0:
192,192,215012,1,0,0:0:0:0:
448,192,215170,1,0,0:0:0:0:
64,192,215170,1,0,0:0:0:0:
320,192,215328,1,0,0:0:0:0:
192,192,215328,128,0,215486:0:0:0:0:
448,192,215328,128,0,215486:0:0:0:0:
64,192,215486,1,0,0:0:0:0:
320,192,215486,128,0,215644:0:0:0:0:
64,192,215644,1,0,0:0:0:0:
192,192,215644,128,0,215802:0:0:0:0:
448,192,215644,1,0,0:0:0:0:
448,192,215802,128,0,215960:0:0:0:0:
320,192,215802,128,0,215960:0:0:0:0:
64,192,215802,1,0,0:0:0:0:
192,192,215960,1,0,0:0:0:0:
64,192,215960,128,0,216118:0:0:0:0:
192,192,216118,128,0,216276:0:0:0:0:
448,192,216118,1,0,0:0:0:0:
320,192,216118,128,0,216276:0:0:0:0:
64,192,216276,1,0,0:0:0:0:
448,192,216276,1,0,0:0:0:0:
320,192,216381,1,0,0:0:0:0:
192,192,216486,1,0,0:0:0:0:
64,192,216591,1,0,0:0:0:0:
320,192,216591,1,0,0:0:0:0:
448,192,216591,1,0,0:0:0:0:
192,192,216697,1,0,0:0:0:0:
320,192,216802,1,0,0:0:0:0:
64,192,216907,1,0,0:0:0:0:
192,192,216907,1,0,0:0:0:0:
448,192,216907,1,0,0:0:0:0:
320,192,217012,1,0,0:0:0:0:
192,192,217118,1,0,0:0:0:0:
448,192,217223,1,0,0:0:0:0:
320,192,217223,1,0,0:0:0:0:
192,192,217328,1,0,0:0:0:0:
64,192,217328,1,0,0:0:0:0:
448,192,217433,1,0,0:0:0:0:
320,192,217433,1,0,0:0:0:0:
64,192,217539,1,0,0:0:0:0:
192,192,217539,1,0,0:0:0:0:
320,192,217644,1,0,0:0:0:0:
448,192,217644,1,0,0:0:0:0:
64,192,217749,1,0,0:0:0:0:
192,192,217749,1,0,0:0:0:0:
192,192,217854,1,0,0:0:0:0:
448,192,217854,1,0,0:0:0:0:
320,192,217854,1,0,0:0:0:0:
64,192,217960,1,0,0:0:0:0:
320,192,218065,1,0,0:0:0:0:
64,192,218170,1,0,0:0:0:0:
448,192,218170,1,0,0:0:0:0:
192,192,218276,1,0,0:0:0:0:
320,192,218276,1,0,0:0:0:0:
64,192,218381,1,0,0:0:0:0:
448,192,218381,1,0,0:0:0:0:
192,192,218486,1,0,0:0:0:0:
320,192,218486,1,0,0:0:0:0:
64,192,218591,1,0,0:0:0:0:
448,192,218591,1,0,0:0:0:0:
320,192,218697,1,0,0:0:0:0:
192,192,218697,1,0,0:0:0:0:
192,192,218802,1,0,0:0:0:0:
448,192,218802,1,0,0:0:0:0:
64,192,218802,1,0,0:0:0:0:
320,192,218960,1,0,0:0:0:0:
64,192,218960,1,0,0:0:0:0:
192,192,219118,1,0,0:0:0:0:
448,192,219118,1,0,0:0:0:0:
64,192,219118,1,0,0:0:0:0:
320,192,219223,1,0,0:0:0:0:
192,192,219328,1,0,0:0:0:0:
64,192,219433,1,0,0:0:0:0:
320,192,219433,1,0,0:0:0:0:
448,192,219433,1,0,0:0:0:0:
192,192,219539,1,0,0:0:0:0:
320,192,219644,1,0,0:0:0:0:
448,192,219749,1,0,0:0:0:0:
192,192,219749,1,0,0:0:0:0:
64,192,219749,1,0,0:0:0:0:
448,192,220065,1,0,0:0:0:0:
320,192,220065,1,0,0:0:0:0:
192,192,220065,1,0,0:0:0:0:
64,192,220170,1,0,0:0:0:0:
192,192,220276,1,0,0:0:0:0:
448,192,220381,1,0,0:0:0:0:
64,192,220381,1,0,0:0:0:0:
320,192,220486,1,0,0:0:0:0:
192,192,220591,1,0,0:0:0:0:
64,192,220697,1,0,0:0:0:0:
320,192,220697,1,0,0:0:0:0:
192,192,220802,1,0,0:0:0:0:
448,192,220802,1,0,0:0:0:0:
320,192,220907,1,0,0:0:0:0:
64,192,220907,1,0,0:0:0:0:
192,192,221012,1,0,0:0:0:0:
448,192,221012,1,0,0:0:0:0:
64,192,221012,1,0,0:0:0:0:
320,192,221118,1,0,0:0:0:0:
448,192,221223,1,0,0:0:0:0:
320,192,221328,1,0,0:0:0:0:
64,192,221328,1,0,0:0:0:0:
192,192,221433,1,0,0:0:0:0:
64,192,221539,1,0,0:0:0:0:
192,192,221644,1,0,0:0:0:0:
320,192,221644,1,0,0:0:0:0:
448,192,221749,1,0,0:0:0:0:
64,192,221749,1,0,0:0:0:0:
192,192,221854,1,0,0:0:0:0:
320,192,221854,1,0,0:0:0:0:
448,192,221960,1,0,0:0:0:0:
192,192,221960,1,0,0:0:0:0:
64,192,221960,1,0,0:0:0:0:
320,192,222065,1,0,0:0:0:0:
192,192,222170,1,0,0:0:0:0:
64,192,222276,1,0,0:0:0:0:
320,192,222276,1,0,0:0:0:0:
192,192,222381,1,0,0:0:0:0:
320,192,222486,1,0,0:0:0:0:
192,192,222591,1,0,0:0:0:0:
64,192,222591,1,0,0:0:0:0:
320,192,222697,1,0,0:0:0:0:
448,192,222697,1,0,0:0:0:0:
192,192,222802,1,0,0:0:0:0:
64,192,222802,1,0,0:0:0:0:
64,192,222907,1,0,0:0:0:0:
320,192,222907,1,0,0:0:0:0:
448,192,222907,1,0,0:0:0:0:
192,192,223012,1,0,0:0:0:0:
320,192,223118,1,0,0:0:0:0:
448,192,223223,1,0,0:0:0:0:
320,192,223328,1,0,0:0:0:0:
192,192,223433,1,0,0:0:0:0:
64,192,223539,1,0,0:0:0:0:
192,192,223644,1,0,0:0:0:0:
320,192,223749,1,0,0:0:0:0:
448,192,223854,1,0,0:0:0:0:
192,192,223854,1,0,0:0:0:0:
64,192,223854,1,0,0:0:0:0:
448,192,223960,1,0,0:0:0:0:
320,192,223960,1,0,0:0:0:0:
192,192,224065,1,0,0:0:0:0:
64,192,224065,1,0,0:0:0:0:
320,192,224170,1,0,0:0:0:0:
448,192,224170,1,0,0:0:0:0:
192,192,224276,1,0,0:0:0:0:
64,192,224276,1,0,0:0:0:0:
320,192,224381,1,0,0:0:0:0:
448,192,224381,1,0,0:0:0:0:
448,192,224486,1,0,0:0:0:0:
192,192,224486,1,0,0:0:0:0:
64,192,224486,1,0,0:0:0:0:
64,192,224591,1,0,0:0:0:0:
192,192,224697,1,0,0:0:0:0:
64,192,224802,1,0,0:0:0:0:
320,192,224802,1,0,0:0:0:0:
192,192,224907,1,0,0:0:0:0:
448,192,224907,1,0,0:0:0:0:
320,192,225012,1,0,0:0:0:0:
64,192,225012,1,0,0:0:0:0:
192,192,225118,1,0,0:0:0:0:
448,192,225118,1,0,0:0:0:0:
320,192,225223,1,0,0:0:0:0:
64,192,225223,1,0,0:0:0:0:
192,192,225328,1,0,0:0:0:0:
448,192,225328,1,0,0:0:0:0:
320,192,225433,1,0,0:0:0:0:
64,192,225433,1,0,0:0:0:0:
192,192,225433,1,0,0:0:0:0:
448,192,225539,1,0,0:0:0:0:
320,192,225644,1,0,0:0:0:0:
448,192,225749,1,0,0:0:0:0:
64,192,225749,1,0,0:0:0:0:
192,192,225749,1,0,0:0:0:0:
320,192,225854,1,0,0:0:0:0:
192,192,225960,1,0,0:0:0:0:
320,192,226065,1,0,0:0:0:0:
448,192,226065,1,0,0:0:0:0:
192,192,226170,1,0,0:0:0:0:
64,192,226276,1,0,0:0:0:0:
192,192,226381,1,0,0:0:0:0:
448,192,226381,1,0,0:0:0:0:
320,192,226381,1,0,0:0:0:0:
320,192,226539,1,0,0:0:0:0:
64,192,226539,1,0,0:0:0:0:
192,192,226697,1,0,0:0:0:0:
64,192,226697,1,0,0:0:0:0:
448,192,226697,1,0,0:0:0:0:
320,192,226802,1,0,0:0:0:0:
64,192,226907,1,0,0:0:0:0:
192,192,227012,1,0,0:0:0:0:
448,192,227012,1,0,0:0:0:0:
320,192,227118,1,0,0:0:0:0:
448,192,227223,1,0,0:0:0:0:
320,192,227328,1,0,0:0:0:0:
64,192,227328,1,0,0:0:0:0:
192,192,227433,1,0,0:0:0:0:
64,192,227539,1,0,0:0:0:0:
320,192,227644,1,0,0:0:0:0:
448,192,227644,1,0,0:0:0:0:
192,192,227644,1,0,0:0:0:0:
192,192,227749,1,0,0:0:0:0:
64,192,227749,1,0,0:0:0:0:
320,192,227854,1,0,0:0:0:0:
448,192,227854,1,0,0:0:0:0:
192,192,227960,1,0,0:0:0:0:
64,192,227960,1,0,0:0:0:0:
320,192,228065,1,0,0:0:0:0:
448,192,228065,1,0,0:0:0:0:
192,192,228170,1,0,0:0:0:0:
64,192,228170,1,0,0:0:0:0:
64,192,228276,1,0,0:0:0:0:
320,192,228276,1,0,0:0:0:0:
448,192,228276,1,0,0:0:0:0:
192,192,228381,1,0,0:0:0:0:
320,192,228486,1,0,0:0:0:0:
448,192,228591,1,0,0:0:0:0:
192,192,228591,1,0,0:0:0:0:
64,192,228697,1,0,0:0:0:0:
320,192,228697,1,0,0:0:0:0:
192,192,228802,1,0,0:0:0:0:
448,192,228802,1,0,0:0:0:0:
320,192,228907,1,0,0:0:0:0:
64,192,228907,1,0,0:0:0:0:
192,192,229012,1,0,0:0:0:0:
448,192,229012,1,0,0:0:0:0:
320,192,229118,1,0,0:0:0:0:
64,192,229118,1,0,0:0:0:0:
192,192,229223,1,0,0:0:0:0:
448,192,229223,1,0,0:0:0:0:
64,192,229223,1,0,0:0:0:0:
320,192,229328,1,0,0:0:0:0:
192,192,229433,1,0,0:0:0:0:
448,192,229539,1,0,0:0:0:0:
64,192,229539,1,0,0:0:0:0:
320,192,229539,1,0,0:0:0:0:
192,192,229644,1,0,0:0:0:0:
320,192,229749,1,0,0:0:0:0:
448,192,229854,1,0,0:0:0:0:
320,192,229960,1,0,0:0:0:0:
192,192,230065,1,0,0:0:0:0:
320,192,230170,1,0,0:0:0:0:
192,192,230276,1,0,0:0:0:0:
64,192,230381,1,0,0:0:0:0:
192,192,230486,1,0,0:0:0:0:
320,192,230486,1,0,0:0:0:0:
448,192,230486,128,0,230591:0:0:0:0:
320,192,230591,128,0,230697:0:0:0:0:
192,192,230697,128,0,230802:0:0:0:0:
320,192,230802,128,0,230907:0:0:0:0:
192,192,230907,128,0,231012:0:0:0:0:
64,192,231012,128,0,231118:0:0:0:0:
192,192,231118,128,0,231223:0:0:0:0:
320,192,231223,128,0,231328:0:0:0:0:
448,192,231328,128,0,231433:0:0:0:0:
192,192,231433,1,0,0:0:0:0:
64,192,231433,1,0,0:0:0:0:
448,192,232381,1,0,0:0:0:0:
64,192,232381,1,0,0:0:0:0:
192,192,232381,1,0,0:0:0:0:
448,192,233328,1,0,0:0:0:0:
192,192,233328,1,0,0:0:0:0:
320,192,233328,1,0,0:0:0:0:
448,192,234276,1,0,0:0:0:0:
64,192,234276,1,0,0:0:0:0:
448,192,234591,1,0,0:0:0:0:
320,192,234591,1,0,0:0:0:0:
448,192,234907,1,0,0:0:0:0:
192,192,234907,1,0,0:0:0:0:
320,192,235223,1,0,0:0:0:0:
64,192,235223,1,0,0:0:0:0:
192,192,235223,1,0,0:0:0:0:
64,192,236170,1,0,0:0:0:0:
448,192,236170,1,0,0:0:0:0:
320,192,236170,1,0,0:0:0:0:
192,192,237118,1,0,0:0:0:0:
320,192,237118,1,0,0:0:0:0:
448,192,237118,1,0,0:0:0:0:
448,192,238065,1,0,0:0:0:0:
64,192,238065,1,0,0:0:0:0:
320,192,238223,1,0,0:0:0:0:
192,192,238381,1,0,0:0:0:0:
448,192,238381,1,0,0:0:0:0:
64,192,238539,1,0,0:0:0:0:
192,192,238697,1,0,0:0:0:0:
320,192,238854,1,0,0:0:0:0:
448,192,239012,1,0,0:0:0:0:
192,192,239012,1,0,0:0:0:0:
64,192,239012,1,0,0:0:0:0:
192,192,239644,1,0,0:0:0:0:
320,192,239802,1,0,0:0:0:0:
448,192,239960,1,0,0:0:0:0:
64,192,239960,1,0,0:0:0:0:
320,192,240591,1,0,0:0:0:0:
192,192,240749,1,0,0:0:0:0:
64,192,240907,1,0,0:0:0:0:
320,192,240907,1,0,0:0:0:0:
448,192,240907,1,0,0:0:0:0:
192,192,241065,1,0,0:0:0:0:
320,192,241223,1,0,0:0:0:0:
64,192,241381,1,0,0:0:0:0:
192,192,241539,1,0,0:0:0:0:
320,192,241697,1,0,0:0:0:0:
448,192,241854,1,0,0:0:0:0:
192,192,241854,1,0,0:0:0:0:
320,192,242170,1,0,0:0:0:0:
192,192,242170,1,0,0:0:0:0:
320,192,242486,1,0,0:0:0:0:
192,192,242486,1,0,0:0:0:0:
192,192,242802,1,0,0:0:0:0:
64,192,242802,1,0,0:0:0:0:
448,192,242802,1,0,0:0:0:0:
64,192,243749,1,0,0:0:0:0:
192,192,243749,1,0,0:0:0:0:
320,192,243749,1,0,0:0:0:0:
448,192,244697,1,0,0:0:0:0:
192,192,244697,1,0,0:0:0:0:
64,192,244854,1,0,0:0:0:0:
192,192,245012,1,0,0:0:0:0:
448,192,245170,1,0,0:0:0:0:
192,192,245328,1,0,0:0:0:0:
448,192,245486,1,0,0:0:0:0:
448,192,245644,128,0,245802:0:0:0:0:
320,192,245802,128,0,245960:0:0:0:0:
192,192,245960,128,0,246118:0:0:0:0:
64,192,246118,128,0,246276:0:0:0:0:
192,192,246276,128,0,246433:0:0:0:0:
320,192,246433,1,0,0:0:0:0:
448,192,246433,1,0,0:0:0:0:
