osu file format v14

[General]
AudioFilename: audio.mp3
AudioLeadIn: 0
PreviewTime: 40453
Countdown: 0
SampleSet: Drum
StackLeniency: 0.7
Mode: 2
LetterboxInBreaks: 0
WidescreenStoryboard: 1

[Editor]
DistanceSpacing: 1
BeatDivisor: 4
GridSize: 8
TimelineZoom: 1.900006

[Metadata]
Title:Laplace
TitleUnicode:Laplace
Artist:Sakuzyo
ArtistUnicode:削除
Creator:Deif
Version:Platter
Source:
Tags:THE BMS OF FIGHTERS 2011 BOF2011 Intersection of conflict ArtBreaks 3ight 140 Selentia Cytus Chapter 8 VIII ANOTHER ME Rayark Video Game Electronic Instrumental
BeatmapID:2717426
BeatmapSetID:1071792

[Difficulty]
HPDrainRate:5
CircleSize:3.5
OverallDifficulty:8
ApproachRate:8
SliderMultiplier:1.6
SliderTickRate:1

[Events]
//Background and Video events
0,0,"BG.jpg",0,0
//Break Periods
2,77814,83057
//Storyboard Layer 0 (Background)
//Storyboard Layer 1 (Fail)
//Storyboard Layer 2 (Pass)
//Storyboard Layer 3 (Foreground)
//Storyboard Layer 4 (Overlay)
//Storyboard Sound Samples

[TimingPoints]
195,387.096774193548,4,2,0,50,1,0
3872,-100,4,3,0,50,0,0
4065,-100,4,2,1,50,0,0
4646,-100,4,3,0,50,0,0
4840,-100,4,2,1,50,0,0
6001,-100,4,3,0,50,0,0
6194,-100,4,2,1,50,0,0
6969,-100,4,3,0,50,0,0
7162,-100,4,2,1,50,0,0
7743,-100,4,3,0,50,0,0
7936,-100,4,2,1,50,0,0
8517,-100,4,3,0,50,0,0
8711,-100,4,2,1,50,0,0
9291,-100,4,3,0,50,0,0
9485,-100,4,2,1,50,0,0
9678,-100,4,1,0,50,0,0
9872,-100,4,2,1,50,0,0
10065,-100,4,3,0,50,0,0
10259,-100,4,2,1,50,0,0
10840,-100,4,3,0,50,0,0
11033,-100,4,2,1,50,0,0
12194,-100,4,3,0,50,0,0
12388,-100,4,2,1,50,0,0
13162,-100,4,3,0,50,0,0
13356,-100,4,2,1,50,0,0
13743,-100,4,3,0,50,0,0
13936,-100,4,2,0,50,0,0
14324,-100,4,3,0,50,0,0
14517,-100,4,2,0,50,0,0
15485,-100,4,3,0,50,0,0
15678,-100,4,3,1,50,0,0
16259,-100,4,2,0,50,0,0
16356,-100,4,3,1,50,0,0
17033,-100,4,2,0,50,0,0
17130,-100,4,3,1,50,0,0
17807,-100,4,2,0,50,0,0
18001,-100,4,3,1,50,0,0
18775,-100,4,3,1,55,0,0
19356,-100,4,2,0,55,0,0
19453,-100,4,3,1,55,0,0
20130,-100,4,2,0,55,0,0
20227,-100,4,3,1,55,0,0
20904,-100,4,2,0,55,0,0
21001,-100,4,3,1,55,0,0
21291,-100,4,2,0,55,0,0
21388,-100,4,3,1,55,0,0
21678,-100,4,2,0,55,0,0
21775,-100,4,3,1,55,0,0
21872,-100,4,3,1,60,0,0
22453,-100,4,2,0,60,0,0
22549,-100,4,3,1,60,0,0
23227,-100,4,2,0,60,0,0
23324,-100,4,3,1,60,0,0
24001,-100,4,2,0,60,0,0
24194,-100,4,3,1,60,0,0
24969,-100,4,3,1,65,0,0
25549,-100,4,2,0,65,0,0
25646,-100,4,3,1,65,0,0
26324,-100,4,2,0,65,0,0
26420,-100,4,3,1,65,0,0
26904,-100,4,3,1,50,0,0
27098,-100,4,3,1,35,0,0
27291,-100,4,1,0,50,0,0
27775,-100,4,3,0,50,0,0
28065,-100,4,2,0,55,0,0
28162,-100,4,3,2,55,0,0
40453,-100,4,2,2,55,0,0
40549,-100,4,3,2,55,0,0
46646,-100,4,2,2,55,0,0
46743,-100,4,3,2,55,0,0
51291,-100,4,2,2,55,0,0
51388,-100,4,3,2,55,0,0
52840,-133.333333333333,4,2,0,50,0,0
53807,-133.333333333333,4,3,0,50,0,0
54388,-133.333333333333,4,2,0,50,0,0
55356,-133.333333333333,4,3,0,50,0,0
55936,-133.333333333333,4,2,0,50,0,0
56904,-133.333333333333,4,3,0,50,0,0
57485,-133.333333333333,4,2,0,50,0,0
58840,-133.333333333333,4,3,0,50,0,0
59033,-100,4,2,0,45,0,0
59130,-100,4,3,2,45,0,0
63678,-100,4,2,0,45,0,0
63872,-100,4,3,0,45,0,0
64065,-100,4,2,0,45,0,0
64162,-100,4,3,0,45,0,0
64259,-100,4,2,0,45,0,0
64356,-100,4,3,0,45,0,0
64453,-100,4,2,0,45,0,0
64549,-100,4,3,0,45,0,0
64646,-100,4,2,0,40,0,0
64743,-100,4,3,0,45,0,0
64840,-100,4,2,0,35,0,0
64936,-100,4,3,0,45,0,0
65033,-100,4,2,0,30,0,0
65130,-100,4,3,0,45,0,0
65227,-100,4,3,3,60,0,0
69098,-100,4,3,0,50,0,0
69291,-100,4,3,3,60,0,0
72194,-100,4,3,0,40,0,0
72582,-100,4,3,3,60,0,0
73743,-100,4,3,0,50,0,0
73936,-100,4,3,3,60,0,0
75872,-100,4,2,0,60,0,0
75969,-100,4,3,3,60,0,0
77614,-133.333333333333,4,2,3,45,0,0
83807,-133.333333333333,4,2,1,45,0,0
87291,-133.333333333333,4,2,1,50,0,0
87678,-133.333333333333,4,2,1,55,0,0
88065,-133.333333333333,4,2,1,60,0,0
88453,-133.333333333333,4,2,0,45,0,0
88647,-133.333333333333,4,3,0,45,0,0
88840,-133.333333333333,4,2,0,45,0,0
89131,-133.333333333333,4,3,0,45,0,0
89227,-133.333333333333,4,2,0,45,0,0
89324,-133.333333333333,4,3,0,45,0,0
89421,-133.333333333333,4,2,0,50,0,0
89518,-133.333333333333,4,3,0,45,0,0
89615,-133.333333333333,4,2,0,55,0,0
89711,-133.333333333333,4,3,0,45,0,0
89808,-133.333333333333,4,2,0,60,0,0
89905,-133.333333333333,4,3,0,45,0,0
90001,-100,4,2,0,70,0,1
90098,-100,4,3,2,75,0,1
100646,-100,4,2,0,60,0,0
101033,-100,4,3,2,60,0,0
101420,-100,4,2,0,70,0,0
101614,-100,4,3,2,70,0,0

[Colours]
Combo1 : 255,255,0
Combo2 : 243,89,34
Combo3 : 112,196,193
Combo4 : 128,255,0

[HitObjects]
96,256,3291,6,0,P|80:176|192:80,1,240,4|0,0:0|0:0,0:0:0:0:
288,256,4065,2,0,P|304:176|192:80,1,240,8|0,0:0|0:0,0:0:0:0:
304,80,4840,6,0,P|400:141|396:255,1,240,8|2,0:0|0:0,0:0:0:0:
192,256,5614,2,0,L|112:256,1,80,8|0,0:0|0:0,0:0:0:0:
208,256,6001,2,0,L|224:176,1,80,2|0,0:0|0:0,0:0:0:0:
96,128,6388,6,0,P|80:208|192:304,1,240,8|0,0:0|0:0,0:0:0:0:
288,128,7162,2,0,P|304:208|192:304,1,240,8|0,0:0|0:0,0:0:0:0:
304,80,7936,6,0,P|336:144|304:304,1,240,8|0,0:0|0:0,0:0:0:0:
208,304,8711,1,10,0:0:0:0:
416,303,8904,2,0,P|448:232|417:161,1,160,2|0,0:0|0:0,0:0:0:0:
144,160,9485,5,12,0:0:0:0:
63,303,9678,2,0,P|31:232|63:161,1,160,0|0,0:0|0:0,0:0:0:0:
160,256,10259,2,0,P|240:224|256:80,1,240,8|0,0:0|0:0,0:0:0:0:
144,80,11033,6,0,P|48:141|52:255,1,240,8|2,0:0|0:0,0:0:0:0:
256,256,11807,2,0,L|336:256,1,80,8|0,0:0|0:0,0:0:0:0:
240,256,12194,2,0,L|224:176,1,80,0|0,0:0|0:0,0:0:0:0:
384,256,12582,6,0,P|400:176|288:80,1,240,12|0,0:0|0:0,0:0:0:0:
192,256,13356,2,0,P|160:224|160:112,1,160,8|0,0:0|0:0,0:0:0:0:
432,96,13936,1,4,0:0:0:0:
480,144,14130,5,2,0:0:0:0:
480,208,14324,1,0,0:0:0:0:
432,256,14517,1,2,0:0:0:0:
336,224,14711,1,2,0:0:0:0:
432,192,14904,1,2,0:0:0:0:
224,128,15098,2,0,P|192:160|176:272,1,160,2|0,0:0|0:0,0:0:0:0:
448,192,15678,6,0,L|448:112,1,80,12|2,0:0|0:0,0:0:0:0:
352,80,16065,1,4,0:0:0:0:
144,192,16259,1,2,0:0:0:0:
48,192,16453,2,0,L|48:112,1,80,4|0,0:0|0:0,0:0:0:0:
160,112,16840,1,4,0:0:0:0:
48,112,17033,1,2,0:0:0:0:
256,192,17227,6,0,L|256:112,1,80,12|2,0:0|0:0,0:0:0:0:
160,80,17614,1,4,0:0:0:0:
256,48,17807,1,2,0:0:0:0:
192,48,17904,1,2,0:0:0:0:
80,64,18001,2,0,L|80:144,1,80,4|2,0:0|0:0,0:0:0:0:
176,192,18388,1,4,0:0:0:0:
80,240,18582,1,2,0:0:0:0:
288,240,18775,6,0,L|288:160,1,80,12|2,0:0|0:0,0:0:0:0:
192,128,19162,1,4,0:0:0:0:
400,160,19356,2,0,L|400:240,1,80,2|4,0:0|0:0,0:0:0:0:
304,272,19743,1,2,0:0:0:0:
208,272,19936,1,4,0:0:0:0:
304,272,20130,1,2,0:0:0:0:
96,224,20324,6,0,L|96:144,1,80,12|2,0:0|0:0,0:0:0:0:
304,112,20711,1,4,0:0:0:0:
400,112,20904,2,0,L|400:192,1,80,2|4,0:0|0:0,0:0:0:0:
192,272,21291,2,0,L|112:272,2,80,2|4|2,0:0|0:0|0:0,0:0:0:0:
464,272,21872,6,0,L|496:240,2,40,12|0|2,0:0|0:0|0:0,0:0:0:0:
256,192,22259,1,4,0:0:0:0:
352,192,22453,2,0,L|384:160,2,40,2|0|4,0:0|0:0|0:0,0:0:0:0:
144,80,22840,1,2,0:0:0:0:
48,80,23033,1,4,0:0:0:0:
144,80,23227,1,2,0:0:0:0:
192,80,23324,1,0,0:0:0:0:
144,80,23420,5,12,0:0:0:0:
48,80,23614,1,2,0:0:0:0:
144,80,23807,1,4,0:0:0:0:
336,80,24001,1,2,0:0:0:0:
288,80,24098,1,2,0:0:0:0:
176,96,24194,2,0,L|176:176,1,80,4|2,0:0|0:0,0:0:0:0:
272,224,24582,1,4,0:0:0:0:
176,272,24775,1,2,0:0:0:0:
384,272,24969,6,0,L|384:192,1,80,12|2,0:0|0:0,0:0:0:0:
176,112,25356,1,4,0:0:0:0:
272,112,25549,2,0,L|304:80,2,40,2|0|4,0:0|0:0|0:0,0:0:0:0:
64,192,25936,1,2,0:0:0:0:
160,192,26130,1,4,0:0:0:0:
64,192,26324,1,2,0:0:0:0:
336,112,26517,6,0,P|352:192|336:272,1,160,12|2,0:0|0:0,0:0:0:0:
288,288,27001,1,2,0:0:0:0:
144,192,27291,1,8,0:0:0:0:
256,192,27388,2,0,L|256:112,1,80,8|8,0:0|0:0,0:0:0:0:
112,192,27872,1,8,0:0:0:0:
384,192,28065,6,0,L|464:192,1,80,12|8,0:0|0:0,0:0:0:0:
256,112,28453,1,6,0:0:0:0:
208,112,28549,2,0,L|208:192,1,80,0|0,0:0|0:0,0:0:0:0:
256,192,28840,1,6,0:0:0:0:
352,112,29033,1,2,0:0:0:0:
256,112,29227,2,0,L|256:192,1,80,4|6,0:0|0:0,0:0:0:0:
464,192,29614,6,0,L|464:112,1,80,8|2,0:0|0:0,0:0:0:0:
256,112,30001,1,6,0:0:0:0:
208,112,30098,2,0,L|208:192,1,80,0|0,0:0|0:0,0:0:0:0:
256,192,30388,1,4,0:0:0:0:
160,192,30582,1,2,0:0:0:0:
368,192,30775,1,4,0:0:0:0:
400,160,30872,1,4,0:0:0:0:
400,112,30969,1,4,0:0:0:0:
128,192,31162,6,0,L|48:192,1,80,8|2,0:0|0:0,0:0:0:0:
256,112,31549,1,6,0:0:0:0:
304,112,31646,2,0,L|304:192,1,80,0|0,0:0|0:0,0:0:0:0:
256,192,31936,1,6,0:0:0:0:
160,112,32130,1,2,0:0:0:0:
256,112,32324,2,0,L|256:192,1,80,4|6,0:0|0:0,0:0:0:0:
48,192,32711,6,0,L|48:112,1,80,8|2,0:0|0:0,0:0:0:0:
256,112,33098,1,6,0:0:0:0:
304,112,33194,2,0,L|304:192,1,80,0|0,0:0|0:0,0:0:0:0:
256,192,33485,1,4,0:0:0:0:
352,192,33678,1,2,0:0:0:0:
144,192,33872,1,4,0:0:0:0:
112,160,33969,1,4,0:0:0:0:
144,128,34065,1,4,0:0:0:0:
416,128,34259,6,0,L|336:128,1,80,8|2,0:0|0:0,0:0:0:0:
128,192,34646,1,6,0:0:0:0:
80,192,34743,2,0,P|32:224|32:240,1,80
80,256,35033,1,6,0:0:0:0:
176,256,35227,1,2,0:0:0:0:
384,256,35420,1,4,0:0:0:0:
416,224,35517,1,4,0:0:0:0:
384,192,35614,1,6,0:0:0:0:
176,112,35807,5,8,0:0:0:0:
128,112,35904,2,0,L|128:160,1,40,0|2,0:0|0:0,0:0:0:0:
336,112,36194,1,6,0:0:0:0:
384,112,36291,2,0,P|432:144|432:160,1,80,0|0,0:0|0:0,0:0:0:0:
384,176,36582,1,4,0:0:0:0:
288,176,36775,1,2,0:0:0:0:
80,208,36969,2,0,L|80:256,1,40,6|6,0:0|0:0,0:0:0:0:
128,272,37162,1,4,0:0:0:0:
400,192,37356,6,0,L|416:112,1,80,8|2,0:0|0:0,0:0:0:0:
208,112,37743,2,0,L|160:112,1,40,6|2,0:0|0:0,0:0:0:0:
264,192,38033,1,2,0:0:0:0:
168,272,38227,2,0,L|208:272,1,40,0|2,0:0|0:0,0:0:0:0:
304,192,38517,1,4,0:0:0:0:
208,192,38711,2,0,L|208:144,1,40,6|2,0:0|0:0,0:0:0:0:
320,192,38904,6,0,L|336:112,1,80,8|2,0:0|0:0,0:0:0:0:
128,112,39291,2,0,L|80:112,1,40,6|2,0:0|0:0,0:0:0:0:
184,192,39582,1,2,0:0:0:0:
136,192,39678,1,4,0:0:0:0:
88,272,39775,2,0,L|128:272,1,40,0|2,0:0|0:0,0:0:0:0:
224,192,40065,1,4,0:0:0:0:
224,240,40162,1,4,0:0:0:0:
176,240,40259,1,4,0:0:0:0:
448,240,40453,6,0,L|464:160,1,80,12|8,0:0|0:0,0:0:0:0:
256,80,40840,1,6,0:0:0:0:
144,208,41033,1,0,0:0:0:0:
200,208,41130,1,0,0:0:0:0:
256,208,41227,1,6,0:0:0:0:
144,208,41420,1,2,0:0:0:0:
352,208,41614,2,0,L|336:128,1,80,4|6,0:0|0:0,0:0:0:0:
64,240,42001,6,0,L|48:160,1,80,10|8,0:0|0:0,0:0:0:0:
256,80,42388,1,6,0:0:0:0:
368,208,42582,1,0,0:0:0:0:
312,208,42678,1,0,0:0:0:0:
256,208,42775,1,6,0:0:0:0:
368,208,42969,1,2,0:0:0:0:
160,192,43162,2,0,P|144:176|160:128,1,80,4|6,0:0|0:0,0:0:0:0:
208,112,43453,1,2,0:0:0:0:
320,192,43549,6,0,P|336:176|320:128,1,80,10|8,0:0|0:0,0:0:0:0:
272,112,43840,1,0,0:0:0:0:
160,192,43936,2,0,L|144:272,1,80,6|0,0:0|0:0,0:0:0:0:
240,304,44324,1,6,0:0:0:0:
144,304,44517,1,2,0:0:0:0:
240,304,44711,1,4,0:0:0:0:
192,304,44807,1,4,0:0:0:0:
144,304,44904,1,6,0:0:0:0:
352,192,45098,6,0,L|400:192,2,40,10|0|2,0:0|0:0|0:0,0:0:0:0:
144,192,45485,1,4,0:0:0:0:
240,192,45678,2,0,L|240:144,1,40,0|0,0:0|0:0,0:0:0:0:
128,144,45872,1,6,0:0:0:0:
96,96,45969,1,0,0:0:0:0:
128,48,46065,1,2,0:0:0:0:
336,48,46259,1,6,0:0:0:0:
368,96,46356,1,4,0:0:0:0:
336,144,46453,1,4,0:0:0:0:
64,192,46646,6,0,L|48:272,1,80,12|2,0:0|0:0,0:0:0:0:
256,192,47033,2,0,L|272:112,1,80,6|4,0:0|0:0,0:0:0:0:
240,80,47324,1,4,0:0:0:0:
128,80,47420,1,6,0:0:0:0:
96,128,47517,1,0,0:0:0:0:
128,176,47614,1,2,0:0:0:0:
336,176,47807,1,6,0:0:0:0:
384,176,47904,1,4,0:0:0:0:
432,176,48001,1,6,0:0:0:0:
160,208,48194,5,8,0:0:0:0:
112,208,48291,2,0,L|112:288,1,80,0|0,0:0|0:0,0:0:0:0:
160,288,48582,1,6,0:0:0:0:
256,288,48775,1,0,0:0:0:0:
48,192,48969,2,0,L|32:112,1,80,6|2,0:0|0:0,0:0:0:0:
240,112,49356,2,0,L|160:112,1,80,6|4,0:0|0:0,0:0:0:0:
432,192,49743,6,0,L|448:112,1,80,10|2,0:0|0:0,0:0:0:0:
240,112,50130,1,6,0:0:0:0:
336,112,50324,2,0,L|336:160,1,40,0|2,0:0|0:0,0:0:0:0:
224,192,50517,1,6,0:0:0:0:
192,240,50614,1,0,0:0:0:0:
224,288,50711,1,2,0:0:0:0:
432,192,50904,1,4,0:0:0:0:
432,240,51001,1,4,0:0:0:0:
384,288,51098,1,6,0:0:0:0:
112,288,51291,5,12,0:0:0:0:
256,192,51678,12,4,52840,0:0:0:0:
128,192,53614,5,2,0:0:0:0:
240,192,53807,2,0,L|256:96,1,90.0000034332277,2|2,0:0|0:0,0:0:0:0:
96,96,54388,1,2,0:0:0:0:
384,192,55162,5,2,0:0:0:0:
272,192,55356,2,0,L|256:96,1,90.0000034332277,2|2,0:0|0:0,0:0:0:0:
368,96,55840,2,0,L|368:128,1,30.0000011444092,0|2,0:0|0:0,0:0:0:0:
128,192,56711,5,2,0:0:0:0:
240,192,56904,2,0,L|144:192,1,90.0000034332277,2|2,0:0|0:0,0:0:0:0:
120,192,57291,1,0,0:0:0:0:
240,128,57485,6,0,L|112:128,2,120.000004577637,2|2|2,0:0|0:0|0:0,0:0:0:0:
320,128,58453,1,0,0:0:0:0:
224,128,58646,1,10,0:0:0:0:
336,128,58840,1,4,0:0:0:0:
64,256,59033,6,0,L|48:176,1,80,12|8,0:0|0:0,0:0:0:0:
256,176,59420,2,0,L|176:176,1,80,6|0,0:0|0:0,0:0:0:0:
176,224,59711,1,0,0:0:0:0:
288,224,59807,1,6,0:0:0:0:
288,272,59904,1,0,0:0:0:0:
256,320,60001,1,2,0:0:0:0:
160,160,60194,2,0,L|240:160,1,80,4|6,0:0|0:0,0:0:0:0:
448,256,60582,6,0,L|464:176,1,80,8|2,0:0|0:0,0:0:0:0:
256,176,60969,2,0,L|336:176,1,80,4|0,0:0|0:0,0:0:0:0:
336,224,61259,1,0,0:0:0:0:
224,224,61356,2,0,P|192:272|224:320,1,120,6|2,0:0|0:0,0:0:0:0:
336,320,61743,2,0,L|352:240,1,80,4|6,0:0|0:0,0:0:0:0:
64,128,62130,6,0,L|48:208,1,80,8|2,0:0|0:0,0:0:0:0:
256,208,62517,2,0,L|176:208,1,80,6|0,0:0|0:0,0:0:0:0:
176,160,62807,1,0,0:0:0:0:
288,160,62904,1,6,0:0:0:0:
288,112,63001,1,0,0:0:0:0:
256,64,63098,1,2,0:0:0:0:
48,224,63291,2,0,L|48:176,1,40,4|4,0:0|0:0,0:0:0:0:
96,144,63485,1,6,0:0:0:0:
368,64,63678,6,0,P|448:176|368:320,1,320,8|10,0:0|0:0,0:0:0:0:
272,320,64646,1,10,0:0:0:0:
368,320,64840,1,10,0:0:0:0:
416,320,64936,1,0,0:0:0:0:
368,320,65033,1,10,0:0:0:0:
96,320,65227,6,0,L|80:240,1,80,12|8,0:0|0:0,0:0:0:0:
160,192,65614,1,4,0:0:0:0:
96,192,65711,2,0,P|64:160|64:128,1,80,0|2,0:0|0:0,0:0:0:0:
176,192,66001,2,0,P|192:144|176:128,1,80,4|2,0:0|0:0,0:0:0:0:
64,192,66291,2,0,P|32:160|32:128,1,80,8|0,0:0|0:0,0:0:0:0:
64,96,66582,1,8,0:0:0:0:
128,96,66678,1,2,0:0:0:0:
240,192,66775,5,4,0:0:0:0:
304,192,66872,1,0,0:0:0:0:
304,128,66969,1,8,0:0:0:0:
240,128,67065,1,2,0:0:0:0:
128,224,67162,2,0,P|128:272|144:304,1,80,4|8,0:0|0:0,0:0:0:0:
192,320,67453,1,0,0:0:0:0:
304,320,67549,2,0,P|320:272|320:240,1,80,4|8,0:0|0:0,0:0:0:0:
160,192,67936,2,0,L|240:192,1,80,4|8,0:0|0:0,0:0:0:0:
240,144,68227,1,2,0:0:0:0:
128,80,68324,6,0,L|208:80,1,80,4|8,0:0|0:0,0:0:0:0:
416,144,68711,2,0,P|416:192|400:224,1,80,4|8,0:0|0:0,0:0:0:0:
352,240,69001,1,2,0:0:0:0:
240,240,69098,1,12,0:0:0:0:
184,240,69194,1,8,0:0:0:0:
240,240,69291,1,8,0:0:0:0:
336,192,69485,1,4,0:0:0:0:
336,128,69582,1,0,0:0:0:0:
296,96,69678,1,8,0:0:0:0:
240,96,69775,1,2,0:0:0:0:
352,192,69872,5,4,0:0:0:0:
384,160,69969,1,0,0:0:0:0:
352,128,70065,1,8,0:0:0:0:
128,128,70259,2,0,L|208:128,1,80,4|8,0:0|0:0,0:0:0:0:
208,128,70549,1,2,0:0:0:0:
96,128,70646,2,0,P|80:176|96:192,1,80,4|8,0:0|0:0,0:0:0:0:
320,224,71033,2,0,L|240:224,1,80,4|8,0:0|0:0,0:0:0:0:
240,192,71324,1,2,0:0:0:0:
352,192,71420,6,0,L|368:112,1,80,4|8,0:0|0:0,0:0:0:0:
80,96,71807,2,0,L|160:96,1,80,4|8,0:0|0:0,0:0:0:0:
432,272,72194,2,0,L|448:192,1,80,4|4,0:0|0:0,0:0:0:0:
240,192,72582,1,4,0:0:0:0:
184,192,72678,1,0,0:0:0:0:
184,192,72775,1,8,0:0:0:0:
304,192,72969,5,4,0:0:0:0:
360,192,73065,2,0,L|360:240,1,40,0|8,0:0|0:0,0:0:0:0:
256,128,73356,2,0,L|336:128,1,80,4|8,0:0|0:0,0:0:0:0:
128,128,73743,1,8,0:0:0:0:
72,128,73840,1,8,0:0:0:0:
128,128,73936,1,8,0:0:0:0:
224,128,74130,2,0,L|224:176,1,40,4|2,0:0|0:0,0:0:0:0:
160,192,74324,1,8,0:0:0:0:
432,192,74517,5,4,0:0:0:0:
464,160,74614,2,0,P|464:128|432:96,1,80,8|8,0:0|0:0,0:0:0:0:
320,95,74904,2,0,P|290:121|288:160,1,80,2|0,0:0|0:0,0:0:0:0:
320,192,75194,1,8,0:0:0:0:
432,192,75291,2,0,L|352:192,2,80,2|4|2,0:0|0:0|0:0,0:0:0:0:
432,144,75775,1,4,0:0:0:0:
400,96,75872,1,2,0:0:0:0:
336,96,75969,1,8,0:0:0:0:
224,96,76065,5,4,0:0:0:0:
256,192,76259,12,4,77614,0:0:0:0:
112,240,83807,6,0,L|112:176,1,60.0000022888184,10|2,0:0|0:0,0:0:0:0:
304,144,84388,1,2,0:0:0:0:
208,144,84582,1,8,0:0:0:0:
400,192,84969,1,2,0:0:0:0:
304,192,85162,1,2,0:0:0:0:
400,192,85356,5,8,0:0:0:0:
208,144,85743,1,2,0:0:0:0:
304,144,85936,1,2,0:0:0:0:
112,192,86324,1,2,0:0:0:0:
304,240,86711,1,0,0:0:0:0:
208,240,86904,6,0,L|192:176,1,60.0000022888184,10|2,0:0|0:0,0:0:0:0:
288,192,87291,2,0,L|272:128,1,60.0000022888184,10|2,0:0|0:0,0:0:0:0:
368,144,87678,2,0,L|352:80,1,60.0000022888184,10|2,0:0|0:0,0:0:0:0:
448,112,88065,1,10,0:0:0:0:
176,112,88259,1,12,0:0:0:0:
96,112,88453,6,0,L|224:112,1,120.000004577637,8|0,0:0|0:0,0:0:0:0:
216,112,89033,1,2,0:0:0:0:
112,192,89227,2,0,L|96:128,1,60.0000022888184,10|10,0:0|0:0,0:0:0:0:
208,192,89614,1,10,0:0:0:0:
160,192,89711,1,0,0:0:0:0:
112,192,89807,1,10,0:0:0:0:
384,192,90001,6,0,L|464:192,1,80,12|8,0:0|0:0,0:0:0:0:
256,192,90388,2,0,L|256:112,1,80,6|0,0:0|0:0,0:0:0:0:
304,80,90678,1,0,0:0:0:0:
256,48,90775,1,6,0:0:0:0:
144,48,90969,1,2,0:0:0:0:
352,48,91162,2,0,L|352:128,1,80,4|6,0:0|0:0,0:0:0:0:
80,112,91549,6,0,L|80:192,1,80,10|2,0:0|0:0,0:0:0:0:
288,192,91936,2,0,L|288:112,1,80,4|0,0:0|0:0,0:0:0:0:
240,80,92227,1,0,0:0:0:0:
176,48,92324,1,4,0:0:0:0:
448,48,92517,2,0,L|368:48,1,80,2|4,0:0|0:0,0:0:0:0:
256,192,92904,1,6,0:0:0:0:
320,192,93001,1,2,0:0:0:0:
432,192,93098,6,0,L|432:272,1,80,10|2,0:0|0:0,0:0:0:0:
160,192,93485,2,0,L|256:192,1,80,6|2,0:0|0:0,0:0:0:0:
128,192,93872,2,0,L|112:112,1,80,6|2,0:0|0:0,0:0:0:0:
320,192,94259,2,0,L|336:112,1,80,4|6,0:0|0:0,0:0:0:0:
64,192,94646,6,0,L|144:192,1,80,10|2,0:0|0:0,0:0:0:0:
336,192,95033,2,0,L|256:192,1,80,4|0,0:0|0:0,0:0:0:0:
64,192,95420,2,0,L|48:112,1,80,6|2,0:0|0:0,0:0:0:0:
256,112,95807,1,6,0:0:0:0:
320,112,95904,2,0,L|320:160,1,40,4|4,0:0|0:0,0:0:0:0:
48,272,96194,6,0,L|64:192,1,80,10|2,0:0|0:0,0:0:0:0:
336,192,96582,2,0,L|256:192,1,80,6|4,0:0|0:0,0:0:0:0:
48,192,96969,2,0,L|64:112,1,80,6|2,0:0|0:0,0:0:0:0:
272,112,97356,1,6,0:0:0:0:
336,112,97453,2,0,L|336:160,1,40,4|6,0:0|0:0,0:0:0:0:
64,272,97743,6,0,L|64:224,1,40,8|2,0:0|0:0,0:0:0:0:
240,272,98033,2,0,L|240:224,1,40,0|6,0:0|0:0,0:0:0:0:
144,192,98324,1,0,0:0:0:0:
352,192,98517,2,0,L|432:192,1,80,6|2,0:0|0:0,0:0:0:0:
144,192,98904,2,0,L|64:192,1,80,6|4,0:0|0:0,0:0:0:0:
352,192,99291,6,0,L|368:112,1,80,10|2,0:0|0:0,0:0:0:0:
160,96,99678,2,0,L|240:96,1,80,6|0,0:0|0:0,0:0:0:0:
448,96,100065,1,6,0:0:0:0:
480,144,100162,1,0,0:0:0:0:
448,192,100259,1,2,0:0:0:0:
400,224,100356,1,0,0:0:0:0:
448,256,100453,1,4,0:0:0:0:
176,256,100646,1,6,0:0:0:0:
96,256,100840,6,0,P|80:192|96:96,1,160,2|2,0:0|0:0,0:0:0:0:
176,96,101420,1,2,0:0:0:0:
384,96,101614,2,0,L|288:96,1,80,4|2,0:0|0:0,0:0:0:0:
416,96,102001,1,4,0:0:0:0:
464,144,102098,1,4,0:0:0:0:
464,208,102194,1,4,0:0:0:0:
416,256,102291,1,0,0:0:0:0:
288,256,102388,5,12,0:0:0:0:
