osu file format v14

[General]
AudioFilename: audio.mp3
AudioLeadIn: 0
PreviewTime: 45647
Countdown: 0
SampleSet: Soft
StackLeniency: 0.5
Mode: 0
LetterboxInBreaks: 0
WidescreenStoryboard: 1

[Editor]
Bookmarks: 2789,13761,24732,35704,46675,60390,78218,79590,89875,90561,101532,102904,112504,113875
DistanceSpacing: 1.5
BeatDivisor: 4
GridSize: 32
TimelineZoom: 4.199998

[Metadata]
Title:Imprinting
TitleUnicode:Imprinting
Artist:Sakuzyo
ArtistUnicode:削除
Creator:eiri-
Version:Expert
Source:Cytus II
Tags:Ayyri Trynna Dementation Cyndere Nagi Hisakawa Nagi_Hisakawa FrenZ396 Instrumental Video Game Electronic fairythm STELLIGHTS Pump It Up Prime
BeatmapID:2280507
BeatmapSetID:1090887

[Difficulty]
HPDrainRate:5
CircleSize:3.7
OverallDifficulty:9
ApproachRate:9.5
SliderMultiplier:1.6
SliderTickRate:1

[Events]
//Background and Video events
0,0,"Imprinting.jpg",0,0
//Break Periods
//Storyboard Layer 0 (Background)
//Storyboard Layer 1 (Fail)
//Storyboard Layer 2 (Pass)
//Storyboard Layer 3 (Foreground)
//Storyboard Layer 4 (Overlay)
//Storyboard Sound Samples

[TimingPoints]
2790,342.857142857143,4,2,1,60,1,0
2790,-66.6666666666667,4,2,1,60,0,0
12390,-66.6666666666667,4,2,1,30,0,0
13761,-50,4,2,1,75,0,0
19247,-50,4,2,1,70,0,0
23704,-50,4,2,1,50,0,0
24732,-66.6666666666667,4,2,1,60,0,0
34332,-66.6666666666667,4,2,1,30,0,0
35361,-133.333333333333,4,2,1,25,0,0
35704,-50,4,2,1,75,0,0
41190,-50,4,2,1,70,0,0
45304,-1000,4,2,1,50,0,0
46675,-50,4,2,1,80,0,0
54904,-50,4,2,1,75,0,0
57647,-50,4,2,1,50,0,0
60390,-40,4,2,1,85,0,0
71361,-40,4,2,1,90,0,0
79590,-66.6666666666667,4,2,1,100,0,1
89875,-50,4,2,1,100,0,0
89897,-50,4,2,1,5,0,0
90047,-50,4,2,1,100,0,0
90068,-50,4,2,1,5,0,0
90218,-50,4,2,1,100,0,0
90240,-50,4,2,1,5,0,0
90390,-50,4,2,1,100,0,0
90411,-50,4,2,1,5,0,0
90561,-66.6666666666667,4,2,1,100,0,1
100161,-66.6666666666667,4,2,1,80,0,1
100504,-66.6666666666667,4,2,1,70,0,1
100847,-66.6666666666667,4,2,1,60,0,1
101190,-66.6666666666667,4,2,1,50,0,1
101532,-25,4,2,1,75,0,0
102732,-200,4,2,1,75,0,0
102904,-66.6666666666667,4,2,1,60,0,0
112504,-66.6666666666667,4,2,1,30,0,0
113875,-66.6666666666667,4,2,1,75,0,0

[Colours]
Combo1 : 134,6,176
Combo2 : 202,240,255
Combo3 : 0,72,159
Combo4 : 252,207,214
Combo5 : 158,10,32
Combo6 : 239,198,253

[HitObjects]
193,336,2789,6,0,P|240:285|232:246,1,80,6|0,0:0|0:0,0:0:0:0:
99,194,3132,1,2,0:0:0:0:
99,194,3304,1,2,0:0:0:0:
290,179,3475,2,0,L|258:45,1,120.000004577637,2|0,0:0|0:0,0:0:0:0:
255,83,3818,5,6,0:0:0:0:
300,84,3904,1,2,0:0:0:0:
340,111,3989,1,2,0:0:0:0:
428,87,4075,1,2,0:0:0:0:
503,161,4161,6,0,P|440:130|475:99,1,120.000004577637,6|0,0:0|0:0,0:0:0:0:
480,324,4504,1,2,0:0:0:0:
480,324,4675,1,2,0:0:0:0:
267,311,4847,2,0,L|118:367,1,120.000004577637,2|0,0:0|0:0,0:0:0:0:
148,384,5190,5,6,0:0:0:0:
137,333,5275,1,2,0:0:0:0:
184,275,5361,1,2,0:0:0:0:
148,182,5447,1,2,0:0:0:0:
233,129,5532,6,0,P|161:118|161:186,1,120.000004577637,6|0,0:0|0:0,0:0:0:0:
363,228,5875,1,2,0:0:0:0:
363,228,6047,1,2,0:0:0:0:
125,64,6218,6,0,P|114:136|182:136,1,120.000004577637,6|0,0:0|0:0,0:0:0:0:
408,56,6561,1,2,0:0:0:0:
408,56,6732,1,2,0:0:0:0:
59,172,6904,6,0,P|131:183|131:115,1,120.000004577637,6|2,0:0|0:0,0:0:0:0:
30,91,7161,1,2,0:0:0:0:
202,249,7247,6,0,P|213:177|145:177,1,120.000004577637,6|2,0:0|0:0,0:0:0:0:
121,278,7504,1,2,0:0:0:0:
279,106,7590,6,0,P|207:95|207:163,1,120.000004577637,6|2,0:0|0:0,0:0:0:0:
308,187,7847,1,2,0:0:0:0:
136,29,7932,6,0,P|125:101|193:101,1,120.000004577637,6|2,0:0|0:0,0:0:0:0:
217,0,8189,1,2,0:0:0:0:
217,0,8275,6,0,L|190:269,1,240.000009155274,6|2,0:0|0:0,0:0:0:0:
251,374,8790,1,2,0:0:0:0:
193,238,8961,1,2,0:0:0:0:
398,202,9132,1,2,0:0:0:0:
410,220,9304,5,6,0:0:0:0:
403,184,9390,1,2,0:0:0:0:
444,118,9475,1,2,0:0:0:0:
414,43,9561,1,2,0:0:0:0:
491,0,9647,6,0,P|410:15|324:4,1,120.000004577637,6|0,0:0|0:0,0:0:0:0:
204,82,9990,1,2,0:0:0:0:
204,82,10161,1,2,0:0:0:0:
204,82,10332,2,0,P|237:131|245:190,1,120.000004577637,2|0,0:0|0:0,0:0:0:0:
222,175,10675,5,6,0:0:0:0:
263,187,10761,1,2,0:0:0:0:
342,155,10847,1,2,0:0:0:0:
434,211,10932,1,2,0:0:0:0:
506,79,11018,6,0,P|437:62|447:116,1,120.000004577637,6|0,0:0|0:0,0:0:0:0:
498,311,11361,1,2,0:0:0:0:
498,311,11532,1,2,0:0:0:0:
340,132,11704,6,0,P|409:149|399:95,1,120.000004577637,6|2,0:0|0:0,0:0:0:0:
405,141,12047,1,2,0:0:0:0:
429,192,12218,1,2,0:0:0:0:
405,366,12390,5,6,0:0:0:0:
405,366,12732,5,0,0:0:0:0:
405,366,13075,5,0,0:0:0:0:
405,366,13417,5,0,0:0:0:0:
405,366,13761,6,0,L|420:276,1,80,6|0,0:0|0:0,0:0:0:0:
368,211,13932,2,0,L|383:301,1,80,2|0,0:0|0:0,0:0:0:0:
414,91,14104,2,0,L|429:1,1,80,2|0,1:2|0:0,0:0:0:0:
189,73,14275,1,2,0:0:0:0:
189,73,14361,1,2,0:0:0:0:
189,73,14447,6,0,P|140:103|104:95,1,80,2|0,0:0|0:0,0:0:0:0:
285,142,14618,2,0,P|324:144|354:170,1,80,2|0,0:0|0:0,0:0:0:0:
299,332,14790,2,0,P|259:329|229:303,1,80,2|0,1:2|0:0,0:0:0:0:
483,270,14961,1,2,0:0:0:0:
483,270,15047,1,2,0:0:0:0:
483,270,15132,6,0,L|442:89,1,160,2|2,0:0|0:0,0:0:0:0:
223,271,15475,2,0,L|34:335,1,160,2|2,1:2|0:0,0:0:0:0:
54,298,15732,1,2,0:0:0:0:
54,298,15818,2,0,L|152:328,1,80,2|0,0:0|0:0,0:0:0:0:
245,230,15990,2,0,L|343:200,1,80,2|0,0:0|0:0,0:0:0:0:
85,90,16161,2,0,P|155:29|221:69,1,160,2|2,1:2|0:0,0:0:0:0:
66,183,16418,1,2,0:0:0:0:
66,183,16504,6,0,L|14:-6,1,160,6|2,0:0|0:0,0:0:0:0:
304,112,16847,2,0,L|437:10,1,160,2|2,1:2|0:0,0:0:0:0:
398,11,17104,1,2,0:0:0:0:
398,11,17190,2,0,L|422:116,1,80,2|0,0:0|0:0,0:0:0:0:
292,246,17361,2,0,L|268:351,1,80,2|0,0:0|0:0,0:0:0:0:
324,71,17532,2,0,B|254:120|152:140|152:140|181:215,1,240,2|0,1:2|0:0,0:0:0:0:
237,359,17875,6,0,P|158:248|43:283,1,240,6|0,0:0|0:0,0:0:0:0:
88,288,18218,1,2,1:2:0:0:
112,273,18304,1,2,0:0:0:0:
166,297,18390,1,2,0:0:0:0:
236,261,18475,1,2,0:0:0:0:
297,308,18561,1,2,0:0:0:0:
342,301,18647,1,2,0:0:0:0:
368,325,18732,1,2,0:0:0:0:
364,345,18818,1,2,0:0:0:0:
352,326,18904,1,2,1:2:0:0:
381,30,19075,1,2,0:0:0:0:
381,30,19161,1,2,0:0:0:0:
381,30,19247,6,0,L|364:219,1,160,6|2,0:0|0:0,0:0:0:0:
366,189,19504,1,2,0:0:0:0:
366,189,19590,1,2,0:0:0:0:
366,189,19675,1,2,0:0:0:0:
366,189,19761,1,2,0:0:0:0:
366,189,19847,1,2,0:0:0:0:
411,245,19932,5,2,0:0:0:0:
101,139,20104,1,2,0:0:0:0:
411,245,20275,5,2,0:0:0:0:
366,235,20361,1,2,0:0:0:0:
297,268,20447,1,2,0:0:0:0:
210,308,20532,1,2,0:0:0:0:
140,239,20618,6,0,L|356:280,1,160,6|2,0:0|0:0,0:0:0:0:
297,268,20875,1,2,0:0:0:0:
297,268,20961,1,2,0:0:0:0:
297,268,21047,1,2,0:0:0:0:
297,268,21132,1,2,0:0:0:0:
297,268,21218,1,2,0:0:0:0:
344,320,21304,5,2,0:0:0:0:
168,64,21475,1,2,0:0:0:0:
344,320,21647,6,0,L|371:93,1,160,2|2,0:0|0:0,0:0:0:0:
170,259,21904,1,2,0:0:0:0:
170,259,21990,2,0,B|57:193|57:193|95:135|206:144,1,240,6|0,0:0|0:0,0:0:0:0:
369,347,22332,6,0,L|396:120,1,160,2|2,0:0|0:0,0:0:0:0:
151,270,22589,1,2,0:0:0:0:
151,270,22675,2,0,B|38:204|38:204|76:146|187:155,1,240,6|0,0:0|0:0,0:0:0:0:
400,380,23018,6,0,L|427:153,1,160,2|2,0:0|0:0,0:0:0:0:
130,285,23275,1,2,0:0:0:0:
130,285,23361,2,0,B|17:219|17:219|55:161|166:170,1,240,6|0,0:0|0:0,0:0:0:0:
110,170,23704,5,6,0:0:0:0:
416,320,24732,6,0,L|451:158,1,120.000004577637,6|0,0:0|0:0,0:0:0:0:
304,92,25075,1,2,0:0:0:0:
304,92,25247,1,2,0:0:0:0:
304,92,25418,2,0,P|361:28|423:25,1,120.000004577637,2|0,0:0|0:0,0:0:0:0:
383,42,25761,5,6,0:0:0:0:
408,93,25847,1,2,0:0:0:0:
391,176,25932,1,2,0:0:0:0:
429,261,26018,1,2,0:0:0:0:
396,357,26104,6,0,P|393:283|352:306,1,120.000004577637,6|0,0:0|0:0,0:0:0:0:
141,369,26447,1,2,0:0:0:0:
141,369,26618,1,2,0:0:0:0:
235,209,26790,2,0,L|100:246,1,120.000004577637,2|0,0:0|0:0,0:0:0:0:
107,270,27132,5,6,0:0:0:0:
86,230,27218,1,2,0:0:0:0:
128,183,27304,1,2,0:0:0:0:
101,113,27390,1,2,0:0:0:0:
159,16,27475,6,0,B|120:59|120:59|29:42,1,120.000004577637,6|0,0:0|0:0,0:0:0:0:
286,6,27818,1,2,0:0:0:0:
286,6,27990,1,2,0:0:0:0:
190,103,28161,6,0,B|151:146|151:146|60:129,1,120.000004577637,6|0,0:0|0:0,0:0:0:0:
317,93,28504,1,2,0:0:0:0:
317,93,28676,1,2,0:0:0:0:
221,190,28847,6,0,B|182:233|182:233|91:216,1,120.000004577637,6|2,0:0|0:0,0:0:0:0:
21,200,29104,1,2,0:0:0:0:
94,87,29190,6,0,B|133:44|133:44|224:61,1,120.000004577637,6|2,0:0|0:0,0:0:0:0:
294,77,29447,1,2,0:0:0:0:
224,210,29532,6,0,B|185:253|185:253|94:236,1,120.000004577637,6|2,0:0|0:0,0:0:0:0:
24,220,29789,1,2,0:0:0:0:
97,107,29875,6,0,B|136:64|136:64|227:81,1,120.000004577637,6|2,0:0|0:0,0:0:0:0:
297,97,30132,1,2,0:0:0:0:
297,97,30218,6,0,L|53:66,1,240.000009155274,6|2,0:0|0:0,0:0:0:0:
155,271,30732,1,2,0:0:0:0:
193,55,30904,1,2,0:0:0:0:
64,192,31075,1,2,0:0:0:0:
55,177,31247,5,6,0:0:0:0:
85,152,31332,1,2,0:0:0:0:
160,188,31418,1,2,0:0:0:0:
261,155,31504,1,2,0:0:0:0:
270,77,31590,6,0,P|239:146|268:218,1,120.000004577637,6|0,0:0|0:0,0:0:0:0:
417,303,31932,1,2,0:0:0:0:
417,303,32104,1,2,0:0:0:0:
417,303,32275,2,0,P|344:262|281:265,1,120.000004577637,2|0,0:0|0:0,0:0:0:0:
274,289,32618,5,6,0:0:0:0:
297,240,32704,1,2,0:0:0:0:
374,195,32790,1,2,0:0:0:0:
335,117,32875,1,2,0:0:0:0:
252,64,32961,6,0,P|301:93|354:71,1,120.000004577637,6|0,0:0|0:0,0:0:0:0:
427,2,33304,1,2,0:0:0:0:
427,2,33475,1,2,0:0:0:0:
489,177,33647,6,0,P|518:127|496:74,1,120.000004577637,6|2,0:0|0:0,0:0:0:0:
431,6,33990,1,2,0:0:0:0:
431,6,34161,1,2,0:0:0:0:
405,366,34332,5,6,0:0:0:0:
405,366,34674,5,0,0:0:0:0:
405,366,35017,5,0,0:0:0:0:
405,366,35361,6,2,L|372:374,3,20.0000007629395,2|0|0|0,0:0|0:0|0:0|0:0,0:1:0:0:
405,366,35704,6,0,L|420:276,1,80,6|0,0:0|0:0,0:0:0:0:
480,160,35875,2,0,L|465:70,1,80,2|0,0:0|0:0,0:0:0:0:
252,32,36047,2,0,L|267:122,1,80,2|0,1:2|0:0,0:0:0:0:
458,35,36218,1,2,0:0:0:0:
458,35,36304,1,2,0:0:0:0:
458,35,36390,6,0,L|376:108,1,80,2|0,0:0|0:0,0:0:0:0:
214,205,36561,2,0,L|104:162,1,80,2|0,0:0|0:0,0:0:0:0:
217,0,36732,2,0,L|327:43,1,80,2|0,1:2|0:0,0:0:0:0:
17,140,36904,1,2,0:0:0:0:
17,140,36990,1,2,0:0:0:0:
17,140,37075,6,0,P|50:191|40:259,1,80,2|0,0:0|0:0,0:0:0:0:
41,262,37247,1,2,0:0:0:0:
109,205,37332,1,2,0:0:0:0:
191,166,37418,6,0,P|250:178|291:233,1,80,2|0,1:2|0:0,0:0:0:0:
294,236,37590,1,2,0:0:0:0:
302,146,37675,1,2,0:0:0:0:
332,61,37761,6,0,P|383:28|485:55,1,160,2|2,0:0|0:0,0:0:0:0:
409,68,38018,1,2,0:0:0:0:
409,68,38104,2,0,L|398:190,1,80,2|0,1:2|0:0,0:0:0:0:
419,193,38275,1,2,0:0:0:0:
436,238,38361,1,2,0:0:0:0:
389,300,38447,6,0,L|288:275,1,80,2|0,0:0|0:0,0:0:0:0:
192,377,38618,2,0,L|293:352,1,80,2|0,0:0|0:0,0:0:0:0:
132,211,38790,2,0,L|110:331,1,80,2|0,1:2|0:0,0:0:0:0:
274,92,38961,2,0,L|296:212,1,80,2|0,0:0|0:0,0:0:0:0:
99,24,39132,6,0,L|-7:4,1,80,2|0,0:0|0:0,0:0:0:0:
160,76,39304,2,0,L|54:56,1,80,2|0,0:0|0:0,0:0:0:0:
352,0,39475,1,2,1:2:0:0:
309,262,39647,1,2,0:0:0:0:
309,262,39732,1,2,0:0:0:0:
309,262,39818,6,0,B|336:214|389:221|389:221|428:291|372:368,1,240,2|0,0:0|0:0,0:0:0:0:
352,341,40161,2,0,L|458:309,1,80,2|0,1:2|0:0,0:0:0:0:
228,224,40332,1,2,0:0:0:0:
228,224,40418,1,2,0:0:0:0:
228,224,40504,6,0,L|215:328,1,80,2|0,0:0|0:0,0:0:0:0:
380,108,40675,2,0,L|430:202,1,80,2|0,0:0|0:0,0:0:0:0:
159,47,40847,2,0,L|109:141,1,80,2|0,1:2|0:0,0:0:0:0:
433,6,41018,2,0,L|535:22,1,80,2|0,0:0|0:0,0:0:0:0:
512,18,41190,5,6,0:0:0:0:
448,288,42218,1,0,0:0:0:0:
512,366,42561,5,6,0:0:0:0:
512,366,43590,2,0,P|420:271|292:264,1,240,0|0,0:0|0:0,0:0:0:0:
318,258,43932,6,0,P|380:177|355:76,1,160,6|0,0:0|0:0,0:0:0:0:
0,366,44275,2,0,P|92:271|220:264,1,240,0|0,0:0|0:0,0:0:0:0:
194,258,44618,6,0,P|132:177|156:76,1,160,6|0,0:0|0:0,0:0:0:0:
256,352,44961,2,0,L|256:96,1,240,0|0,0:0|0:0,0:0:0:0:
256,32,45304,5,6,0:0:0:0:
256,32,45647,5,6,0:0:0:0:
256,32,45990,6,0,L|256:44,2,12,6|2|2,0:0|0:0|0:0,0:0:0:0:
256,352,46675,5,6,0:0:0:0:
320,96,46847,1,2,0:0:0:0:
177,285,47018,5,2,1:2:0:0:
433,195,47190,1,2,0:0:0:0:
57,112,47361,6,0,B|21:136|21:174|21:174|70:190|91:232|91:232|50:266|70:371,1,240,2|0,0:0|0:0,0:0:0:0:
86,344,47704,1,2,1:2:0:0:
177,285,47875,1,2,0:0:0:0:
416,352,48047,6,0,L|527:314,1,80,2|0,0:0|0:0,0:0:0:0:
389,334,48218,2,0,L|500:296,1,80,2|0,0:0|0:0,0:0:0:0:
204,267,48390,6,0,L|315:305,1,80,2|0,1:2|0:0,0:0:0:0:
271,326,48561,2,0,L|160:288,1,80,2|0,0:0|0:0,0:0:0:0:
32,352,48732,6,0,L|143:314,1,80,2|0,0:0|0:0,0:0:0:0:
5,334,48904,2,0,L|116:296,1,80,2|0,0:0|0:0,0:0:0:0:
147,138,49075,6,0,L|36:176,1,80,2|0,1:2|0:0,0:0:0:0:
174,156,49247,2,0,L|285:118,1,80,2|0,0:0|0:0,0:0:0:0:
32,32,49418,5,2,0:0:0:0:
96,288,49590,1,2,0:0:0:0:
192,128,49761,5,2,1:2:0:0:
128,384,49933,1,2,0:0:0:0:
45,68,50104,6,0,B|98:67|141:18|141:18|124:105|210:179,1,240,2|0,0:0|0:0,0:0:0:0:
245,214,50447,1,2,1:2:0:0:
298,12,50618,1,2,0:0:0:0:
379,307,50790,6,0,L|277:348,1,80,2|0,0:0|0:0,0:0:0:0:
390,273,50961,2,0,L|288:314,1,80,2|0,0:0|0:0,0:0:0:0:
133,307,51132,6,0,L|207:336,1,80,2|0,1:2|0:0,0:0:0:0:
122,273,51304,2,0,L|224:314,1,80,2|0,0:0|0:0,0:0:0:0:
256,128,51475,6,0,B|371:119|356:26|502:26,1,240,2|0,0:0|0:0,0:0:0:0:
477,57,51818,2,0,L|356:20,1,80,2|0,1:2|0:0,0:0:0:0:
119,100,51990,1,2,0:0:0:0:
119,100,52075,1,2,0:0:0:0:
119,100,52161,6,0,P|83:54|37:38,1,80,6|0,0:0|0:0,0:0:0:0:
154,121,52332,2,0,P|210:107|244:72,1,80,2|0,0:0|0:0,0:0:0:0:
395,280,52504,6,0,P|431:326|477:342,1,80,2|0,1:2|0:0,0:0:0:0:
360,259,52675,2,0,P|303:272|269:307,1,80,2|0,0:0|0:0,0:0:0:0:
81,373,52847,6,0,B|219:331|219:331|141:307|156:223,1,240,2|0,0:0|0:0,0:0:0:0:
171,215,53190,1,2,1:2:0:0:
79,291,53361,1,2,0:0:0:0:
403,245,53532,6,0,L|385:346,1,80,2|0,0:0|0:0,0:0:0:0:
370,211,53704,2,0,L|388:312,1,80,2|0,0:0|0:0,0:0:0:0:
418,81,53875,2,0,L|436:-20,1,80,2|0,1:2|0:0,0:0:0:0:
499,140,54047,2,0,L|481:241,1,80,2|0,0:0|0:0,0:0:0:0:
187,103,54218,6,0,L|86:121,1,80,2|0,0:0|0:0,0:0:0:0:
221,136,54390,2,0,L|120:118,1,80,2|0,0:0|0:0,0:0:0:0:
403,159,54561,2,0,L|421:58,1,80,2|0,1:2|0:0,0:0:0:0:
484,218,54733,2,0,L|466:319,1,80,2|0,0:0|0:0,0:0:0:0:
32,352,54904,5,6,0:0:0:0:
32,352,55761,2,0,L|128:320,1,80,2|0,1:2|0:0,0:0:0:0:
192,256,55932,2,0,L|288:288,1,80,2|0,1:2|0:0,0:0:0:0:
352,352,56104,2,0,L|448:320,1,80,2|0,1:2|0:0,0:0:0:0:
480,352,56275,5,6,0:0:0:0:
480,352,57132,2,0,L|384:320,1,80,2|0,1:2|0:0,0:0:0:0:
320,256,57304,2,0,L|224:288,1,80,2|0,1:2|0:0,0:0:0:0:
160,352,57475,2,0,L|64:320,1,80,2|0,1:2|0:0,0:0:0:0:
32,352,57646,5,6,0:0:0:0:
32,352,57990,1,2,0:0:0:0:
110,241,58247,1,2,0:0:0:0:
110,241,58332,5,2,0:0:0:0:
167,323,58504,1,0,0:0:0:0:
320,224,58675,1,2,0:0:0:0:
263,142,58847,1,0,0:0:0:0:
256,352,59018,5,2,0:0:0:0:
256,352,59361,5,0,0:0:0:0:
256,32,59704,5,2,0:0:0:0:
256,32,60047,5,0,0:0:0:0:
32,352,60390,6,0,B|197:332|144:198|353:230,1,300,6|0,0:0|0:0,0:0:0:0:
294,225,60732,2,0,L|275:342,1,100,2|0,1:2|0:0,0:0:0:0:
218,159,60904,2,0,L|237:42,1,100,2|0,0:0|0:0,0:0:0:0:
480,352,61075,6,0,B|315:332|368:198|159:230,1,300,2|0,0:0|0:0,0:0:0:0:
220,254,61418,2,0,P|322:210|346:146,1,100,2|0,1:2|0:0,0:0:0:0:
32,128,61590,1,2,0:0:0:0:
32,128,61675,1,2,0:0:0:0:
32,128,61761,6,0,B|50:14|140:24|140:24|105:300,1,400,2|0,0:0|1:0,0:0:0:0:
497,126,62275,2,0,P|460:127|494:140,1,100,2|0,0:0|0:0,0:0:0:0:
480,128,62447,6,0,B|462:14|372:24|372:24|407:300,1,400,2|0,0:0|1:0,0:0:0:0:
64,352,62961,1,2,0:0:0:0:
125,295,63047,1,2,0:0:0:0:
230,309,63132,6,0,P|188:156|117:4,1,300,2|0,0:0|0:0,0:0:0:0:
114,45,63475,6,0,L|253:102,1,100,6|0,1:2|0:0,0:0:0:0:
206,83,63647,1,0,0:0:0:0:
206,83,63732,1,0,0:0:0:0:
283,146,63818,6,0,L|422:88,1,100,6|0,0:0|0:0,0:0:0:0:
375,108,63990,1,0,0:0:0:0:
375,108,64075,1,0,0:0:0:0:
448,38,64161,6,0,L|308:-19,1,100,6|0,1:2|0:0,0:0:0:0:
356,0,64333,1,0,0:0:0:0:
356,0,64418,1,0,0:0:0:0:
375,44,64504,6,0,L|338:279,1,200,6|0,0:0|0:0,0:0:0:0:
389,361,64761,1,0,0:0:0:0:
389,361,64847,6,0,P|296:322|272:216,1,200,6|0,1:2|0:0,0:0:0:0:
441,137,65104,1,0,0:0:0:0:
441,137,65190,6,0,P|402:230|296:254,1,200,6|0,0:0|0:0,0:0:0:0:
141,175,65447,1,0,0:0:0:0:
141,175,65532,2,0,L|174:27,1,100,2|0,1:2|0:0,0:0:0:0:
224,352,65704,1,2,0:0:0:0:
224,352,65790,1,2,0:0:0:0:
224,352,65875,6,0,B|212:265|164:249|164:249|125:363|2:371,1,300,6|0,0:0|0:0,0:0:0:0:
28,343,66218,2,0,L|141:386,1,100,2|0,1:2|0:0,0:0:0:0:
94,177,66390,2,0,L|-19:134,1,100,2|0,0:0|0:0,0:0:0:0:
288,352,66561,6,0,B|300:265|348:249|348:249|387:363|510:371,1,300,2|0,0:0|0:0,0:0:0:0:
484,343,66904,2,0,L|371:386,1,100,2|0,1:2|0:0,0:0:0:0:
418,177,67075,1,2,0:0:0:0:
418,177,67161,1,2,0:0:0:0:
418,177,67247,6,0,B|286:148|286:148|186:61|186:61|27:91,1,400,2|0,0:0|1:0,0:0:0:0:
383,49,67761,2,0,P|345:68|357:26,1,100,2|0,0:0|0:0,0:0:0:0:
359,50,67932,6,0,B|427:180|288:237|368:368,1,300,2|0,0:0|0:0,0:0:0:0:
353,340,68275,1,2,1:2:0:0:
96,256,68447,1,2,0:0:0:0:
166,195,68532,1,2,0:0:0:0:
257,242,68618,6,0,P|140:317|8:177,1,300,2|0,0:0|0:0,0:0:0:0:
38,190,68961,6,0,P|65:96|34:41,1,100,6|0,1:2|0:0,0:0:0:0:
65,97,69132,1,0,0:0:0:0:
65,97,69218,1,0,0:0:0:0:
158,124,69304,6,0,P|243:76|260:15,1,100,6|0,0:0|0:0,0:0:0:0:
242,77,69475,1,0,0:0:0:0:
242,77,69561,1,0,0:0:0:0:
289,162,69647,6,0,P|383:189|437:157,1,100,6|0,1:2|0:0,0:0:0:0:
381,189,69818,1,0,0:0:0:0:
381,189,69904,1,0,0:0:0:0:
408,151,69990,6,0,L|12:239,1,400,6|2,0:0|1:2,0:0:0:0:
24,250,70418,1,2,0:0:0:0:
41,294,70504,1,2,0:0:0:0:
17,346,70590,1,2,0:0:0:0:
17,346,70675,6,0,L|57:12,1,300,6|0,0:0|0:0,0:0:0:0:
34,0,71018,2,0,L|169:28,1,100,2|2,1:2|0:0,0:0:0:0:
170,185,71190,2,0,L|35:157,1,100,2|2,0:0|0:0,0:0:0:0:
373,67,71361,6,0,B|490:88|490:88|456:285,1,300,6|0,0:0|0:0,0:0:0:0:
449,314,71704,2,0,L|415:173,1,100,2|0,1:2|0:0,0:0:0:0:
324,138,71875,2,0,L|290:-3,1,100,2|0,0:0|0:0,0:0:0:0:
139,67,72047,6,0,B|22:88|22:88|56:285,1,300,2|0,0:0|0:0,0:0:0:0:
63,314,72390,2,0,L|97:173,1,100,2|0,1:2|0:0,0:0:0:0:
141,25,72561,1,2,0:0:0:0:
141,25,72647,1,2,0:0:0:0:
141,25,72732,6,0,B|271:52|271:52|312:173|312:173|469:239,1,400,2|0,0:0|1:0,0:0:0:0:
149,269,73247,2,0,L|173:390,1,100,2|0,0:0|0:0,0:0:0:0:
70,172,73418,6,0,B|221:80|254:267|448:271,1,400,2|0,0:0|1:0,0:0:0:0:
479,69,73932,1,2,0:0:0:0:
382,92,74018,1,2,0:0:0:0:
441,19,74104,6,0,P|428:160|319:318,1,300,2|0,0:0|0:0,0:0:0:0:
300,318,74447,6,0,P|353:192|443:185,1,200,6|0,1:2|0:0,0:0:0:0:
279,220,74704,1,0,0:0:0:0:
279,220,74790,6,0,P|227:93|286:24,1,200,6|0,0:0|0:0,0:0:0:0:
194,165,75046,1,0,0:0:0:0:
194,165,75132,6,0,P|68:112|61:22,1,200,6|0,1:2|0:0,0:0:0:0:
469,27,75475,6,0,P|456:182|269:345,1,400,6|0,0:0|1:2,0:0:0:0:
251,308,75904,1,2,0:0:0:0:
181,350,75990,1,2,0:0:0:0:
91,365,76075,1,2,0:0:0:0:
21,322,76161,6,0,P|151:328|240:367,1,200,6|2,0:0|0:0,0:0:0:0:
348,292,76418,1,2,0:0:0:0:
348,292,76504,2,0,P|444:204|534:168,1,200,2|0,1:2|0:0,0:0:0:0:
170,125,76847,6,0,L|136:-8,3,100,6|0|0|0,0:0|0:0|0:0|0:0,0:0:0:0:
342,259,77190,2,0,L|376:392,3,100,2|0|0|0,1:2|0:0|0:0|0:0,0:0:0:0:
342,125,77532,6,0,L|376:-8,3,100,6|0|0|0,0:0|0:0|0:0|0:0,0:0:0:0:
170,259,77875,2,0,L|136:392,3,100,2|0|0|0,1:2|0:0|0:0|0:0,0:0:0:0:
256,192,78218,5,6,0:0:0:0:
388,314,79248,5,2,0:0:0:0:
388,314,79304,1,2,0:0:0:0:
388,314,79361,1,2,0:0:0:0:
388,314,79418,1,2,0:0:0:0:
388,314,79475,1,2,0:0:0:0:
388,314,79532,1,2,0:0:0:0:
388,314,79590,6,0,L|410:231,1,60.0000022888184,6|0,0:0|0:0,0:0:0:0:
278,84,79761,2,0,L|288:168,1,60.0000022888184,2|0,0:0|0:0,0:0:0:0:
18,269,79932,2,0,L|101:282,1,60.0000022888184,2|0,1:2|0:0,0:0:0:0:
262,250,80104,1,2,0:0:0:0:
204,316,80190,1,2,0:0:0:0:
160,202,80275,6,0,L|172:115,1,60.0000022888184,2|0,0:0|0:0,0:0:0:0:
84,65,80447,2,0,L|96:-22,1,60.0000022888184,2|0,0:0|0:0,0:0:0:0:
306,141,80618,2,0,L|318:54,1,60.0000022888184,2|0,1:2|0:0,0:0:0:0:
282,359,80790,1,2,0:0:0:0:
336,301,80875,1,2,0:0:0:0:
262,250,80961,6,0,L|278:336,1,60.0000022888184,2|0,0:0|0:0,0:0:0:0:
149,143,81132,2,0,L|165:229,1,60.0000022888184,2|0,0:0|0:0,0:0:0:0:
411,68,81304,2,0,L|400:126,1,60.0000022888184,2|0,1:2|0:0,0:0:0:0:
274,0,81475,2,0,L|263:58,1,60.0000022888184,2|0,0:0|0:0,0:0:0:0:
510,13,81647,5,2,0:0:0:0:
491,44,81818,1,0,0:0:0:0:
132,111,81990,5,2,1:2:0:0:
194,213,82161,1,0,0:0:0:0:
472,75,82332,5,6,0:0:0:0:
457,69,82418,1,0,0:0:0:0:
415,86,82504,1,0,0:0:0:0:
400,80,82590,1,0,0:0:0:0:
305,188,82675,5,2,1:2:0:0:
320,182,82761,1,0,0:0:0:0:
362,199,82847,1,0,0:0:0:0:
377,193,82933,1,0,0:0:0:0:
512,307,83018,5,6,0:0:0:0:
497,301,83104,1,0,0:0:0:0:
455,318,83190,1,0,0:0:0:0:
440,312,83276,1,0,0:0:0:0:
235,373,83361,5,2,1:2:0:0:
250,367,83447,1,0,0:0:0:0:
292,384,83533,1,0,0:0:0:0:
307,378,83619,1,0,0:0:0:0:
454,235,83704,5,6,0:0:0:0:
458,216,83790,1,0,0:0:0:0:
449,169,83875,1,0,0:0:0:0:
453,150,83961,1,0,0:0:0:0:
271,28,84047,5,2,1:2:0:0:
275,47,84133,1,0,0:0:0:0:
266,94,84218,1,0,0:0:0:0:
270,113,84304,1,0,0:0:0:0:
316,312,84390,5,6,0:0:0:0:
354,8,84561,1,0,0:0:0:0:
235,373,84732,5,6,1:2:0:0:
172,0,84903,1,0,0:0:0:0:
172,0,85075,6,0,L|164:82,1,60.0000022888184,6|0,0:0|0:0,0:0:0:0:
372,240,85247,2,0,L|364:158,1,60.0000022888184,2|0,0:0|0:0,0:0:0:0:
128,310,85418,2,0,L|120:392,1,60.0000022888184,2|0,1:2|0:0,0:0:0:0:
29,201,85590,1,2,0:0:0:0:
107,150,85675,1,2,0:0:0:0:
215,226,85761,6,0,L|285:206,1,60.0000022888184,2|0,0:0|0:0,0:0:0:0:
166,59,85932,2,0,L|96:39,1,60.0000022888184,2|0,0:0|0:0,0:0:0:0:
55,309,86104,2,0,L|125:289,1,60.0000022888184,2|0,1:2|0:0,0:0:0:0:
24,85,86275,1,2,0:0:0:0:
107,150,86361,1,2,0:0:0:0:
232,55,86447,6,0,L|223:144,1,60.0000022888184,2|0,0:0|0:0,0:0:0:0:
280,329,86618,2,0,L|286:269,1,60.0000022888184,2|0,0:0|0:0,0:0:0:0:
280,55,86790,6,0,L|289:144,1,60.0000022888184,2|0,1:2|0:0,0:0:0:0:
232,329,86961,2,0,L|225:269,1,60.0000022888184,2|0,0:0|0:0,0:0:0:0:
448,192,87132,5,2,0:0:0:0:
64,192,87304,1,0,0:0:0:0:
256,32,87475,5,2,1:2:0:0:
256,352,87647,1,0,0:0:0:0:
256,32,87818,5,6,0:0:0:0:
277,86,87903,1,0,0:0:0:0:
329,113,87989,1,0,0:0:0:0:
386,100,88075,1,0,0:0:0:0:
335,34,88161,5,2,1:2:0:0:
280,55,88246,1,0,0:0:0:0:
253,107,88332,1,0,0:0:0:0:
266,164,88418,1,0,0:0:0:0:
329,238,88504,5,6,0:0:0:0:
308,293,88589,1,0,0:0:0:0:
256,320,88675,1,0,0:0:0:0:
199,307,88761,1,0,0:0:0:0:
250,240,88847,5,2,1:2:0:0:
305,261,88932,1,0,0:0:0:0:
332,313,89018,1,0,0:0:0:0:
319,370,89104,1,0,0:0:0:0:
256,320,89190,5,6,0:0:0:0:
256,64,89361,1,2,0:0:0:0:
256,384,89532,5,6,1:2:0:0:
256,32,89704,1,2,0:0:0:0:
320,192,89875,6,2,L|355:182,1,20,2|0,0:0|0:0,0:1:0:0:
192,192,90047,2,2,L|157:182,1,20,2|0,0:0|0:0,0:1:0:0:
448,192,90218,6,2,L|483:202,1,20,2|0,0:0|0:0,0:1:0:0:
64,192,90390,2,2,L|29:202,1,20,2|0,0:0|0:0,0:1:0:0:
256,192,90561,6,0,L|256:288,1,60.0000022888184,6|0,0:0|0:0,0:0:0:0:
359,43,90732,2,0,L|442:-21,1,60.0000022888184,2|0,0:0|0:0,0:0:0:0:
132,67,90904,2,0,L|29:34,1,60.0000022888184,2|0,1:2|0:0,0:0:0:0:
413,159,91075,1,2,0:0:0:0:
362,82,91161,1,2,0:0:0:0:
276,144,91247,6,0,L|170:169,1,60.0000022888184,2|0,0:0|0:0,0:0:0:0:
415,321,91418,2,0,L|309:296,1,60.0000022888184,2|0,0:0|0:0,0:0:0:0:
512,96,91590,2,0,L|406:71,1,60.0000022888184,2|0,1:2|0:0,0:0:0:0:
136,182,91761,1,2,0:0:0:0:
185,101,91847,1,2,0:0:0:0:
310,163,91932,6,0,L|294:257,1,60.0000022888184,2|0,0:0|0:0,0:0:0:0:
452,41,92104,2,0,L|436:135,1,60.0000022888184,2|0,0:0|0:0,0:0:0:0:
86,45,92275,2,0,L|102:139,1,60.0000022888184,2|0,1:2|0:0,0:0:0:0:
345,0,92447,2,0,L|361:94,1,60.0000022888184,2|0,0:0|0:0,0:0:0:0:
414,352,92618,5,2,0:0:0:0:
423,314,92790,1,0,0:0:0:0:
221,253,92961,5,2,1:2:0:0:
185,101,93133,1,0,0:0:0:0:
239,329,93304,5,6,0:0:0:0:
249,313,93390,1,0,0:0:0:0:
246,281,93475,1,0,0:0:0:0:
256,265,93561,1,0,0:0:0:0:
321,115,93647,5,2,1:2:0:0:
331,131,93733,1,0,0:0:0:0:
328,163,93818,1,0,0:0:0:0:
338,179,93904,1,0,0:0:0:0:
144,111,93990,5,6,0:0:0:0:
128,101,94076,1,0,0:0:0:0:
96,104,94161,1,0,0:0:0:0:
80,94,94247,1,0,0:0:0:0:
338,179,94332,5,2,1:2:0:0:
354,169,94418,1,0,0:0:0:0:
386,172,94503,1,0,0:0:0:0:
402,162,94589,1,0,0:0:0:0:
154,366,94675,5,6,0:0:0:0:
144,350,94761,1,0,0:0:0:0:
147,318,94846,1,0,0:0:0:0:
137,302,94932,1,0,0:0:0:0:
385,226,95018,5,2,1:2:0:0:
395,210,95104,1,0,0:0:0:0:
392,178,95189,1,0,0:0:0:0:
402,162,95275,1,0,0:0:0:0:
384,0,95361,5,6,0:0:0:0:
416,320,95532,1,0,0:0:0:0:
128,64,95704,5,6,1:2:0:0:
480,160,95875,1,0,0:0:0:0:
32,288,96047,6,0,L|13:388,1,60.0000022888184,6|0,0:0|0:0,0:0:0:0:
132,86,96218,2,0,L|151:186,1,60.0000022888184,2|0,0:0|0:0,0:0:0:0:
11,0,96390,2,0,L|-8:100,1,60.0000022888184,2|0,1:2|0:0,0:0:0:0:
267,17,96561,1,2,0:0:0:0:
240,100,96647,1,2,0:0:0:0:
332,150,96732,6,0,L|408:133,1,60.0000022888184,2|0,0:0|0:0,0:0:0:0:
256,352,96904,2,0,L|332:335,1,60.0000022888184,2|0,0:0|0:0,0:0:0:0:
44,259,97075,2,0,L|120:242,1,60.0000022888184,2|0,1:2|0:0,0:0:0:0:
406,176,97247,1,2,0:0:0:0:
328,110,97332,1,2,0:0:0:0:
294,229,97418,6,0,L|315:306,1,60.0000022888184,2|0,0:0|0:0,0:0:0:0:
184,110,97590,2,0,L|163:33,1,60.0000022888184,2|0,0:0|0:0,0:0:0:0:
218,229,97761,6,0,L|197:306,1,60.0000022888184,2|0,1:2|0:0,0:0:0:0:
328,110,97932,2,0,L|349:33,1,60.0000022888184,2|0,0:0|0:0,0:0:0:0:
32,192,98104,5,2,0:0:0:0:
480,192,98275,1,0,0:0:0:0:
256,352,98447,5,2,1:2:0:0:
256,32,98618,1,0,0:0:0:0:
256,192,98790,5,6,0:0:0:0:
291,197,98875,1,0,0:0:0:0:
327,203,98961,1,2,0:0:0:0:
362,209,99047,1,0,0:0:0:0:
239,312,99132,5,2,1:2:0:0:
203,317,99217,1,0,0:0:0:0:
167,323,99303,1,2,0:0:0:0:
132,329,99389,1,0,0:0:0:0:
32,192,99475,5,6,0:0:0:0:
68,187,99560,1,0,0:0:0:0:
104,181,99646,1,2,0:0:0:0:
139,175,99732,1,0,0:0:0:0:
253,70,99818,5,2,1:2:0:0:
289,65,99903,1,0,0:0:0:0:
325,59,99989,1,2,0:0:0:0:
360,53,100075,1,0,0:0:0:0:
480,160,100161,6,0,L|468:245,3,60.0000022888184,6|0|0|0,0:0|0:0|0:0|0:0,0:0:0:0:
217,75,100504,2,0,L|205:-10,3,60.0000022888184,2|0|0|0,0:0|0:0|0:0|0:0,0:0:0:0:
448,128,100847,6,0,L|436:213,3,60.0000022888184,2|0|0|0,0:0|0:0|0:0|0:0,0:0:0:0:
192,64,101190,2,0,L|180:-21,3,60.0000022888184,2|0|0|0,0:0|0:0|0:0|0:0,0:0:0:0:
234,354,101532,6,2,L|439:316,1,160,2|0,0:0|0:0,0:1:0:0:
505,304,101704,1,0,1:0:0:0:
503,314,101790,1,0,1:0:0:0:
501,324,101875,1,0,1:0:0:0:
499,334,101961,1,0,1:0:0:0:
497,344,102047,6,2,L|292:306,1,160,2|0,0:0|0:0,0:1:0:0:
226,294,102218,1,0,1:0:0:0:
228,304,102304,1,0,1:0:0:0:
230,314,102389,1,0,1:0:0:0:
232,324,102475,1,0,1:0:0:0:
234,334,102561,6,2,L|439:296,1,160,2|0,0:0|0:0,0:1:0:0:
408,302,102732,6,0,L|379:289,1,20,2|0,0:1|0:0,0:0:0:0:
77,194,102904,6,0,P|127:140|181:156,1,120.000004577637,6|0,0:0|0:0,0:0:0:0:
124,370,103247,1,2,0:0:0:0:
124,370,103418,1,2,0:0:0:0:
124,370,103590,2,0,L|272:386,1,120.000004577637,2|0,0:0|0:0,0:0:0:0:
274,366,103932,5,6,0:0:0:0:
251,312,104018,1,2,0:0:0:0:
283,234,104104,1,2,0:0:0:0:
263,142,104190,1,2,0:0:0:0:
176,92,104275,6,0,P|259:99|275:24,1,120.000004577637,6|0,0:0|0:0,0:0:0:0:
53,24,104618,1,2,0:0:0:0:
53,24,104790,1,2,0:0:0:0:
97,184,104961,2,0,L|68:334,1,120.000004577637,2|0,0:0|0:0,0:0:0:0:
58,284,105304,5,6,0:0:0:0:
134,255,105390,1,2,0:0:0:0:
207,320,105475,1,2,0:0:0:0:
305,299,105561,1,2,0:0:0:0:
357,221,105647,6,0,P|317:316|321:345,1,120.000004577637,6|0,0:0|0:0,0:0:0:0:
480,192,105990,1,2,0:0:0:0:
480,192,106161,1,2,0:0:0:0:
451,69,106332,6,0,P|356:29|327:33,1,120.000004577637,6|0,0:0|0:0,0:0:0:0:
484,196,106675,1,2,0:0:0:0:
484,196,106846,1,2,0:0:0:0:
275,136,107018,6,0,P|179:174|161:198,1,120.000004577637,6|2,0:0|0:0,0:0:0:0:
96,283,107275,1,2,0:0:0:0:
242,302,107361,6,0,P|203:206|179:188,1,120.000004577637,6|2,0:0|0:0,0:0:0:0:
95,123,107618,1,2,0:0:0:0:
76,269,107704,6,0,P|171:230|189:206,1,120.000004577637,6|2,0:0|0:0,0:0:0:0:
255,122,107961,1,2,0:0:0:0:
109,103,108047,6,0,P|147:198|171:216,1,120.000004577637,6|2,0:0|0:0,0:0:0:0:
256,282,108304,1,2,0:0:0:0:
256,282,108390,6,0,L|215:46,1,240.000009155274,6|2,0:0|0:0,0:0:0:0:
384,160,108904,1,2,0:0:0:0:
215,46,109075,1,2,0:0:0:0:
480,0,109247,1,2,0:0:0:0:
467,27,109418,5,6,0:0:0:0:
380,16,109504,1,2,0:0:0:0:
329,47,109590,1,2,0:0:0:0:
259,14,109675,1,2,0:0:0:0:
192,72,109761,6,0,P|144:12|82:6,1,120.000004577637,6|0,0:0|0:0,0:0:0:0:
32,128,110104,1,2,0:0:0:0:
32,128,110275,1,2,0:0:0:0:
179,270,110447,2,0,L|322:237,1,120.000004577637,2|0,0:0|0:0,0:0:0:0:
323,255,110790,5,6,0:0:0:0:
354,216,110875,1,2,0:0:0:0:
338,132,110961,1,2,0:0:0:0:
423,81,111047,1,2,0:0:0:0:
409,0,111132,6,0,P|446:62|440:128,1,120.000004577637,6|0,0:0|0:0,0:0:0:0:
223,69,111475,1,2,0:0:0:0:
223,69,111647,1,2,0:0:0:0:
223,69,111818,6,0,P|286:32|352:38,1,120.000004577637,6|2,0:0|0:0,0:0:0:0:
293,255,112161,1,2,0:0:0:0:
293,255,112333,1,2,0:0:0:0:
345,12,112504,5,2,0:0:0:0:
167,372,113875,5,6,0:0:0:0:
