osu file format v14

[General]
AudioFilename: audio.mp3
AudioLeadIn: 0
PreviewTime: 346527
Countdown: 0
SampleSet: Drum
StackLeniency: 0.7
Mode: 2
LetterboxInBreaks: 0
WidescreenStoryboard: 0

[Editor]
Bookmarks: 12005,24001,53456,82910,130908,154902,166902,190902,214902,238902,262902,286902,319902,346902,370902,397916,445889,485679
DistanceSpacing: 2.1
BeatDivisor: 4
GridSize: 16
TimelineZoom: 4.300008

[Metadata]
Title:I am "End"
TitleUnicode:I am "End"
Artist:Sakuzyo
ArtistUnicode:削除
Creator:Deif
Version:Dystopia
Source:
Tags:Diverse System AngelFalse Orchestral Glitch Piano Dubstep Electronic Instrumental
BeatmapID:3994182
BeatmapSetID:1933048

[Difficulty]
HPDrainRate:6
CircleSize:4
OverallDifficulty:9.1
ApproachRate:9.1
SliderMultiplier:1.92
SliderTickRate:2

[Events]
//Background and Video events
0,0,"BG.jpg",0,0
//Break Periods
2,48196,52872
2,155102,160318
2,215102,224818
2,323102,331318
2,394914,397332
2,474285,476706
//Storyboard Layer 0 (Background)
//Storyboard Layer 1 (Fail)
//Storyboard Layer 2 (Pass)
//Storyboard Layer 3 (Foreground)
//Storyboard Layer 4 (Overlay)
//Storyboard Sound Samples

[TimingPoints]
24,375,4,2,0,40,1,0
6024,379.746835443038,4,2,0,40,1,0
9061,368.098159509202,4,2,0,40,1,0
12005,372.670807453416,4,2,0,40,1,0
14986,375,4,2,0,40,1,0
17986,377.358490566038,4,2,0,40,1,0
20250,400,4,2,0,40,1,0
21050,387.096774193549,4,2,0,40,1,0
24001,370.37037037037,4,2,1,50,1,0
24001,-83.3333333333333,4,2,1,50,0,0
24371,-100,4,2,1,50,0,0
25482,379.746835443038,4,2,1,50,1,0
25482,-83.3333333333333,4,2,1,50,0,0
26051,-100,4,2,1,50,0,0
27000,372.670807453416,4,2,1,50,1,0
27000,-83.3333333333333,4,2,1,50,0,0
27745,-100,4,2,1,50,0,0
27807,-100.351229302559,4,2,1,50,0,0
28490,375,4,2,1,50,1,0
29990,377.358490566038,4,2,1,50,1,0
29990,-83.3333333333333,4,2,1,50,0,0
30367,-100,4,2,1,50,0,0
31499,372.670807453416,4,2,1,50,1,0
32989,375,4,2,1,50,1,0
32989,-83.3333333333333,4,2,1,50,0,0
33364,-100,4,2,1,50,0,0
33739,-100.300902708124,4,2,1,50,0,0
34489,377.358490566038,4,2,0,50,1,0
34677,-100,4,2,1,50,0,0
35998,375,4,2,1,50,1,0
35998,-83.3333333333333,4,2,1,50,0,0
36373,-100,4,2,1,50,0,0
36998,-98.8142292490118,4,2,1,50,0,0
37498,372.670807453416,4,2,1,50,1,0
38988,375,4,2,1,50,1,0
38988,-100.200400801603,4,2,1,50,0,0
40488,377.358490566038,4,2,0,50,1,0
40676,-100,4,2,1,50,0,0
41997,375,4,2,1,50,1,0
41997,-83.3333333333333,4,2,1,50,0,0
42372,-100,4,2,1,50,0,0
43497,377.358490566038,4,2,1,50,1,0
43497,-83.3333333333333,4,2,1,50,0,0
44063,-100,4,2,1,50,0,0
45006,375,4,2,1,50,1,0
45006,-83.3333333333333,4,2,1,50,0,0
45756,-100,4,2,1,50,0,0
46506,372.670807453416,4,2,1,50,1,0
47996,375,4,2,1,50,1,0
53456,375,4,2,3,25,1,0
53456,-133.333333333333,4,2,3,25,0,0
56456,363.636363636364,4,2,3,25,1,0
56456,-66.6666666666667,4,2,3,25,0,0
56728,-66.6666666666667,4,2,0,25,0,0
57183,-133.333333333333,4,2,3,25,0,0
57910,375,4,2,3,25,1,0
57910,-133.333333333333,4,2,3,25,0,0
59410,348.837209302326,4,2,3,25,1,0
59410,-75.187969924812,4,2,3,25,0,0
59758,-75.187969924812,4,2,0,25,0,0
60107,-75.187969924812,4,2,3,25,0,0
60456,-75.187969924812,4,2,0,25,0,0
60978,387.096774193548,4,2,3,25,1,0
60978,-133.333333333333,4,2,3,25,0,0
61945,413.793103448276,4,2,0,25,1,0
61945,-133.333333333333,4,2,0,25,0,0
62358,329.67032967033,4,2,3,25,1,0
62358,-133.333333333333,4,2,3,25,0,0
63018,382.165605095541,4,2,3,25,1,0
63018,-133.333333333333,4,2,3,25,0,0
64546,408.163265306122,4,2,3,25,1,0
64546,-133.333333333333,4,2,3,25,0,0
65362,387.096774193548,4,2,3,25,1,0
65362,-133.333333333333,4,2,3,25,0,0
66136,500.000000000001,4,2,3,25,1,0
66136,-133.333333333333,4,2,3,25,0,0
66386,428.571428571429,4,2,3,25,1,0
66386,-133.333333333333,4,2,3,25,0,0
66600,388.349514563107,4,2,3,25,1,0
66600,-133.333333333333,4,2,3,25,0,0
67958,359.281437125748,4,2,3,25,1,0
67958,-133.333333333333,4,2,3,25,0,0
69035,387.096774193548,4,2,3,25,1,0
69035,-80,4,2,3,25,0,0
69422,-80,4,2,0,25,0,0
69809,-100,4,2,3,25,0,0
70196,-100,4,2,0,25,0,0
70583,370.37037037037,4,2,3,25,1,0
70583,-133.333333333333,4,2,3,25,0,0
72064,382.165605095541,4,2,3,25,1,0
72064,-133.333333333333,4,2,3,25,0,0
73592,370.37037037037,4,2,3,25,1,0
73592,-133.333333333333,4,2,3,25,0,0
75073,363.636363636364,4,2,3,25,1,0
75073,-133.333333333333,4,2,3,25,0,0
76527,447.761194029851,4,2,3,25,1,0
76527,-133.333333333333,4,2,3,25,0,0
77422,400,4,2,3,25,1,0
77422,-133.333333333333,4,2,3,25,0,0
78222,413.793103448276,4,2,3,25,1,0
78222,-133.333333333333,4,2,3,25,0,0
78635,400,4,2,3,25,1,0
78635,-133.333333333333,4,2,3,25,0,0
78835,444.444444444444,4,2,3,25,1,0
78835,-133.333333333333,4,2,3,25,0,0
79057,400,4,2,3,25,1,0
79057,-133.333333333333,4,2,3,25,0,0
82910,375,4,2,1,15,1,0
82910,-200,4,2,1,15,0,0
84035,-200,4,3,0,10,0,0
84410,372.670807453416,4,2,1,15,1,0
84410,-200,4,2,1,15,0,0
85900,352.941176470588,4,2,1,15,1,0
85900,-200,4,2,1,15,0,0
86605,402.684563758389,4,2,1,15,1,0
86605,-200,4,2,1,15,0,0
87409,370.37037037037,4,2,1,15,1,0
87409,-200,4,2,1,15,0,0
87779,-200,4,3,0,10,0,0
88149,-200,4,2,1,15,0,0
88520,-200,4,3,0,10,0,0
88890,377.358490566038,4,2,1,15,1,0
88890,-200,4,2,1,15,0,0
90022,-200,4,3,0,10,0,0
90399,379.746835443038,4,2,1,15,1,0
90399,-200,4,2,1,15,0,0
91917,366.97247706422,4,2,1,15,1,0
91917,-200,4,2,1,15,0,0
93384,383.386581469649,4,2,1,15,1,0
93384,-200,4,2,1,15,0,0
93767,352.941176470588,4,2,1,15,1,0
93767,-200,4,2,1,15,0,0
94119,398.671096345515,4,2,1,10,1,0
94119,-200,4,2,1,10,0,0
94916,372.670807453416,4,2,1,15,1,0
94916,-200,4,2,1,15,0,0
96034,-200,4,3,0,10,0,0
96406,375,4,2,1,15,1,0
96406,-200,4,2,1,15,0,0
97906,352.941176470588,4,2,1,15,1,0
97906,-200,4,2,1,15,0,0
98611,402.684563758389,4,2,1,15,1,0
98611,-200,4,2,1,15,0,0
99415,368.098159509203,4,2,1,15,1,0
99415,-200,4,2,1,15,0,0
99783,-200,4,3,0,10,0,0
100151,-200,4,2,1,15,0,0
100519,-200,4,3,0,10,0,0
100887,379.746835443038,4,2,1,15,1,0
100887,-200,4,2,1,15,0,0
102026,-200,4,3,0,10,0,0
102405,377.358490566038,4,2,1,15,1,0
102405,-200,4,2,1,15,0,0
103914,372.670807453416,4,2,1,15,1,0
103914,-200,4,2,1,15,0,0
104286,-175.438596491228,4,2,1,15,0,0
104659,-200,4,2,1,15,0,0
105404,375,4,2,1,15,1,0
105404,-200,4,2,1,15,0,0
106154,-200,4,2,1,10,0,0
106904,377.358490566038,4,2,1,15,1,0
106904,-200,4,2,1,15,0,0
108413,372.670807453416,4,2,1,15,1,0
108413,-200,4,2,1,15,0,0
109903,375,4,2,1,15,1,0
109903,-200,4,2,1,15,0,0
111403,372.670807453416,4,2,1,15,1,0
111403,-200,4,2,1,15,0,0
112893,382.165605095541,4,2,1,15,1,0
112893,-200,4,2,1,15,0,0
114421,377.358490566038,4,2,1,15,1,0
114421,-175.438596491228,4,2,1,15,0,0
114798,-200,4,2,1,15,0,0
115930,372.670807453416,4,2,1,15,1,0
115930,-200,4,2,1,15,0,0
116302,-175.438596491228,4,2,1,15,0,0
116675,-200,4,2,1,15,0,0
117420,365.853658536585,4,2,1,15,1,0
117420,-175.438596491228,4,2,1,15,0,0
117785,-200,4,2,1,10,0,0
118883,375,4,2,1,15,1,0
118883,-200,4,2,1,15,0,0
120383,372.670807453416,4,2,1,15,1,0
120383,-200,4,2,1,15,0,0
121873,375,4,2,1,15,1,0
121873,-200,4,2,1,15,0,0
123373,377.358490566038,4,2,1,15,1,0
123373,-200,4,2,1,15,0,0
124882,384.615384615384,4,2,1,15,1,0
124882,-200,4,2,1,15,0,0
126419,376.766091051805,4,2,1,15,1,0
126419,-175.438596491228,4,2,1,15,0,0
126795,-200,4,2,1,15,0,0
127926,372.670807453415,4,2,1,15,1,0
127926,-200,4,2,1,15,0,0
129416,368.098159509202,4,2,1,15,1,0
129416,-200,4,2,1,15,0,0
130902,375,4,1,1,30,1,0
130902,-33.3333333333333,4,1,1,30,0,0
131089,-33.3333333333333,4,3,0,40,0,0
131277,-100,4,1,0,30,0,0
131464,-100,4,3,0,40,0,0
131652,-100,4,1,0,30,0,0
131839,-100,4,3,0,40,0,0
132027,-100,4,1,0,30,0,0
132214,-100,4,3,0,40,0,0
132402,-100,4,1,0,30,0,0
132589,-100,4,3,0,40,0,0
132777,-100,4,1,0,30,0,0
132964,-100,4,3,0,40,0,0
133152,-100,4,1,0,30,0,0
133339,-100,4,3,0,40,0,0
133527,-100,4,1,0,30,0,0
133714,-100,4,3,0,40,0,0
133902,-100,4,1,1,30,0,0
134089,-100,4,3,0,40,0,0
134277,-100,4,1,1,30,0,0
134464,-100,4,3,0,40,0,0
134652,-100,4,1,1,30,0,0
134839,-100,4,3,0,40,0,0
135027,-100,4,1,1,30,0,0
135214,-100,4,3,0,40,0,0
135402,-100,4,1,1,30,0,0
135589,-100,4,3,0,40,0,0
135777,-100,4,1,1,30,0,0
135964,-100,4,3,0,40,0,0
136152,-100,4,1,1,30,0,0
136339,-100,4,3,0,40,0,0
136527,-100,4,1,1,30,0,0
136714,-100,4,3,0,40,0,0
136902,-100,4,1,1,30,0,0
137089,-100,4,3,0,40,0,0
139902,-100,4,1,1,30,0,0
140089,-100,4,3,0,40,0,0
142902,-33.3333333333333,4,1,1,30,0,0
143089,-33.3333333333333,4,3,0,40,0,0
143277,-100,4,1,1,30,0,0
143464,-100,4,3,0,40,0,0
143652,-100,4,1,1,30,0,0
143839,-100,4,3,0,40,0,0
144027,-100,4,1,1,30,0,0
144214,-100,4,3,0,40,0,0
144402,-100,4,1,1,30,0,0
144589,-100,4,3,0,40,0,0
144777,-100,4,1,1,30,0,0
144964,-100,4,3,0,40,0,0
145152,-100,4,1,1,30,0,0
145339,-100,4,3,0,40,0,0
145527,-100,4,1,1,30,0,0
145714,-100,4,3,0,40,0,0
145902,-100,4,1,1,35,0,0
146089,-100,4,3,0,45,0,0
146277,-100,4,1,1,35,0,0
146464,-100,4,3,0,45,0,0
146652,-100,4,1,1,35,0,0
146839,-100,4,3,0,45,0,0
147027,-100,4,1,1,35,0,0
147214,-100,4,3,0,45,0,0
147402,-100,4,1,1,35,0,0
147589,-100,4,3,0,45,0,0
147777,-100,4,1,1,35,0,0
147964,-100,4,3,0,45,0,0
148152,-100,4,1,1,35,0,0
148339,-100,4,3,0,45,0,0
148527,-100,4,1,1,35,0,0
148714,-100,4,3,0,45,0,0
148902,-100,4,1,1,40,0,0
149089,-100,4,3,0,50,0,0
149277,-100,4,1,1,40,0,0
149464,-100,4,3,0,50,0,0
149652,-100,4,1,1,40,0,0
149839,-100,4,3,0,50,0,0
150027,-100,4,1,1,40,0,0
150214,-100,4,3,0,50,0,0
150402,-100,4,1,1,40,0,0
150589,-100,4,3,0,50,0,0
150777,-100,4,1,1,40,0,0
150964,-100,4,3,0,50,0,0
151152,-100,4,1,1,40,0,0
151339,-100,4,3,0,50,0,0
151527,-100,4,1,1,40,0,0
151714,-100,4,3,0,50,0,0
151902,-100,4,1,1,45,0,0
152089,-100,4,3,0,55,0,0
152277,-100,4,1,1,45,0,0
152464,-100,4,3,0,55,0,0
152652,-100,4,1,1,45,0,0
152839,-100,4,3,0,55,0,0
153027,-100,4,1,1,45,0,0
153214,-100,4,3,0,55,0,0
153402,-100,4,1,1,50,0,0
153589,-100,4,3,0,60,0,0
153777,-100,4,1,1,50,0,0
153964,-100,4,3,0,60,0,0
154152,-100,4,1,1,50,0,0
154339,-100,4,3,0,60,0,0
154527,-37.593984962406,4,1,1,50,0,0
154714,-37.593984962406,4,3,0,60,0,0
154902,-100,4,1,1,30,0,0
163527,-100,4,3,1,50,0,0
163573,-100,4,3,1,25,0,0
163902,-50,4,3,1,50,0,0
163925,-50,4,1,0,25,0,0
164277,-100,4,1,0,25,0,0
165777,-100,4,1,0,10,0,0
165964,-100,4,1,0,20,0,0
166152,-100,4,1,0,30,0,0
166339,-100,4,1,0,40,0,0
166527,-100,4,1,0,50,0,0
166902,-100,4,3,1,70,0,0
166925,-100,4,3,1,40,0,0
167089,-100,4,3,1,70,0,0
167112,-100,4,3,1,40,0,0
167277,-100,4,3,1,50,0,0
167300,-100,4,3,1,40,0,0
167464,-100,4,3,1,50,0,0
167487,-100,4,3,1,40,0,0
167652,-100,4,3,1,60,0,0
168027,-100,4,3,1,40,0,0
168214,-100,4,3,1,60,0,0
168402,-100,4,3,1,40,0,0
168589,-100,4,3,1,60,0,0
168777,-66.6666666666667,4,3,1,40,0,0
168964,-100,4,3,1,60,0,0
168987,-100,4,3,1,40,0,0
169152,-100,4,3,1,60,0,0
169339,-100,4,3,1,40,0,0
169527,-100,4,3,1,60,0,0
169550,-100,4,3,1,40,0,0
169714,-100,4,3,1,60,0,0
169737,-100,4,3,1,40,0,0
169902,-100,4,3,1,60,0,0
169925,-100,4,3,1,30,0,0
170652,-100,4,3,1,60,0,0
171027,-100,4,3,1,30,0,0
171191,-100,4,3,1,5,0,0
171214,-76.9230769230769,4,3,1,30,0,0
171378,-100,4,3,1,5,0,0
171402,-62.5,4,3,1,45,0,0
171566,-100,4,3,1,5,0,0
171589,-52.6315789473684,4,3,1,45,0,0
171753,-100,4,3,1,5,0,0
171777,-33.3333333333333,4,3,1,60,0,0
171964,-33.3333333333333,4,1,0,60,0,0
172058,-33.3333333333333,4,3,1,60,0,0
172128,-100,4,3,1,5,0,0
172152,-100,4,3,1,60,0,0
172339,-100,4,3,1,40,0,0
172527,-100,4,1,0,10,0,0
172902,-100,4,3,1,70,0,0
172925,-100,4,3,1,40,0,0
173089,-100,4,3,1,70,0,0
173112,-100,4,3,1,40,0,0
173277,-100,4,3,1,50,0,0
173300,-100,4,3,1,40,0,0
173464,-100,4,3,1,50,0,0
173487,-100,4,3,1,40,0,0
173652,-100,4,3,1,60,0,0
174027,-100,4,3,1,40,0,0
174214,-100,4,3,1,60,0,0
174402,-100,4,3,1,40,0,0
174589,-100,4,3,1,60,0,0
174777,-33.3333333333333,4,3,1,60,0,0
174964,-100,4,3,1,60,0,0
174987,-100,4,3,1,40,0,0
175152,-100,4,3,1,60,0,0
175316,-100,4,3,1,5,0,0
175339,-33.3333333333333,4,3,1,60,0,0
175503,-100,4,3,1,5,0,0
175527,-100,4,3,1,50,0,0
175902,-66.6666666666667,4,3,1,60,0,0
176066,-100,4,3,1,5,0,0
176089,-66.6666666666667,4,3,1,60,0,0
176253,-100,4,3,1,5,0,0
176277,-66.6666666666667,4,3,1,60,0,0
176441,-100,4,3,1,5,0,0
176464,-66.6666666666667,4,3,1,60,0,0
176628,-100,4,3,1,5,0,0
176652,-37.7358490566038,4,3,1,60,0,0
176839,-37.7358490566038,4,1,0,50,0,0
176933,-100,4,1,0,60,0,0
176964,-100,4,1,0,30,0,0
177089,-100,4,1,0,60,0,0
177120,-100,4,1,0,30,0,0
177277,-100,4,1,0,60,0,0
177308,-100,4,1,0,30,0,0
177402,-100,4,3,1,60,0,0
177589,-100,4,3,1,30,0,0
177777,-33.3333333333333,4,3,1,60,0,0
177964,-33.3333333333333,4,3,1,30,0,0
178152,-33.3333333333333,4,3,1,60,0,0
178339,-33.3333333333333,4,1,0,75,0,0
178527,-100,4,3,1,60,0,0
179277,-100,4,3,1,50,0,0
179300,-100,4,3,1,40,0,0
179464,-100,4,3,1,50,0,0
179487,-100,4,3,1,40,0,0
179652,-100,4,3,1,60,0,0
180027,-100,4,3,1,40,0,0
180214,-100,4,3,1,60,0,0
180402,-100,4,3,1,40,0,0
180589,-100,4,3,1,60,0,0
180777,-66.6666666666667,4,3,1,40,0,0
180964,-100,4,3,1,60,0,0
180987,-100,4,3,1,40,0,0
181152,-100,4,3,1,60,0,0
181339,-100,4,3,1,40,0,0
181527,-100,4,3,1,60,0,0
181550,-100,4,3,1,40,0,0
181714,-100,4,3,1,60,0,0
181737,-100,4,3,1,40,0,0
181902,-50,4,3,1,60,0,0
182066,-100,4,3,1,5,0,0
182089,-66.6666666666667,4,3,1,60,0,0
182253,-100,4,3,1,5,0,0
182277,-50,4,3,1,40,0,0
182441,-100,4,3,1,5,0,0
182464,-31.7460317460317,4,3,1,40,0,0
182652,-31.7460317460317,4,3,1,60,0,0
183027,-25,4,3,1,60,0,0
183214,-25,4,3,1,30,0,0
183402,-25,4,3,1,60,0,0
183777,-25,4,1,0,90,0,0
183964,-25,4,3,1,60,0,0
184152,-100,4,3,1,60,0,0
184925,-100,4,3,1,40,0,0
185089,-100,4,3,1,60,0,0
185277,-62.5,4,3,1,60,0,0
185323,-62.5,4,3,1,40,0,0
185464,-100,4,3,1,20,0,0
185745,-100,4,3,1,30,0,0
185862,-100,4,1,0,30,0,0
185933,-100,4,3,1,30,0,0
186027,-25,4,3,1,30,0,0
186073,-25,4,1,0,30,0,0
186214,-50,4,1,0,40,0,0
186308,-50,4,1,0,20,0,0
186402,-100,4,1,0,10,0,0
186777,-100,4,3,1,60,0,0
186964,-100,4,3,1,60,0,0
187152,-33.3333333333333,4,3,1,60,0,0
187339,-100,4,3,1,60,0,0
187527,-100,4,3,1,50,0,0
187902,-25,4,3,1,60,0,0
188089,-25,4,3,1,30,0,0
188277,-25,4,3,1,60,0,0
188464,-25,4,1,0,75,0,0
188652,-100,4,3,1,60,0,0
189027,-100,4,3,1,70,0,0
189050,-100,4,3,1,40,0,0
189214,-100,4,3,1,70,0,0
189237,-100,4,3,1,40,0,0
189402,-100,4,3,1,50,0,0
189425,-100,4,3,1,40,0,0
189589,-100,4,3,1,50,0,0
189612,-100,4,3,1,40,0,0
189777,-100,4,3,1,60,0,0
189964,-100,4,3,1,30,0,0
190128,-100,4,3,1,5,0,0
190152,-33.3333333333333,4,3,1,60,0,0
190503,-100,4,3,1,5,0,0
190527,-100,4,1,0,10,0,0
190714,-100,4,3,1,60,0,0
191089,-100,4,3,1,40,0,0
191277,-100,4,3,1,60,0,0
191464,-100,4,3,1,40,0,0
191652,-100,4,3,1,60,0,0
191839,-100,4,3,1,40,0,0
192027,-100,4,3,1,60,0,0
192214,-100,4,3,1,40,0,0
192402,-100,4,3,1,60,0,0
192589,-100,4,3,1,40,0,0
192777,-100,4,3,1,60,0,0
192964,-100,4,3,1,40,0,0
193152,-100,4,3,1,60,0,0
193339,-100,4,3,1,40,0,0
193714,-100,4,3,1,60,0,0
194089,-100,4,3,1,40,0,0
194277,-100,4,3,1,60,0,0
194464,-100,4,3,1,40,0,0
194652,-100,4,3,1,60,0,0
194839,-100,4,3,1,40,0,0
195027,-100,4,3,1,60,0,0
195214,-100,4,3,1,40,0,0
195402,-100,4,3,1,60,0,0
195425,-100,4,3,1,40,0,0
195589,-100,4,3,1,60,0,0
195612,-100,4,3,1,40,0,0
195777,-100,4,3,1,60,0,0
195800,-100,4,3,1,40,0,0
195964,-100,4,3,1,60,0,0
195987,-100,4,3,1,40,0,0
196152,-100,4,3,1,60,0,0
196714,-100,4,3,1,40,0,0
196902,-100,4,3,1,60,0,0
197089,-100,4,3,1,40,0,0
197277,-100,4,3,1,60,0,0
197464,-100,4,3,1,40,0,0
197652,-100,4,3,1,60,0,0
197839,-100,4,3,1,40,0,0
198027,-100,4,3,1,60,0,0
198214,-100,4,3,1,40,0,0
198402,-100,4,3,1,60,0,0
198589,-100,4,3,1,40,0,0
198777,-100,4,3,1,60,0,0
198964,-100,4,3,1,40,0,0
199152,-100,4,3,1,60,0,0
199339,-100,4,3,1,40,0,0
199714,-100,4,3,1,60,0,0
200089,-100,4,3,1,40,0,0
200277,-100,4,3,1,60,0,0
200464,-100,4,3,1,40,0,0
200652,-100,4,3,1,60,0,0
200839,-100,4,3,1,40,0,0
201027,-100,4,3,1,60,0,0
201214,-100,4,3,1,40,0,0
201402,-100,4,3,1,60,0,0
201425,-100,4,3,1,40,0,0
201589,-100,4,3,1,60,0,0
201612,-100,4,3,1,40,0,0
201777,-100,4,3,1,60,0,0
201800,-100,4,3,1,40,0,0
201964,-100,4,3,1,60,0,0
201987,-100,4,3,1,40,0,0
202152,-100,4,3,1,60,0,0
202527,-33.3333333333333,4,3,1,40,0,0
202714,-100,4,3,1,60,0,0
202902,-62.5,4,3,1,60,0,0
203089,-100,4,3,1,40,0,0
203277,-100,4,3,1,60,0,0
203464,-100,4,3,1,40,0,0
203652,-62.5,4,3,1,60,0,0
203839,-100,4,3,1,40,0,0
204027,-100,4,3,1,60,0,0
204214,-100,4,3,1,40,0,0
204402,-62.5,4,3,1,60,0,0
204589,-100,4,3,1,40,0,0
204777,-100,4,3,1,60,0,0
204964,-100,4,3,1,40,0,0
205152,-100,4,3,1,60,0,0
205339,-100,4,3,1,40,0,0
205714,-100,4,3,1,60,0,0
206089,-100,4,3,1,40,0,0
206277,-100,4,3,1,60,0,0
206464,-100,4,3,1,40,0,0
206652,-100,4,3,1,60,0,0
206839,-100,4,3,1,40,0,0
207027,-100,4,3,1,60,0,0
207214,-100,4,3,1,40,0,0
207402,-100,4,3,1,60,0,0
207425,-100,4,3,1,40,0,0
207589,-100,4,3,1,60,0,0
207612,-100,4,3,1,40,0,0
207777,-100,4,3,1,60,0,0
207800,-100,4,3,1,40,0,0
207964,-100,4,3,1,60,0,0
207987,-100,4,3,1,40,0,0
208152,-100,4,3,1,60,0,0
208714,-100,4,3,1,40,0,0
208902,-100,4,3,1,60,0,0
209089,-100,4,3,1,40,0,0
209277,-100,4,3,1,60,0,0
209464,-100,4,3,1,40,0,0
209652,-100,4,3,1,60,0,0
209839,-100,4,3,1,40,0,0
210027,-100,4,3,1,60,0,0
210214,-100,4,3,1,40,0,0
210402,-100,4,3,1,60,0,0
210589,-100,4,3,1,40,0,0
210777,-100,4,3,1,60,0,0
210964,-100,4,3,1,40,0,0
211152,-100,4,3,1,60,0,0
211339,-100,4,3,1,40,0,0
211714,-100,4,3,1,60,0,0
212089,-100,4,3,1,40,0,0
212277,-100,4,3,1,60,0,0
212464,-100,4,3,1,40,0,0
212652,-100,4,3,1,60,0,0
212839,-100,4,3,1,40,0,0
213027,-33.3333333333333,4,3,1,60,0,0
213214,-100,4,3,1,40,0,0
213402,-66.6666666666667,4,3,1,60,0,0
213448,-66.6666666666667,4,3,1,40,0,0
213589,-100,4,3,1,20,0,0
213870,-100,4,3,1,30,0,0
213987,-100,4,1,0,30,0,0
214058,-100,4,3,1,30,0,0
214152,-25,4,3,1,30,0,0
214198,-25,4,1,0,30,0,0
214339,-50,4,1,0,40,0,0
214433,-50,4,1,0,20,0,0
214527,-100,4,1,0,10,0,0
214902,-100,4,3,1,60,0,0
225777,-100,4,1,0,20,0,0
226152,-100,4,1,0,35,0,0
226527,-100,4,1,0,50,0,0
226902,-100,4,3,1,50,0,0
227089,-100,4,3,0,50,0,0
227464,-100,4,2,0,40,0,0
227652,-100,4,3,0,50,0,0
228214,-100,4,2,0,40,0,0
228402,-100,4,3,0,50,0,0
228964,-100,4,2,0,40,0,0
229152,-100,4,3,0,50,0,0
229714,-100,4,2,0,40,0,0
229902,-100,4,3,0,50,0,0
230464,-100,4,2,0,40,0,0
230652,-100,4,3,0,50,0,0
231214,-100,4,2,0,40,0,0
231402,-100,4,3,0,50,0,0
231964,-100,4,2,0,40,0,0
232152,-100,4,3,0,50,0,0
232714,-100,4,2,0,40,0,0
232902,-100,4,3,0,50,0,0
233464,-100,4,2,0,40,0,0
233652,-100,4,3,0,50,0,0
234214,-100,4,2,0,40,0,0
234402,-100,4,3,0,50,0,0
234964,-100,4,2,0,40,0,0
235152,-100,4,3,0,50,0,0
235714,-100,4,2,0,40,0,0
235902,-100,4,3,0,50,0,0
236464,-100,4,2,0,40,0,0
236652,-100,4,3,0,50,0,0
237214,-100,4,2,0,40,0,0
237402,-100,4,3,0,50,0,0
237964,-100,4,2,0,40,0,0
238152,-100,4,3,0,50,0,0
238714,-100,4,2,0,40,0,0
238902,-28.5714285714286,4,3,0,60,0,0
239089,-28.5714285714286,4,1,0,30,0,0
239277,-28.5714285714286,4,1,0,30,0,0
239464,-28.5714285714286,4,1,0,45,0,0
239652,-28.5714285714286,4,1,0,60,0,0
239839,-28.5714285714286,4,1,0,30,0,0
240027,-28.5714285714286,4,1,0,60,0,0
240214,-28.5714285714286,4,1,0,45,0,0
240402,-28.5714285714286,4,2,0,60,0,0
240589,-28.5714285714286,4,1,0,30,0,0
240777,-28.5714285714286,4,1,0,60,0,0
240964,-28.5714285714286,4,1,0,30,0,0
241152,-28.5714285714286,4,1,0,60,0,0
241339,-28.5714285714286,4,1,0,30,0,0
241527,-28.5714285714286,4,1,0,60,0,0
241714,-28.5714285714286,4,1,0,30,0,0
241902,-28.5714285714286,4,2,0,60,0,0
242089,-28.5714285714286,4,1,0,30,0,0
242277,-28.5714285714286,4,1,0,60,0,0
242464,-28.5714285714286,4,1,0,30,0,0
242652,-28.5714285714286,4,1,0,60,0,0
242839,-28.5714285714286,4,1,0,30,0,0
243027,-28.5714285714286,4,1,0,60,0,0
243214,-28.5714285714286,4,1,0,30,0,0
243402,-28.5714285714286,4,2,0,60,0,0
243589,-28.5714285714286,4,1,0,30,0,0
243777,-28.5714285714286,4,1,0,60,0,0
243964,-28.5714285714286,4,1,0,45,0,0
244152,-28.5714285714286,4,1,0,60,0,0
244339,-28.5714285714286,4,1,0,45,0,0
244527,-28.5714285714286,4,1,0,60,0,0
244714,-28.5714285714286,4,1,0,45,0,0
244902,-28.5714285714286,4,2,0,60,0,0
245089,-28.5714285714286,4,1,0,30,0,0
245277,-28.5714285714286,4,1,0,45,0,0
245464,-28.5714285714286,4,1,0,30,0,0
245652,-28.5714285714286,4,1,0,60,0,0
245839,-28.5714285714286,4,1,0,30,0,0
246027,-28.5714285714286,4,1,0,60,0,0
246214,-28.5714285714286,4,1,0,30,0,0
246402,-28.5714285714286,4,2,0,60,0,0
246589,-28.5714285714286,4,1,0,30,0,0
246777,-28.5714285714286,4,1,0,60,0,0
246964,-28.5714285714286,4,1,0,30,0,0
247152,-66.6666666666667,4,2,0,75,0,0
247339,-66.6666666666667,4,2,0,60,0,0
247527,-66.6666666666667,4,2,0,50,0,0
247714,-66.6666666666667,4,2,0,40,0,0
247902,-28.5714285714286,4,2,0,60,0,0
248089,-28.5714285714286,4,1,0,45,0,0
248277,-28.5714285714286,4,1,0,30,0,0
248464,-28.5714285714286,4,1,0,60,0,0
248652,-28.5714285714286,4,1,0,45,0,0
248839,-28.5714285714286,4,1,0,30,0,0
249027,-28.5714285714286,4,1,0,45,0,0
249214,-28.5714285714286,4,1,0,30,0,0
249402,-28.5714285714286,4,2,0,60,0,0
249589,-28.5714285714286,4,1,0,30,0,0
249777,-28.5714285714286,4,1,0,45,0,0
249964,-28.5714285714286,4,1,0,30,0,0
250152,-28.5714285714286,4,1,0,45,0,0
250339,-28.5714285714286,4,1,0,30,0,0
250527,-28.5714285714286,4,1,0,60,0,0
250714,-28.5714285714286,4,2,0,60,0,0
250902,-28.5714285714286,4,3,0,60,0,0
251089,-28.5714285714286,4,1,0,30,0,0
251277,-28.5714285714286,4,1,0,45,0,0
251464,-28.5714285714286,4,1,0,30,0,0
251652,-28.5714285714286,4,1,0,45,0,0
251839,-28.5714285714286,4,1,0,30,0,0
252027,-28.5714285714286,4,1,0,45,0,0
252214,-28.5714285714286,4,1,0,30,0,0
252402,-28.5714285714286,4,2,0,60,0,0
252589,-28.5714285714286,4,1,0,30,0,0
252777,-28.5714285714286,4,1,0,60,0,0
252964,-28.5714285714286,4,1,0,30,0,0
253152,-28.5714285714286,4,1,0,60,0,0
253339,-28.5714285714286,4,1,0,45,0,0
253527,-28.5714285714286,4,1,0,60,0,0
253714,-28.5714285714286,4,1,0,45,0,0
253902,-28.5714285714286,4,3,0,60,0,0
254089,-28.5714285714286,4,1,0,30,0,0
254277,-28.5714285714286,4,1,0,75,0,0
254464,-28.5714285714286,4,1,0,30,0,0
254652,-28.5714285714286,4,1,0,60,0,0
254839,-28.5714285714286,4,1,0,30,0,0
255027,-28.5714285714286,4,1,0,45,0,0
255214,-28.5714285714286,4,1,0,30,0,0
255402,-66.6666666666667,4,2,0,75,0,0
255589,-66.6666666666667,4,2,0,60,0,0
255777,-66.6666666666667,4,2,0,50,0,0
255964,-66.6666666666667,4,2,0,40,0,0
256152,-28.5714285714286,4,2,0,60,0,0
256339,-28.5714285714286,4,1,0,45,0,0
256527,-28.5714285714286,4,1,0,60,0,0
256714,-28.5714285714286,4,2,0,60,0,0
256902,-28.5714285714286,4,3,0,60,0,0
257089,-28.5714285714286,4,1,0,30,0,0
257277,-28.5714285714286,4,1,0,45,0,0
257464,-28.5714285714286,4,1,0,30,0,0
257652,-28.5714285714286,4,1,0,60,0,0
257839,-28.5714285714286,4,1,0,30,0,0
258027,-28.5714285714286,4,1,0,45,0,0
258214,-28.5714285714286,4,1,0,30,0,0
258402,-28.5714285714286,4,3,0,60,0,0
258589,-28.5714285714286,4,1,0,30,0,0
258777,-28.5714285714286,4,1,0,60,0,0
258964,-28.5714285714286,4,1,0,30,0,0
259152,-28.5714285714286,4,1,0,75,0,0
259339,-28.5714285714286,4,1,0,30,0,0
259527,-28.5714285714286,4,1,0,60,0,0
259714,-28.5714285714286,4,2,0,60,0,0
259902,-28.5714285714286,4,3,0,60,0,0
260089,-28.5714285714286,4,1,0,45,0,0
260277,-28.5714285714286,4,1,0,60,0,0
260464,-28.5714285714286,4,2,0,60,0,0
260652,-28.5714285714286,4,3,0,60,0,0
260839,-28.5714285714286,4,1,0,45,0,0
261027,-28.5714285714286,4,1,0,60,0,0
261214,-28.5714285714286,4,2,0,60,0,0
261402,-100,4,3,0,60,0,0
261589,-100,4,1,0,10,0,0
261777,-100,4,1,0,20,0,0
262152,-100,4,1,0,30,0,0
262527,-100,4,1,0,40,0,0
262902,-100,4,3,1,70,0,0
262925,-100,4,3,1,40,0,0
263089,-100,4,3,1,70,0,0
263112,-100,4,3,1,40,0,0
263277,-100,4,3,1,50,0,0
263300,-100,4,3,1,40,0,0
263464,-100,4,3,1,50,0,0
263487,-100,4,3,1,40,0,0
263652,-100,4,3,1,60,0,0
264027,-33.3333333333333,4,3,1,40,0,0
264214,-100,4,3,1,60,0,0
264402,-33.3333333333333,4,3,1,40,0,0
264589,-100,4,3,1,60,0,0
264777,-100,4,3,1,40,0,0
264964,-100,4,3,1,60,0,0
264987,-100,4,3,1,40,0,0
265152,-100,4,3,1,60,0,0
265339,-100,4,3,1,40,0,0
265527,-100,4,3,1,60,0,0
265550,-100,4,3,1,40,0,0
265714,-100,4,3,1,60,0,0
265737,-100,4,3,1,40,0,0
265902,-100,4,3,1,60,0,0
265925,-100,4,3,1,30,0,0
266652,-100,4,3,1,60,0,0
267027,-33.3333333333333,4,3,1,40,0,0
267214,-100,4,3,1,60,0,0
267402,-100,4,3,1,45,0,0
267566,-100,4,3,1,5,0,0
267589,-28.5714285714286,4,3,1,45,0,0
267753,-100,4,3,1,5,0,0
267777,-100,4,3,1,60,0,0
268527,-33.3333333333333,4,3,1,40,0,0
268714,-100,4,3,1,60,0,0
268737,-100,4,3,1,40,0,0
268902,-100,4,3,1,70,0,0
268925,-100,4,3,1,40,0,0
269089,-100,4,3,1,70,0,0
269112,-100,4,3,1,40,0,0
269277,-100,4,3,1,50,0,0
269300,-100,4,3,1,40,0,0
269464,-100,4,3,1,50,0,0
269487,-100,4,3,1,40,0,0
269652,-100,4,3,1,60,0,0
270027,-100,4,3,1,40,0,0
270214,-100,4,3,1,60,0,0
270402,-100,4,3,1,40,0,0
270589,-100,4,3,1,60,0,0
270777,-33.3333333333333,4,3,1,60,0,0
270964,-100,4,3,1,60,0,0
270987,-100,4,3,1,40,0,0
271152,-100,4,3,1,60,0,0
271316,-100,4,3,1,5,0,0
271339,-33.3333333333333,4,3,1,60,0,0
271503,-100,4,3,1,5,0,0
271527,-33.3333333333333,4,3,1,50,0,0
271714,-100,4,1,0,40,0,0
271902,-100,4,3,1,60,0,0
273027,-66.6666666666667,4,3,1,60,0,0
273777,-100,4,3,1,60,0,0
275277,-100,4,3,1,50,0,0
275300,-100,4,3,1,40,0,0
275464,-100,4,3,1,50,0,0
275487,-100,4,3,1,40,0,0
275652,-100,4,3,1,60,0,0
276027,-33.3333333333333,4,3,1,40,0,0
276214,-100,4,3,1,60,0,0
276402,-33.3333333333333,4,3,1,40,0,0
276589,-100,4,3,1,60,0,0
276777,-100,4,3,1,40,0,0
276964,-100,4,3,1,60,0,0
276987,-100,4,3,1,40,0,0
277152,-100,4,3,1,60,0,0
277339,-100,4,3,1,40,0,0
277527,-100,4,3,1,60,0,0
277550,-100,4,3,1,40,0,0
277714,-100,4,3,1,60,0,0
277737,-100,4,3,1,40,0,0
277902,-33.3333333333333,4,3,1,60,0,0
278089,-33.3333333333333,4,3,1,60,0,0
278277,-100,4,3,1,40,0,0
278464,-100,4,3,1,40,0,0
278652,-100,4,3,1,60,0,0
279402,-66.6666666666667,4,3,1,40,0,0
279589,-100,4,3,1,40,0,0
279777,-100,4,3,1,60,0,0
280362,-100,4,3,1,40,0,0
280714,-100,4,3,1,60,0,0
280925,-100,4,3,1,40,0,0
281089,-100,4,3,1,60,0,0
281277,-62.5,4,3,1,60,0,0
281323,-62.5,4,3,1,40,0,0
281464,-100,4,3,1,20,0,0
281745,-100,4,3,1,30,0,0
281862,-100,4,1,0,30,0,0
281933,-100,4,3,1,30,0,0
282027,-25,4,3,1,30,0,0
282073,-25,4,1,0,30,0,0
282214,-25,4,1,0,40,0,0
282284,-50,4,1,0,40,0,0
282308,-100,4,1,0,20,0,0
282402,-28.5714285714286,4,1,0,10,0,0
282777,-100,4,3,1,60,0,0
282964,-100,4,3,1,60,0,0
283152,-33.3333333333333,4,3,1,60,0,0
283339,-100,4,3,1,60,0,0
283527,-100,4,3,1,50,0,0
283902,-66.6666666666667,4,3,1,60,0,0
284464,-100,4,2,0,40,0,0
285027,-66.6666666666667,4,3,1,60,0,0
285214,-100,4,3,1,5,0,0
285277,-50,4,3,1,60,0,0
285464,-100,4,3,1,5,0,0
285527,-100,4,3,1,60,0,0
285714,-100,4,3,1,5,0,0
285777,-100,4,3,1,60,0,0
286089,-100,4,3,1,5,0,0
286152,-28.5714285714286,4,3,1,70,0,0
286339,-100,4,3,1,5,0,0
286402,-28.5714285714286,4,3,1,70,0,0
286589,-100,4,3,1,5,0,0
286652,-28.5714285714286,4,3,1,70,0,0
286839,-100,4,3,1,5,0,0
286902,-100,4,3,11,65,0,0
292152,-100,4,3,1,65,0,0
292277,-100,4,3,0,65,0,0
292402,-100,4,3,0,40,0,0
292527,-100,4,3,0,65,0,0
292652,-100,4,3,0,40,0,0
292777,-100,4,3,0,65,0,0
292902,-100,4,3,11,65,0,0
298152,-100,4,3,1,65,0,0
298277,-100,4,3,0,65,0,0
298402,-100,4,3,0,40,0,0
298527,-100,4,3,0,65,0,0
298652,-100,4,3,0,40,0,0
298777,-100,4,3,0,65,0,0
298902,-100,4,3,0,70,0,0
304152,-100,4,3,1,70,0,0
304277,-100,4,3,0,70,0,0
304402,-100,4,3,0,45,0,0
304527,-100,4,3,0,70,0,0
304652,-100,4,3,0,45,0,0
304777,-100,4,3,0,70,0,0
310152,-100,4,3,1,70,0,0
310277,-100,4,3,0,70,0,0
310402,-100,4,3,0,45,0,0
310527,-100,4,3,0,70,0,0
310652,-100,4,3,0,45,0,0
310777,-100,4,3,0,70,0,0
316152,-100,4,3,1,70,0,0
316277,-100,4,3,0,70,0,0
316402,-100,4,3,0,45,0,0
316527,-100,4,3,0,70,0,0
316652,-100,4,3,0,45,0,0
316777,-100,4,3,0,70,0,0
319152,-100,4,3,1,70,0,0
319277,-100,4,3,0,70,0,0
319402,-100,4,3,0,45,0,0
319527,-100,4,3,0,70,0,0
319652,-100,4,3,0,45,0,0
319777,-100,4,3,0,70,0,0
319902,-66.6666666666667,4,3,1,60,0,0
320089,-66.6666666666667,4,3,1,30,0,0
320277,-66.6666666666667,4,3,1,60,0,0
320464,-100,4,3,1,60,0,0
321027,-66.6666666666667,4,3,1,60,0,0
321214,-100,4,3,1,5,0,0
321277,-50,4,3,1,60,0,0
321464,-100,4,3,1,5,0,0
321527,-100,4,3,1,60,0,0
321714,-100,4,3,1,5,0,0
321777,-100,4,3,1,60,0,0
322089,-100,4,3,1,5,0,0
322152,-28.5714285714286,4,3,1,60,0,0
322902,-100,4,2,2,20,0,0
334902,-100,4,2,1,40,0,0
335089,-100,4,3,0,35,0,0
335652,-100,4,2,1,40,0,0
335839,-100,4,3,0,35,0,0
336402,-100,4,2,1,40,0,0
336589,-100,4,3,0,35,0,0
337152,-100,4,2,1,40,0,0
337339,-100,4,3,0,35,0,0
337902,-100,4,2,1,40,0,0
338089,-100,4,3,0,35,0,0
338652,-100,4,2,1,40,0,0
338839,-100,4,3,0,35,0,0
339402,-100,4,2,1,40,0,0
339589,-100,4,3,0,35,0,0
340152,-100,4,2,1,40,0,0
340339,-100,4,3,0,35,0,0
340902,-100,4,2,1,40,0,0
341089,-100,4,3,0,35,0,0
341652,-100,4,2,1,40,0,0
341839,-100,4,3,0,35,0,0
342402,-100,4,2,1,40,0,0
342589,-100,4,3,0,35,0,0
343152,-100,4,2,1,40,0,0
343339,-100,4,3,0,35,0,0
343902,-100,4,2,1,40,0,0
345777,-100,4,2,1,50,0,0
345964,-100,4,2,1,55,0,0
346152,-100,4,2,1,60,0,0
346339,-100,4,2,1,65,0,0
346527,-100,4,2,1,70,0,0
346902,-66.6666666666667,4,3,1,75,0,1
347277,-66.6666666666667,4,3,0,75,0,1
347652,-66.6666666666667,4,3,2,75,0,1
348027,-66.6666666666667,4,3,0,75,0,1
348402,-66.6666666666667,4,3,1,75,0,1
348777,-66.6666666666667,4,3,0,75,0,1
349152,-66.6666666666667,4,3,2,75,0,1
349527,-66.6666666666667,4,3,0,75,0,1
349902,-66.6666666666667,4,3,1,75,0,1
350277,-66.6666666666667,4,3,0,75,0,1
350652,-25,4,3,2,75,0,1
351027,-28.5714285714286,4,3,0,75,0,1
351402,-66.6666666666667,4,3,1,75,0,1
351777,-28.5714285714286,4,3,0,75,0,1
352152,-66.6666666666667,4,3,2,75,0,1
352527,-28.5714285714286,4,3,0,75,0,1
352902,-66.6666666666667,4,3,1,75,0,1
353277,-66.6666666666667,4,3,0,75,0,1
353652,-66.6666666666667,4,3,2,75,0,1
354027,-66.6666666666667,4,3,0,75,0,1
354402,-66.6666666666667,4,3,1,75,0,1
354777,-66.6666666666667,4,3,0,75,0,1
355152,-66.6666666666667,4,3,2,75,0,1
355527,-66.6666666666667,4,3,0,75,0,1
355902,-66.6666666666667,4,3,1,75,0,1
356277,-66.6666666666667,4,3,0,75,0,1
356652,-66.6666666666667,4,3,2,75,0,1
357027,-66.6666666666667,4,3,0,75,0,1
357214,-66.6666666666667,4,3,2,75,0,1
357777,-66.6666666666667,4,3,1,75,0,1
358152,-66.6666666666667,4,3,2,75,0,1
358339,-66.6666666666667,4,3,1,75,0,1
358902,-66.6666666666667,4,3,1,75,0,1
359277,-66.6666666666667,4,3,0,75,0,1
359652,-66.6666666666667,4,3,2,75,0,1
360027,-66.6666666666667,4,3,0,75,0,1
360402,-66.6666666666667,4,3,1,75,0,1
360777,-66.6666666666667,4,3,0,75,0,1
361152,-66.6666666666667,4,3,2,75,0,1
361527,-66.6666666666667,4,3,0,75,0,1
361902,-66.6666666666667,4,3,1,75,0,1
362277,-66.6666666666667,4,3,0,75,0,1
362652,-66.6666666666667,4,3,2,75,0,1
363027,-66.6666666666667,4,3,0,75,0,1
363214,-66.6666666666667,4,3,2,75,0,1
363777,-28.5714285714286,4,3,1,75,0,1
364152,-66.6666666666667,4,3,2,75,0,1
364339,-66.6666666666667,4,3,1,75,0,1
364902,-66.6666666666667,4,3,1,75,0,1
365277,-66.6666666666667,4,3,0,75,0,1
365652,-66.6666666666667,4,3,2,75,0,1
366027,-66.6666666666667,4,3,0,75,0,1
366402,-66.6666666666667,4,3,1,75,0,1
366777,-66.6666666666667,4,3,0,75,0,1
367152,-66.6666666666667,4,3,2,75,0,1
367527,-66.6666666666667,4,3,0,75,0,1
367902,-66.6666666666667,4,3,1,75,0,1
368277,-66.6666666666667,4,3,0,75,0,1
368652,-66.6666666666667,4,3,2,75,0,1
369027,-66.6666666666667,4,3,0,75,0,1
369214,-66.6666666666667,4,3,2,75,0,1
369777,-66.6666666666667,4,3,1,75,0,1
370152,-66.6666666666667,4,3,2,75,0,1
370339,-66.6666666666667,4,3,1,75,0,1
370902,-66.6666666666667,4,3,1,75,0,1
371277,-66.6666666666667,4,3,0,75,0,1
371652,-66.6666666666667,4,3,2,75,0,1
372027,-66.6666666666667,4,3,0,75,0,1
372402,-66.6666666666667,4,3,1,75,0,1
372777,-66.6666666666667,4,3,0,75,0,1
373152,-66.6666666666667,4,3,2,75,0,1
373527,-66.6666666666667,4,3,0,75,0,1
373902,-66.6666666666667,4,3,1,75,0,1
374277,-66.6666666666667,4,3,0,75,0,1
374652,-25,4,3,2,75,0,1
375027,-28.5714285714286,4,3,0,75,0,1
375402,-66.6666666666667,4,3,1,75,0,1
375777,-28.5714285714286,4,3,0,75,0,1
376152,-66.6666666666667,4,3,2,75,0,1
376527,-28.5714285714286,4,3,0,75,0,1
376902,-66.6666666666667,4,3,1,75,0,1
377277,-66.6666666666667,4,3,0,75,0,1
377652,-66.6666666666667,4,3,2,75,0,1
378027,-66.6666666666667,4,3,0,75,0,1
378402,-66.6666666666667,4,3,1,75,0,1
378777,-66.6666666666667,4,3,0,75,0,1
379152,-66.6666666666667,4,3,2,75,0,1
379527,-66.6666666666667,4,3,0,75,0,1
379902,-66.6666666666667,4,3,1,75,0,1
380277,-66.6666666666667,4,3,0,75,0,1
380652,-66.6666666666667,4,3,2,75,0,1
381027,-66.6666666666667,4,3,0,75,0,1
381214,-66.6666666666667,4,3,2,75,0,1
381777,-66.6666666666667,4,3,1,75,0,1
382152,-66.6666666666667,4,3,2,75,0,1
382339,-66.6666666666667,4,3,1,75,0,1
382902,-66.6666666666667,4,3,1,75,0,1
383277,-66.6666666666667,4,3,0,75,0,1
383652,-66.6666666666667,4,3,2,75,0,1
384027,-66.6666666666667,4,3,0,75,0,1
384402,-66.6666666666667,4,3,1,75,0,1
384777,-66.6666666666667,4,3,0,75,0,1
385152,-66.6666666666667,4,3,2,75,0,1
385527,-66.6666666666667,4,3,0,75,0,1
385902,-66.6666666666667,4,3,1,75,0,1
386277,-66.6666666666667,4,3,0,75,0,1
386652,-66.6666666666667,4,3,2,75,0,1
387027,-66.6666666666667,4,3,0,75,0,1
387214,-66.6666666666667,4,3,2,75,0,1
387777,-28.5714285714286,4,3,1,75,0,1
388152,-66.6666666666667,4,3,2,75,0,1
388339,-66.6666666666667,4,3,1,75,0,1
388902,-66.6666666666667,4,3,1,75,0,1
389277,-66.6666666666667,4,3,0,75,0,1
389652,-66.6666666666667,4,3,2,75,0,1
390027,-66.6666666666667,4,3,0,75,0,1
390402,-66.6666666666667,4,3,1,75,0,1
390777,-66.6666666666667,4,3,0,75,0,1
391152,-66.6666666666667,4,3,2,75,0,1
391527,-66.6666666666667,4,3,0,75,0,1
391902,-66.6666666666667,4,3,1,75,0,1
392277,-66.6666666666667,4,3,0,75,0,1
392652,-66.6666666666667,4,3,2,75,0,1
393027,-66.6666666666667,4,3,0,75,0,1
393214,-66.6666666666667,4,3,2,75,0,1
393777,-66.6666666666667,4,3,1,75,0,1
394152,-66.6666666666667,4,3,2,75,0,1
394339,-66.6666666666667,4,3,1,75,0,1
394714,-100,4,3,2,75,0,0
397916,378.548895899054,4,2,1,15,1,0
397916,-200,4,2,1,15,0,0
399051,-200,4,3,0,10,0,0
399430,369.23076923077,4,2,1,15,1,0
399430,-200,4,2,1,15,0,0
400906,375.000000000001,4,2,1,15,1,0
400906,-200,4,2,1,15,0,0
402406,370.370370370371,4,2,1,15,1,0
402406,-200,4,2,1,15,0,0
402776,-200,4,3,0,10,0,0
403146,-200,4,2,1,15,0,0
403517,-200,4,3,0,10,0,0
403887,379.746835443039,4,2,1,15,1,0
403887,-200,4,2,1,15,0,0
405026,-200,4,3,0,10,0,0
405405,377.358490566038,4,2,1,15,1,0
405405,-200,4,2,1,15,0,0
406914,372.670807453416,4,2,1,15,1,0
406914,-200,4,2,1,15,0,0
408404,377.358490566038,4,2,1,15,1,0
408404,-200,4,2,1,15,0,0
409158,-100,4,2,1,15,0,0
409536,-200,4,3,0,15,0,0
409913,375,4,2,1,20,1,0
409913,-200,4,2,1,20,0,0
410663,-133.333333333333,4,2,1,20,0,0
411038,-133.333333333333,4,2,0,30,0,0
411225,-133.333333333333,4,2,1,20,0,0
411413,372.670807453416,4,2,1,20,1,0
411413,-200,4,2,1,20,0,0
412158,-100,4,2,1,20,0,0
412531,-200,4,3,0,15,0,0
412903,352.941176470588,4,2,1,20,1,0
412903,-133.333333333333,4,2,1,20,0,0
413608,402.684563758389,4,2,1,20,1,0
413608,-200,4,2,1,20,0,0
414010,-200,4,2,0,30,0,0
414212,-200,4,2,1,20,0,0
414412,370.37037037037,4,2,1,20,1,0
414412,-200,4,2,1,20,0,0
415893,377.358490566038,4,2,1,20,1,0
415893,-200,4,2,1,20,0,0
417402,379.746835443038,4,2,1,20,1,0
417402,-133.333333333333,4,2,1,20,0,0
418161,-200,4,2,1,20,0,0
418541,-200,4,3,0,15,0,0
418731,-200,4,2,1,20,0,0
418920,375,4,2,1,20,1,0
418920,-200,4,2,1,20,0,0
419482,-200,4,3,0,15,0,0
419670,-133.333333333333,4,2,1,20,0,0
420045,-200,4,2,0,30,0,0
420232,-133.333333333333,4,2,1,20,0,0
420420,372.670807453416,4,2,1,20,1,0
420420,-200,4,2,1,20,0,0
421165,-100,4,2,1,20,0,0
421538,-200,4,3,0,15,0,0
421910,375,4,2,1,20,1,0
421910,-80,4,2,1,20,0,0
422660,-100,4,2,1,20,0,0
423035,-200,4,3,0,15,0,0
423410,372.670807453416,4,2,1,20,1,0
423410,-133.333333333333,4,2,1,20,0,0
424155,-200,4,2,1,20,0,0
424714,-200,4,3,0,15,0,0
424900,377.358490566038,4,2,1,20,1,0
424900,-133.333333333333,4,2,1,20,0,0
425654,-200,4,2,1,20,0,0
426032,-200,4,3,0,15,0,0
426409,375,4,2,1,20,1,0
426409,-200,4,2,1,20,0,0
427534,-200,4,3,0,15,0,0
427909,377.358490566038,4,2,1,20,1,0
427909,-200,4,2,1,20,0,0
429418,372.670807453416,4,2,1,20,1,0
429418,-133.333333333333,4,2,1,20,0,0
430163,-200,4,2,1,20,0,0
430536,-200,4,3,0,15,0,0
430722,-200,4,2,1,20,0,0
430908,377.358490566038,4,2,1,20,1,0
430908,-200,4,2,1,20,0,0
431285,-175.438596491228,4,2,1,20,0,0
431474,-175.438596491228,4,3,0,15,0,0
431662,-200,4,2,1,20,0,0
432417,363.636363636364,4,2,1,15,1,0
432417,-200,4,2,1,15,0,0
433871,375,4,2,1,15,1,0
433871,-200,4,2,1,15,0,0
435371,377.358490566038,4,2,1,15,1,0
435371,-200,4,2,1,15,0,0
436880,363.636363636364,4,2,1,15,1,0
436880,-200,4,2,1,15,0,0
437607,382.165605095541,4,2,1,15,1,0
437607,-200,4,2,1,15,0,0
438370,377.358490566038,4,2,1,15,1,0
438370,-200,4,2,1,15,0,0
438747,-200,4,3,0,10,0,0
439124,-200,4,2,1,15,0,0
439502,-200,4,3,0,10,0,0
439879,387.096774193549,4,2,1,15,1,0
439879,-200,4,2,1,15,0,0
441427,375.000000000001,4,2,1,15,1,0
441427,-175.438596491228,4,2,1,15,0,0
441802,-200,4,2,1,15,0,0
442927,370.370370370371,4,2,1,15,1,0
442927,-200,4,2,1,15,0,0
443297,-175.438596491228,4,2,1,15,0,0
443667,-200,4,2,1,15,0,0
444408,371.517027863778,4,2,1,15,1,0
444408,-200,4,2,1,15,0,0
444779,-200,4,2,2,15,0,0
445895,377.358490566038,4,2,2,15,1,0
446272,-100,4,2,2,10,0,0
446649,370.37037037037,4,2,2,15,1,0
447019,385.852090032154,4,2,2,10,1,0
447404,375,4,2,2,15,1,0
447779,-100,4,2,2,10,0,0
448154,-100,4,2,2,15,0,0
448529,-100,4,2,2,10,0,0
448716,-100,4,2,2,15,0,0
448904,365.853658536585,4,2,2,15,1,0
449269,380.952380952381,4,2,2,10,1,0
449649,372.670807453416,4,2,2,15,1,0
450021,-100,4,2,2,10,0,0
450394,361.44578313253,4,2,2,15,1,0
450755,389.61038961039,4,2,2,10,1,0
451144,375,4,2,2,15,1,0
451519,-100,4,2,2,10,0,0
451894,377.358490566038,4,2,2,15,1,0
452271,-100,4,2,2,10,0,0
452648,-100,4,2,2,15,0,0
453026,-100,4,2,2,10,0,0
453403,356.083086053412,4,2,2,15,1,0
453759,439.56043956044,4,2,2,10,1,0
454198,344.135359908231,4,2,2,15,1,0
454542,379.746835443038,4,2,2,10,1,0
454921,394.736842105263,4,2,2,15,1,0
455315,320.427236315087,4,2,2,10,1,0
455635,393.44262295082,4,2,2,15,1,0
456421,342.857142857143,4,2,2,10,1,0
456763,337.078651685393,4,2,2,10,1,0
457100,410.958904109589,4,2,2,15,1,0
457510,363.636363636364,4,2,2,10,1,0
457873,375,4,2,2,15,1,0
458248,-100,4,2,2,10,0,0
458623,365.853658536585,4,2,2,15,1,0
458988,389.61038961039,4,2,2,10,1,0
459377,372.670807453416,4,2,2,15,1,0
459749,-100,4,2,2,10,0,0
460122,376.175548589342,4,2,2,15,1,0
460498,365.853658536585,4,2,2,10,1,0
460680,-100,4,2,2,15,0,0
460863,375,4,2,2,15,1,0
461238,-100,4,2,2,10,0,0
461613,379.746835443038,4,2,2,15,1,0
461992,-100,4,2,2,10,0,0
462372,361.44578313253,4,2,2,15,1,0
462733,379.746835443038,4,2,2,10,1,0
463112,389.61038961039,4,2,2,15,1,0
463501,382.165605095541,4,2,2,10,1,0
463883,384.615384615385,4,2,2,15,1,0
464267,-100,4,2,2,10,0,0
464652,370.37037037037,4,2,2,15,1,0
465022,379.746835443038,4,2,2,10,1,0
465401,361.44578313253,4,2,2,15,1,0
465762,389.61038961039,4,2,2,10,1,0
466151,384.615384615385,4,2,2,15,1,0
466535,375,4,2,2,20,1,0
466910,387.096774193548,4,2,2,15,1,0
467297,337.078651685393,4,2,2,10,1,0
467634,384.615384615385,4,2,2,15,1,0
468018,-100,4,2,2,10,0,0
468403,370.37037037037,4,2,2,15,1,0
468773,406.779661016949,4,2,2,10,1,0
469179,394.736842105263,4,2,2,15,1,0
469573,433.212996389892,4,2,2,20,1,0
470006,410.958904109589,4,2,2,15,1,0
470416,441.176470588235,4,2,2,10,1,0
470857,410.958904109589,4,2,2,15,1,0
471267,459.770114942529,4,2,2,20,1,0
471726,583.941605839416,4,2,2,15,1,0
472309,618.556701030929,4,2,2,10,1,0
472927,1090.90909090909,4,2,2,15,1,0
473472,-100,4,2,2,10,0,0
474017,-100,4,2,2,15,0,0
477290,1000,4,2,0,15,1,0
478790,-100,4,2,0,30,0,0
481290,-100,4,2,0,15,0,0
483040,-100,4,2,0,30,0,0
483790,-100,4,2,0,45,0,0
484290,-100,4,2,0,60,0,0
484790,461.538461538462,4,2,0,50,1,0
484847,-100,4,2,0,75,0,0
484876,-100,4,2,0,50,0,0
485251,428.571428571429,4,2,1,15,1,0
485679,1518.98734177215,4,2,2,15,1,0

[Colours]
Combo1 : 255,0,0
Combo2 : 192,192,192
Combo3 : 255,128,128
Combo4 : 128,128,128

[HitObjects]
96,192,12005,5,2,0:0:0:0:
416,192,13495,1,0,0:0:0:0:
96,192,14986,5,2,0:0:0:0:
416,192,16486,1,2,0:0:0:0:
176,192,17236,1,2,0:0:0:0:
336,192,17611,1,0,0:0:0:0:
96,192,17986,5,2,0:0:0:0:
416,192,19495,1,0,0:0:0:0:
176,192,20250,1,2,0:0:0:0:
448,192,20983,6,0,L|448:160,1,32,0|2,0:0|0:0,0:0:0:0:
256,192,21243,12,0,23759,0:0:0:0:
160,192,24001,5,12,0:0:0:0:
160,192,24062,2,0,L|352:192,1,191.999994140625,2|0,0:0|0:0,0:0:0:0:
96,192,24741,2,0,P|64:112|96:16,1,192,2|0,0:0|0:0,0:0:0:0:
416,320,25482,1,8,0:0:0:0:
416,320,25545,2,0,P|416:208|272:80,1,307.199990625,2|0,0:0|0:0,0:0:0:0:
160,192,26241,2,0,L|352:192,1,192,2|8,0:0|0:0,0:0:0:0:
96,336,27000,5,8,0:0:0:0:
96,336,27062,2,0,P|48:144|224:48,1,422.399987109375,2|0,0:0|0:0,0:0:0:0:
304,48,27807,2,0,B|480:48|352:112|480:176|304:176|304:176|256:176|256:176|304:176|304:176|480:176|352:240|480:304|256:304|256:304|32:304|32:208|32:160,1,992,2|2,0:0|0:0,0:0:0:0:
224,64,29990,5,8,0:0:0:0:
224,64,30052,2,0,P|288:96|304:208,1,191.999994140625,2|0,0:0|0:0,0:0:0:0:
176,256,30556,1,0,0:0:0:0:
304,304,30744,2,0,L|112:304,1,192,2|0,0:0|0:0,0:0:0:0:
432,256,31499,1,8,0:0:0:0:
432,256,31561,2,0,B|336:256|336:256|432:240|432:240|480:240|464:96,1,352,2|2,0:0|0:0,0:0:0:0:
256,112,32617,1,8,0:0:0:0:
48,64,32989,5,8,0:0:0:0:
48,64,33051,2,0,L|240:64,1,191.999994140625,2|0,0:0|0:0,0:0:0:0:
480,64,33739,2,0,B|492:312|256:304|256:304|488:312|480:64,1,768,2|0,0:0|0:0,0:0:0:0:
384,32,35621,1,2,0:0:0:0:
128,32,35998,5,8,0:0:0:0:
128,32,36060,2,0,P|32:112|208:352,1,499.199984765625,2|0,0:0|0:0,0:0:0:0:
272,240,36998,2,0,B|272:48|112:48|112:48|272:48|272:240|272:240|272:352|176:352,1,741.887977359376,2|0,0:0|0:0,0:0:0:0:
304,192,38616,2,0,L|208:192,1,96,10|0,0:0|0:0,0:0:0:0:
368,0,38988,6,0,B|528:48|512:352|256:352|256:352|16:352|16:352|16:240|80:176,1,960,10|0,0:0|0:0,0:0:0:0:
192,272,41054,2,0,P|304:144|160:48,1,384,2|2,0:0|0:0,0:0:0:0:
352,192,41997,5,8,0:0:0:0:
352,192,42059,2,0,L|160:192,1,191.999994140625,2|0,0:0|0:0,0:0:0:0:
416,192,42747,2,0,P|448:112|416:16,1,192,2|0,0:0|0:0,0:0:0:0:
96,64,43497,1,8,0:0:0:0:
96,64,43559,2,0,P|96:176|240:304,1,307.199990625,2|0,0:0|0:0,0:0:0:0:
352,192,44251,2,0,L|160:192,1,192,2|8,0:0|0:0,0:0:0:0:
416,48,45006,5,8,0:0:0:0:
416,48,45068,2,0,P|480:208|304:336,1,422.399987109375,2|0,0:0|0:0,0:0:0:0:
208,336,45818,1,2,0:0:0:0:
256,192,46131,12,4,47996,0:0:0:0:
224,288,53456,6,0,B|320:288|320:288|400:288|400:208,1,216.000008239746,8|0,0:0|0:0,0:0:0:0:
400,192,54206,2,0,B|400:0|240:0|240:48|240:48|256:336|256:336|256:384|96:384|96:288,1,792.000030212404,2|0,0:0|0:0,0:0:0:0:
96,256,56456,6,0,L|320:256,1,216.000008239746,2|2,0:0|0:0,0:0:0:0:
96,192,57183,2,0,B|96:112|96:112|96:64|144:64|144:64|208:64,1,216.000008239746,8|0,0:0|0:0,0:0:0:0:
203,64,57910,2,0,B|283:208|203:336|203:336|131:344|131:344|203:352,1,432.000016479493,2|0,0:0|0:0,0:0:0:0:
416,128,59410,6,0,L|160:128,1,255.359989479493,2|2,0:0|0:0,0:0:0:0:
336,192,60107,2,0,L|80:192,1,255.359989479493,2|2,0:0|0:0,0:0:0:0:
416,336,60978,2,0,P|456:200|336:32,1,360.000013732911,2|2,0:0|0:0,0:0:0:0:
160,16,62358,2,0,L|304:16,1,144.000005493164,2|0,0:0|0:0,0:0:0:0:
64,192,63018,6,0,L|208:192,2,144.000005493164,8|0|0,0:0|0:0|0:0,0:0:0:0:
352,192,64164,1,2,0:0:0:0:
160,96,64546,2,0,L|304:96,1,144.000005493164,8|0,0:0|0:0,0:0:0:0:
96,96,65362,2,0,P|72:128|96:224,1,144.000005493164,2|0,0:0|0:0,0:0:0:0:
304,192,66136,6,0,L|288:112,1,72.0000027465821,8|0,0:0|0:0,0:0:0:0:
160,128,66600,1,0,0:0:0:0:
304,320,66794,2,0,B|368:320|368:320|464:320|464:224|464:224|464:80,1,360.000013732911,2|0,0:0|0:0,0:0:0:0:
464,48,67958,2,0,L|320:48,1,144.000005493164,2|0,0:0|0:0,0:0:0:0:
48,48,68676,1,2,0:0:0:0:
320,48,69035,6,0,L|80:48,1,240,8|2,0:0|0:0,0:0:0:0:
368,192,69809,2,0,L|176:192,1,192,2|2,0:0|0:0,0:0:0:0:
416,288,70583,2,0,P|444:224|416:160,1,144.000005493164,8|0,0:0|0:0,0:0:0:0:
224,160,71323,2,0,L|368:160,1,144.000005493164,2|0,0:0|0:0,0:0:0:0:
96,96,72064,6,0,P|68:160|96:224,1,144.000005493164,8|0,0:0|0:0,0:0:0:0:
288,224,72828,2,0,L|144:224,1,144.000005493164,2|0,0:0|0:0,0:0:0:0:
336,224,73592,2,0,L|232:120,1,144.000005493164,8|0,0:0|0:0,0:0:0:0:
416,224,74332,2,0,P|445:159|417:95,1,144.000005493164,2|0,0:0|0:0,0:0:0:0:
112,192,75073,6,0,L|256:192,2,144.000005493164,8|0|0,0:0|0:0|0:0,0:0:0:0:
400,192,76163,1,2,0:0:0:0:
208,96,76527,2,0,L|352:96,1,144.000005493164,8|0,0:0|0:0,0:0:0:0:
144,96,77422,2,0,P|120:128|144:224,1,144.000005493164,2|0,0:0|0:0,0:0:0:0:
368,96,78222,6,0,P|392:128|368:224,1,144.000005493164,8|0,0:0|0:0,0:0:0:0:
240,240,78835,1,0,0:0:0:0:
416,352,79057,2,0,B|176:352|208:192|176:32|416:32|416:32|464:52|464:80|464:80|416:100|416:128|416:128|464:148|464:176|464:176|416:196|416:224|416:224|464:244|464:272|464:272|416:292|416:320|416:320|464:340|464:368|464:368|416:348|416:320,1,1152.00004394531,2|0,0:0|0:0,0:0:0:0:
96,256,82910,6,0,L|80:160,1,96,2|0,0:0|0:0,0:0:0:0:
208,160,83660,2,0,L|112:160,1,96,2|0,0:0|0:0,0:0:0:0:
304,160,84410,2,0,L|400:160,2,96,2|0|0,0:0|0:0|0:0,0:0:0:0:
176,160,85528,1,2,0:0:0:0:
464,208,85900,5,2,0:0:0:0:
272,192,86252,1,2,0:0:0:0:
432,176,86605,2,0,L|448:80,1,96,2|0,0:0|0:0,0:0:0:0:
288,192,87409,2,0,L|304:96,1,96,0|0,0:0|0:0,0:0:0:0:
144,208,88149,2,0,L|128:112,1,96,0|0,0:0|0:0,0:0:0:0:
416,256,88890,6,0,L|432:160,1,96,2|0,0:0|0:0,0:0:0:0:
304,160,89644,2,0,L|400:160,1,96,2|0,0:0|0:0,0:0:0:0:
208,160,90399,2,0,L|112:160,1,96,2|0,0:0|0:0,0:0:0:0:
272,192,91158,2,0,L|272:200,1,8,0|2,0:0|0:0,0:0:0:0:
80,192,91514,1,2,0:0:0:0:
320,192,91823,1,0,0:0:0:0:
320,160,91917,5,2,0:0:0:0:
160,160,92283,2,0,L|256:160,1,96,2|2,0:0|0:0,0:0:0:0:
96,208,93017,1,0,0:0:0:0:
256,192,93384,1,2,0:0:0:0:
96,224,93767,1,2,0:0:0:0:
304,160,94119,1,2,0:0:0:0:
144,192,94517,1,2,0:0:0:0:
416,256,94916,6,0,L|432:160,1,96,2|0,0:0|0:0,0:0:0:0:
304,160,95661,2,0,L|400:160,1,96,2|0,0:0|0:0,0:0:0:0:
208,160,96406,2,0,L|112:160,2,96,2|0|0,0:0|0:0|0:0,0:0:0:0:
336,160,97531,1,2,0:0:0:0:
48,208,97906,5,2,0:0:0:0:
240,192,98258,1,2,0:0:0:0:
80,176,98611,2,0,L|64:80,1,96,2|0,0:0|0:0,0:0:0:0:
224,192,99415,2,0,L|208:96,1,96,0|0,0:0|0:0,0:0:0:0:
368,208,100151,2,0,L|384:112,1,96,0|0,0:0|0:0,0:0:0:0:
96,256,100887,6,0,L|80:160,1,96,2|0,0:0|0:0,0:0:0:0:
208,160,101646,2,0,L|112:160,1,96,2|0,0:0|0:0,0:0:0:0:
304,160,102405,2,0,L|400:160,1,96,2|0,0:0|0:0,0:0:0:0:
240,192,103159,2,0,L|240:200,1,8,0|2,0:0|0:0,0:0:0:0:
64,192,103537,1,2,0:0:0:0:
272,192,103820,1,0,0:0:0:0:
272,160,103914,5,2,0:0:0:0:
416,160,104286,2,0,L|320:160,1,95.7599988310547,2|2,0:0|0:0,0:0:0:0:
448,208,104985,1,0,0:0:0:0:
288,192,105404,1,2,0:0:0:0:
448,224,105779,2,0,L|448:216,1,6,2|0,0:0|0:0,0:0:0:0:
240,192,106130,2,0,L|240:184,1,6,0|2,0:0|0:0,0:0:0:0:
480,160,106529,1,2,0:0:0:0:
176,160,106904,5,2,0:0:0:0:
32,192,107257,2,0,L|32:200,1,6,2|0,0:0|0:0,0:0:0:0:
176,224,107658,1,2,0:0:0:0:
336,224,108012,1,2,0:0:0:0:
48,192,108413,2,0,L|144:192,2,96,2|0|0,0:0|0:0|0:0,0:0:0:0:
256,192,109531,2,0,L|208:192,1,48,2|0,0:0|0:0,0:0:0:0:
352,112,109903,6,0,L|256:112,1,96,2|2,0:0|0:0,0:0:0:0:
448,192,110606,1,2,0:0:0:0:
448,192,110653,2,0,L|348:192,1,96,0|2,0:0|0:0,0:0:0:0:
160,192,111403,2,0,L|144:96,1,96,2|0,0:0|0:0,0:0:0:0:
352,192,112148,2,0,L|368:96,1,96,2|0,0:0|0:0,0:0:0:0:
80,192,112893,6,0,L|176:192,2,96,2|0|2,0:0|0:0|0:0,0:0:0:0:
256,192,114039,1,2,0:0:0:0:
432,192,114421,2,0,L|336:192,1,95.7599988310547,2|0,0:0|0:0,0:0:0:0:
336,176,114798,1,2,0:0:0:0:
480,192,115175,2,0,L|480:180,1,12,2|0,0:0|0:0,0:0:0:0:
336,192,115529,2,0,L|336:180,1,12,2|0,0:0|0:0,0:0:0:0:
128,192,115836,1,0,0:0:0:0:
128,192,115930,5,2,0:0:0:0:
288,192,116302,2,0,L|192:192,1,95.7599988310547,2|2,0:0|0:0,0:0:0:0:
320,192,117024,1,0,0:0:0:0:
128,192,117420,2,0,L|32:192,1,95.7599988310547,2|2,0:0|0:0,0:0:0:0:
192,96,118105,1,2,0:0:0:0:
64,96,118494,1,2,0:0:0:0:
336,160,118883,5,2,0:0:0:0:
480,192,119234,2,0,L|480:200,1,6,2|0,0:0|0:0,0:0:0:0:
336,224,119633,1,2,0:0:0:0:
176,224,119984,1,2,0:0:0:0:
464,192,120383,2,0,L|368:192,2,96,2|0|0,0:0|0:0|0:0,0:0:0:0:
256,192,121501,2,0,L|304:192,1,48,2|0,0:0|0:0,0:0:0:0:
160,112,121873,6,0,L|256:112,1,96,2|2,0:0|0:0,0:0:0:0:
64,192,122576,1,2,0:0:0:0:
64,192,122623,2,0,L|164:192,1,96,0|2,0:0|0:0,0:0:0:0:
352,192,123373,2,0,L|368:96,1,96,2|0,0:0|0:0,0:0:0:0:
160,192,124127,2,0,L|144:96,1,96,2|0,0:0|0:0,0:0:0:0:
432,192,124882,6,0,L|336:192,2,96,2|0|2,0:0|0:0|0:0,0:0:0:0:
256,192,126035,1,2,0:0:0:0:
80,192,126419,2,0,L|176:192,1,95.7599988310547,2|0,0:0|0:0,0:0:0:0:
176,176,126795,1,0,0:0:0:0:
32,192,127172,2,0,L|32:180,1,12,2|0,0:0|0:0,0:0:0:0:
256,192,127525,2,0,L|256:180,1,12,2|0,0:0|0:0,0:0:0:0:
480,192,127831,1,0,0:0:0:0:
480,192,127926,5,2,0:0:0:0:
256,192,128112,12,0,130520,0:0:0:0:
464,192,130902,6,0,B|176:192|176:192|96:192|96:96,1,432.000016479493,12|0,0:0|0:0,0:0:0:0:
176,192,131277,2,0,L|192:96,1,96,0|0,0:0|0:0,0:0:0:0:
320,192,131652,2,0,L|304:96,1,96,0|0,0:0|0:0,0:0:0:0:
432,192,132027,2,0,L|448:96,1,96,0|0,0:0|0:0,0:0:0:0:
320,192,132402,6,0,L|416:192,1,96,0|0,0:0|0:0,0:0:0:0:
288,192,132777,2,0,L|304:96,1,96,0|0,0:0|0:0,0:0:0:0:
176,192,133152,2,0,L|160:96,1,96,0|0,0:0|0:0,0:0:0:0:
32,192,133527,2,0,L|48:96,1,96,0|0,0:0|0:0,0:0:0:0:
304,96,133902,6,0,L|400:96,1,96,8|0,0:0|0:0,0:0:0:0:
272,96,134277,2,0,L|256:192,1,96,0|0,0:0|0:0,0:0:0:0:
384,288,134652,2,0,L|288:288,1,96,0|0,0:0|0:0,0:0:0:0:
416,288,135027,2,0,L|432:192,1,96,0|0,0:0|0:0,0:0:0:0:
304,96,135402,6,0,L|208:96,1,96,0|0,0:0|0:0,0:0:0:0:
336,96,135777,2,0,L|352:192,1,96,0|0,0:0|0:0,0:0:0:0:
224,288,136152,2,0,L|320:288,1,96,0|0,0:0|0:0,0:0:0:0:
192,288,136527,2,0,L|176:192,1,96,0|0,0:0|0:0,0:0:0:0:
432,192,136902,5,8,0:0:0:0:
256,192,137089,12,0,139714,0:0:0:0:
256,192,139902,5,8,0:0:0:0:
256,192,140089,12,0,142714,0:0:0:0:
96,192,142902,6,0,B|384:192|384:192|464:192|464:96,1,432.000016479493,12|0,0:0|0:0,0:0:0:0:
384,192,143277,2,0,L|384:96,1,96,0|0,0:0|0:0,0:0:0:0:
240,96,143652,2,0,L|336:96,1,96,8|0,0:0|0:0,0:0:0:0:
256,144,143933,1,0,0:0:0:0:
336,192,144027,2,0,L|240:192,1,96,0|0,0:0|0:0,0:0:0:0:
96,288,144402,6,0,L|80:192,1,96,8|0,0:0|0:0,0:0:0:0:
160,144,144683,1,0,0:0:0:0:
240,144,144777,2,0,L|144:144,1,96,0|0,0:0|0:0,0:0:0:0:
288,96,145152,2,0,L|384:96,1,96,8|0,0:0|0:0,0:0:0:0:
304,144,145433,1,0,0:0:0:0:
384,192,145527,2,0,L|400:96,1,96,0|0,0:0|0:0,0:0:0:0:
112,48,145902,6,0,L|208:48,1,96,8|0,0:0|0:0,0:0:0:0:
144,80,146183,1,0,0:0:0:0:
80,128,146277,2,0,L|128:128,2,48,0|0|0,0:0|0:0|0:0,0:0:0:0:
224,192,146652,2,0,L|240:96,1,96,8|0,0:0|0:0,0:0:0:0:
176,96,146933,1,0,0:0:0:0:
240,96,147027,1,0,0:0:0:0:
112,96,147214,1,0,0:0:0:0:
400,48,147402,6,0,L|304:48,1,96,8|0,0:0|0:0,0:0:0:0:
368,80,147683,1,0,0:0:0:0:
432,128,147777,2,0,L|384:128,2,48,0|0|0,0:0|0:0|0:0,0:0:0:0:
288,192,148152,2,0,L|272:96,1,96,8|0,0:0|0:0,0:0:0:0:
336,96,148433,1,0,0:0:0:0:
272,96,148527,1,0,0:0:0:0:
400,96,148714,1,0,0:0:0:0:
64,192,148902,6,0,L|160:192,1,96,8|0,0:0|0:0,0:0:0:0:
80,128,149183,1,0,0:0:0:0:
160,80,149277,2,0,L|176:128,1,48,0|0,0:0|0:0,0:0:0:0:
96,128,149464,1,0,0:0:0:0:
256,192,149652,2,0,L|272:96,1,96,8|0,0:0|0:0,0:0:0:0:
192,96,149933,1,0,0:0:0:0:
272,96,150027,1,0,0:0:0:0:
112,192,150214,1,0,0:0:0:0:
448,192,150402,6,0,L|352:192,1,96,8|0,0:0|0:0,0:0:0:0:
432,128,150683,1,0,0:0:0:0:
352,80,150777,2,0,L|336:128,1,48,0|0,0:0|0:0,0:0:0:0:
416,128,150964,1,0,0:0:0:0:
256,192,151152,2,0,L|240:96,1,96,8|0,0:0|0:0,0:0:0:0:
320,96,151433,1,0,0:0:0:0:
240,96,151527,1,0,0:0:0:0:
400,192,151714,1,0,0:0:0:0:
64,192,151902,6,0,L|160:192,1,96,8|0,0:0|0:0,0:0:0:0:
416,80,152277,2,0,L|416:176,1,96,0|0,0:0|0:0,0:0:0:0:
112,144,152652,2,0,L|208:144,1,96,8|0,0:0|0:0,0:0:0:0:
464,32,153027,2,0,L|464:128,1,96,0|0,0:0|0:0,0:0:0:0:
160,192,153402,6,0,L|64:192,1,96,8|0,0:0|0:0,0:0:0:0:
320,192,153777,2,0,L|224:192,1,96,0|0,0:0|0:0,0:0:0:0:
480,192,154152,2,0,L|384:192,1,96,8|0,0:0|0:0,0:0:0:0:
128,192,154527,2,0,L|384:192,1,255.359989479493,0|0,0:0|0:0,0:0:0:0:
32,192,154902,5,12,0:0:0:0:
256,192,160902,12,0,163339,0:0:0:0:
368,256,163527,5,8,0:0:0:0:
385,238,163573,1,0,0:0:0:0:
396,217,163620,1,0,0:0:0:0:
400,194,163667,1,0,0:0:0:0:
397,170,163714,1,0,0:0:0:0:
388,148,163761,1,0,0:0:0:0:
372,130,163808,1,0,0:0:0:0:
112,192,163902,6,0,L|80:192,15,24,8|0|0|0|0|0|0|0|0|0|0|0|0|0|0|0,0:0|0:0|0:0|0:0|0:0|0:0|0:0|0:0|0:0|0:0|0:0|0:0|0:0|0:0|0:0|0:0,0:0:0:0:
112,192,164277,5,0,0:0:0:0:
256,192,165777,12,0,166714,0:0:0:0:
256,192,166902,5,10,0:0:0:0:
280,192,166925,1,0,0:0:0:0:
304,192,166948,1,0,0:0:0:0:
329,192,166972,1,0,0:0:0:0:
353,192,166995,1,0,0:0:0:0:
378,192,167019,1,0,0:0:0:0:
402,192,167042,1,0,0:0:0:0:
427,192,167066,1,0,0:0:0:0:
451,192,167089,1,10,0:0:0:0:
429,191,167112,1,0,0:0:0:0:
406,191,167136,1,0,0:0:0:0:
384,191,167159,1,0,0:0:0:0:
361,191,167183,1,0,0:0:0:0:
339,191,167206,1,0,0:0:0:0:
316,191,167230,1,0,0:0:0:0:
294,191,167253,1,0,0:0:0:0:
271,191,167277,5,8,0:0:0:0:
288,191,167300,1,0,0:0:0:0:
305,191,167323,1,0,0:0:0:0:
323,191,167347,1,0,0:0:0:0:
340,191,167370,1,0,0:0:0:0:
358,191,167394,1,0,0:0:0:0:
375,191,167417,1,0,0:0:0:0:
393,191,167441,1,0,0:0:0:0:
410,191,167464,1,8,0:0:0:0:
395,191,167487,1,0,0:0:0:0:
380,191,167511,1,0,0:0:0:0:
365,191,167534,1,0,0:0:0:0:
350,191,167558,1,0,0:0:0:0:
335,191,167581,1,0,0:0:0:0:
320,191,167605,1,0,0:0:0:0:
96,192,167652,5,12,0:0:0:0:
352,64,168027,2,0,L|352:80,1,12,8|0,0:0|0:0,0:0:0:0:
96,64,168214,2,0,L|96:80,1,12,10|0,0:0|0:0,0:0:0:0:
224,128,168402,6,0,L|224:144,1,12,8|0,0:0|0:0,0:0:0:0:
96,192,168589,2,0,L|96:208,1,12,10|0,0:0|0:0,0:0:0:0:
240,192,168777,2,0,L|96:192,1,144.000005493164,8|8,0:0|0:0,0:0:0:0:
72,194,168987,1,0,0:0:0:0:
54,209,169011,1,0,0:0:0:0:
47,231,169034,1,0,0:0:0:0:
54,254,169058,1,0,0:0:0:0:
72,269,169081,1,0,0:0:0:0:
95,272,169105,1,0,0:0:0:0:
384,256,169152,6,0,P|432:192|384:128,1,168,14|0,0:0|0:0,0:0:0:0:
240,128,169527,2,0,L|224:128,8,12,8|0|0|0|0|0|0|0|8,0:0|0:0|0:0|0:0|0:0|0:0|0:0|0:0|0:0,0:0:0:0:
263,130,169737,1,0,0:0:0:0:
281,145,169761,1,0,0:0:0:0:
288,167,169784,1,0,0:0:0:0:
281,190,169808,1,0,0:0:0:0:
263,205,169831,1,0,0:0:0:0:
240,208,169855,1,0,0:0:0:0:
96,128,169902,6,0,L|80:128,30,12,8|2|2|2|2|2|2|2|2|2|2|2|2|2|2|2|2|2|2|2|2|2|2|2|2|2|2|2|2|2|2,0:0|0:0|0:0|0:0|0:0|0:0|0:0|0:0|0:0|0:0|0:0|0:0|0:0|0:0|0:0|0:0|0:0|0:0|0:0|0:0|0:0|0:0|0:0|0:0|0:0|0:0|0:0|0:0|0:0|0:0|0:0,0:0:0:0:
320,128,170652,5,12,0:0:0:0:
128,192,171027,2,0,L|216:192,1,84,8|0,0:0|0:0,0:0:0:0:
224,160,171214,2,0,L|112:160,1,109.199995001221,8|0,0:0|0:0,0:0:0:0:
104,128,171402,2,0,L|240:128,1,134.4,10|0,0:0|0:0,0:0:0:0:
248,96,171589,2,0,L|88:96,1,159.59999573822,10|0,0:0|0:0,0:0:0:0:
80,64,171777,6,0,B|368:64|368:64|112:64,1,540.000020599366,8|0,0:0|0:0,0:0:0:0:
80,64,172152,2,0,P|16:112|80:176,1,192,2|2,0:0|0:0,0:0:0:0:
256,192,172902,5,10,0:0:0:0:
232,192,172925,1,0,0:0:0:0:
208,192,172948,1,0,0:0:0:0:
183,192,172972,1,0,0:0:0:0:
159,192,172995,1,0,0:0:0:0:
134,192,173019,1,0,0:0:0:0:
110,192,173042,1,0,0:0:0:0:
85,192,173066,1,0,0:0:0:0:
61,192,173089,1,10,0:0:0:0:
83,191,173112,1,0,0:0:0:0:
106,191,173136,1,0,0:0:0:0:
128,191,173159,1,0,0:0:0:0:
151,191,173183,1,0,0:0:0:0:
173,191,173206,1,0,0:0:0:0:
196,191,173230,1,0,0:0:0:0:
218,191,173253,1,0,0:0:0:0:
241,191,173277,5,8,0:0:0:0:
224,191,173300,1,0,0:0:0:0:
207,191,173323,1,0,0:0:0:0:
189,191,173347,1,0,0:0:0:0:
172,191,173370,1,0,0:0:0:0:
154,191,173394,1,0,0:0:0:0:
137,191,173417,1,0,0:0:0:0:
119,191,173441,1,0,0:0:0:0:
102,191,173464,1,8,0:0:0:0:
117,191,173487,1,0,0:0:0:0:
132,191,173511,1,0,0:0:0:0:
147,191,173534,1,0,0:0:0:0:
162,191,173558,1,0,0:0:0:0:
177,191,173581,1,0,0:0:0:0:
192,191,173605,1,0,0:0:0:0:
416,192,173652,5,12,0:0:0:0:
160,64,174027,2,0,L|160:80,1,12,8|0,0:0|0:0,0:0:0:0:
416,64,174214,2,0,L|416:80,1,12,10|0,0:0|0:0,0:0:0:0:
288,128,174402,6,0,L|288:144,1,12,8|0,0:0|0:0,0:0:0:0:
416,192,174589,2,0,L|416:208,1,12,10|0,0:0|0:0,0:0:0:0:
128,192,174777,2,0,L|416:192,1,288.000010986329,8|8,0:0|0:0,0:0:0:0:
440,194,174987,1,0,0:0:0:0:
458,209,175011,1,0,0:0:0:0:
465,231,175034,1,0,0:0:0:0:
458,254,175058,1,0,0:0:0:0:
440,269,175081,1,0,0:0:0:0:
417,272,175105,1,0,0:0:0:0:
128,256,175152,6,0,P|96:224|96:188,1,84,12|0,0:0|0:0,0:0:0:0:
128,144,175339,2,0,L|384:144,1,252.000009613037,10|0,0:0|0:0,0:0:0:0:
416,176,175527,2,0,P|414:228|384:256,1,96,8|8,0:0|0:0,0:0:0:0:
130,192,175902,6,0,L|256:192,1,126.000004806519,8|0,0:0|0:0,0:0:0:0:
256,192,176089,2,0,L|382:192,1,126.000004806519,0|0,0:0|0:0,0:0:0:0:
382,192,176277,2,0,L|256:192,1,126.000004806519,0|0,0:0|0:0,0:0:0:0:
256,192,176464,2,0,L|130:192,1,126.000004806519,0|0,0:0|0:0,0:0:0:0:
130,192,176652,6,0,B|384:192,1,254.400010675049,12|2,0:0|0:0,0:0:0:0:
144,32,176933,1,8,0:0:0:0:
120,32,176964,1,0,0:0:0:0:
320,32,177089,1,8,0:0:0:0:
296,32,177120,1,0,0:0:0:0:
240,112,177183,1,0,0:0:0:0:
264,112,177214,1,0,0:0:0:0:
384,176,177277,1,8,0:0:0:0:
384,208,177308,1,0,0:0:0:0:
360,224,177339,1,0,0:0:0:0:
208,256,177402,6,0,P|160:192|208:128,1,168,8|0,0:0|0:0,0:0:0:0:
384,64,177777,6,0,B|368:20|368:20|352:64|352:64|336:16|336:16|320:64|320:64|304:20|304:20|288:64|288:64|288:352|288:352|288:144|432:144|432:144|144:144,1,1152.00004394531,8|12,0:0|0:0,0:0:0:0:
256,80,179277,5,8,0:0:0:0:
280,81,179300,1,0,0:0:0:0:
301,93,179323,1,0,0:0:0:0:
316,111,179347,1,0,0:0:0:0:
321,135,179370,1,0,0:0:0:0:
316,158,179394,1,0,0:0:0:0:
302,177,179417,1,0,0:0:0:0:
282,189,179441,1,0,0:0:0:0:
256,192,179464,1,8,0:0:0:0:
233,193,179487,1,0,0:0:0:0:
212,205,179511,1,0,0:0:0:0:
197,223,179534,1,0,0:0:0:0:
192,247,179558,1,0,0:0:0:0:
197,270,179581,1,0,0:0:0:0:
211,289,179605,1,0,0:0:0:0:
464,288,179652,6,0,P|480:224|464:208,1,96,12|0,0:0|0:0,0:0:0:0:
400,208,179933,1,0,0:0:0:0:
112,208,180027,2,0,L|112:192,1,12,8|0,0:0|0:0,0:0:0:0:
400,208,180214,2,0,L|400:192,1,12,10|0,0:0|0:0,0:0:0:0:
272,144,180402,5,8,0:0:0:0:
408,128,180589,1,10,0:0:0:0:
272,64,180777,2,0,L|416:64,1,144.000005493164,8|8,0:0|0:0,0:0:0:0:
440,66,180987,1,0,0:0:0:0:
458,81,181011,1,0,0:0:0:0:
465,103,181034,1,0,0:0:0:0:
458,126,181058,1,0,0:0:0:0:
440,141,181081,1,0,0:0:0:0:
417,144,181105,1,0,0:0:0:0:
128,256,181152,6,0,P|80:192|128:128,1,168,14|0,0:0|0:0,0:0:0:0:
272,128,181527,2,0,L|288:128,8,12,8|0|0|0|0|0|0|0|8,0:0|0:0|0:0|0:0|0:0|0:0|0:0|0:0|0:0,0:0:0:0:
249,130,181737,1,0,0:0:0:0:
231,145,181761,1,0,0:0:0:0:
224,167,181784,1,0,0:0:0:0:
231,190,181808,1,0,0:0:0:0:
249,205,181831,1,0,0:0:0:0:
272,208,181855,1,0,0:0:0:0:
416,288,181902,6,0,B|240:288,1,168,10|0,0:0|0:0,0:0:0:0:
224,240,182089,2,0,L|352:240,1,126.000004806519,10|0,0:0|0:0,0:0:0:0:
368,192,182277,2,0,L|192:192,1,168,8|0,0:0|0:0,0:0:0:0:
176,144,182464,2,0,L|480:144,1,302.400008940125,8|12,0:0|0:0,0:0:0:0:
32,16,183027,6,0,B|188:368|188:368|32:16|32:16|192:364|192:364|32:16|32:16|416:16|416:16|32:16,1,2304,8|2,0:0|0:0,0:0:0:0:
32,16,184339,1,8,0:0:0:0:
480,16,184527,1,12,0:0:0:0:
208,192,184902,5,8,0:0:0:0:
232,192,184925,1,0,0:0:0:0:
256,192,184948,1,0,0:0:0:0:
280,192,184972,1,0,0:0:0:0:
304,192,184995,1,0,0:0:0:0:
280,192,185019,1,0,0:0:0:0:
256,192,185042,1,0,0:0:0:0:
232,192,185066,1,0,0:0:0:0:
208,192,185089,1,8,0:0:0:0:
232,192,185112,1,0,0:0:0:0:
256,192,185136,1,0,0:0:0:0:
280,192,185159,1,0,0:0:0:0:
304,192,185183,1,0,0:0:0:0:
464,192,185277,1,2,0:0:0:0:
416,144,185323,2,0,L|288:144,1,115.2,0|8,0:0|0:0,0:0:0:0:
256,112,185511,1,0,0:0:0:0:
48,192,185745,6,0,L|48:176,1,12,0|0,0:0|0:0,0:0:0:0:
464,196,185862,2,0,L|464:156,1,36,2|0,0:0|0:0,0:0:0:0:
256,192,186027,2,0,L|112:192,1,144,8|0,0:0|0:0,0:0:0:0:
80,160,186120,1,0,0:0:0:0:
112,128,186144,2,0,L|256:128,1,144,2|0,0:0|0:0,0:0:0:0:
440,128,186284,2,0,L|464:128,1,24,2|2,0:0|0:0,0:0:0:0:
256,256,186402,6,0,P|240:176|256:92,1,168,2|0,0:0|0:0,0:0:0:0:
464,128,186777,2,0,L|464:224,1,96,8|8,0:0|0:0,0:0:0:0:
144,192,187152,6,0,L|432:192,1,288.000010986329,12|10,0:0|0:0,0:0:0:0:
112,192,187527,2,0,L|32:192,2,72,8|0|0,0:0|0:0|0:0,0:0:0:0:
320,16,187902,6,0,B|464:368|464:368|400:184|400:184|336:368|336:368|480:16|480:16|88:16,1,1536,8|12,0:0|0:0,0:0:0:0:
352,192,189027,2,0,L|352:144,1,48,8|0,0:0|0:0,0:0:0:0:
160,192,189214,5,8,0:0:0:0:
136,193,189237,1,0,0:0:0:0:
115,205,189261,1,0,0:0:0:0:
100,223,189284,1,0,0:0:0:0:
95,247,189308,1,0,0:0:0:0:
100,270,189331,1,0,0:0:0:0:
114,289,189355,1,0,0:0:0:0:
134,301,189378,1,0,0:0:0:0:
160,304,189402,1,8,0:0:0:0:
184,303,189425,1,0,0:0:0:0:
205,291,189448,1,0,0:0:0:0:
220,273,189472,1,0,0:0:0:0:
225,249,189495,1,0,0:0:0:0:
220,226,189519,1,0,0:0:0:0:
206,207,189542,1,0,0:0:0:0:
186,195,189566,1,0,0:0:0:0:
160,192,189589,5,8,0:0:0:0:
136,193,189612,1,0,0:0:0:0:
115,205,189636,1,0,0:0:0:0:
100,223,189659,1,0,0:0:0:0:
95,247,189683,1,0,0:0:0:0:
100,270,189706,1,0,0:0:0:0:
114,289,189730,1,0,0:0:0:0:
134,301,189753,1,0,0:0:0:0:
160,304,189777,2,0,P|192:208|160:140,1,180,10|0,0:0|0:0,0:0:0:0:
125,140,190152,6,0,B|413:140|413:140|157:140,1,540.000020599366,0|0,0:0|0:0,0:0:0:0:
125,140,190527,2,0,L|125:44,1,96,2|8,0:0|0:0,0:0:0:0:
400,144,190902,6,0,L|432:144,2,24,8|0|0,0:0|0:0|0:0,0:0:0:0:
352,144,191042,1,0,0:0:0:0:
304,144,191089,2,0,L|272:144,2,24,0|0|0,0:0|0:0|0:0,0:0:0:0:
400,144,191277,2,0,L|416:48,1,96,0|0,0:0|0:0,0:0:0:0:
144,192,191652,6,0,L|240:192,1,96,8|0,0:0|0:0,0:0:0:0:
112,240,192027,2,0,L|96:144,1,96,0|0,0:0|0:0,0:0:0:0:
368,192,192402,6,0,L|272:192,1,96,8|0,0:0|0:0,0:0:0:0:
400,144,192777,2,0,L|416:240,1,96,0|0,0:0|0:0,0:0:0:0:
112,144,193152,5,12,0:0:0:0:
336,144,193527,2,0,L|368:144,2,24,2|0|0,0:0|0:0|0:0,0:0:0:0:
176,144,193714,2,0,L|144:144,2,24,2|0|0,0:0|0:0|0:0,0:0:0:0:
384,192,193902,6,0,P|416:160|432:112,1,96,8|0,0:0|0:0,0:0:0:0:
336,192,194183,1,0,0:0:0:0:
432,271,194277,2,0,P|418:226|384:192,1,96,0|0,0:0|0:0,0:0:0:0:
128,192,194652,6,0,P|96:160|80:112,1,96,8|0,0:0|0:0,0:0:0:0:
176,192,194933,1,0,0:0:0:0:
80,271,195027,2,0,P|94:226|128:192,1,96,0|0,0:0|0:0,0:0:0:0:
385,192,195402,5,8,0:0:0:0:
409,193,195425,1,0,0:0:0:0:
430,205,195448,1,0,0:0:0:0:
445,223,195472,1,0,0:0:0:0:
450,247,195495,1,0,0:0:0:0:
445,270,195519,1,0,0:0:0:0:
431,289,195542,1,0,0:0:0:0:
411,301,195566,1,0,0:0:0:0:
385,304,195589,1,2,0:0:0:0:
361,303,195612,1,0,0:0:0:0:
340,291,195636,1,0,0:0:0:0:
325,273,195659,1,0,0:0:0:0:
320,249,195683,1,0,0:0:0:0:
325,226,195706,1,0,0:0:0:0:
339,207,195730,1,0,0:0:0:0:
359,195,195753,1,0,0:0:0:0:
385,191,195777,5,10,0:0:0:0:
361,192,195800,1,0,0:0:0:0:
338,187,195823,1,0,0:0:0:0:
317,177,195847,1,0,0:0:0:0:
298,161,195870,1,0,0:0:0:0:
284,142,195894,1,0,0:0:0:0:
276,120,195917,1,0,0:0:0:0:
273,96,195941,1,0,0:0:0:0:
275,72,195964,1,8,0:0:0:0:
284,50,195987,1,0,0:0:0:0:
298,30,196011,1,0,0:0:0:0:
316,15,196034,1,0,0:0:0:0:
337,4,196058,1,0,0:0:0:0:
361,0,196081,1,0,0:0:0:0:
384,0,196105,1,0,0:0:0:0:
144,0,196152,5,12,0:0:0:0:
336,96,196527,2,0,L|352:192,1,96,0|0,0:0|0:0,0:0:0:0:
96,192,196902,6,0,P|64:160|64:112,1,96,8|0,0:0|0:0,0:0:0:0:
128,96,197183,1,0,0:0:0:0:
192,96,197277,2,0,L|96:96,1,96,0|0,0:0|0:0,0:0:0:0:
368,192,197652,6,0,L|272:192,1,96,8|0,0:0|0:0,0:0:0:0:
400,144,198027,2,0,L|416:240,1,96,0|0,0:0|0:0,0:0:0:0:
144,192,198402,6,0,L|240:192,1,96,8|0,0:0|0:0,0:0:0:0:
112,240,198777,2,0,L|96:144,1,96,0|0,0:0|0:0,0:0:0:0:
400,240,199152,5,12,0:0:0:0:
176,240,199527,2,0,L|144:240,2,24,2|0|0,0:0|0:0|0:0,0:0:0:0:
336,240,199714,2,0,L|368:240,2,24,2|0|0,0:0|0:0|0:0,0:0:0:0:
128,192,199902,6,0,P|96:224|80:272,1,96,8|0,0:0|0:0,0:0:0:0:
176,192,200183,1,0,0:0:0:0:
80,113,200277,2,0,P|94:158|128:192,1,96,0|0,0:0|0:0,0:0:0:0:
384,272,200652,6,0,L|480:272,1,96,8|0,0:0|0:0,0:0:0:0:
384,192,200933,1,0,0:0:0:0:
480,112,201027,2,0,L|384:112,1,96,0|0,0:0|0:0,0:0:0:0:
127,192,201402,5,8,0:0:0:0:
103,193,201425,1,0,0:0:0:0:
82,205,201448,1,0,0:0:0:0:
67,223,201472,1,0,0:0:0:0:
62,247,201495,1,0,0:0:0:0:
67,270,201519,1,0,0:0:0:0:
81,289,201542,1,0,0:0:0:0:
101,301,201566,1,0,0:0:0:0:
127,304,201589,1,2,0:0:0:0:
151,303,201612,1,0,0:0:0:0:
172,291,201636,1,0,0:0:0:0:
187,273,201659,1,0,0:0:0:0:
192,249,201683,1,0,0:0:0:0:
187,226,201706,1,0,0:0:0:0:
173,207,201730,1,0,0:0:0:0:
153,195,201753,1,0,0:0:0:0:
127,192,201777,5,10,0:0:0:0:
103,191,201800,1,0,0:0:0:0:
82,179,201823,1,0,0:0:0:0:
67,161,201847,1,0,0:0:0:0:
62,137,201870,1,0,0:0:0:0:
67,114,201894,1,0,0:0:0:0:
81,95,201917,1,0,0:0:0:0:
101,83,201941,1,0,0:0:0:0:
128,80,201964,1,8,0:0:0:0:
153,79,201987,1,0,0:0:0:0:
179,79,202011,1,0,0:0:0:0:
204,79,202034,1,0,0:0:0:0:
230,79,202058,1,0,0:0:0:0:
244,80,202081,1,0,0:0:0:0:
230,79,202105,1,0,0:0:0:0:
32,80,202152,5,12,0:0:0:0:
320,192,202527,2,0,L|32:192,1,288.000010986329,12|10,0:0|0:0,0:0:0:0:
432,192,202902,6,0,L|272:192,1,153.6,8|0,0:0|0:0,0:0:0:0:
352,144,203183,1,0,0:0:0:0:
432,192,203277,2,0,L|432:96,1,96,0|0,0:0|0:0,0:0:0:0:
80,192,203652,6,0,L|240:192,1,153.6,8|0,0:0|0:0,0:0:0:0:
160,144,203933,1,0,0:0:0:0:
80,192,204027,2,0,L|80:96,1,96,0|0,0:0|0:0,0:0:0:0:
432,192,204402,6,0,L|272:192,1,153.6,8|0,0:0|0:0,0:0:0:0:
352,144,204683,1,0,0:0:0:0:
432,192,204777,2,0,L|464:96,1,96,0|0,0:0|0:0,0:0:0:0:
49,100,205152,5,12,0:0:0:0:
192,96,205339,2,0,L|224:96,1,24,2|0,0:0|0:0,0:0:0:0:
216,96,205433,1,0,0:0:0:0:
48,192,205527,2,0,L|48:224,1,24,2|0,0:0|0:0,0:0:0:0:
80,240,205620,1,0,0:0:0:0:
256,192,205714,2,0,L|256:160,1,24,2|0,0:0|0:0,0:0:0:0:
224,144,205808,1,0,0:0:0:0:
48,144,205902,5,8,0:0:0:0:
128,96,205995,1,0,0:0:0:0:
88,96,206042,1,0,0:0:0:0:
48,96,206089,1,0,0:0:0:0:
128,192,206183,1,0,0:0:0:0:
208,192,206277,1,0,0:0:0:0:
128,192,206370,2,0,L|128:144,1,48,2|0,0:0|0:0,0:0:0:0:
384,192,206652,6,0,L|288:192,1,96,8|0,0:0|0:0,0:0:0:0:
416,144,207027,2,0,L|432:240,1,96,0|0,0:0|0:0,0:0:0:0:
176,192,207402,5,8,0:0:0:0:
152,193,207425,1,0,0:0:0:0:
131,205,207448,1,0,0:0:0:0:
116,223,207472,1,0,0:0:0:0:
111,247,207495,1,0,0:0:0:0:
116,270,207519,1,0,0:0:0:0:
130,289,207542,1,0,0:0:0:0:
150,301,207566,1,0,0:0:0:0:
176,304,207589,1,2,0:0:0:0:
200,303,207612,1,0,0:0:0:0:
221,291,207636,1,0,0:0:0:0:
236,273,207659,1,0,0:0:0:0:
241,249,207683,1,0,0:0:0:0:
236,226,207706,1,0,0:0:0:0:
222,207,207730,1,0,0:0:0:0:
202,195,207753,1,0,0:0:0:0:
176,191,207777,5,10,0:0:0:0:
200,192,207800,1,0,0:0:0:0:
223,187,207823,1,0,0:0:0:0:
244,177,207847,1,0,0:0:0:0:
263,161,207870,1,0,0:0:0:0:
277,142,207894,1,0,0:0:0:0:
285,120,207917,1,0,0:0:0:0:
288,96,207941,1,0,0:0:0:0:
286,72,207964,1,8,0:0:0:0:
277,50,207987,1,0,0:0:0:0:
263,30,208011,1,0,0:0:0:0:
245,15,208034,1,0,0:0:0:0:
224,4,208058,1,0,0:0:0:0:
200,0,208081,1,0,0:0:0:0:
177,0,208105,1,0,0:0:0:0:
417,0,208152,5,12,0:0:0:0:
480,0,208245,1,0,0:0:0:0:
480,64,208339,1,0,0:0:0:0:
448,128,208402,1,0,0:0:0:0:
384,128,208464,1,0,0:0:0:0:
256,192,208527,2,0,L|224:192,2,24
416,192,208714,2,0,L|448:192,2,24,0|0|0,0:0|0:0|0:0,0:0:0:0:
112,240,208902,6,0,L|80:240,2,24,10|0|0,0:0|0:0|0:0,0:0:0:0:
160,240,209042,1,0,0:0:0:0:
208,240,209089,2,0,L|240:240,2,24,2|0|0,0:0|0:0|0:0,0:0:0:0:
112,240,209277,2,0,L|96:336,1,96,2|0,0:0|0:0,0:0:0:0:
352,288,209652,6,0,L|448:288,1,96,8|0,0:0|0:0,0:0:0:0:
368,192,209933,1,0,0:0:0:0:
448,96,210027,2,0,L|352:96,1,96,0|0,0:0|0:0,0:0:0:0:
96,96,210402,5,10,0:0:0:0:
176,144,210495,1,0,0:0:0:0:
192,192,210542,1,0,0:0:0:0:
176,240,210589,1,2,0:0:0:0:
96,288,210683,1,0,0:0:0:0:
176,336,210777,1,2,0:0:0:0:
96,384,210870,1,0,0:0:0:0:
16,336,210964,1,2,0:0:0:0:
272,336,211152,6,0,P|288:256|272:224,1,120,12|2,0:0|0:0,0:0:0:0:
160,192,211527,2,0,L|128:192,2,24,2|0|0,0:0|0:0|0:0,0:0:0:0:
320,192,211714,2,0,L|352:192,2,24,2|0|0,0:0|0:0|0:0,0:0:0:0:
112,192,211902,5,10,0:0:0:0:
80,192,211948,2,0,P|64:176|80:160,1,48,0|0,0:0|0:0,0:0:0:0:
112,160,212089,1,2,0:0:0:0:
176,128,212183,1,0,0:0:0:0:
112,96,212277,2,0,L|208:96,1,96,2|2,0:0|0:0,0:0:0:0:
464,192,212652,6,0,L|480:96,1,96,10|2,0:0|0:0,0:0:0:0:
352,96,213027,2,0,L|64:96,1,288.000010986329,2|0,0:0|0:0,0:0:0:0:
400,192,213402,6,0,L|256:192,1,144.000005493164,2|0,0:0|0:0,0:0:0:0:
256,192,213636,1,0,0:0:0:0:
464,192,213870,2,0,L|464:176,1,12,0|0,0:0|0:0,0:0:0:0:
48,196,213987,2,0,L|48:156,1,36,2|0,0:0|0:0,0:0:0:0:
256,192,214152,6,0,L|400:192,1,144,8|2,0:0|0:0,0:0:0:0:
432,160,214245,1,0,0:0:0:0:
400,128,214269,2,0,L|256:128,1,144,2|0,0:0|0:0,0:0:0:0:
72,128,214409,2,0,L|48:128,1,24,2|0,0:0|0:0,0:0:0:0:
256,256,214527,2,0,P|272:176|256:92,1,168,2|0,0:0|0:0,0:0:0:0:
48,192,214902,5,12,0:0:0:0:
256,192,225402,12,0,226714,0:0:0:0:
128,240,226902,6,0,L|112:144,1,96,4|0,0:0|0:0,0:0:0:0:
256,240,227277,1,2,0:0:0:0:
64,240,227464,1,2,0:0:0:0:
208,240,227652,2,0,L|224:144,1,96,8|0,0:0|0:0,0:0:0:0:
80,240,228027,2,0,L|96:144,1,96,2|2,0:0|0:0,0:0:0:0:
240,144,228402,6,0,L|144:144,1,96,8|0,0:0|0:0,0:0:0:0:
288,192,228777,1,2,0:0:0:0:
96,192,228964,1,2,0:0:0:0:
240,240,229152,2,0,L|144:240,1,96,8|0,0:0|0:0,0:0:0:0:
288,192,229527,1,2,2:0:0:0:
224,192,229620,1,2,0:0:0:0:
288,192,229714,1,2,0:0:0:0:
224,192,229808,1,0,0:0:0:0:
384,240,229902,6,0,L|400:144,1,96,12|0,0:0|0:0,0:0:0:0:
256,240,230277,1,2,0:0:0:0:
448,240,230464,1,2,0:0:0:0:
304,240,230652,2,0,L|288:144,1,96,8|0,0:0|0:0,0:0:0:0:
432,240,231027,2,0,L|416:144,1,96,2|2,0:0|0:0,0:0:0:0:
272,144,231402,5,8,0:0:0:0:
416,144,231589,1,0,0:0:0:0:
128,160,231777,1,2,2:0:0:0:
64,160,231870,1,0,0:0:0:0:
64,224,231964,1,2,0:0:0:0:
128,224,232058,1,0,0:0:0:0:
224,176,232152,1,8,0:0:0:0:
272,176,232245,1,0,0:0:0:0:
272,208,232339,1,0,0:0:0:0:
224,208,232433,1,0,0:0:0:0:
160,128,232527,1,2,2:0:0:0:
216,128,232620,1,2,0:0:0:0:
152,128,232714,1,2,0:0:0:0:
224,128,232808,1,0,0:0:0:0:
384,240,232902,6,0,L|400:144,1,96,12|0,0:0|0:0,0:0:0:0:
328,192,233183,1,0,0:0:0:0:
256,240,233277,1,2,0:0:0:0:
448,240,233464,1,2,0:0:0:0:
304,240,233652,2,0,L|288:144,1,96,8|0,0:0|0:0,0:0:0:0:
360,192,233933,1,0,0:0:0:0:
432,240,234027,2,0,L|416:144,1,96,2|2,0:0|0:0,0:0:0:0:
272,144,234402,6,0,L|368:144,1,96,8|0,0:0|0:0,0:0:0:0:
296,192,234683,1,0,0:0:0:0:
224,192,234777,1,2,0:0:0:0:
416,192,234964,1,2,0:0:0:0:
272,240,235152,2,0,L|368:240,1,96,8|0,0:0|0:0,0:0:0:0:
296,192,235433,1,0,0:0:0:0:
224,192,235527,1,2,2:0:0:0:
288,192,235620,1,2,0:0:0:0:
224,192,235714,1,2,0:0:0:0:
288,192,235808,1,0,0:0:0:0:
128,240,235902,6,0,L|112:144,1,96,12|0,0:0|0:0,0:0:0:0:
184,192,236183,1,0,0:0:0:0:
256,240,236277,1,2,0:0:0:0:
64,240,236464,1,2,0:0:0:0:
208,240,236652,2,0,L|224:144,1,96,8|0,0:0|0:0,0:0:0:0:
152,192,236933,1,0,0:0:0:0:
80,240,237027,2,0,L|96:144,1,96,2|2,0:0|0:0,0:0:0:0:
240,144,237402,5,8,0:0:0:0:
96,144,237589,1,0,0:0:0:0:
384,160,237777,1,2,2:0:0:0:
448,160,237870,1,0,0:0:0:0:
448,224,237964,1,2,0:0:0:0:
384,224,238058,1,0,0:0:0:0:
288,176,238152,1,8,0:0:0:0:
240,176,238245,1,0,0:0:0:0:
240,208,238339,1,0,0:0:0:0:
288,208,238433,1,0,0:0:0:0:
352,128,238527,1,2,2:0:0:0:
296,128,238620,1,2,0:0:0:0:
360,128,238714,1,2,0:0:0:0:
288,128,238808,1,0,0:0:0:0:
48,16,238902,6,0,B|48:352|48:352|224:64|224:64|48:352|48:352|224:64|224:64|272:80|272:208|272:208|272:352|224:368|224:368|176:352|176:208|176:208|176:80|224:64|224:64|496:256,1,2352.00002243042,12|0,0:0|0:0,0:0:0:0:
224,16,240402,6,0,B|136:176|224:336|224:336|312:176|224:16|224:16|384:16|496:192|496:192|476:256|476:256|456:192|456:192|436:256|436:256|416:192|416:192|396:256|396:256|180:256|140:88|140:88|160:24|160:24|180:88|180:88|200:24|200:24|220:88|220:88|240:24|240:24|464:24|496:192,1,2352.00002243042,2|0,0:0|0:0,0:0:0:0:
224,352,241902,6,0,B|208:288|208:288|192:352|192:352|176:288|176:288|160:352|160:352|128:288|128:288|416:112|416:112|432:48|432:48|448:112|448:112|464:48|464:48|480:112|480:112|512:48|512:48|224:224|224:224|208:160|208:160|192:224|192:224|176:160|176:160|160:224|160:224|128:160|128:160|176:88|176:88|224:156|224:156|272:88|272:88|312:160|312:160|272:232|272:232|224:164|224:164|176:232|176:232|128:160,1,2352.00002243042,2|0,0:0|0:0,0:0:0:0:
400,368,243402,6,0,B|400:240|400:240|424:288|424:288|448:312|448:312|448:192|448:192|448:72|448:72|424:96|424:96|400:144|400:144|400:16|400:16|64:16|64:16|96:64|96:64|128:32|128:32|160:96|160:96|192:32|192:32|224:64|224:64|256:32|256:32|280:32|288:192|288:192|280:352|256:352|256:352|224:320|224:320|192:352|192:352|160:288|160:288|128:352|128:352|96:320|96:320|64:368|64:368|400:368,1,2352.00002243042,2|0,0:0|0:0,0:0:0:0:
128,368,244902,6,0,B|304:80|304:80|288:16|288:16|272:148|272:148|256:16|256:16|80:304|80:304|104:172|104:172|128:304|128:304|152:240|152:240|488:240|488:240|464:176|464:176|440:308|440:308|416:176|416:176|312:312|312:312|208:176,1,2352.00002243042,2|0,0:0|0:0,0:0:0:0:
480,368,246402,6,0,B|496:32|496:32|160:32|160:32|144:368|144:368|496:368,1,1344.00001281738,2|2,0:0|0:0,0:0:0:0:
144,368,247339,2,0,L|64:368,1,72.0000027465821,2|0,0:0|0:0,0:0:0:0:
256,368,247527,2,0,L|272:288,1,72.0000027465821,2|0,0:0|0:0,0:0:0:0:
88,288,247714,2,0,L|160:288,1,72.0000027465821,2|0,0:0|0:0,0:0:0:0:
336,344,247902,6,0,B|468:36|468:36|480:80|464:96|464:96|496:144|496:144|480:192|480:192|496:240|496:240|464:272|464:272|480:288|468:340|468:340|336:40|336:40|256:128|256:128|128:128|128:128|64:192|64:192|128:240|128:240|256:240|256:240|336:344|336:344|256:16|256:16|336:344,1,2352.00002243042,2|0,0:0|0:0,0:0:0:0:
64,320,249402,6,0,B|208:16|208:16|208:352|208:352|64:48|64:48|208:352|208:352|16:80|16:80|336:192|336:192|16:80,1,2352.00002243042,2|2,0:0|0:0,0:0:0:0:
336,32,250902,6,0,B|352:368|352:368|288:312|288:312|224:364|224:364|160:312|160:312|96:368|96:368|80:32|80:32|144:88|144:88|208:36|208:36|272:88|272:88|336:32|336:32|352:368|352:368|288:312|288:312|224:368|224:368|160:312|160:312|96:368|96:368|80:32,1,2352.00002243042,12|0,0:0|0:0,0:0:0:0:
400,32,252402,6,0,B|416:368|416:368|352:312|352:312|288:364|288:364|224:312|224:312|160:368|160:368|144:32|144:32|208:88|208:88|272:36|272:36|336:88|336:88|400:32|400:32|144:256|144:256|160:208|160:208|192:256|192:256|224:208|224:208|256:256|256:256|272:208|272:208|304:256|304:256|48:32,1,2352.00002243042,2|0,0:0|0:0,0:0:0:0:
384,32,253902,6,0,B|400:368|400:368|64:368|64:368|48:32|48:32|96:16|96:16|144:40|144:40|200:8|200:8|256:40|256:40|304:16|304:16|352:32|352:32|368:368|368:368|304:336|304:336|256:368|256:368|224:336|224:336|192:368|192:368|144:336|144:336|96:368|96:368|80:32,1,2352.00002243042,12|0,0:0|0:0,0:0:0:0:
416,32,255402,5,2,0:0:0:0:
272,32,255589,2,0,L|352:32,1,72.0000027465821,2|0,0:0|0:0,0:0:0:0:
160,32,255777,2,0,L|240:32,1,72.0000027465821,2|0,0:0|0:0,0:0:0:0:
416,32,255964,1,2,0:0:0:0:
128,32,256152,2,0,B|112:368|112:368|288:80|288:80|32:304,1,1008.00000961304,2|2,0:0|0:0,0:0:0:0:
400,16,256902,6,0,B|236:308|236:308|400:16|400:16|300:336|300:336|400:16|400:16|64:16|64:16|232:312|232:312|64:16,1,2352.00002243042,12|0,0:0|0:0,0:0:0:0:
432,16,258402,6,0,B|432:352|432:352|288:264|288:264|144:352|144:352|144:16|144:16|480:16|480:16|480:352|480:352|336:264|336:264|192:352|192:352|336:268|336:268|480:352,1,2352.00002243042,12|2,0:0|0:0,0:0:0:0:
112,32,259902,6,0,B|96:368|96:368|272:80|272:80|16:304,1,1008.00000961304,12|2,0:0|0:0,0:0:0:0:
400,32,260652,2,0,B|416:368|416:368|240:80|240:80|496:304,1,1008.00000961304,12|2,0:0|0:0,0:0:0:0:
32,304,261402,5,12,0:0:0:0:
256,192,261589,12,0,262527,0:0:0:0:
336,320,262902,5,10,0:0:0:0:
347,298,262925,1,0,0:0:0:0:
351,275,262948,1,0,0:0:0:0:
348,251,262972,1,0,0:0:0:0:
339,229,262995,1,0,0:0:0:0:
323,211,263019,1,0,0:0:0:0:
303,198,263042,1,0,0:0:0:0:
280,191,263066,1,0,0:0:0:0:
256,192,263089,1,10,0:0:0:0:
233,185,263112,1,0,0:0:0:0:
213,172,263136,1,0,0:0:0:0:
197,154,263159,1,0,0:0:0:0:
188,132,263183,1,0,0:0:0:0:
185,108,263206,1,0,0:0:0:0:
189,85,263230,1,0,0:0:0:0:
352,64,263277,5,8,0:0:0:0:
373,73,263300,1,0,0:0:0:0:
393,86,263323,1,0,0:0:0:0:
411,103,263347,1,0,0:0:0:0:
425,123,263370,1,0,0:0:0:0:
435,144,263394,1,0,0:0:0:0:
441,167,263417,1,0,0:0:0:0:
443,191,263441,1,0,0:0:0:0:
441,215,263464,1,8,0:0:0:0:
435,238,263487,1,0,0:0:0:0:
425,260,263511,1,0,0:0:0:0:
411,279,263534,1,0,0:0:0:0:
394,296,263558,1,0,0:0:0:0:
374,310,263581,1,0,0:0:0:0:
352,319,263605,1,0,0:0:0:0:
112,192,263652,6,0,P|96:144|96:96,1,96,12|0,0:0|0:0,0:0:0:0:
112,64,263933,1,0,0:0:0:0:
288,192,264027,1,8,0:0:0:0:
288,192,264050,2,0,L|32:192,1,252.000009613037,0|10,0:0|0:0,0:0:0:0:
35,192,264237,1,0,0:0:0:0:
384,192,264402,5,8,0:0:0:0:
384,192,264425,2,0,L|128:192,1,252.000009613037,0|10,0:0|0:0,0:0:0:0:
158,240,264612,1,0,0:0:0:0:
240,240,264683,1,0,0:0:0:0:
480,192,264777,2,0,L|496:144,2,48,8|0|8,0:0|0:0|0:0,0:0:0:0:
96,80,265152,6,0,P|44:136|96:192,1,168,14|0,0:0|0:0,0:0:0:0:
272,304,265527,1,8,0:0:0:0:
276,282,265550,1,0,0:0:0:0:
275,260,265573,1,0,0:0:0:0:
269,240,265597,1,0,0:0:0:0:
258,222,265620,1,0,0:0:0:0:
243,206,265644,1,0,0:0:0:0:
224,195,265667,1,0,0:0:0:0:
204,188,265691,1,0,0:0:0:0:
224,182,265714,1,8,0:0:0:0:
243,170,265737,1,0,0:0:0:0:
258,155,265761,1,0,0:0:0:0:
269,137,265784,1,0,0:0:0:0:
275,117,265808,1,0,0:0:0:0:
276,95,265831,1,0,0:0:0:0:
272,73,265855,1,0,0:0:0:0:
96,64,265902,6,0,L|80:64,30,12,8|2|2|2|2|2|2|2|2|2|2|2|2|2|2|2|2|2|2|2|2|2|2|2|2|2|2|2|2|2|2,0:0|0:0|0:0|0:0|0:0|0:0|0:0|0:0|0:0|0:0|0:0|0:0|0:0|0:0|0:0|0:0|0:0|0:0|0:0|0:0|0:0|0:0|0:0|0:0|0:0|0:0|0:0|0:0|0:0|0:0|0:0,0:0:0:0:
336,192,266652,6,0,P|352:240|352:288,1,96,12|0,0:0|0:0,0:0:0:0:
336,320,266933,1,0,0:0:0:0:
160,240,267027,1,8,0:0:0:0:
148,219,267050,1,0,0:0:0:0:
144,195,267073,1,0,0:0:0:0:
148,172,267097,1,0,0:0:0:0:
160,151,267120,1,0,0:0:0:0:
448,192,267214,1,10,0:0:0:0:
320,192,267402,6,0,L|404:192,1,84,8|0,0:0|0:0,0:0:0:0:
404,192,267589,2,0,L|96:192,1,294.000002803802,8|0,0:0|0:0,0:0:0:0:
110,192,267777,2,0,P|103:160|103:96,1,96,8|0,0:0|0:0,0:0:0:0:
144,64,268058,1,0,0:0:0:0:
384,64,268152,5,10,0:0:0:0:
144,64,268527,1,8,0:0:0:0:
129,82,268550,1,0,0:0:0:0:
120,104,268573,1,0,0:0:0:0:
117,128,268597,1,0,0:0:0:0:
120,151,268620,1,0,0:0:0:0:
130,173,268644,1,0,0:0:0:0:
145,192,268667,1,0,0:0:0:0:
368,64,268714,1,10,0:0:0:0:
384,82,268737,1,0,0:0:0:0:
393,104,268761,1,0,0:0:0:0:
396,128,268784,1,0,0:0:0:0:
393,151,268808,1,0,0:0:0:0:
383,173,268831,1,0,0:0:0:0:
368,192,268855,1,0,0:0:0:0:
176,320,268902,5,10,0:0:0:0:
165,298,268925,1,0,0:0:0:0:
161,275,268948,1,0,0:0:0:0:
164,251,268972,1,0,0:0:0:0:
173,229,268995,1,0,0:0:0:0:
189,211,269019,1,0,0:0:0:0:
209,198,269042,1,0,0:0:0:0:
232,191,269066,1,0,0:0:0:0:
256,192,269089,1,10,0:0:0:0:
279,185,269112,1,0,0:0:0:0:
299,172,269136,1,0,0:0:0:0:
315,154,269159,1,0,0:0:0:0:
324,132,269183,1,0,0:0:0:0:
327,108,269206,1,0,0:0:0:0:
323,85,269230,1,0,0:0:0:0:
160,64,269277,5,8,0:0:0:0:
139,73,269300,1,0,0:0:0:0:
119,86,269323,1,0,0:0:0:0:
101,103,269347,1,0,0:0:0:0:
87,123,269370,1,0,0:0:0:0:
77,144,269394,1,0,0:0:0:0:
71,167,269417,1,0,0:0:0:0:
69,191,269441,1,0,0:0:0:0:
71,215,269464,1,8,0:0:0:0:
77,238,269487,1,0,0:0:0:0:
87,260,269511,1,0,0:0:0:0:
101,279,269534,1,0,0:0:0:0:
118,296,269558,1,0,0:0:0:0:
138,310,269581,1,0,0:0:0:0:
160,319,269605,1,0,0:0:0:0:
400,192,269652,6,0,P|416:144|416:96,1,96,12|0,0:0|0:0,0:0:0:0:
400,64,269933,1,0,0:0:0:0:
224,64,270027,1,8,0:0:0:0:
205,79,270050,1,0,0:0:0:0:
191,98,270073,1,0,0:0:0:0:
179,144,270097,1,0,0:0:0:0:
182,120,270120,1,0,0:0:0:0:
182,167,270144,1,0,0:0:0:0:
191,190,270167,1,0,0:0:0:0:
205,209,270191,1,0,0:0:0:0:
224,224,270214,1,10,0:0:0:0:
249,224,270237,1,0,0:0:0:0:
274,223,270261,1,0,0:0:0:0:
296,224,270284,1,0,0:0:0:0:
274,223,270308,1,0,0:0:0:0:
249,224,270331,1,0,0:0:0:0:
224,224,270355,1,0,0:0:0:0:
76,132,270402,6,0,P|64:178|79:223,1,96,8|10,0:0|0:0,0:0:0:0:
232,128,270683,1,0,0:0:0:0:
384,192,270777,2,0,L|96:192,1,288.000010986329,8|8,0:0|0:0,0:0:0:0:
72,194,270987,1,0,0:0:0:0:
54,209,271011,1,0,0:0:0:0:
47,231,271034,1,0,0:0:0:0:
54,254,271058,1,0,0:0:0:0:
72,269,271081,1,0,0:0:0:0:
96,272,271105,1,0,0:0:0:0:
384,256,271152,6,0,P|416:224|416:188,1,84,12|0,0:0|0:0,0:0:0:0:
384,144,271339,2,0,L|128:144,1,252.000009613037,10|0,0:0|0:0,0:0:0:0:
96,176,271527,2,0,L|384:176,1,288.000010986329,8|8,0:0|0:0,0:0:0:0:
96,208,271902,6,0,B|192:208|192:208|96:208|96:208|192:208|192:208,1,288,8|0,0:0|0:0,0:0:0:0:
464,208,272652,1,10,0:0:0:0:
184,176,273027,6,0,B|328:176|328:176|184:176|184:176|328:176,1,432.000016479493,8|0,0:0|0:0,0:0:0:0:
48,208,273777,1,2,0:0:0:0:
256,192,274152,12,0,274902,0:0:0:0:
160,192,275277,5,8,0:0:0:0:
200,192,275300,1,0,0:0:0:0:
168,184,275323,1,0,0:0:0:0:
192,184,275347,1,0,0:0:0:0:
160,192,275370,1,0,0:0:0:0:
200,192,275394,1,0,0:0:0:0:
168,184,275417,1,0,0:0:0:0:
192,184,275441,1,0,0:0:0:0:
160,192,275464,1,8,0:0:0:0:
200,192,275487,1,0,0:0:0:0:
168,184,275511,1,0,0:0:0:0:
192,184,275534,1,0,0:0:0:0:
160,192,275558,1,0,0:0:0:0:
200,192,275581,1,0,0:0:0:0:
168,184,275605,1,0,0:0:0:0:
400,192,275652,6,0,P|416:144|416:96,1,96,12|0,0:0|0:0,0:0:0:0:
400,64,275933,1,0,0:0:0:0:
224,192,276027,1,8,0:0:0:0:
224,192,276050,2,0,L|480:192,1,252.000009613037,0|10,0:0|0:0,0:0:0:0:
477,192,276237,1,0,0:0:0:0:
128,192,276402,5,8,0:0:0:0:
128,192,276425,2,0,L|384:192,1,252.000009613037,0|10,0:0|0:0,0:0:0:0:
353,240,276612,1,0,0:0:0:0:
326,240,276636,1,0,0:0:0:0:
300,240,276659,1,0,0:0:0:0:
272,240,276683,1,0,0:0:0:0:
32,192,276777,2,0,L|16:144,2,48,8|0|8,0:0|0:0|0:0,0:0:0:0:
416,80,277152,6,0,P|468:136|416:192,1,168,14|0,0:0|0:0,0:0:0:0:
240,304,277527,1,8,0:0:0:0:
236,282,277550,1,0,0:0:0:0:
237,260,277573,1,0,0:0:0:0:
243,240,277597,1,0,0:0:0:0:
254,222,277620,1,0,0:0:0:0:
269,206,277644,1,0,0:0:0:0:
288,195,277667,1,0,0:0:0:0:
308,188,277691,1,0,0:0:0:0:
288,182,277714,1,8,0:0:0:0:
269,170,277737,1,0,0:0:0:0:
254,155,277761,1,0,0:0:0:0:
243,137,277784,1,0,0:0:0:0:
237,117,277808,1,0,0:0:0:0:
236,95,277831,1,0,0:0:0:0:
240,73,277855,1,0,0:0:0:0:
416,64,277902,5,10,0:0:0:0:
440,64,277925,2,0,L|184:64,1,252.000009613037,0|10,0:0|0:0,0:0:0:0:
164,64,278112,2,0,L|416:64,1,252.000009613037,0|8,0:0|0:0,0:0:0:0:
432,64,278300,1,0,0:0:0:0:
443,86,278323,1,0,0:0:0:0:
452,108,278347,1,0,0:0:0:0:
459,130,278370,1,0,0:0:0:0:
463,154,278394,1,0,0:0:0:0:
462,178,278417,1,0,0:0:0:0:
448,208,278441,1,0,0:0:0:0:
462,178,278464,1,8,0:0:0:0:
448,208,278487,1,0,0:0:0:0:
462,178,278511,1,0,0:0:0:0:
448,208,278534,1,0,0:0:0:0:
462,178,278558,1,0,0:0:0:0:
192,192,278652,6,0,P|185:160|185:96,1,96,12|0,0:0|0:0,0:0:0:0:
226,64,278933,1,0,0:0:0:0:
464,64,279027,2,0,L|464:160,1,96,8|2,0:0|0:0,0:0:0:0:
424,160,279261,1,0,0:0:0:0:
384,160,279308,1,0,0:0:0:0:
344,160,279355,1,0,0:0:0:0:
304,192,279402,6,0,L|448:192,1,144.000005493164,8|2,0:0|0:0,0:0:0:0:
480,192,279612,1,0,0:0:0:0:
448,160,279636,1,0,0:0:0:0:
480,160,279659,1,0,0:0:0:0:
448,128,279683,1,0,0:0:0:0:
480,128,279706,1,0,0:0:0:0:
448,96,279730,1,0,0:0:0:0:
272,192,279777,2,0,P|240:160|240:112,1,96,8|0,0:0|0:0,0:0:0:0:
288,96,280058,1,0,0:0:0:0:
32,96,280152,5,10,0:0:0:0:
288,32,280339,1,8,0:0:0:0:
307,43,280362,1,0,0:0:0:0:
326,57,280386,1,0,0:0:0:0:
344,73,280409,1,0,0:0:0:0:
359,92,280433,1,0,0:0:0:0:
370,114,280456,1,0,0:0:0:0:
380,135,280480,1,0,0:0:0:0:
387,158,280503,1,0,0:0:0:0:
391,181,280527,1,0,0:0:0:0:
393,205,280550,1,0,0:0:0:0:
390,230,280573,1,0,0:0:0:0:
384,252,280597,1,0,0:0:0:0:
375,275,280620,1,0,0:0:0:0:
364,297,280644,1,0,0:0:0:0:
351,315,280667,1,0,0:0:0:0:
333,334,280691,1,0,0:0:0:0:
315,349,280714,1,8,0:0:0:0:
48,192,280902,5,8,0:0:0:0:
72,192,280925,1,0,0:0:0:0:
96,192,280948,1,0,0:0:0:0:
120,192,280972,1,0,0:0:0:0:
144,192,280995,1,0,0:0:0:0:
120,192,281019,1,0,0:0:0:0:
96,192,281042,1,0,0:0:0:0:
72,192,281066,1,0,0:0:0:0:
48,192,281089,1,8,0:0:0:0:
72,192,281112,1,0,0:0:0:0:
96,192,281136,1,0,0:0:0:0:
120,192,281159,1,0,0:0:0:0:
144,192,281183,1,0,0:0:0:0:
304,192,281277,1,2,0:0:0:0:
256,144,281323,2,0,L|128:144,1,115.2,0|8,0:0|0:0,0:0:0:0:
96,112,281511,1,0,0:0:0:0:
464,192,281745,6,0,L|464:176,1,12,0|0,0:0|0:0,0:0:0:0:
48,196,281862,2,0,L|48:156,1,36,2|0,0:0|0:0,0:0:0:0:
256,192,282027,2,0,L|400:192,1,144,8|0,0:0|0:0,0:0:0:0:
432,160,282120,1,0,0:0:0:0:
400,128,282144,2,0,L|256:128,1,144,2|0,0:0|0:0,0:0:0:0:
72,128,282284,2,0,L|48:128,1,24,2|2,0:0|0:0,0:0:0:0:
256,352,282402,6,0,B|352:192|256:32|256:32|80:32,1,504.000004806519,2|0,0:0|0:0,0:0:0:0:
432,128,282777,2,0,L|432:224,1,96,8|8,0:0|0:0,0:0:0:0:
112,128,283152,6,0,L|400:128,1,288.000010986329,12|10,0:0|0:0,0:0:0:0:
80,128,283527,2,0,L|80:176,1,48,8|0,0:0|0:0,0:0:0:0:
432,256,283714,2,0,L|432:208,1,48,0|0,0:0|0:0,0:0:0:0:
184,192,283902,6,0,B|328:192|328:192|184:192|184:192|328:192,1,432.000016479493,8|0,0:0|0:0,0:0:0:0:
328,152,284558,2,0,L|328:136,1,12,0|0,0:0|0:0,0:0:0:0:
184,152,284745,2,0,L|184:136,1,12,0|0,0:0|0:0,0:0:0:0:
136,112,284839,1,0,0:0:0:0:
112,64,284886,1,0,0:0:0:0:
136,24,284933,1,0,0:0:0:0:
400,192,285027,6,0,L|224:192,1,168.000006408692,10|0,0:0|0:0,0:0:0:0:
204,224,285277,2,0,L|428:224,1,224,8|0,0:0|0:0,0:0:0:0:
456,192,285527,2,0,P|488:160|456:112,1,112,8|0,0:0|0:0,0:0:0:0:
424,112,285777,2,0,P|376:176|424:248,1,176,8|0,0:0|0:0,0:0:0:0:
456,248,286152,6,0,L|64:248,1,392.000003738403,10|0,0:0|0:0,0:0:0:0:
64,192,286402,2,0,L|456:192,1,392.000003738403,8|0,0:0|0:0,0:0:0:0:
456,248,286652,2,0,L|64:248,1,392.000003738403,8|0,0:0|0:0,0:0:0:0:
64,192,286902,6,0,L|48:128,1,64,14|0,0:0|0:0,0:0:0:0:
160,128,287152,2,0,L|176:64,1,64,2|0,0:0|0:0,0:0:0:0:
64,64,287402,1,2,0:0:0:0:
176,64,287527,1,0,0:0:0:0:
368,192,287652,1,6,0:0:0:0:
256,192,287777,1,0,0:0:0:0:
368,192,287902,2,0,L|384:128,1,64,2|0,0:0|0:0,0:0:0:0:
272,128,288152,2,0,L|256:64,1,64,2|0,0:0|0:0,0:0:0:0:
448,192,288402,6,0,L|464:128,1,64,14|0,0:0|0:0,0:0:0:0:
352,128,288652,2,0,L|336:64,1,64,2|0,0:0|0:0,0:0:0:0:
448,64,288902,1,2,0:0:0:0:
336,65,289027,1,0,0:0:0:0:
144,192,289152,2,0,L|128:256,1,64,6|0,0:0|0:0,0:0:0:0:
240,256,289402,1,2,0:0:0:0:
352,256,289527,1,0,0:0:0:0:
240,256,289652,1,2,0:0:0:0:
352,256,289777,1,0,0:0:0:0:
160,256,289902,6,0,L|144:192,1,64,14|0,0:0|0:0,0:0:0:0:
256,176,290152,2,0,L|192:176,1,64,2|0,0:0|0:0,0:0:0:0:
304,256,290402,2,0,L|320:192,1,64,2|0,0:0|0:0,0:0:0:0:
128,192,290652,2,0,L|112:128,1,64,6|0,0:0|0:0,0:0:0:0:
224,128,290902,1,2,0:0:0:0:
112,128,291027,1,0,0:0:0:0:
224,128,291152,1,2,0:0:0:0:
112,128,291277,1,0,0:0:0:0:
304,128,291402,6,0,L|320:192,1,64,14|0,0:0|0:0,0:0:0:0:
208,192,291652,1,2,0:0:0:0:
320,192,291777,1,0,0:0:0:0:
208,192,291902,2,0,L|192:256,1,64,2|0,0:0|0:0,0:0:0:0:
448,192,292152,2,0,L|384:192,1,64,10|0,0:0|0:0,0:0:0:0:
192,64,292402,2,0,L|256:64,1,64,8|0,0:0|0:0,0:0:0:0:
64,192,292652,2,0,L|128:192,1,64,8|0,0:0|0:0,0:0:0:0:
320,192,292902,6,0,L|336:128,1,64,14|0,0:0|0:0,0:0:0:0:
224,128,293152,2,0,L|208:64,1,64,2|0,0:0|0:0,0:0:0:0:
320,64,293402,1,2,0:0:0:0:
208,65,293527,1,0,0:0:0:0:
400,192,293652,2,0,L|416:256,1,64,6|0,0:0|0:0,0:0:0:0:
304,256,293902,1,2,0:0:0:0:
192,256,294027,1,0,0:0:0:0:
304,256,294152,1,2,0:0:0:0:
192,256,294277,1,0,0:0:0:0:
384,254,294402,6,0,L|400:190,1,64,14|0,0:0|0:0,0:0:0:0:
288,190,294652,1,2,0:0:0:0:
400,190,294777,1,0,0:0:0:0:
288,192,294902,2,0,L|272:128,1,64,2|0,0:0|0:0,0:0:0:0:
464,128,295152,2,0,L|480:64,1,64,6|0,0:0|0:0,0:0:0:0:
368,64,295402,1,2,0:0:0:0:
256,64,295527,1,0,0:0:0:0:
368,64,295652,1,2,0:0:0:0:
256,64,295777,1,0,0:0:0:0:
64,192,295902,6,0,L|48:128,1,64,14|0,0:0|0:0,0:0:0:0:
160,192,296152,2,0,L|176:128,1,64,2|0,0:0|0:0,0:0:0:0:
288,192,296402,2,0,L|272:128,1,64,2|0,0:0|0:0,0:0:0:0:
464,192,296652,2,0,L|480:128,1,64,6|0,0:0|0:0,0:0:0:0:
368,112,296902,1,2,0:0:0:0:
480,112,297027,1,0,0:0:0:0:
368,112,297152,1,2,0:0:0:0:
480,112,297277,1,0,0:0:0:0:
288,256,297402,6,0,L|272:192,1,64,14|0,0:0|0:0,0:0:0:0:
384,192,297652,1,2,0:0:0:0:
272,192,297777,1,0,0:0:0:0:
384,192,297902,2,0,L|400:128,1,64,2|0,0:0|0:0,0:0:0:0:
144,192,298152,2,0,L|208:192,1,64,10|0,0:0|0:0,0:0:0:0:
400,320,298402,2,0,L|336:320,1,64,8|0,0:0|0:0,0:0:0:0:
144,192,298652,1,8,0:0:0:0:
336,192,298777,1,0,0:0:0:0:
80,192,298902,6,0,L|64:128,1,64,6|0,0:0|0:0,0:0:0:0:
176,192,299152,2,0,L|160:128,1,64,2|0,0:0|0:0,0:0:0:0:
48,192,299402,2,0,L|64:128,1,64,2|0,0:0|0:0,0:0:0:0:
256,192,299652,2,0,L|272:128,1,64,6|0,0:0|0:0,0:0:0:0:
160,128,299902,1,2,0:0:0:0:
272,128,300027,1,0,0:0:0:0:
160,128,300152,1,2,0:0:0:0:
352,128,300277,1,0,0:0:0:0:
160,192,300402,6,0,L|144:128,1,64,6|0,0:0|0:0,0:0:0:0:
256,192,300652,2,0,L|240:128,1,64,2|0,0:0|0:0,0:0:0:0:
128,192,300902,2,0,L|144:128,1,64,2|0,0:0|0:0,0:0:0:0:
336,192,301152,2,0,L|320:128,1,64,6|0,0:0|0:0,0:0:0:0:
208,192,301402,2,0,L|224:128,1,64,2|0,0:0|0:0,0:0:0:0:
416,128,301652,2,0,L|432:192,1,64,2|0,0:0|0:0,0:0:0:0:
239,192,301902,6,0,L|223:128,1,64,6|0,0:0|0:0,0:0:0:0:
335,192,302152,2,0,L|319:128,1,64,2|0,0:0|0:0,0:0:0:0:
207,192,302402,2,0,L|223:128,1,64,2|0,0:0|0:0,0:0:0:0:
415,192,302652,2,0,L|431:128,1,64,6|0,0:0|0:0,0:0:0:0:
319,128,302902,1,2,0:0:0:0:
432,128,303027,1,0,0:0:0:0:
320,128,303152,1,2,0:0:0:0:
432,128,303277,1,0,0:0:0:0:
240,128,303402,6,0,L|224:192,1,64,6|0,0:0|0:0,0:0:0:0:
416,128,303652,2,0,L|400:192,1,64,2|0,0:0|0:0,0:0:0:0:
288,128,303902,2,0,L|304:192,1,64,2|0,0:0|0:0,0:0:0:0:
48,128,304152,2,0,L|64:192,1,64,10|0,0:0|0:0,0:0:0:0:
256,192,304402,1,8,0:0:0:0:
144,192,304527,1,0,0:0:0:0:
336,192,304652,1,8,0:0:0:0:
224,192,304777,1,0,0:0:0:0:
416,192,304902,6,0,L|432:128,1,64,6|0,0:0|0:0,0:0:0:0:
320,192,305152,2,0,L|336:128,1,64,2|0,0:0|0:0,0:0:0:0:
448,192,305402,2,0,L|432:128,1,64,2|0,0:0|0:0,0:0:0:0:
240,192,305652,2,0,L|224:128,1,64,6|0,0:0|0:0,0:0:0:0:
336,128,305902,1,2,0:0:0:0:
224,128,306027,1,0,0:0:0:0:
336,128,306152,1,2,0:0:0:0:
224,128,306277,1,0,0:0:0:0:
416,128,306402,6,0,L|432:192,1,64,6|0,0:0|0:0,0:0:0:0:
320,128,306652,2,0,L|304:192,1,64,2|0,0:0|0:0,0:0:0:0:
112,128,306902,2,0,L|128:192,1,64,2|0,0:0|0:0,0:0:0:0:
384,192,307152,2,0,L|320:192,1,64,6|0,0:0|0:0,0:0:0:0:
128,192,307402,2,0,L|192:192,1,64,2|0,0:0|0:0,0:0:0:0:
384,192,307652,2,0,L|368:128,1,64,2|0,0:0|0:0,0:0:0:0:
176,192,307902,6,0,L|160:128,1,64,6|0,0:0|0:0,0:0:0:0:
272,192,308152,2,0,L|256:128,1,64,2|0,0:0|0:0,0:0:0:0:
144,192,308402,2,0,L|160:128,1,64,2|0,0:0|0:0,0:0:0:0:
352,192,308652,2,0,L|368:128,1,64,6|0,0:0|0:0,0:0:0:0:
256,128,308902,1,2,0:0:0:0:
368,128,309027,1,0,0:0:0:0:
256,128,309152,2,0,L|272:192,1,64,2|0,0:0|0:0,0:0:0:0:
464,192,309402,6,0,L|464:128,1,64,6|0,0:0|0:0,0:0:0:0:
352,192,309652,2,0,L|304:144,1,64,2|0,0:0|0:0,0:0:0:0:
192,192,309902,2,0,L|128:192,1,64,2|0,0:0|0:0,0:0:0:0:
384,192,310152,2,0,L|448:192,1,64,10|0,0:0|0:0,0:0:0:0:
256,192,310402,2,0,L|192:192,1,64,8|0,0:0|0:0,0:0:0:0:
384,192,310652,1,8,0:0:0:0:
192,192,310777,1,0,0:0:0:0:
384,192,310902,6,0,L|400:128,1,64,6|0,0:0|0:0,0:0:0:0:
288,192,311152,2,0,L|304:128,1,64,2|0,0:0|0:0,0:0:0:0:
416,192,311402,2,0,L|400:128,1,64,2|0,0:0|0:0,0:0:0:0:
208,192,311652,2,0,L|192:128,1,64,6|0,0:0|0:0,0:0:0:0:
304,128,311902,1,2,0:0:0:0:
192,128,312027,1,0,0:0:0:0:
304,128,312152,1,2,0:0:0:0:
112,128,312277,1,0,0:0:0:0:
304,192,312402,6,0,L|320:128,1,64,6|0,0:0|0:0,0:0:0:0:
208,192,312652,2,0,L|224:128,1,64,2|0,0:0|0:0,0:0:0:0:
336,192,312902,2,0,L|320:128,1,64,2|0,0:0|0:0,0:0:0:0:
128,192,313152,2,0,L|144:128,1,64,6|0,0:0|0:0,0:0:0:0:
336,192,313402,2,0,L|400:192,1,64,2|0,0:0|0:0,0:0:0:0:
208,192,313652,2,0,L|144:192,1,64,2|0,0:0|0:0,0:0:0:0:
400,192,313902,6,0,L|416:128,1,64,6|0,0:0|0:0,0:0:0:0:
304,192,314152,2,0,L|320:128,1,64,2|0,0:0|0:0,0:0:0:0:
432,192,314402,2,0,L|416:128,1,64,2|0,0:0|0:0,0:0:0:0:
224,192,314652,2,0,L|208:128,1,64,6|0,0:0|0:0,0:0:0:0:
320,128,314902,1,2,0:0:0:0:
208,128,315027,1,0,0:0:0:0:
464,192,315152,1,2,0:0:0:0:
352,192,315277,1,0,0:0:0:0:
160,192,315402,6,0,L|144:128,1,64,6|0,0:0|0:0,0:0:0:0:
256,192,315652,2,0,L|240:128,1,64,2|0,0:0|0:0,0:0:0:0:
128,192,315902,2,0,L|144:128,1,64,2|0,0:0|0:0,0:0:0:0:
400,192,316152,2,0,L|416:128,1,64,10|0,0:0|0:0,0:0:0:0:
304,192,316402,2,0,L|368:192,1,64,8|0,0:0|0:0,0:0:0:0:
256,128,316652,2,0,L|320:128,1,64,8|0,0:0|0:0,0:0:0:0:
96,192,316902,6,0,L|80:128,1,64,6|0,0:0|0:0,0:0:0:0:
192,192,317152,2,0,L|176:128,1,64,2|0,0:0|0:0,0:0:0:0:
64,192,317402,2,0,L|48:128,1,64,2|0,0:0|0:0,0:0:0:0:
272,192,317652,2,0,L|336:192,1,64,6|0,0:0|0:0,0:0:0:0:
144,192,317902,2,0,L|128:128,1,64,2|0,0:0|0:0,0:0:0:0:
320,128,318152,1,2,0:0:0:0:
128,128,318277,1,0,0:0:0:0:
384,192,318402,6,0,L|400:128,1,64,6|0,0:0|0:0,0:0:0:0:
288,192,318652,2,0,L|304:128,1,64,2|0,0:0|0:0,0:0:0:0:
416,192,318902,2,0,L|400:128,1,64,2|0,0:0|0:0,0:0:0:0:
144,192,319152,2,0,L|128:128,1,64,10|0,0:0|0:0,0:0:0:0:
320,192,319402,2,0,L|304:128,1,64,8|0,0:0|0:0,0:0:0:0:
496,192,319652,2,0,L|480:128,1,64,8|0,0:0|0:0,0:0:0:0:
184,192,319902,6,0,B|328:192|328:192|184:192|184:192|328:192,1,432.000016479493,8|0,0:0|0:0,0:0:0:0:
112,192,321027,6,0,L|288:192,1,168.000006408692,8|0,0:0|0:0,0:0:0:0:
308,224,321277,2,0,L|84:224,1,224,10|0,0:0|0:0,0:0:0:0:
56,192,321527,2,0,P|24:160|56:112,1,112,2|0,0:0|0:0,0:0:0:0:
88,112,321777,2,0,P|136:176|88:248,1,176,0|0,0:0|0:0,0:0:0:0:
56,248,322152,6,0,B|392:248|392:248|416:168|392:80,1,504.000004806519,12|0,0:0|0:0,0:0:0:0:
128,136,322527,2,0,B|464:136|464:136|488:216|464:304,1,504.000004806519,8|0,0:0|0:0,0:0:0:0:
200,248,322902,5,4,0:0:0:0:
256,192,331902,12,0,334714,0:0:0:0:
176,272,334902,6,0,P|144:192|176:96,1,192,10|0,0:0|0:0,0:0:0:0:
336,96,335464,1,0,0:0:0:0:
176,272,335652,2,0,P|128:192|128:144,1,144,8|0,0:0|0:0,0:0:0:0:
224,144,336027,1,0,0:0:0:0:
64,144,336214,1,0,0:0:0:0:
336,272,336402,6,0,P|384:192|384:144,1,144,10|0,0:0|0:0,0:0:0:0:
288,144,336777,1,0,0:0:0:0:
448,144,336964,1,0,0:0:0:0:
176,144,337152,1,8,0:0:0:0:
336,144,337339,1,0,0:0:0:0:
176,144,337527,2,0,L|160:240,1,96,0|0,0:0|0:0,0:0:0:0:
432,256,337902,6,0,P|432:208|368:144,1,144,10|0,0:0|0:0,0:0:0:0:
272,144,338277,1,0,0:0:0:0:
432,144,338464,1,0,0:0:0:0:
272,144,338652,2,0,P|256:192|256:240,1,96,8|0,0:0|0:0,0:0:0:0:
288,272,338933,1,0,0:0:0:0:
352,272,339027,1,0,0:0:0:0:
192,272,339214,1,0,0:0:0:0:
464,192,339402,5,10,0:0:0:0:
336,192,339589,1,0,0:0:0:0:
400,192,339683,1,0,0:0:0:0:
464,192,339777,1,0,0:0:0:0:
336,192,339964,1,0,0:0:0:0:
64,192,340152,1,10,0:0:0:0:
192,192,340339,2,0,L|144:192,2,48,0|0|2,0:0|0:0|2:0,0:0:0:0:
64,192,340714,1,0,0:0:0:0:
336,272,340902,6,0,P|368:192|336:96,1,192,10|0,0:0|0:0,0:0:0:0:
176,96,341464,1,0,0:0:0:0:
336,272,341652,2,0,P|384:192|384:144,1,144,8|0,0:0|0:0,0:0:0:0:
288,144,342027,1,0,0:0:0:0:
448,144,342214,1,0,0:0:0:0:
176,272,342402,6,0,P|128:192|128:144,1,144,10|0,0:0|0:0,0:0:0:0:
224,144,342777,1,0,0:0:0:0:
64,144,342964,1,0,0:0:0:0:
336,144,343152,1,10,0:0:0:0:
176,144,343339,1,0,0:0:0:0:
336,144,343527,2,0,L|352:240,1,96,0|0,0:0|0:0,0:0:0:0:
80,240,343902,5,10,0:0:0:0:
256,192,344089,12,0,345777,0:0:0:0:
256,192,345823,12,0,345870,0:0:0:0:
256,192,345917,12,0,345964,0:0:0:0:
256,192,346011,12,0,346058,0:0:0:0:
256,192,346104,12,0,346152,0:0:0:0:
256,192,346198,12,0,346245,0:0:0:0:
256,192,346292,12,0,346339,0:0:0:0:
256,192,346386,12,0,346433,0:0:0:0:
256,192,346479,12,0,346527,0:0:0:0:
256,192,346550,12,0,346573,0:0:0:0:
256,192,346597,12,0,346620,0:0:0:0:
256,192,346644,12,0,346667,0:0:0:0:
256,192,346691,12,0,346714,0:0:0:0:
328,192,346902,6,0,L|184:192,1,144.000005493164,14|0,0:0|0:0,0:0:0:0:
448,288,347277,2,0,P|480:192|448:80,1,216.000008239746,10|0,0:0|0:0,0:0:0:0:
184,192,347652,6,0,L|328:192,1,144.000005493164,10|0,0:0|0:0,0:0:0:0:
64,288,348027,2,0,L|48:144,1,144.000005493164,2|0,0:0|0:0,0:0:0:0:
320,192,348402,5,10,0:0:0:0:
302,192,348425,1,0,0:0:0:0:
284,192,348448,1,0,0:0:0:0:
267,192,348472,1,0,0:0:0:0:
249,192,348495,1,0,0:0:0:0:
232,192,348519,1,0,0:0:0:0:
214,192,348542,1,0,0:0:0:0:
196,192,348566,1,0,0:0:0:0:
179,192,348589,1,0,0:0:0:0:
448,288,348777,2,0,L|464:144,1,144.000005493164,8|0,0:0|0:0,0:0:0:0:
160,288,349152,6,0,P|80:224|112:128,1,216.000008239746,10|0,0:0|0:0,0:0:0:0:
352,288,349527,2,0,P|432:224|400:128,1,216.000008239746,10|0,0:0|0:0,0:0:0:0:
176,192,349902,5,10,0:0:0:0:
320,192,350089,1,0,0:0:0:0:
256,192,350183,1,0,0:0:0:0:
320,192,350277,1,8,0:0:0:0:
176,192,350464,1,0,0:0:0:0:
240,192,350558,1,0,0:0:0:0:
464,192,350652,6,0,L|80:192,1,384,10|0,0:0|0:0,0:0:0:0:
440,144,351027,2,0,L|104:144,1,336.000003204346,8|0,0:0|0:0,0:0:0:0:
256,96,351308,1,0,0:0:0:0:
416,96,351402,6,0,L|432:240,1,144.000005493164,8|0,0:0|0:0,0:0:0:0:
104,144,351777,2,0,L|440:144,1,336.000003204346,8|0,0:0|0:0,0:0:0:0:
256,96,352058,1,0,0:0:0:0:
96,96,352152,6,0,L|80:240,1,144.000005493164,8|0,0:0|0:0,0:0:0:0:
440,144,352527,2,0,L|104:144,1,336.000003204346,10|8,0:0|0:0,0:0:0:0:
416,96,352902,5,10,0:0:0:0:
444,118,352925,1,0,0:0:0:0:
465,147,352948,1,0,0:0:0:0:
479,180,352972,1,0,0:0:0:0:
483,215,352995,1,0,0:0:0:0:
479,251,353019,1,0,0:0:0:0:
465,284,353042,1,0,0:0:0:0:
479,251,353066,1,0,0:0:0:0:
483,215,353089,1,0,0:0:0:0:
479,180,353112,1,0,0:0:0:0:
465,147,353136,1,0,0:0:0:0:
444,118,353159,1,0,0:0:0:0:
416,96,353183,1,0,0:0:0:0:
96,96,353277,5,10,0:0:0:0:
68,118,353300,1,0,0:0:0:0:
47,147,353323,1,0,0:0:0:0:
33,180,353347,1,0,0:0:0:0:
29,215,353370,1,0,0:0:0:0:
33,251,353394,1,0,0:0:0:0:
47,284,353417,1,0,0:0:0:0:
33,251,353441,1,0,0:0:0:0:
29,215,353464,1,2,0:0:0:0:
33,180,353487,1,0,0:0:0:0:
47,147,353511,1,0,0:0:0:0:
68,118,353534,1,0,0:0:0:0:
96,96,353558,1,0,0:0:0:0:
416,96,353652,5,10,0:0:0:0:
272,96,353839,1,0,0:0:0:0:
336,96,353933,1,0,0:0:0:0:
272,96,354027,1,10,0:0:0:0:
416,96,354214,1,0,0:0:0:0:
96,96,354402,5,10,0:0:0:0:
114,96,354425,1,0,0:0:0:0:
132,96,354448,1,0,0:0:0:0:
149,96,354472,1,0,0:0:0:0:
167,96,354495,1,0,0:0:0:0:
184,96,354519,1,0,0:0:0:0:
202,96,354542,1,0,0:0:0:0:
220,96,354566,1,0,0:0:0:0:
237,96,354589,1,0,0:0:0:0:
176,96,354683,1,0,0:0:0:0:
240,96,354777,1,8,0:0:0:0:
96,96,354964,1,0,0:0:0:0:
400,128,355152,6,0,P|431:225|352:288,1,216.000008239746,10|0,0:0|0:0,0:0:0:0:
111,128,355527,2,0,P|80:225|160:288,1,216.000008239746,10|0,0:0|0:0,0:0:0:0:
400,128,355902,6,0,P|448:160|448:240,1,144.000005493164,10|0,0:0|0:0,0:0:0:0:
352,256,356183,1,0,0:0:0:0:
256,272,356277,1,10,0:0:0:0:
448,288,356464,1,8,0:0:0:0:
112,128,356652,6,0,P|64:160|64:240,1,144.000005493164,10|0,0:0|0:0,0:0:0:0:
224,256,356933,1,0,0:0:0:0:
384,272,357027,1,8,0:0:0:0:
80,288,357214,1,8,0:0:0:0:
432,288,357589,5,0,0:0:0:0:
128,272,357777,2,0,L|128:224,1,36.0000013732911,8|0,0:0|0:0,0:0:0:0:
256,240,357964,2,0,L|256:192,1,36.0000013732911,8|0,0:0|0:0,0:0:0:0:
48,192,358152,5,10,0:0:0:0:
296,192,358339,1,8,0:0:0:0:
216,192,358433,1,0,0:0:0:0:
464,192,358527,1,10,0:0:0:0:
480,163,358550,1,0,0:0:0:0:
489,132,358573,1,0,0:0:0:0:
490,99,358597,1,0,0:0:0:0:
485,68,358620,1,0,0:0:0:0:
473,37,358644,1,0,0:0:0:0:
455,11,358667,1,0,0:0:0:0:
473,37,358691,1,0,0:0:0:0:
485,68,358714,1,0,0:0:0:0:
490,99,358737,1,0,0:0:0:0:
489,132,358761,1,0,0:0:0:0:
480,163,358784,1,0,0:0:0:0:
464,192,358808,1,0,0:0:0:0:
176,64,358902,5,10,0:0:0:0:
336,64,359089,1,0,0:0:0:0:
256,64,359183,1,0,0:0:0:0:
176,64,359277,1,8,0:0:0:0:
336,192,359464,1,0,0:0:0:0:
256,192,359558,1,0,0:0:0:0:
448,192,359652,5,10,0:0:0:0:
176,320,359839,1,0,0:0:0:0:
256,320,359933,1,0,0:0:0:0:
336,320,360027,1,8,0:0:0:0:
64,192,360214,1,8,0:0:0:0:
144,192,360308,1,0,0:0:0:0:
368,192,360402,5,8,0:0:0:0:
208,192,360589,1,0,0:0:0:0:
288,192,360683,1,0,0:0:0:0:
96,96,360777,1,8,0:0:0:0:
176,96,360870,1,0,0:0:0:0:
256,96,360964,1,0,0:0:0:0:
176,96,361058,1,0,0:0:0:0:
416,96,361152,5,8,0:0:0:0:
256,96,361339,1,2,0:0:0:0:
176,96,361433,1,0,0:0:0:0:
336,256,361527,2,0,L|336:292,1,36.0000013732911,10|0,0:0|0:0,0:0:0:0:
112,256,361714,2,0,L|112:292,1,36.0000013732911,10|0,0:0|0:0,0:0:0:0:
416,320,361902,5,10,0:0:0:0:
439,292,361925,1,0,0:0:0:0:
457,261,361948,1,0,0:0:0:0:
468,227,361972,1,0,0:0:0:0:
471,191,361995,1,0,0:0:0:0:
468,156,362019,1,0,0:0:0:0:
457,121,362042,1,0,0:0:0:0:
439,90,362066,1,0,0:0:0:0:
415,63,362089,1,0,0:0:0:0:
256,64,362183,1,0,0:0:0:0:
96,320,362277,5,8,0:0:0:0:
73,292,362300,1,0,0:0:0:0:
55,261,362323,1,0,0:0:0:0:
44,227,362347,1,0,0:0:0:0:
41,191,362370,1,0,0:0:0:0:
44,156,362394,1,0,0:0:0:0:
55,121,362417,1,0,0:0:0:0:
73,90,362441,1,0,0:0:0:0:
97,63,362464,1,0,0:0:0:0:
256,64,362558,1,0,0:0:0:0:
32,192,362652,5,8,0:0:0:0:
176,192,362839,1,0,0:0:0:0:
112,192,362933,1,0,0:0:0:0:
304,192,363027,1,8,0:0:0:0:
48,192,363214,2,0,L|0:192,3,36.0000013732911,8|0|0|0,0:0|0:0|0:0|0:0,0:0:0:0:
48,192,363402,5,0,0:0:0:0:
384,192,363589,2,0,L|384:144,1,36.0000013732911,8|0,0:0|0:0,0:0:0:0:
128,192,363777,2,0,L|464:192,1,336.000003204346,10|8,0:0|0:0,0:0:0:0:
48,192,364152,5,8,0:0:0:0:
192,192,364339,1,8,0:0:0:0:
128,192,364433,1,0,0:0:0:0:
192,192,364527,1,10,0:0:0:0:
48,192,364714,1,0,0:0:0:0:
400,192,364902,6,0,B|256:192|256:192|256:112,1,216.000008239746,10|0,0:0|0:0,0:0:0:0:
464,192,365277,2,0,B|464:48|464:48|384:48,1,216.000008239746,10|0,0:0|0:0,0:0:0:0:
144,192,365652,5,10,0:0:0:0:
288,192,365839,1,0,0:0:0:0:
224,192,365933,1,0,0:0:0:0:
416,192,366027,1,10,0:0:0:0:
144,192,366214,1,8,0:0:0:0:
288,192,366402,5,10,0:0:0:0:
16,192,366589,1,0,0:0:0:0:
176,192,366683,1,0,0:0:0:0:
336,192,366777,1,8,0:0:0:0:
400,192,366870,1,0,0:0:0:0:
400,128,366964,1,0,0:0:0:0:
336,128,367058,1,0,0:0:0:0:
80,112,367152,5,10,0:0:0:0:
224,112,367339,1,0,0:0:0:0:
160,112,367433,1,0,0:0:0:0:
352,112,367527,1,10,0:0:0:0:
416,112,367620,1,0,0:0:0:0:
352,112,367714,1,0,0:0:0:0:
416,112,367808,1,0,0:0:0:0:
256,112,367902,5,10,0:0:0:0:
400,192,368089,1,0,0:0:0:0:
336,192,368183,1,0,0:0:0:0:
496,192,368277,1,8,0:0:0:0:
16,192,368652,5,10,0:0:0:0:
224,192,368745,1,0,0:0:0:0:
272,152,368839,1,0,0:0:0:0:
288,96,368933,1,0,0:0:0:0:
80,96,369027,1,8,0:0:0:0:
400,96,369214,1,8,0:0:0:0:
64,192,369589,5,8,0:0:0:0:
448,192,369777,2,0,L|448:48,1,144.000005493164,8|8,0:0|0:0,0:0:0:0:
64,192,370152,5,8,0:0:0:0:
448,192,370339,1,8,0:0:0:0:
256,192,370433,1,0,0:0:0:0:
448,192,370527,2,0,L|448:48,1,144.000005493164,8|0,0:0|0:0,0:0:0:0:
184,192,370902,6,0,L|328:192,1,144.000005493164,14|0,0:0|0:0,0:0:0:0:
64,288,371277,2,0,P|32:192|64:80,1,216.000008239746,10|0,0:0|0:0,0:0:0:0:
328,192,371652,6,0,L|184:192,1,144.000005493164,10|0,0:0|0:0,0:0:0:0:
448,288,372027,2,0,L|464:144,1,144.000005493164,2|0,0:0|0:0,0:0:0:0:
192,192,372402,5,10,0:0:0:0:
210,192,372425,1,0,0:0:0:0:
228,192,372448,1,0,0:0:0:0:
245,192,372472,1,0,0:0:0:0:
263,192,372495,1,0,0:0:0:0:
245,192,372519,1,0,0:0:0:0:
228,192,372542,1,0,0:0:0:0:
210,192,372566,1,0,0:0:0:0:
192,192,372589,1,0,0:0:0:0:
448,288,372777,2,0,L|464:144,1,144.000005493164,8|0,0:0|0:0,0:0:0:0:
160,288,373152,6,0,B|80:288|80:288|80:224|80:224|160:224,1,216.000008239746,10|0,0:0|0:0,0:0:0:0:
352,288,373527,2,0,B|432:288|432:288|432:224|432:224|352:224,1,216.000008239746,10|0,0:0|0:0,0:0:0:0:
176,192,373902,5,10,0:0:0:0:
320,192,374089,1,0,0:0:0:0:
256,192,374183,1,0,0:0:0:0:
320,192,374277,1,8,0:0:0:0:
176,192,374464,1,0,0:0:0:0:
240,192,374558,1,0,0:0:0:0:
464,192,374652,6,0,L|80:192,1,384,10|0,0:0|0:0,0:0:0:0:
440,144,375027,2,0,B|104:144,1,336.000003204346,8|0,0:0|0:0,0:0:0:0:
256,96,375308,1,0,0:0:0:0:
96,96,375402,6,0,L|80:240,1,144.000005493164,8|0,0:0|0:0,0:0:0:0:
408,144,375777,2,0,L|72:144,1,336.000003204346,8|0,0:0|0:0,0:0:0:0:
416,96,376152,6,0,L|432:240,1,144.000005493164,8|0,0:0|0:0,0:0:0:0:
256,96,376433,1,0,0:0:0:0:
440,144,376527,2,0,L|104:144,1,336.000003204346,8|8,0:0|0:0,0:0:0:0:
416,96,376902,5,10,0:0:0:0:
424,128,376925,1,0,0:0:0:0:
432,160,376948,1,0,0:0:0:0:
440,192,376972,1,0,0:0:0:0:
416,96,376995,1,0,0:0:0:0:
424,128,377019,1,0,0:0:0:0:
432,160,377042,1,0,0:0:0:0:
440,192,377066,1,0,0:0:0:0:
416,96,377089,1,0,0:0:0:0:
424,128,377112,1,0,0:0:0:0:
432,160,377136,1,0,0:0:0:0:
440,192,377159,1,0,0:0:0:0:
416,96,377183,1,0,0:0:0:0:
96,96,377277,5,8,0:0:0:0:
88,128,377300,1,0,0:0:0:0:
80,160,377323,1,0,0:0:0:0:
72,192,377347,1,0,0:0:0:0:
96,96,377370,1,0,0:0:0:0:
88,128,377394,1,0,0:0:0:0:
80,160,377417,1,0,0:0:0:0:
72,192,377441,1,0,0:0:0:0:
96,96,377464,1,0,0:0:0:0:
88,128,377487,1,0,0:0:0:0:
80,160,377511,1,0,0:0:0:0:
72,192,377534,1,0,0:0:0:0:
96,96,377558,1,0,0:0:0:0:
416,96,377652,5,8,0:0:0:0:
272,96,377839,1,0,0:0:0:0:
336,96,377933,1,0,0:0:0:0:
128,96,378027,1,8,0:0:0:0:
272,96,378214,1,0,0:0:0:0:
208,96,378308,1,0,0:0:0:0:
272,96,378402,5,10,0:0:0:0:
290,96,378425,1,0,0:0:0:0:
308,96,378448,1,0,0:0:0:0:
325,96,378472,1,0,0:0:0:0:
343,96,378495,1,0,0:0:0:0:
325,96,378519,1,0,0:0:0:0:
308,96,378542,1,0,0:0:0:0:
290,96,378566,1,0,0:0:0:0:
272,96,378589,1,0,0:0:0:0:
336,192,378683,1,0,0:0:0:0:
128,192,378777,1,8,0:0:0:0:
272,192,378964,1,0,0:0:0:0:
208,192,379058,1,0,0:0:0:0:
432,96,379152,6,0,L|448:240,1,144.000005493164,8|0,0:0|0:0,0:0:0:0:
368,256,379433,1,0,0:0:0:0:
144,256,379527,2,0,L|128:176,1,72.0000027465821,10|0,0:0|0:0,0:0:0:0:
288,192,379714,2,0,L|272:112,1,72.0000027465821,2|0,0:0|0:0,0:0:0:0:
48,192,379902,5,10,0:0:0:0:
192,192,380089,1,0,0:0:0:0:
128,192,380183,1,0,0:0:0:0:
192,192,380277,1,8,0:0:0:0:
48,192,380464,1,8,0:0:0:0:
336,192,380652,5,8,0:0:0:0:
192,192,380839,1,0,0:0:0:0:
344,192,380933,1,0,0:0:0:0:
496,192,381027,1,8,0:0:0:0:
192,192,381214,1,8,0:0:0:0:
480,192,381589,5,0,0:0:0:0:
192,192,381777,2,0,L|192:144,1,36.0000013732911,8|0,0:0|0:0,0:0:0:0:
320,192,381964,2,0,L|320:144,1,36.0000013732911,8|0,0:0|0:0,0:0:0:0:
32,192,382152,5,8,0:0:0:0:
296,192,382339,1,10,0:0:0:0:
216,192,382433,1,0,0:0:0:0:
480,192,382527,1,10,0:0:0:0:
489,175,382550,1,0,0:0:0:0:
496,158,382573,1,0,0:0:0:0:
500,141,382597,1,0,0:0:0:0:
501,123,382620,1,0,0:0:0:0:
499,105,382644,1,0,0:0:0:0:
496,88,382667,1,0,0:0:0:0:
489,71,382691,1,0,0:0:0:0:
481,56,382714,1,0,0:0:0:0:
469,41,382737,1,0,0:0:0:0:
456,29,382761,1,0,0:0:0:0:
441,19,382784,1,0,0:0:0:0:
425,11,382808,1,0,0:0:0:0:
176,64,382902,5,10,0:0:0:0:
336,64,383089,1,0,0:0:0:0:
256,64,383183,1,0,0:0:0:0:
336,64,383277,1,8,0:0:0:0:
176,192,383464,1,0,0:0:0:0:
256,192,383558,1,0,0:0:0:0:
448,192,383652,5,10,0:0:0:0:
288,192,383839,1,0,0:0:0:0:
368,192,383933,1,0,0:0:0:0:
288,192,384027,1,8,0:0:0:0:
448,320,384214,1,8,0:0:0:0:
256,320,384308,1,0,0:0:0:0:
64,192,384402,5,8,0:0:0:0:
224,192,384589,1,0,0:0:0:0:
144,192,384683,1,0,0:0:0:0:
336,192,384777,1,8,0:0:0:0:
416,192,384870,1,0,0:0:0:0:
336,192,384964,1,0,0:0:0:0:
416,192,385058,1,0,0:0:0:0:
224,64,385152,5,8,0:0:0:0:
368,64,385339,1,2,0:0:0:0:
288,64,385433,1,0,0:0:0:0:
448,224,385527,2,0,L|448:260,1,36.0000013732911,10|0,0:0|0:0,0:0:0:0:
224,224,385714,2,0,L|224:260,1,36.0000013732911,10|0,0:0|0:0,0:0:0:0:
448,224,385902,5,10,0:0:0:0:
470,207,385925,1,0,0:0:0:0:
489,185,385948,1,0,0:0:0:0:
501,159,385972,1,0,0:0:0:0:
502,132,385995,1,0,0:0:0:0:
492,103,386019,1,0,0:0:0:0:
477,83,386042,1,0,0:0:0:0:
455,67,386066,1,0,0:0:0:0:
428,60,386089,1,0,0:0:0:0:
246,63,386183,1,0,0:0:0:0:
64,160,386277,5,8,0:0:0:0:
42,177,386300,1,0,0:0:0:0:
23,199,386323,1,0,0:0:0:0:
11,225,386347,1,0,0:0:0:0:
10,252,386370,1,0,0:0:0:0:
20,281,386394,1,0,0:0:0:0:
35,301,386417,1,0,0:0:0:0:
57,317,386441,1,0,0:0:0:0:
84,324,386464,1,0,0:0:0:0:
266,321,386558,1,0,0:0:0:0:
64,160,386652,5,8,0:0:0:0:
208,160,386839,1,0,0:0:0:0:
144,160,386933,1,0,0:0:0:0:
336,160,387027,1,8,0:0:0:0:
80,192,387214,1,8,0:0:0:0:
32,224,387261,1,0,0:0:0:0:
64,256,387308,1,0,0:0:0:0:
32,288,387355,1,0,0:0:0:0:
80,320,387402,5,0,0:0:0:0:
400,192,387589,2,0,L|400:144,1,36.0000013732911,8|0,0:0|0:0,0:0:0:0:
144,192,387777,2,0,L|480:192,1,336.000003204346,10|8,0:0|0:0,0:0:0:0:
64,192,388152,5,8,0:0:0:0:
208,192,388339,1,8,0:0:0:0:
144,192,388433,1,0,0:0:0:0:
208,192,388527,1,10,0:0:0:0:
64,192,388714,1,0,0:0:0:0:
416,192,388902,6,0,B|272:192|272:192|352:192,1,216.000008239746,10|0,0:0|0:0,0:0:0:0:
144,128,389277,2,0,B|288:128|288:128|216:128,1,216.000008239746,10|0,0:0|0:0,0:0:0:0:
416,192,389652,5,10,0:0:0:0:
272,192,389839,1,0,0:0:0:0:
208,192,389933,1,0,0:0:0:0:
400,192,390027,1,10,0:0:0:0:
128,192,390214,1,8,0:0:0:0:
272,192,390402,5,10,0:0:0:0:
16,192,390589,1,0,0:0:0:0:
176,192,390683,1,0,0:0:0:0:
336,192,390777,1,8,0:0:0:0:
400,192,390870,1,0,0:0:0:0:
336,128,390964,1,0,0:0:0:0:
400,128,391058,1,0,0:0:0:0:
176,128,391152,6,0,L|160:272,1,144.000005493164,10|0,0:0|0:0,0:0:0:0:
448,192,391527,1,8,0:0:0:0:
352,192,391620,1,0,0:0:0:0:
160,192,391714,1,0,0:0:0:0:
64,192,391808,1,0,0:0:0:0:
328,192,391902,6,0,L|184:192,1,144.000005493164,10|0,0:0|0:0,0:0:0:0:
448,288,392277,2,0,P|480:192|448:80,1,216.000008239746,8|0,0:0|0:0,0:0:0:0:
176,192,392652,5,8,0:0:0:0:
320,192,392839,1,0,0:0:0:0:
256,192,392933,1,0,0:0:0:0:
448,192,393027,1,8,0:0:0:0:
176,192,393214,1,8,0:0:0:0:
336,192,393402,5,2,0:0:0:0:
64,192,393589,1,8,0:0:0:0:
224,192,393777,2,0,P|288:112|224:16,1,234.000008926392,8|0,0:0|0:0,0:0:0:0:
48,192,394152,6,0,L|32:48,1,144.000005493164,8|8,0:0|0:0,0:0:0:0:
480,192,394527,1,8,0:0:0:0:
32,192,394714,1,12,0:0:0:0:
96,256,397916,6,0,L|80:160,1,96,2|0,0:0|0:0,0:0:0:0:
208,160,398673,2,0,L|112:160,1,96,2|0,0:0|0:0,0:0:0:0:
304,160,399430,2,0,L|400:160,2,96,2|0|0,0:0|0:0|0:0,0:0:0:0:
176,160,400537,1,2,0:0:0:0:
464,208,400906,5,2,0:0:0:0:
272,192,401281,1,2,0:0:0:0:
432,176,401656,2,0,L|448:80,1,96,2|0,0:0|0:0,0:0:0:0:
288,192,402406,2,0,L|304:96,1,96,0|0,0:0|0:0,0:0:0:0:
144,208,403146,2,0,L|128:112,1,96,0|0,0:0|0:0,0:0:0:0:
416,256,403887,6,0,L|432:160,1,96,2|0,0:0|0:0,0:0:0:0:
304,160,404646,2,0,L|400:160,1,96,2|0,0:0|0:0,0:0:0:0:
208,160,405405,2,0,L|112:160,1,96,2|0,0:0|0:0,0:0:0:0:
272,192,406159,2,0,L|272:200,1,8,0|2,0:0|0:0,0:0:0:0:
80,192,406513,1,2,0:0:0:0:
320,192,406820,1,0,0:0:0:0:
320,160,406914,5,2,0:0:0:0:
160,160,407286,2,0,L|256:160,1,96,2|2,0:0|0:0,0:0:0:0:
96,208,408032,1,0,0:0:0:0:
288,192,408404,1,2,0:0:0:0:
128,176,408781,1,0,0:0:0:0:
304,144,409158,2,0,L|112:144,1,192,2|2,0:0|0:0,0:0:0:0:
432,192,409913,6,0,L|432:96,1,96,2|2,0:0|0:0,0:0:0:0:
256,192,410663,2,0,B|400:192|400:192|256:192,1,288.000010986329,2|2,0:0|0:0,0:0:0:0:
96,192,411785,1,2,0:0:0:0:
272,160,412158,2,0,L|80:160,1,192,2|2,0:0|0:0,0:0:0:0:
368,192,412903,6,0,L|224:192,1,144.000005493164,2|2,0:0|0:0,0:0:0:0:
416,96,413608,2,0,B|320:96|320:96|416:96,1,192,2|0,0:0|0:0,0:0:0:0:
176,96,414782,2,0,L|272:96,1,96,2|0,0:0|0:0,0:0:0:0:
112,96,415523,1,2,0:0:0:0:
400,96,415893,6,0,L|304:96,2,96,2|0|2,0:0|0:0|0:0,0:0:0:0:
208,192,417025,1,2,0:0:0:0:
400,224,417402,2,0,L|256:224,1,144.000005493164,2|2,0:0|0:0,0:0:0:0:
416,224,418161,2,0,L|432:128,1,96,2|0,0:0|0:0,0:0:0:0:
144,192,418826,1,0,0:0:0:0:
144,192,418920,6,0,P|144:144|176:112,1,96,2|2,0:0|0:0,0:0:0:0:
288,112,419482,1,2,0:0:0:0:
144,112,419670,2,0,B|288:112|288:112|144:112,1,288.000010986329,2|0,0:0|0:0,0:0:0:0:
304,192,420792,1,2,0:0:0:0:
112,192,421165,2,0,B|112:96|112:96|208:96,1,192,2|2,0:0|0:0,0:0:0:0:
464,96,421910,6,0,L|224:96,1,240,2|2,0:0|0:0,0:0:0:0:
480,192,422660,2,0,L|288:192,1,192,2|2,0:0|0:0,0:0:0:0:
496,288,423410,2,0,B|352:288|352:288|496:288,1,288.000010986329,2|0,0:0|0:0,0:0:0:0:
304,192,424528,2,0,L|352:192,1,48,2|2,0:0|0:0,0:0:0:0:
208,192,424900,6,0,L|352:192,1,144.000005493164,2|2,0:0|0:0,0:0:0:0:
160,128,425654,2,0,L|256:128,1,96,2|2,0:0|0:0,0:0:0:0:
112,192,426409,2,0,P|96:144|112:96,1,96,2|0,0:0|0:0,0:0:0:0:
240,96,427159,1,2,0:0:0:0:
80,96,427534,1,2,0:0:0:0:
368,192,427909,6,0,L|272:192,2,96,2|0|2,0:0|0:0|0:0,0:0:0:0:
176,192,429041,1,2,0:0:0:0:
416,192,429418,2,0,L|272:192,1,144.000005493164,2|2,0:0|0:0,0:0:0:0:
464,128,430163,1,0,0:0:0:0:
464,128,430209,2,0,L|368:128,1,96,2|2,0:0|0:0,0:0:0:0:
144,128,430862,1,0,0:0:0:0:
144,128,430908,5,2,0:0:0:0:
400,160,431285,2,0,L|454:160,1,54.7199993320313,2|2,0:0|0:0,0:0:0:0:
320,160,431615,2,0,L|320:176,1,13.6799998330078,0|2,0:0|0:0,0:0:0:0:
448,208,432040,1,0,0:0:0:0:
288,192,432417,1,2,0:0:0:0:
448,224,432780,2,0,L|448:216,1,6,2|0,0:0|0:0,0:0:0:0:
240,192,433121,2,0,L|240:184,1,6,0|2,0:0|0:0,0:0:0:0:
480,160,433507,1,2,0:0:0:0:
176,160,433871,5,2,0:0:0:0:
32,192,434222,2,0,L|32:200,1,6,2|0,0:0|0:0,0:0:0:0:
176,224,434621,1,2,0:0:0:0:
336,224,434972,1,2,0:0:0:0:
48,192,435371,2,0,L|144:192,2,96,2|0|0,0:0|0:0|0:0,0:0:0:0:
256,192,436503,2,0,L|208:192,1,48,2|0,0:0|0:0,0:0:0:0:
352,112,436880,6,0,L|256:112,1,96,2|2,0:0|0:0,0:0:0:0:
448,192,437560,1,2,0:0:0:0:
448,192,437607,2,0,L|348:192,1,96,0|2,0:0|0:0,0:0:0:0:
160,192,438370,2,0,L|144:96,1,96,2|0,0:0|0:0,0:0:0:0:
352,192,439124,2,0,L|368:96,1,96,2|0,0:0|0:0,0:0:0:0:
80,192,439879,6,0,L|176:192,2,96,2|0|2,0:0|0:0|0:0,0:0:0:0:
256,192,441040,1,2,0:0:0:0:
432,192,441427,2,0,L|336:192,1,95.7599988310547,2|0,0:0|0:0,0:0:0:0:
336,176,441802,1,2,0:0:0:0:
480,192,442177,2,0,L|480:180,1,12,2|0,0:0|0:0,0:0:0:0:
336,192,442528,2,0,L|336:180,1,12,2|0,0:0|0:0,0:0:0:0:
128,192,442833,1,0,0:0:0:0:
128,192,442927,5,2,0:0:0:0:
288,192,443297,2,0,L|192:192,1,95.7599988310547,2|2,0:0|0:0,0:0:0:0:
320,192,444014,1,0,0:0:0:0:
128,192,444408,2,0,L|32:192,1,95.7599988310547,2|2,0:0|0:0,0:0:0:0:
192,96,445127,2,0,L|192:104,1,6,0|2,0:0|0:0,0:0:0:0:
64,96,445522,1,2,0:0:0:0:
336,96,445895,5,14,0:0:0:0:
144,96,446272,2,0,L|144:112,1,12,2|0,0:0|0:0,0:0:0:0:
368,192,446649,2,0,L|368:208,1,12,2|0,0:0|0:0,0:0:0:0:
224,192,447019,1,2,0:0:0:0:
448,96,447404,6,0,L|448:112,1,12,8|0,0:0|0:0,0:0:0:0:
496,192,447779,1,0,0:0:0:0:
448,288,448154,1,0,0:0:0:0:
304,192,448529,2,0,L|304:208,1,12,2|0,0:0|0:0,0:0:0:0:
400,192,448716,2,0,L|400:208,1,12,2|0,0:0|0:0,0:0:0:0:
256,96,448904,5,10,0:0:0:0:
64,96,449269,2,0,L|64:112,1,12,2|0,0:0|0:0,0:0:0:0:
288,192,449602,1,0,0:0:0:0:
288,192,449649,2,0,L|288:208,1,12,2|0,0:0|0:0,0:0:0:0:
144,192,450021,2,0,L|144:208,1,12,2|0,0:0|0:0,0:0:0:0:
288,192,450394,6,0,L|288:208,1,12,10|0,0:0|0:0,0:0:0:0:
384,128,450755,1,0,0:0:0:0:
256,304,451144,2,0,L|256:320,1,12,0|0,0:0|0:0,0:0:0:0:
352,240,451519,1,0,0:0:0:0:
80,192,451894,6,0,L|80:208,1,12,2|0,0:0|0:0,0:0:0:0:
224,128,452271,2,0,L|224:144,1,12,2|0,0:0|0:0,0:0:0:0:
64,80,452648,2,0,L|64:96,1,12,2|0,0:0|0:0,0:0:0:0:
256,64,453026,2,0,L|256:80,1,12,10|0,0:0|0:0,0:0:0:0:
448,80,453403,6,0,L|448:96,1,12,2|0,0:0|0:0,0:0:0:0:
288,128,453759,2,0,L|288:144,1,12,2|0,0:0|0:0,0:0:0:0:
432,192,454198,1,2,0:0:0:0:
304,256,454499,1,0,0:0:0:0:
304,256,454542,2,0,L|304:272,1,12,2|0,0:0|0:0,0:0:0:0:
80,192,454858,1,0,0:0:0:0:
80,192,454890,1,0,0:0:0:0:
80,192,454921,6,0,L|80:208,1,12,10|0,0:0|0:0,0:0:0:0:
240,192,455315,1,0,0:0:0:0:
112,48,455635,1,0,0:0:0:0:
272,48,456028,1,0,0:0:0:0:
432,48,456421,5,2,0:0:0:0:
240,112,456763,1,2,0:0:0:0:
48,48,457100,2,0,L|48:64,1,12,2|0,0:0|0:0,0:0:0:0:
272,112,457510,1,2,0:0:0:0:
32,192,457873,5,10,0:0:0:0:
224,192,458248,2,0,L|224:208,1,12,2|0,0:0|0:0,0:0:0:0:
64,192,458623,2,0,L|64:208,1,12,2|0,0:0|0:0,0:0:0:0:
192,192,458988,1,2,0:0:0:0:
432,192,459377,6,0,L|432:208,1,12,10|0,0:0|0:0,0:0:0:0:
240,192,459749,2,0,L|240:208,1,12,0|0,0:0|0:0,0:0:0:0:
400,192,460122,2,0,L|400:208,1,12,0|0,0:0|0:0,0:0:0:0:
272,192,460498,1,2,0:0:0:0:
368,192,460680,1,2,0:0:0:0:
240,192,460863,5,10,0:0:0:0:
48,96,461238,2,0,L|48:112,1,12,2|0,0:0|0:0,0:0:0:0:
272,192,461566,1,0,0:0:0:0:
272,192,461613,2,0,L|272:208,1,12,2|0,0:0|0:0,0:0:0:0:
128,192,461992,2,0,L|128:208,1,12,2|0,0:0|0:0,0:0:0:0:
272,192,462372,6,0,L|272:208,1,12,10|0,0:0|0:0,0:0:0:0:
368,128,462733,1,0,0:0:0:0:
240,192,463112,2,0,L|240:208,1,12,2|0,0:0|0:0,0:0:0:0:
144,128,463501,1,2,0:0:0:0:
368,128,463883,6,0,L|368:144,1,12,2|0,0:0|0:0,0:0:0:0:
480,192,464267,2,0,L|480:208,1,12,2|0,0:0|0:0,0:0:0:0:
368,256,464652,2,0,L|368:268,1,12,2|0,0:0|0:0,0:0:0:0:
144,256,465022,2,0,L|144:268,1,12,10|0,0:0|0:0,0:0:0:0:
368,256,465401,6,0,L|368:268,1,12,2|0,0:0|0:0,0:0:0:0:
480,192,465762,2,0,L|480:208,1,12,2|0,0:0|0:0,0:0:0:0:
288,192,466151,2,0,L|288:208,1,12,2|0,0:0|0:0,0:0:0:0:
48,192,466535,2,0,L|48:208,1,12,2|0,0:0|0:0,0:0:0:0:
256,192,466839,1,0,0:0:0:0:
256,192,466910,6,0,L|256:208,1,12,10|0,0:0|0:0,0:0:0:0:
384,192,467297,1,0,0:0:0:0:
256,192,467634,1,2,0:0:0:0:
80,192,468018,1,2,0:0:0:0:
256,192,468403,5,2,0:0:0:0:
480,192,468773,1,2,0:0:0:0:
256,192,469179,2,0,L|256:208,1,12,2|0,0:0|0:0,0:0:0:0:
32,192,469573,2,0,L|32:208,1,12,2|0,0:0|0:0,0:0:0:0:
256,192,470006,6,0,L|256:208,1,12,10|0,0:0|0:0,0:0:0:0:
384,192,470416,2,0,L|384:208,1,12,2|0,0:0|0:0,0:0:0:0:
256,192,470857,2,0,L|256:208,1,12,2|0,0:0|0:0,0:0:0:0:
432,192,471267,2,0,L|432:208,1,12,2|0,0:0|0:0,0:0:0:0:
224,192,471726,6,0,L|224:208,1,12,10|0,0:0|0:0,0:0:0:0:
432,192,472236,1,0,0:0:0:0:
432,192,472309,2,0,L|432:208,1,12,2|0,0:0|0:0,0:0:0:0:
176,192,472850,1,0,0:0:0:0:
176,192,472927,5,2,0:0:0:0:
432,192,473813,1,2,0:0:0:0:
432,192,474017,2,0,L|432:208,1,12,10|0,0:0|0:0,0:0:0:0:
256,192,477290,12,0,483290,0:0:0:0:
256,192,483415,12,0,483540,0:0:0:0:
256,192,483665,12,0,483790,0:0:0:0:
256,192,483915,12,0,484040,0:0:0:0:
256,192,484165,12,0,484290,0:0:0:0:
256,192,484352,12,0,484415,0:0:0:0:
256,192,484477,12,0,484540,0:0:0:0:
160,256,484790,5,8,0:0:0:0:
368,256,484847,1,2,0:0:0:0:
394,256,484876,1,0,0:0:0:0:
390,245,484905,1,0,0:0:0:0:
415,245,484934,1,0,0:0:0:0:
406,227,484963,1,0,0:0:0:0:
430,228,484991,1,0,0:0:0:0:
415,205,485020,1,0,0:0:0:0:
440,207,485049,1,0,0:0:0:0:
416,181,485078,1,0,0:0:0:0:
441,181,485107,1,0,0:0:0:0:
408,159,485136,1,0,0:0:0:0:
433,159,485165,1,0,0:0:0:0:
393,140,485193,1,0,0:0:0:0:
418,142,485222,1,0,0:0:0:0:
372,129,485251,5,0,0:0:0:0:
144,256,485304,2,0,P|96:208|96:160,1,120,0|0,0:0|0:0,0:0:0:0:
144,128,485626,1,0,0:0:0:0:
368,256,485679,1,6,0:0:0:0:
