osu file format v14

[General]
AudioFilename: audio.mp3
AudioLeadIn: 0
PreviewTime: 165241
Countdown: 0
SampleSet: Normal
StackLeniency: 0.7
Mode: 1
LetterboxInBreaks: 0
WidescreenStoryboard: 0

[Editor]
Bookmarks: 2666,13329,23999,45329,55995,61329,69329,90662,101329,111995,122662,143995,165329,186662,205329,213329
DistanceSpacing: 1.7
BeatDivisor: 4
GridSize: 4
TimelineZoom: 2.799999

[Metadata]
Title:Future Coaster
TitleUnicode:Future Coaster
Artist:Sakuzyo
ArtistUnicode:削除
Creator:komasy
Version:Time Traveller
Source:GROOVE COASTER 3EX DREAM PARTY
Tags:Instrumental Electronic Long Version Video Rhythm Game TAITO タイトー グルーヴコースター ドリームパーティ AC グルコス FutureCore Bass Cyber Meteoroid SCCD-0008 yassu-
BeatmapID:2288666
BeatmapSetID:1095078

[Difficulty]
HPDrainRate:6
CircleSize:2
OverallDifficulty:7.2
ApproachRate:10
SliderMultiplier:1.4
SliderTickRate:1

[Events]
//Background and Video events
0,0,"bg.jpg",0,0
//Break Periods
2,101525,105658
2,106691,110991
2,245525,249658
2,250691,254991
//Storyboard Layer 0 (Background)
//Storyboard Layer 1 (Fail)
//Storyboard Layer 2 (Pass)
//Storyboard Layer 3 (Foreground)
//Storyboard Layer 4 (Overlay)
//Storyboard Sound Samples

[TimingPoints]
-8,333.333333333333,4,1,0,5,1,0
658,-100,4,1,0,15,0,0
1325,-100,4,1,0,25,0,0
1825,-100,4,1,0,80,0,0
2324,-114.285714285714,4,1,0,80,0,0
2657,-133.333333333333,4,1,0,80,0,0
12907,-129.285323659344,4,1,0,80,0,0
12991,-125.360254030019,4,1,0,80,0,0
13157,-121.554388903543,4,1,0,80,0,0
13241,-117.864067371101,4,1,0,80,0,0
13324,-114.285714285714,4,1,0,90,0,0
18158,-109.89010989011,4,1,0,90,0,0
18325,-106.382978723404,4,1,0,90,0,0
18491,-103.092783505155,4,1,0,90,0,0
18657,-100,4,1,0,90,0,0
21407,-99.1834228794336,4,1,0,90,0,0
21490,-98.3735894456943,4,1,0,90,0,0
21574,-97.5703042827509,4,1,0,90,0,0
21657,-96.7736628541069,4,1,0,90,0,0
21740,-95.9834754848605,4,1,0,90,0,0
21824,-95.1997433414919,4,1,0,90,0,0
21879,-94.4223758369363,4,1,0,90,0,0
21935,-93.6513733973909,4,1,0,90,0,0
21990,-92.8866476372888,4,1,0,90,0,0
22074,-92.1281982304016,4,1,0,90,0,0
22157,-91.3759388877721,4,1,0,90,0,0
22213,-90.6298685232497,4,1,0,90,0,0
22268,-89.8898220451193,4,1,0,90,0,0
22324,-89.1558015463182,4,1,0,90,0,0
22379,-88.4278848492084,4,1,0,90,0,0
22435,-87.7058346306488,4,1,0,90,0,0
22491,-86.9896534506186,4,1,0,90,0,0
22574,-86.2793414470426,4,1,0,90,0,0
22657,-85.5748232024153,4,1,0,90,0,0
22741,-84.876097872326,4,1,0,90,0,0
22824,-84.1830206214727,4,1,0,90,0,0
22907,-83.4956628177949,4,1,0,90,0,0
22991,-82.8138832506437,4,1,0,90,0,0
23046,-82.1376824688616,4,1,0,90,0,0
23102,-81.4669924260137,4,1,0,90,0,0
23157,-80.801812546259,4,1,0,90,0,0
23241,-80.1420116446343,4,1,0,90,0,0
23324,-79.4876543749608,4,1,0,90,0,0
23407,-78.8386126296304,4,1,0,90,0,0
23491,-78.194825535615,4,1,0,90,0,0
23574,-77.5563543860057,4,1,0,90,0,0
23657,-76.9230769230769,4,1,0,90,0,0
23991,-100,4,1,0,90,0,0
42907,-99.2532187818851,4,1,0,90,0,0
42991,-98.5119765935544,4,1,0,90,0,0
43074,-97.7762741959613,4,1,0,90,0,0
43157,-97.0460163095535,4,1,0,90,0,0
43213,-96.3212970240572,4,1,0,90,0,0
43268,-95.6019288645168,4,1,0,90,0,0
43324,-94.8880036892456,4,1,0,90,0,0
43407,-94.1793400665283,4,1,0,90,0,0
43491,-93.4760276053405,4,1,0,90,0,0
43546,-92.7779767349946,4,1,0,90,0,0
43602,-92.0851013672796,4,1,0,90,0,0
43657,-91.3974023030318,4,1,0,90,0,0
43713,-90.7147963089964,4,1,0,90,0,0
43768,-90.0373655066853,4,1,0,90,0,0
43824,-89.364945885057,4,1,0,90,0,0
43907,-88.6975387319977,4,1,0,90,0,0
43991,-88.0351436293368,4,1,0,90,0,0
44074,-87.3776821671762,4,1,0,90,0,0
44157,-86.7251541105989,4,1,0,90,0,0
44241,-86.0774835075541,4,1,0,90,0,0
44324,-85.4346702435315,4,1,0,90,0,0
44407,-84.7966406962822,4,1,0,90,0,0
44491,-84.1633239799826,4,1,0,90,0,0
44574,-83.5347914052724,4,1,0,90,0,0
44657,-82.9109710284194,4,1,0,90,0,0
44713,-82.2917935331817,4,1,0,90,0,0
44768,-81.6771921341597,4,1,0,90,0,0
44824,-81.0672339211248,4,1,0,90,0,0
44907,-80.4617862838402,4,1,0,90,0,0
44991,-79.8609142317739,4,1,0,90,0,0
45046,-79.2644889540971,4,1,0,90,0,0
45102,-78.6725734034778,4,1,0,90,0,0
45157,-78.0850424196993,4,1,0,90,0,0
45241,-77.5018968589256,4,1,0,90,0,0
45324,-76.9230769230769,4,1,0,90,0,0
45491,-133.333333333333,4,1,0,70,0,0
54991,-128.623815213882,4,1,0,70,0,0
55157,-124.080716988015,4,1,0,70,0,0
55324,-119.697978061755,4,1,0,70,0,0
55491,-115.470107675875,4,1,0,70,0,0
55574,-111.391446250842,4,1,0,70,0,0
55657,-107.456976912869,4,1,0,70,0,0
55824,-103.661425199471,4,1,0,70,0,0
55908,-100,4,1,0,80,0,0
61408,-200,4,1,0,20,0,0
63908,-133.333333333333,4,1,0,80,0,0
66157,-130.64449542483,4,1,0,80,0,0
66324,-128.009995020411,4,1,0,80,0,0
66491,-125.428495096373,4,1,0,80,0,0
66575,-122.899191937813,4,1,0,90,0,0
66824,-120.420701763682,4,1,0,90,0,0
66907,-117.992290383746,4,1,0,90,0,0
66991,-115.612950962767,4,1,0,90,0,0
67157,-113.281457977677,4,1,0,90,0,0
67324,-110.997030829425,4,1,0,90,0,0
67407,-108.758661267887,4,1,0,90,0,0
67491,-106.565500484873,4,1,0,90,0,0
67546,-104.416395880147,4,1,0,90,0,0
67602,-102.31079153767,4,1,0,90,0,0
67657,-100.247611600654,4,1,0,90,0,0
67713,-98.2260377580889,4,1,0,90,0,0
67768,-96.2451865376083,4,1,0,90,0,0
67824,-94.3043030110421,4,1,0,90,0,0
67907,-92.4025684217918,4,1,0,90,0,0
67991,-90.5391971346155,4,1,0,90,0,0
68074,-88.7133547309945,4,1,0,90,0,0
68157,-86.9243975052698,4,1,0,90,0,0
68241,-85.1714757320914,4,1,0,90,0,0
68324,-83.4539242538802,4,1,0,90,0,0
68407,-81.7709628040244,4,1,0,90,0,0
68491,-80.1219776988487,4,1,0,90,0,0
68574,-78.5062459569283,4,1,0,90,0,0
68657,-76.9230769230769,4,1,0,90,0,0
68741,-79.8609142317739,4,1,0,80,0,0
68879,-82.9109710284194,4,1,0,80,0,0
68935,-86.0774835075541,4,1,0,80,0,0
68991,-89.364945885057,4,1,0,80,0,0
69074,-92.7779767349946,4,1,0,80,0,0
69157,-96.3212970240572,4,1,0,80,0,0
69325,-100,4,1,0,100,0,1
89325,-100,4,1,0,100,0,0
89408,-101.167574982877,4,1,0,80,0,0
89574,-102.348907425413,4,1,0,80,0,0
89657,-103.543893291805,4,1,0,80,0,0
89740,-104.752846134829,4,1,0,80,0,0
89824,-105.975985841608,4,1,0,80,0,0
89879,-107.213426551834,4,1,0,80,0,0
89935,-108.465281348093,4,1,0,80,0,0
89990,-109.731662193273,4,1,0,80,0,0
90074,-111.012926345144,4,1,0,80,0,0
90157,-112.309074573226,4,1,0,80,0,0
90213,-113.620482591638,4,1,0,80,0,0
90268,-114.947153046387,4,1,0,80,0,0
90324,-116.289211268425,4,1,0,80,0,0
90490,-117.647058823529,4,1,0,80,0,0
90575,-83.3333333333333,4,1,0,100,0,0
90658,-83.3333333333333,4,1,0,100,0,1
101325,-83.3333333333333,4,1,0,100,0,0
101408,-133.333333333333,4,1,0,20,0,0
105991,-133.333333333333,4,1,0,40,0,0
106575,-133.333333333333,4,1,0,20,0,0
111408,-133.333333333333,4,1,0,80,0,0
111574,-129.285323659344,4,1,0,80,0,0
111657,-125.360254030019,4,1,0,80,0,0
111824,-121.554388903543,4,1,0,80,0,0
111907,-117.864067371101,4,1,0,80,0,0
111990,-114.285714285714,4,1,0,90,0,0
116825,-109.89010989011,4,1,0,90,0,0
116990,-106.382978723404,4,1,0,90,0,0
117157,-103.092783505155,4,1,0,90,0,0
117324,-100,4,1,0,90,0,0
120074,-98.9959827430203,4,1,0,90,0,0
120157,-98.0020325621553,4,1,0,90,0,0
120240,-97.0180531193244,4,1,0,90,0,0
120324,-96.0440419558793,4,1,0,90,0,0
120407,-95.079719590891,4,1,0,90,0,0
120490,-94.1250884775832,4,1,0,90,0,0
120546,-93.1800583493525,4,1,0,90,0,0
120602,-92.2445402762724,4,1,0,90,0,0
120657,-91.3183632096578,4,1,0,90,0,0
120740,-90.4015274242074,4,1,0,90,0,0
120824,-89.4938674327342,4,1,0,90,0,0
120879,-88.5953037401393,4,1,0,90,0,0
120935,-87.7058346306488,4,1,0,90,0,0
120990,-86.8252268960242,4,1,0,90,0,0
121046,-85.9534819755548,4,1,0,90,0,0
121102,-85.0905235534824,4,1,0,90,0,0
121157,-84.236134100556,4,1,0,90,0,0
121240,-83.3903862559301,4,1,0,90,0,0
121324,-82.55313739071,4,1,0,90,0,0
121407,-81.7243177245335,4,1,0,90,0,0
121490,-80.9037924461747,4,1,0,90,0,0
121574,-80.0914965256309,4,1,0,90,0,0
121657,-79.2873651619246,4,1,0,90,0,0
121713,-78.4912721629918,4,1,0,90,0,0
121768,-77.7032172240059,4,1,0,90,0,0
121824,-76.9230769230769,4,1,0,90,0,0
122075,-98.0392156862745,4,1,0,80,0,0
122324,-107.52688172043,4,1,0,80,0,0
122490,-119.047619047619,4,1,0,80,0,0
122575,-133.333333333333,4,1,0,70,0,0
133241,-114.285714285714,4,1,0,70,0,0
138158,-109.89010989011,4,1,0,70,0,0
138324,-106.382978723404,4,1,0,70,0,0
138490,-103.092783505155,4,1,0,70,0,0
138575,-100,4,1,0,80,0,0
141075,-100,4,1,0,90,0,0
141240,-99.0993847910192,4,1,0,90,0,0
141324,-98.2068412849776,4,1,0,90,0,0
141407,-97.3223696439851,4,1,0,90,0,0
141490,-96.4458731293117,4,1,0,90,0,0
141657,-95.5772579649308,4,1,0,90,0,0
141740,-94.7164332064449,4,1,0,90,0,0
141824,-93.8633987185769,4,1,0,90,0,0
141907,-93.0180641080498,4,1,0,90,0,0
141990,-92.180341620346,4,1,0,90,0,0
142074,-91.3501460232084,4,1,0,90,0,0
142157,-90.5273944948481,4,1,0,90,0,0
142213,-89.7120869991935,4,1,0,90,0,0
142268,-88.9041408881702,4,1,0,90,0,0
142324,-88.1034757702226,4,1,0,90,0,0
142407,-87.3099371805002,4,1,0,90,0,0
142490,-86.5236027736006,4,1,0,90,0,0
142546,-85.7443942458652,4,1,0,90,0,0
142602,-84.9721631193621,4,1,0,90,0,0
142657,-84.2068389426316,4,1,0,90,0,0
142713,-83.448492252642,4,1,0,90,0,0
142768,-82.6969116838332,4,1,0,90,0,0
142824,-81.9520989981356,4,1,0,90,0,0
142879,-81.2140526299547,4,1,0,90,0,0
142935,-80.4826382852691,4,1,0,90,0,0
142990,-79.7577915386554,4,1,0,90,0,0
143074,-79.0394493795798,4,1,0,90,0,0
143157,-78.3276115013132,4,1,0,90,0,0
143240,-77.6221539837242,4,1,0,90,0,0
143324,-76.9230769230769,4,1,0,90,0,0
143379,-79.1985110679919,4,1,0,90,0,0
143435,-81.5412602854107,4,1,0,90,0,0
143490,-83.9533286655283,4,1,0,90,0,0
143574,-86.4366989478925,4,1,0,90,0,0
143657,-88.9935452981595,4,1,0,90,0,0
143740,-91.626022890013,4,1,0,90,0,0
143824,-94.3364187631364,4,1,0,90,0,0
143907,-97.1268894822263,4,1,0,90,0,0
143990,-100,4,1,0,80,0,0
159574,-97.6975615665609,4,1,0,80,0,0
159657,-95.4480810163312,4,1,0,80,0,0
159740,-93.2504399089503,4,1,0,80,0,0
159824,-91.1034725910648,4,1,0,80,0,0
159907,-89.005822760925,4,1,0,80,0,0
159990,-86.9565217391304,4,1,0,80,0,0
162575,-76.9230769230769,4,1,0,90,0,0
163991,-76.9230769230769,4,1,0,70,0,0
164074,-79.2934006481443,4,1,0,70,0,0
164157,-81.7367423003989,4,1,0,70,0,0
164240,-84.2553679094895,4,1,0,70,0,0
164324,-86.8516200866953,4,1,0,70,0,0
164379,-89.5278391292164,4,1,0,70,0,0
164435,-92.2865941724707,4,1,0,70,0,0
164490,-95.1302809197196,4,1,0,70,0,0
164574,-98.0616160358199,4,1,0,70,0,0
164657,-101.083309831464,4,1,0,70,0,0
164740,-104.198143189088,4,1,0,70,0,0
164824,-107.408847481585,4,1,0,70,0,0
164907,-110.718552332785,4,1,0,70,0,0
164990,-114.130236295241,4,1,0,70,0,0
165241,-133.333333333333,4,1,0,90,0,0
165325,-133.333333333333,4,1,0,90,0,1
170325,-133.333333333333,4,1,0,90,0,0
170658,-100,4,1,0,90,0,1
175658,-100,4,1,0,90,0,0
175991,-86.9565217391304,4,1,0,90,0,1
180991,-87.719298245614,4,1,0,70,0,0
181075,-90.9090909090909,4,1,0,70,0,0
181158,-94.3396226415094,4,1,0,70,0,0
181241,-98.0392156862745,4,1,0,70,0,0
181325,-76.9230769230769,4,1,0,90,0,1
185325,-76.9230769230769,4,1,0,90,0,0
185489,-78.1002275840632,4,1,0,70,0,0
185573,-79.2953498035061,4,1,0,70,0,0
185656,-80.5087508986789,4,1,0,70,0,0
185739,-81.7407510340205,4,1,0,70,0,0
185823,-82.9916153571005,4,1,0,70,0,0
185906,-84.2616154636917,4,1,0,70,0,0
185989,-85.5510299060735,4,1,0,70,0,0
186045,-86.8602201906582,4,1,0,70,0,0
186101,-88.1894096865484,4,1,0,70,0,0
186156,-89.5389015188484,4,1,0,70,0,0
186323,-90.9090909090909,4,1,0,70,0,0
186575,-100,4,1,0,100,0,0
186658,-100,4,1,0,100,0,1
205325,-100,4,1,0,100,0,0
205408,-200,4,1,0,20,0,0
207908,-133.333333333333,4,1,0,80,0,0
210157,-130.64449542483,4,1,0,80,0,0
210324,-128.009995020411,4,1,0,80,0,0
210490,-125.428495096373,4,1,0,80,0,0
210575,-122.899191937813,4,1,0,90,0,0
210824,-120.420701763682,4,1,0,90,0,0
210907,-117.992290383746,4,1,0,90,0,0
210990,-115.612950962767,4,1,0,90,0,0
211157,-113.281457977677,4,1,0,90,0,0
211324,-110.997030829425,4,1,0,90,0,0
211407,-108.758661267887,4,1,0,90,0,0
211490,-106.565500484873,4,1,0,90,0,0
211546,-104.416395880147,4,1,0,90,0,0
211602,-102.31079153767,4,1,0,90,0,0
211657,-100.247611600654,4,1,0,90,0,0
211713,-98.2260377580889,4,1,0,90,0,0
211768,-96.2451865376083,4,1,0,90,0,0
211824,-94.3043030110421,4,1,0,90,0,0
211907,-92.4025684217918,4,1,0,90,0,0
211990,-90.5391971346155,4,1,0,90,0,0
212074,-88.7133547309945,4,1,0,90,0,0
212157,-86.9243975052698,4,1,0,90,0,0
212240,-85.1714757320914,4,1,0,90,0,0
212324,-83.4539242538802,4,1,0,90,0,0
212407,-81.7709628040244,4,1,0,90,0,0
212490,-80.1219776988487,4,1,0,90,0,0
212574,-78.5062459569283,4,1,0,90,0,0
212657,-76.9230769230769,4,1,0,90,0,0
212741,-80,4,1,0,80,0,0
212879,-83.031238012365,4,1,0,80,0,0
212935,-86.1774030784292,4,1,0,80,0,0
212990,-89.4427181999832,4,1,0,80,0,0
213074,-92.8318064048376,4,1,0,80,0,0
213157,-96.3492312776583,4,1,0,80,0,0
213325,-100,4,1,0,100,0,1
233325,-100,4,1,0,100,0,0
233408,-101.167574982877,4,1,0,80,0,0
233574,-102.348907425413,4,1,0,80,0,0
233657,-103.543893291805,4,1,0,80,0,0
233740,-104.752846134829,4,1,0,80,0,0
233824,-105.975985841608,4,1,0,80,0,0
233879,-107.213426551834,4,1,0,80,0,0
233935,-108.465281348093,4,1,0,80,0,0
233990,-109.731662193273,4,1,0,80,0,0
234074,-111.012926345144,4,1,0,80,0,0
234157,-112.309074573226,4,1,0,80,0,0
234213,-113.620482591638,4,1,0,80,0,0
234268,-114.947153046387,4,1,0,80,0,0
234324,-116.289211268425,4,1,0,80,0,0
234490,-117.647058823529,4,1,0,80,0,0
234575,-117.647058823529,4,1,0,100,0,0
234658,-83.3333333333333,4,1,0,100,0,1
245325,-83.3333333333333,4,1,0,100,0,0
245408,-133.333333333333,4,1,0,20,0,0
249991,-133.333333333333,4,1,0,40,0,0
250575,-133.333333333333,4,1,0,20,0,0
255408,-133.333333333333,4,1,0,80,0,0
255574,-129.285323659344,4,1,0,80,0,0
255657,-125.360254030019,4,1,0,80,0,0
255824,-121.554388903543,4,1,0,80,0,0
255907,-117.864067371101,4,1,0,80,0,0
255990,-114.285714285714,4,1,0,90,0,0
260825,-109.89010989011,4,1,0,90,0,0
260990,-106.382978723404,4,1,0,90,0,0
261157,-103.092783505155,4,1,0,90,0,0
261324,-100,4,1,0,90,0,0
264074,-98.9959827430203,4,1,0,90,0,0
264157,-98.0020325621553,4,1,0,90,0,0
264240,-97.0180531193244,4,1,0,90,0,0
264324,-96.0440419558793,4,1,0,90,0,0
264407,-95.079719590891,4,1,0,90,0,0
264490,-94.1250884775832,4,1,0,90,0,0
264546,-93.1800583493525,4,1,0,90,0,0
264602,-92.2445402762724,4,1,0,90,0,0
264657,-91.3183632096578,4,1,0,90,0,0
264740,-90.4015274242074,4,1,0,90,0,0
264824,-89.4938674327342,4,1,0,90,0,0
264879,-88.5953037401393,4,1,0,90,0,0
264935,-87.7058346306488,4,1,0,90,0,0
264990,-86.8252268960242,4,1,0,90,0,0
265046,-85.9534819755548,4,1,0,90,0,0
265102,-85.0905235534824,4,1,0,90,0,0
265157,-84.236134100556,4,1,0,90,0,0
265240,-83.3903862559301,4,1,0,90,0,0
265324,-82.55313739071,4,1,0,90,0,0
265407,-81.7243177245335,4,1,0,90,0,0
265490,-80.9037924461747,4,1,0,90,0,0
265574,-80.0914965256309,4,1,0,90,0,0
265657,-79.2873651619246,4,1,0,90,0,0
265713,-78.4912721629918,4,1,0,90,0,0
265768,-77.7032172240059,4,1,0,90,0,0
265824,-76.9230769230769,4,1,0,90,0,0
266075,-90.9090909090909,4,1,0,70,0,0
266241,-100,4,1,0,60,0,0
266408,-111.111111111111,4,1,0,50,0,0

[HitObjects]
352,96,1991,5,8,0:0:0:0:
160,96,2325,1,0,0:0:0:0:
160,288,2658,1,4,0:0:0:0:
352,96,3658,1,8,0:0:0:0:
160,96,3825,1,0,0:0:0:0:
352,96,4491,1,8,0:0:0:0:
160,96,5325,1,0,0:0:0:0:
352,96,6325,1,8,0:0:0:0:
160,96,6491,1,0,0:0:0:0:
352,96,7158,1,8,0:0:0:0:
352,96,7658,1,8,0:0:0:0:
160,96,7991,1,0,0:0:0:0:
352,96,8991,1,8,0:0:0:0:
160,96,9158,1,0,0:0:0:0:
352,96,9825,1,8,0:0:0:0:
160,96,10658,1,0,0:0:0:0:
352,96,11658,1,8,0:0:0:0:
160,96,11825,1,0,0:0:0:0:
352,96,12491,1,8,0:0:0:0:
160,96,12825,1,0,0:0:0:0:
160,96,12908,1,0,0:0:0:0:
352,96,12991,1,8,0:0:0:0:
352,96,13158,1,8,0:0:0:0:
352,96,13241,1,8,0:0:0:0:
160,96,13325,1,0,0:0:0:0:
160,96,13491,1,0,0:0:0:0:
160,96,13991,1,0,0:0:0:0:
352,96,14158,1,8,0:0:0:0:
160,96,14325,1,0,0:0:0:0:
352,96,14491,1,8,0:0:0:0:
352,96,14825,1,8,0:0:0:0:
352,96,14991,1,8,0:0:0:0:
160,96,15158,1,0,0:0:0:0:
160,96,15491,1,0,0:0:0:0:
160,96,15825,1,0,0:0:0:0:
352,96,15991,1,8,0:0:0:0:
352,96,16491,1,8,0:0:0:0:
352,96,16658,1,8,0:0:0:0:
160,96,16825,1,0,0:0:0:0:
352,96,16991,1,8,0:0:0:0:
160,96,17158,1,0,0:0:0:0:
160,96,17491,1,0,0:0:0:0:
160,96,17658,1,0,0:0:0:0:
352,96,17825,1,8,0:0:0:0:
160,96,18158,1,0,0:0:0:0:
352,96,18325,1,8,0:0:0:0:
352,96,18491,1,8,0:0:0:0:
160,96,18658,1,0,0:0:0:0:
352,96,18825,1,8,0:0:0:0:
160,96,18991,1,0,0:0:0:0:
160,96,19325,1,0,0:0:0:0:
352,96,19491,1,8,0:0:0:0:
160,96,19658,1,0,0:0:0:0:
352,96,19825,1,8,0:0:0:0:
352,96,19908,1,8,0:0:0:0:
160,96,19991,1,0,0:0:0:0:
352,96,20158,1,8,0:0:0:0:
160,96,20325,1,0,0:0:0:0:
160,96,20408,1,0,0:0:0:0:
352,96,20491,1,8,0:0:0:0:
160,96,20658,1,0,0:0:0:0:
352,96,20825,1,8,0:0:0:0:
352,96,20908,1,8,0:0:0:0:
160,96,20991,1,0,0:0:0:0:
160,96,21075,1,0,0:0:0:0:
352,96,21158,1,8,0:0:0:0:
160,96,21325,1,0,0:0:0:0:
160,96,21408,1,0,0:0:0:0:
352,96,21491,1,8,0:0:0:0:
160,96,21575,1,0,0:0:0:0:
352,96,21658,1,8,0:0:0:0:
352,96,21741,1,8,0:0:0:0:
160,96,21825,1,0,0:0:0:0:
352,96,21880,1,8,0:0:0:0:
352,96,21936,1,8,0:0:0:0:
160,96,21991,1,0,0:0:0:0:
160,96,22075,1,0,0:0:0:0:
352,96,22158,1,8,0:0:0:0:
160,96,22214,1,0,0:0:0:0:
160,96,22269,1,0,0:0:0:0:
352,96,22325,1,8,0:0:0:0:
160,96,22380,1,0,0:0:0:0:
160,96,22436,1,0,0:0:0:0:
352,96,22491,1,8,0:0:0:0:
160,96,22658,1,0,0:0:0:0:
352,96,22741,1,8,0:0:0:0:
160,96,22825,1,0,0:0:0:0:
160,96,22908,1,0,0:0:0:0:
352,96,22991,1,8,0:0:0:0:
160,96,23047,1,0,0:0:0:0:
160,96,23103,1,0,0:0:0:0:
352,96,23158,1,8,0:0:0:0:
352,96,23241,1,8,0:0:0:0:
160,96,23325,1,0,0:0:0:0:
352,96,23408,1,8,0:0:0:0:
352,96,23491,1,8,0:0:0:0:
160,96,23575,1,0,0:0:0:0:
352,96,23658,1,8,0:0:0:0:
160,288,23991,1,4,0:0:0:0:
352,96,24325,1,8,0:0:0:0:
352,96,24491,1,8,0:0:0:0:
160,96,24575,1,0,0:0:0:0:
160,96,24741,1,0,0:0:0:0:
160,96,24825,1,0,0:0:0:0:
352,96,24991,1,8,0:0:0:0:
352,96,25158,1,8,0:0:0:0:
352,96,25241,1,8,0:0:0:0:
160,96,25325,1,0,0:0:0:0:
160,96,25491,1,0,0:0:0:0:
352,96,25658,1,8,0:0:0:0:
352,96,25825,1,8,0:0:0:0:
160,96,25908,1,0,0:0:0:0:
352,96,25991,1,8,0:0:0:0:
160,96,26075,1,0,0:0:0:0:
160,96,26158,1,0,0:0:0:0:
352,96,26325,1,8,0:0:0:0:
160,96,26408,1,0,0:0:0:0:
160,96,26575,1,0,0:0:0:0:
160,96,26658,1,0,0:0:0:0:
352,96,26991,1,8,0:0:0:0:
352,96,27158,1,8,0:0:0:0:
160,96,27241,1,0,0:0:0:0:
352,96,27325,1,8,0:0:0:0:
160,96,27408,1,0,0:0:0:0:
160,96,27491,1,0,0:0:0:0:
352,96,27658,1,8,0:0:0:0:
352,96,27825,1,8,0:0:0:0:
160,288,27991,1,4,0:0:0:0:
352,96,28325,1,8,0:0:0:0:
160,288,28491,1,4,0:0:0:0:
160,96,28741,1,0,0:0:0:0:
352,96,28908,1,8,0:0:0:0:
160,96,28991,1,0,0:0:0:0:
160,96,29158,1,0,0:0:0:0:
160,288,29325,1,4,0:0:0:0:
352,96,29658,1,8,0:0:0:0:
352,96,29825,1,8,0:0:0:0:
160,96,29908,1,0,0:0:0:0:
160,96,29991,1,0,0:0:0:0:
352,96,30075,1,8,0:0:0:0:
160,96,30158,1,0,0:0:0:0:
352,96,30325,1,8,0:0:0:0:
352,96,30491,1,8,0:0:0:0:
352,96,30575,1,8,0:0:0:0:
160,96,30658,1,0,0:0:0:0:
160,96,30825,1,0,0:0:0:0:
352,96,30991,1,8,0:0:0:0:
352,96,31158,1,8,0:0:0:0:
160,96,31241,1,0,0:0:0:0:
160,96,31325,1,0,0:0:0:0:
352,96,31408,1,8,0:0:0:0:
160,96,31491,1,0,0:0:0:0:
352,96,31658,1,8,0:0:0:0:
160,96,31741,1,0,0:0:0:0:
160,96,31908,1,0,0:0:0:0:
160,96,31991,1,0,0:0:0:0:
160,96,32241,1,0,0:0:0:0:
352,96,32325,1,8,0:0:0:0:
352,96,32491,1,8,0:0:0:0:
160,96,32575,1,0,0:0:0:0:
160,96,32658,1,0,0:0:0:0:
352,96,32741,1,8,0:0:0:0:
160,96,32825,1,0,0:0:0:0:
352,96,32991,1,8,0:0:0:0:
352,96,33047,1,8,0:0:0:0:
352,96,33103,1,8,0:0:0:0:
352,96,33158,1,8,0:0:0:0:
352,288,33325,1,12,0:0:0:0:
352,96,33658,1,8,0:0:0:0:
160,288,33825,1,4,0:0:0:0:
160,96,34158,1,0,0:0:0:0:
352,288,34325,1,12,0:0:0:0:
352,96,34491,1,8,0:0:0:0:
160,288,34658,1,4,0:0:0:0:
352,96,34991,1,8,0:0:0:0:
352,96,35158,1,8,0:0:0:0:
160,96,35241,1,0,0:0:0:0:
160,96,35408,1,0,0:0:0:0:
352,96,35491,1,8,0:0:0:0:
160,96,35575,1,0,0:0:0:0:
352,96,35658,1,8,0:0:0:0:
352,96,35741,1,8,0:0:0:0:
352,96,35825,1,8,0:0:0:0:
352,96,35908,1,8,0:0:0:0:
160,96,35991,1,0,0:0:0:0:
160,96,36158,1,0,0:0:0:0:
352,96,36325,1,8,0:0:0:0:
160,96,36491,1,0,0:0:0:0:
352,96,36575,1,8,0:0:0:0:
352,96,36741,1,8,0:0:0:0:
160,96,36825,1,0,0:0:0:0:
160,96,36908,1,0,0:0:0:0:
352,96,36991,1,8,0:0:0:0:
160,96,37075,1,0,0:0:0:0:
352,96,37158,1,8,0:0:0:0:
160,96,37241,1,0,0:0:0:0:
160,96,37325,1,0,0:0:0:0:
160,96,37491,1,0,0:0:0:0:
352,96,37658,1,8,0:0:0:0:
352,96,37825,1,8,0:0:0:0:
160,96,37908,1,0,0:0:0:0:
352,96,37991,1,8,0:0:0:0:
160,96,38075,1,0,0:0:0:0:
160,96,38158,1,0,0:0:0:0:
160,96,38241,1,0,0:0:0:0:
352,96,38325,1,8,0:0:0:0:
352,96,38491,1,8,0:0:0:0:
160,288,38658,1,4,0:0:0:0:
352,96,38991,1,8,0:0:0:0:
160,288,39158,1,4,0:0:0:0:
160,96,39408,1,0,0:0:0:0:
352,96,39575,1,8,0:0:0:0:
160,96,39658,1,0,0:0:0:0:
160,96,39825,1,0,0:0:0:0:
160,288,39991,1,4,0:0:0:0:
352,96,40325,1,8,0:0:0:0:
352,96,40491,1,8,0:0:0:0:
160,96,40575,1,0,0:0:0:0:
160,96,40658,1,0,0:0:0:0:
352,96,40741,1,8,0:0:0:0:
160,96,40825,1,0,0:0:0:0:
352,96,40991,1,8,0:0:0:0:
160,96,41075,1,0,0:0:0:0:
352,96,41158,1,8,0:0:0:0:
160,288,41325,1,4,0:0:0:0:
160,96,41658,1,0,0:0:0:0:
352,288,41825,1,12,0:0:0:0:
160,96,42158,1,0,0:0:0:0:
160,96,42241,1,0,0:0:0:0:
352,96,42325,1,8,0:0:0:0:
160,96,42408,1,0,0:0:0:0:
160,96,42575,1,0,0:0:0:0:
160,96,42658,1,0,0:0:0:0:
352,96,42825,1,8,0:0:0:0:
352,96,42908,1,8,0:0:0:0:
160,96,42991,1,0,0:0:0:0:
160,96,43075,1,0,0:0:0:0:
352,96,43158,1,8,0:0:0:0:
352,96,43214,1,8,0:0:0:0:
352,96,43269,1,8,0:0:0:0:
160,96,43325,1,0,0:0:0:0:
160,96,43408,1,0,0:0:0:0:
352,96,43491,1,8,0:0:0:0:
160,96,43547,1,0,0:0:0:0:
160,96,43603,1,0,0:0:0:0:
352,96,43658,1,8,0:0:0:0:
160,96,43714,1,0,0:0:0:0:
160,96,43769,1,0,0:0:0:0:
352,96,43825,1,8,0:0:0:0:
352,96,43908,1,8,0:0:0:0:
160,96,43991,1,0,0:0:0:0:
352,96,44075,1,8,0:0:0:0:
160,96,44158,1,0,0:0:0:0:
160,96,44241,1,0,0:0:0:0:
352,96,44325,1,8,0:0:0:0:
160,96,44408,1,0,0:0:0:0:
352,96,44491,1,8,0:0:0:0:
352,96,44575,1,8,0:0:0:0:
160,96,44658,1,0,0:0:0:0:
352,96,44714,1,8,0:0:0:0:
352,96,44769,1,8,0:0:0:0:
160,96,44825,1,0,0:0:0:0:
160,96,44908,1,0,0:0:0:0:
352,96,44991,1,8,0:0:0:0:
160,96,45047,1,0,0:0:0:0:
160,96,45103,1,0,0:0:0:0:
352,96,45158,1,8,0:0:0:0:
352,96,45241,1,8,0:0:0:0:
160,96,45325,1,0,0:0:0:0:
352,96,46491,1,8,0:0:0:0:
352,96,46658,1,8,0:0:0:0:
352,96,47158,1,8,0:0:0:0:
352,96,47241,1,8,0:0:0:0:
352,96,47325,1,8,0:0:0:0:
352,96,47575,1,8,0:0:0:0:
352,96,47825,1,8,0:0:0:0:
160,96,47991,1,0,0:0:0:0:
352,96,48158,1,8,0:0:0:0:
352,96,48325,1,8,0:0:0:0:
352,96,48491,1,8,0:0:0:0:
352,96,49658,1,8,0:0:0:0:
352,96,49825,1,8,0:0:0:0:
352,96,49991,1,8,0:0:0:0:
352,96,50241,1,8,0:0:0:0:
352,96,50491,1,8,0:0:0:0:
160,96,50658,1,0,0:0:0:0:
352,96,51158,1,8,0:0:0:0:
352,96,51241,1,8,0:0:0:0:
352,96,51325,1,8,0:0:0:0:
352,96,51575,1,8,0:0:0:0:
352,96,51825,1,8,0:0:0:0:
352,96,51991,1,8,0:0:0:0:
352,96,52658,1,8,0:0:0:0:
352,96,52908,1,8,0:0:0:0:
352,96,53158,1,8,0:0:0:0:
160,96,53325,1,0,0:0:0:0:
352,96,53825,1,8,0:0:0:0:
352,96,53908,1,8,0:0:0:0:
352,96,53991,1,8,0:0:0:0:
352,96,54241,1,8,0:0:0:0:
352,96,54491,1,8,0:0:0:0:
352,96,54825,1,8,0:0:0:0:
352,96,54991,1,8,0:0:0:0:
352,96,55158,1,8,0:0:0:0:
160,96,55325,1,0,0:0:0:0:
160,96,55491,1,0,0:0:0:0:
160,96,55575,1,0,0:0:0:0:
352,96,55658,1,8,0:0:0:0:
352,96,55825,1,8,0:0:0:0:
160,288,55991,1,4,0:0:0:0:
352,96,56241,1,8,0:0:0:0:
160,96,56325,1,0,0:0:0:0:
352,96,56491,1,8,0:0:0:0:
352,96,56575,1,8,0:0:0:0:
160,96,56658,1,0,0:0:0:0:
160,96,56825,1,0,0:0:0:0:
352,96,56908,1,8,0:0:0:0:
160,96,56991,1,0,0:0:0:0:
352,96,57158,1,8,0:0:0:0:
160,96,57325,1,0,0:0:0:0:
352,96,57575,1,8,0:0:0:0:
160,96,57658,1,0,0:0:0:0:
352,96,57825,1,8,0:0:0:0:
160,96,57908,1,0,0:0:0:0:
160,96,57991,1,0,0:0:0:0:
160,96,58158,1,0,0:0:0:0:
352,96,58241,1,8,0:0:0:0:
160,96,58325,1,0,0:0:0:0:
352,96,58491,1,8,0:0:0:0:
160,96,58658,1,0,0:0:0:0:
352,96,58908,1,8,0:0:0:0:
160,96,58991,1,0,0:0:0:0:
352,96,59158,1,8,0:0:0:0:
160,96,59325,1,0,0:0:0:0:
352,96,59491,1,8,0:0:0:0:
352,96,59575,1,8,0:0:0:0:
160,96,59658,1,0,0:0:0:0:
352,96,59825,1,8,0:0:0:0:
160,96,59991,1,0,0:0:0:0:
160,96,60158,1,0,0:0:0:0:
352,96,60241,1,8,0:0:0:0:
160,96,60325,1,0,0:0:0:0:
352,96,60491,1,8,0:0:0:0:
160,96,60658,1,0,0:0:0:0:
352,96,60741,1,8,0:0:0:0:
352,96,60908,1,8,0:0:0:0:
160,96,60991,1,0,0:0:0:0:
160,96,61075,1,0,0:0:0:0:
352,96,61158,1,8,0:0:0:0:
352,96,61241,1,8,0:0:0:0:
160,96,61325,1,0,0:0:0:0:
160,288,63991,1,4,0:0:0:0:
352,96,64658,1,8,0:0:0:0:
160,288,65325,1,0,0:0:0:0:
160,96,65658,1,0,0:0:0:0:
352,96,65991,1,8,0:0:0:0:
160,96,66158,1,0,0:0:0:0:
160,96,66325,1,0,0:0:0:0:
160,96,66491,1,0,0:0:0:0:
352,288,66658,1,12,0:0:0:0:
160,96,66825,1,0,0:0:0:0:
160,96,66908,1,0,0:0:0:0:
352,96,66991,1,8,0:0:0:0:
160,96,67158,1,0,0:0:0:0:
352,96,67325,1,8,0:0:0:0:
352,96,67408,1,8,0:0:0:0:
160,96,67491,1,0,0:0:0:0:
160,96,67547,1,0,0:0:0:0:
160,96,67603,1,0,0:0:0:0:
352,96,67658,1,8,0:0:0:0:
160,96,67714,1,0,0:0:0:0:
160,96,67769,1,0,0:0:0:0:
352,96,67825,1,8,0:0:0:0:
352,96,67908,1,8,0:0:0:0:
160,96,67991,1,0,0:0:0:0:
160,96,68075,1,0,0:0:0:0:
352,96,68158,1,8,0:0:0:0:
352,96,68241,1,8,0:0:0:0:
160,96,68325,1,0,0:0:0:0:
352,96,68408,1,8,0:0:0:0:
352,96,68491,1,8,0:0:0:0:
160,96,68575,1,0,0:0:0:0:
352,96,68658,1,8,0:0:0:0:
160,96,68825,1,0,0:0:0:0:
160,96,68880,1,0,0:0:0:0:
160,96,68936,1,0,0:0:0:0:
352,96,68991,1,8,0:0:0:0:
160,96,69075,1,0,0:0:0:0:
352,96,69158,1,8,0:0:0:0:
160,288,69325,1,4,0:0:0:0:
352,96,69491,1,8,0:0:0:0:
352,96,69575,1,8,0:0:0:0:
160,96,69658,1,0,0:0:0:0:
160,96,69741,1,0,0:0:0:0:
352,96,69825,1,8,0:0:0:0:
352,96,69908,1,8,0:0:0:0:
160,96,69991,1,0,0:0:0:0:
352,96,70158,1,8,0:0:0:0:
160,96,70241,1,0,0:0:0:0:
160,96,70325,1,0,0:0:0:0:
352,96,70491,1,8,0:0:0:0:
160,96,70658,1,0,0:0:0:0:
160,96,70825,1,0,0:0:0:0:
352,96,70908,1,8,0:0:0:0:
160,96,70991,1,0,0:0:0:0:
352,96,71158,1,8,0:0:0:0:
352,96,71241,1,8,0:0:0:0:
160,96,71325,1,0,0:0:0:0:
352,96,71491,1,8,0:0:0:0:
160,96,71575,1,0,0:0:0:0:
160,96,71741,1,0,0:0:0:0:
352,96,71825,1,8,0:0:0:0:
160,96,71991,1,0,0:0:0:0:
352,96,72158,1,8,0:0:0:0:
352,96,72241,1,8,0:0:0:0:
160,96,72325,1,0,0:0:0:0:
352,96,72408,1,8,0:0:0:0:
352,96,72491,1,8,0:0:0:0:
352,96,72575,1,8,0:0:0:0:
160,96,72658,1,0,0:0:0:0:
160,96,72825,1,0,0:0:0:0:
352,96,72908,1,8,0:0:0:0:
160,96,72991,1,0,0:0:0:0:
160,96,73075,1,0,0:0:0:0:
352,96,73158,1,8,0:0:0:0:
160,96,73325,1,0,0:0:0:0:
160,96,73491,1,0,0:0:0:0:
160,96,73575,1,0,0:0:0:0:
352,96,73658,1,8,0:0:0:0:
160,96,73741,1,0,0:0:0:0:
352,96,73825,1,8,0:0:0:0:
160,96,73991,1,0,0:0:0:0:
352,96,74158,1,8,0:0:0:0:
160,96,74241,1,0,0:0:0:0:
352,96,74325,1,8,0:0:0:0:
352,96,74408,1,8,0:0:0:0:
160,96,74491,1,0,0:0:0:0:
352,96,74575,1,8,0:0:0:0:
160,96,74658,1,0,0:0:0:0:
352,96,74825,1,8,0:0:0:0:
352,96,74908,1,8,0:0:0:0:
160,96,74991,1,0,0:0:0:0:
160,96,75075,1,0,0:0:0:0:
352,96,75158,1,8,0:0:0:0:
352,96,75241,1,8,0:0:0:0:
160,96,75325,1,0,0:0:0:0:
352,96,75491,1,8,0:0:0:0:
160,96,75575,1,0,0:0:0:0:
160,96,75658,1,0,0:0:0:0:
352,96,75825,1,8,0:0:0:0:
160,96,75991,1,0,0:0:0:0:
160,96,76158,1,0,0:0:0:0:
352,96,76241,1,8,0:0:0:0:
160,96,76325,1,0,0:0:0:0:
352,96,76491,1,8,0:0:0:0:
352,96,76575,1,8,0:0:0:0:
160,96,76658,1,0,0:0:0:0:
352,96,76825,1,8,0:0:0:0:
160,96,76908,1,0,0:0:0:0:
160,96,77075,1,0,0:0:0:0:
352,96,77158,1,8,0:0:0:0:
160,96,77325,1,0,0:0:0:0:
352,96,77491,1,8,0:0:0:0:
352,96,77575,1,8,0:0:0:0:
160,96,77658,1,0,0:0:0:0:
160,96,77741,1,0,0:0:0:0:
160,96,77825,1,0,0:0:0:0:
352,96,77908,1,8,0:0:0:0:
160,96,77991,1,0,0:0:0:0:
160,96,78158,1,0,0:0:0:0:
352,96,78241,1,8,0:0:0:0:
352,96,78325,1,8,0:0:0:0:
160,96,78408,1,0,0:0:0:0:
352,96,78491,1,8,0:0:0:0:
160,96,78658,1,0,0:0:0:0:
352,96,78825,1,8,0:0:0:0:
352,96,78908,1,8,0:0:0:0:
160,96,78991,1,0,0:0:0:0:
352,96,79158,1,8,0:0:0:0:
160,96,79241,1,0,0:0:0:0:
352,96,79325,1,8,0:0:0:0:
160,96,79408,1,0,0:0:0:0:
352,96,79491,1,8,0:0:0:0:
160,96,79575,1,0,0:0:0:0:
352,96,79658,1,8,0:0:0:0:
352,96,79825,1,8,0:0:0:0:
160,288,79991,1,4,0:0:0:0:
160,96,80325,1,0,0:0:0:0:
352,96,80491,1,8,0:0:0:0:
352,96,80575,1,8,0:0:0:0:
160,96,80658,1,0,0:0:0:0:
352,96,80825,1,8,0:0:0:0:
160,96,80908,1,0,0:0:0:0:
160,96,81075,1,0,0:0:0:0:
352,96,81158,1,8,0:0:0:0:
352,96,81241,1,8,0:0:0:0:
160,96,81325,1,0,0:0:0:0:
160,96,81491,1,0,0:0:0:0:
352,96,81575,1,8,0:0:0:0:
160,96,81658,1,0,0:0:0:0:
352,96,81825,1,8,0:0:0:0:
352,96,81908,1,8,0:0:0:0:
160,96,81991,1,0,0:0:0:0:
352,96,82158,1,8,0:0:0:0:
160,96,82241,1,0,0:0:0:0:
352,96,82325,1,8,0:0:0:0:
160,96,82408,1,0,0:0:0:0:
352,96,82491,1,8,0:0:0:0:
352,96,82575,1,8,0:0:0:0:
160,96,82658,1,0,0:0:0:0:
352,96,82825,1,8,0:0:0:0:
352,96,82908,1,8,0:0:0:0:
160,96,82991,1,0,0:0:0:0:
352,96,83075,1,8,0:0:0:0:
160,96,83158,1,0,0:0:0:0:
160,96,83241,1,0,0:0:0:0:
352,96,83325,1,8,0:0:0:0:
160,96,83380,1,0,0:0:0:0:
160,96,83436,1,0,0:0:0:0:
352,96,83491,1,8,0:0:0:0:
160,96,83547,1,0,0:0:0:0:
160,96,83603,1,0,0:0:0:0:
352,96,83658,1,8,0:0:0:0:
352,96,83741,1,8,0:0:0:0:
160,96,83825,1,0,0:0:0:0:
160,96,83908,1,0,0:0:0:0:
352,96,83991,1,8,0:0:0:0:
160,96,84158,1,0,0:0:0:0:
352,96,84241,1,8,0:0:0:0:
160,96,84325,1,0,0:0:0:0:
160,96,84408,1,0,0:0:0:0:
352,96,84491,1,8,0:0:0:0:
160,96,84658,1,0,0:0:0:0:
352,96,84741,1,8,0:0:0:0:
352,96,84825,1,8,0:0:0:0:
160,96,84908,1,0,0:0:0:0:
352,96,84991,1,8,0:0:0:0:
352,96,85075,1,8,0:0:0:0:
160,96,85158,1,0,0:0:0:0:
352,96,85241,1,8,0:0:0:0:
160,96,85325,1,0,0:0:0:0:
160,96,85408,1,0,0:0:0:0:
352,96,85491,1,8,0:0:0:0:
160,96,85547,1,0,0:0:0:0:
160,96,85603,1,0,0:0:0:0:
352,96,85658,1,8,0:0:0:0:
352,96,85741,1,8,0:0:0:0:
160,96,85825,1,0,0:0:0:0:
352,96,85880,1,8,0:0:0:0:
352,96,85936,1,8,0:0:0:0:
160,96,85991,1,0,0:0:0:0:
160,96,86075,1,0,0:0:0:0:
352,96,86158,1,8,0:0:0:0:
160,96,86214,1,0,0:0:0:0:
160,96,86269,1,0,0:0:0:0:
352,96,86325,1,8,0:0:0:0:
352,96,86408,1,8,0:0:0:0:
160,96,86491,1,0,0:0:0:0:
352,96,86547,1,8,0:0:0:0:
352,96,86603,1,8,0:0:0:0:
160,96,86658,1,0,0:0:0:0:
160,96,86825,1,0,0:0:0:0:
352,96,86908,1,8,0:0:0:0:
160,96,86991,1,0,0:0:0:0:
160,96,87075,1,0,0:0:0:0:
352,96,87158,1,8,0:0:0:0:
160,96,87325,1,0,0:0:0:0:
352,96,87491,1,8,0:0:0:0:
160,96,87575,1,0,0:0:0:0:
160,96,87741,1,0,0:0:0:0:
352,96,87825,1,8,0:0:0:0:
352,96,87908,1,8,0:0:0:0:
160,96,87991,1,0,0:0:0:0:
352,96,88241,1,8,0:0:0:0:
160,96,88325,1,0,0:0:0:0:
352,96,88491,1,8,0:0:0:0:
160,96,88658,1,0,0:0:0:0:
160,96,88741,1,0,0:0:0:0:
352,96,88825,1,8,0:0:0:0:
160,96,88908,1,0,0:0:0:0:
160,96,89075,1,0,0:0:0:0:
352,96,89158,1,8,0:0:0:0:
160,288,89325,1,4,0:0:0:0:
352,96,89491,1,8,0:0:0:0:
352,96,89575,1,8,0:0:0:0:
352,96,89658,1,8,0:0:0:0:
352,96,89741,1,8,0:0:0:0:
352,96,89825,1,8,0:0:0:0:
352,96,89880,1,8,0:0:0:0:
352,96,89936,1,8,0:0:0:0:
352,96,89991,1,8,0:0:0:0:
352,96,90075,1,8,0:0:0:0:
160,96,90158,1,0,0:0:0:0:
160,96,90214,1,0,0:0:0:0:
160,96,90269,1,0,0:0:0:0:
352,96,90325,1,8,0:0:0:0:
160,96,90491,1,0,0:0:0:0:
160,96,90658,1,0,0:0:0:0:
160,96,90741,1,0,0:0:0:0:
160,96,90825,1,0,0:0:0:0:
160,96,90908,1,0,0:0:0:0:
352,96,90991,1,8,0:0:0:0:
160,96,91158,1,0,0:0:0:0:
160,96,91241,1,0,0:0:0:0:
160,96,91325,1,0,0:0:0:0:
160,96,91408,1,0,0:0:0:0:
352,96,91491,1,8,0:0:0:0:
160,96,91658,1,0,0:0:0:0:
160,96,91741,1,0,0:0:0:0:
160,96,91825,1,0,0:0:0:0:
160,96,91908,1,0,0:0:0:0:
352,96,91991,1,8,0:0:0:0:
160,96,92158,1,0,0:0:0:0:
352,96,92214,1,8,0:0:0:0:
352,96,92269,1,8,0:0:0:0:
160,96,92325,1,0,0:0:0:0:
160,96,92408,1,0,0:0:0:0:
352,96,92491,1,8,0:0:0:0:
352,96,92658,1,8,0:0:0:0:
352,96,92741,1,8,0:0:0:0:
160,96,92825,1,0,0:0:0:0:
160,96,92908,1,0,0:0:0:0:
352,96,92991,1,8,0:0:0:0:
160,96,93075,1,0,0:0:0:0:
352,96,93158,1,8,0:0:0:0:
352,96,93241,1,8,0:0:0:0:
160,96,93325,1,0,0:0:0:0:
160,96,93408,1,0,0:0:0:0:
352,96,93491,1,8,0:0:0:0:
160,96,93575,1,0,0:0:0:0:
352,96,93658,1,8,0:0:0:0:
352,96,93741,1,8,0:0:0:0:
160,96,93825,1,0,0:0:0:0:
160,96,93908,1,0,0:0:0:0:
352,96,93991,1,8,0:0:0:0:
160,96,94075,1,0,0:0:0:0:
352,96,94158,1,8,0:0:0:0:
352,96,94241,1,8,0:0:0:0:
160,96,94325,1,0,0:0:0:0:
352,96,94408,1,8,0:0:0:0:
160,96,94491,1,0,0:0:0:0:
160,96,94575,1,0,0:0:0:0:
352,96,94658,1,8,0:0:0:0:
160,96,94741,1,0,0:0:0:0:
352,96,94825,1,8,0:0:0:0:
160,96,94880,1,0,0:0:0:0:
160,96,94936,1,0,0:0:0:0:
352,96,94991,1,8,0:0:0:0:
160,96,95075,1,0,0:0:0:0:
352,96,95158,1,8,0:0:0:0:
352,96,95241,1,8,0:0:0:0:
160,96,95325,1,0,0:0:0:0:
160,96,95408,1,0,0:0:0:0:
352,96,95491,1,8,0:0:0:0:
352,96,95575,1,8,0:0:0:0:
160,96,95658,1,0,0:0:0:0:
352,96,95741,1,8,0:0:0:0:
352,96,95908,1,8,0:0:0:0:
160,96,95991,1,0,0:0:0:0:
352,96,96075,1,8,0:0:0:0:
160,96,96158,1,0,0:0:0:0:
160,96,96241,1,0,0:0:0:0:
352,96,96325,1,8,0:0:0:0:
160,96,96491,1,0,0:0:0:0:
160,96,96547,1,0,0:0:0:0:
160,96,96603,1,0,0:0:0:0:
352,96,96658,1,8,0:0:0:0:
160,96,96714,1,0,0:0:0:0:
160,96,96769,1,0,0:0:0:0:
352,96,96825,1,8,0:0:0:0:
352,96,96908,1,8,0:0:0:0:
160,96,96991,1,0,0:0:0:0:
352,96,97075,1,8,0:0:0:0:
160,96,97158,1,0,0:0:0:0:
160,96,97241,1,0,0:0:0:0:
352,96,97325,1,8,0:0:0:0:
352,96,97408,1,8,0:0:0:0:
160,96,97491,1,0,0:0:0:0:
160,96,97547,1,0,0:0:0:0:
160,96,97603,1,0,0:0:0:0:
352,96,97658,1,8,0:0:0:0:
160,96,97714,1,0,0:0:0:0:
160,96,97769,1,0,0:0:0:0:
352,96,97825,1,8,0:0:0:0:
352,96,97908,1,8,0:0:0:0:
160,96,97991,1,0,0:0:0:0:
352,96,98075,1,8,0:0:0:0:
160,96,98158,1,0,0:0:0:0:
160,96,98241,1,0,0:0:0:0:
352,96,98325,1,8,0:0:0:0:
160,96,98408,1,0,0:0:0:0:
352,96,98491,1,8,0:0:0:0:
352,96,98575,1,8,0:0:0:0:
160,96,98658,1,0,0:0:0:0:
352,96,98741,1,8,0:0:0:0:
160,96,98825,1,0,0:0:0:0:
352,96,98880,1,8,0:0:0:0:
352,96,98936,1,8,0:0:0:0:
160,96,98991,1,0,0:0:0:0:
352,96,99075,1,8,0:0:0:0:
352,96,99130,1,8,0:0:0:0:
352,96,99186,1,8,0:0:0:0:
160,96,99241,1,0,0:0:0:0:
352,96,99325,1,8,0:0:0:0:
160,96,99380,1,0,0:0:0:0:
160,96,99436,1,0,0:0:0:0:
352,96,99491,1,8,0:0:0:0:
352,96,99575,1,8,0:0:0:0:
160,96,99658,1,0,0:0:0:0:
352,96,99741,1,8,0:0:0:0:
352,96,99825,1,8,0:0:0:0:
160,96,99908,1,0,0:0:0:0:
352,96,99991,1,8,0:0:0:0:
160,96,100158,1,0,0:0:0:0:
352,96,100241,1,8,0:0:0:0:
160,96,100325,1,0,0:0:0:0:
160,96,100408,1,0,0:0:0:0:
352,96,100491,1,8,0:0:0:0:
352,96,100575,1,8,0:0:0:0:
160,96,100658,1,0,0:0:0:0:
352,96,100741,1,8,0:0:0:0:
160,96,100825,1,0,0:0:0:0:
160,96,100908,1,0,0:0:0:0:
352,96,100991,1,8,0:0:0:0:
352,96,101075,1,8,0:0:0:0:
352,96,101158,1,8,0:0:0:0:
352,96,101241,1,8,0:0:0:0:
160,96,101325,1,0,0:0:0:0:
352,96,106158,5,8,0:0:0:0:
352,96,106325,1,8,0:0:0:0:
352,96,106491,1,8,0:0:0:0:
160,96,111491,5,0,0:0:0:0:
160,96,111575,1,0,0:0:0:0:
352,96,111658,1,8,0:0:0:0:
352,96,111825,1,8,0:0:0:0:
352,96,111908,1,8,0:0:0:0:
160,96,111991,1,0,0:0:0:0:
160,96,112158,1,0,0:0:0:0:
160,96,112658,1,0,0:0:0:0:
352,96,112825,1,8,0:0:0:0:
160,96,112991,1,0,0:0:0:0:
352,96,113158,1,8,0:0:0:0:
352,96,113491,1,8,0:0:0:0:
352,96,113658,1,8,0:0:0:0:
160,96,113825,1,0,0:0:0:0:
160,96,114158,1,0,0:0:0:0:
160,96,114491,1,0,0:0:0:0:
352,96,114658,1,8,0:0:0:0:
352,96,115158,1,8,0:0:0:0:
352,96,115325,1,8,0:0:0:0:
160,96,115491,1,0,0:0:0:0:
352,96,115658,1,8,0:0:0:0:
160,96,115825,1,0,0:0:0:0:
160,96,116158,1,0,0:0:0:0:
160,96,116325,1,0,0:0:0:0:
352,96,116491,1,8,0:0:0:0:
160,96,116825,1,0,0:0:0:0:
352,96,116991,1,8,0:0:0:0:
352,96,117158,1,8,0:0:0:0:
160,96,117325,1,0,0:0:0:0:
352,96,117491,1,8,0:0:0:0:
160,96,117658,1,0,0:0:0:0:
160,96,117991,1,0,0:0:0:0:
352,96,118158,1,8,0:0:0:0:
160,96,118325,1,0,0:0:0:0:
352,96,118491,1,8,0:0:0:0:
352,96,118575,1,8,0:0:0:0:
160,96,118658,1,0,0:0:0:0:
352,96,118825,1,8,0:0:0:0:
160,96,118991,1,0,0:0:0:0:
160,96,119075,1,0,0:0:0:0:
352,96,119158,1,8,0:0:0:0:
160,96,119325,1,0,0:0:0:0:
352,96,119491,1,8,0:0:0:0:
352,96,119575,1,8,0:0:0:0:
160,96,119658,1,0,0:0:0:0:
160,96,119741,1,0,0:0:0:0:
352,96,119825,1,8,0:0:0:0:
160,96,119991,1,0,0:0:0:0:
160,96,120075,1,0,0:0:0:0:
352,96,120158,1,8,0:0:0:0:
160,96,120241,1,0,0:0:0:0:
352,96,120325,1,8,0:0:0:0:
352,96,120408,1,8,0:0:0:0:
160,96,120491,1,0,0:0:0:0:
352,96,120547,1,8,0:0:0:0:
352,96,120603,1,8,0:0:0:0:
160,96,120658,1,0,0:0:0:0:
160,96,120741,1,0,0:0:0:0:
352,96,120825,1,8,0:0:0:0:
160,96,120880,1,0,0:0:0:0:
160,96,120936,1,0,0:0:0:0:
352,96,120991,1,8,0:0:0:0:
160,96,121047,1,0,0:0:0:0:
160,96,121103,1,0,0:0:0:0:
352,96,121158,1,8,0:0:0:0:
160,96,121325,1,0,0:0:0:0:
352,96,121408,1,8,0:0:0:0:
160,96,121491,1,0,0:0:0:0:
160,96,121575,1,0,0:0:0:0:
352,96,121658,1,8,0:0:0:0:
160,96,121714,1,0,0:0:0:0:
160,96,121769,1,0,0:0:0:0:
352,96,121825,1,8,0:0:0:0:
352,96,122158,1,8,0:0:0:0:
160,96,122325,1,0,0:0:0:0:
160,96,122491,1,0,0:0:0:0:
352,288,122658,1,12,0:0:0:0:
160,96,122991,1,0,0:0:0:0:
352,96,123158,1,8,0:0:0:0:
160,96,123325,1,0,0:0:0:0:
160,96,123658,1,0,0:0:0:0:
352,96,123825,1,8,0:0:0:0:
160,96,124158,1,0,0:0:0:0:
160,96,124325,1,0,0:0:0:0:
352,96,124491,1,8,0:0:0:0:
160,96,124658,1,0,0:0:0:0:
160,96,124991,1,0,0:0:0:0:
352,96,125325,1,8,0:0:0:0:
352,96,125658,1,8,0:0:0:0:
352,96,125825,1,8,0:0:0:0:
160,96,125991,1,0,0:0:0:0:
160,96,126325,1,0,0:0:0:0:
352,96,126491,1,8,0:0:0:0:
160,96,126825,1,0,0:0:0:0:
160,96,126991,1,0,0:0:0:0:
352,96,127158,1,8,0:0:0:0:
160,96,127325,1,0,0:0:0:0:
160,96,127658,1,0,0:0:0:0:
352,96,127991,1,8,0:0:0:0:
160,96,128325,1,0,0:0:0:0:
352,96,128491,1,8,0:0:0:0:
160,96,128658,1,0,0:0:0:0:
160,96,128991,1,0,0:0:0:0:
352,96,129158,1,8,0:0:0:0:
160,96,129491,1,0,0:0:0:0:
160,96,129658,1,0,0:0:0:0:
352,96,129825,1,8,0:0:0:0:
160,96,129991,1,0,0:0:0:0:
352,96,130158,1,8,0:0:0:0:
160,96,130325,1,0,0:0:0:0:
352,96,130658,1,8,0:0:0:0:
352,96,130991,1,8,0:0:0:0:
352,96,131158,1,8,0:0:0:0:
160,96,131325,1,0,0:0:0:0:
160,96,131658,1,0,0:0:0:0:
352,96,131825,1,8,0:0:0:0:
160,96,132158,1,0,0:0:0:0:
160,96,132325,1,0,0:0:0:0:
352,96,132491,1,8,0:0:0:0:
160,96,132658,1,0,0:0:0:0:
160,96,132825,1,0,0:0:0:0:
352,96,132991,1,8,0:0:0:0:
352,96,133325,1,12,0:0:0:0:
352,96,133491,1,8,0:0:0:0:
160,96,133658,1,0,0:0:0:0:
352,96,133825,1,8,0:0:0:0:
160,96,133991,1,0,0:0:0:0:
160,96,134325,1,0,0:0:0:0:
352,96,134491,1,8,0:0:0:0:
352,96,134825,1,8,0:0:0:0:
160,96,134991,1,0,0:0:0:0:
352,96,135158,1,8,0:0:0:0:
160,96,135325,1,0,0:0:0:0:
160,96,135658,1,0,0:0:0:0:
352,96,135991,1,8,0:0:0:0:
352,96,136158,1,8,0:0:0:0:
160,96,136325,1,0,0:0:0:0:
352,96,136491,1,8,0:0:0:0:
160,96,136658,1,0,0:0:0:0:
352,96,136825,1,8,0:0:0:0:
352,96,136991,1,8,0:0:0:0:
160,96,137158,1,0,0:0:0:0:
352,96,137491,1,8,0:0:0:0:
352,96,137658,1,8,0:0:0:0:
160,96,137825,1,0,0:0:0:0:
160,96,138158,1,0,0:0:0:0:
352,96,138325,5,8,0:0:0:0:
352,96,138491,1,8,0:0:0:0:
160,96,138658,5,0,0:0:0:0:
160,96,138991,1,0,0:0:0:0:
352,96,139158,1,8,0:0:0:0:
160,96,139325,1,0,0:0:0:0:
160,96,139658,1,0,0:0:0:0:
352,96,139825,1,8,0:0:0:0:
160,96,139991,1,0,0:0:0:0:
352,96,140158,1,8,0:0:0:0:
352,96,140241,1,8,0:0:0:0:
160,96,140325,1,0,0:0:0:0:
352,96,140491,1,8,0:0:0:0:
160,96,140658,1,0,0:0:0:0:
160,96,140741,1,0,0:0:0:0:
352,96,140825,1,8,0:0:0:0:
160,96,140991,1,0,0:0:0:0:
352,96,141158,1,8,0:0:0:0:
352,96,141241,1,8,0:0:0:0:
160,96,141325,1,0,0:0:0:0:
352,96,141408,1,8,0:0:0:0:
160,96,141491,1,0,0:0:0:0:
352,96,141658,1,8,0:0:0:0:
352,96,141741,1,8,0:0:0:0:
160,96,141825,1,0,0:0:0:0:
352,96,141908,1,8,0:0:0:0:
160,96,141991,1,0,0:0:0:0:
160,96,142075,1,0,0:0:0:0:
352,96,142158,1,8,0:0:0:0:
160,96,142214,1,0,0:0:0:0:
160,96,142269,1,0,0:0:0:0:
352,96,142325,1,8,0:0:0:0:
352,96,142408,1,8,0:0:0:0:
160,96,142491,1,0,0:0:0:0:
352,96,142547,1,8,0:0:0:0:
352,96,142603,1,8,0:0:0:0:
160,96,142658,1,0,0:0:0:0:
352,96,142714,1,8,0:0:0:0:
352,96,142769,1,8,0:0:0:0:
160,96,142825,1,0,0:0:0:0:
352,96,142880,1,8,0:0:0:0:
352,96,142936,1,8,0:0:0:0:
160,96,142991,1,0,0:0:0:0:
352,96,143075,1,8,0:0:0:0:
160,96,143158,1,0,0:0:0:0:
160,96,143241,1,0,0:0:0:0:
352,96,143325,1,8,0:0:0:0:
352,96,143380,1,8,0:0:0:0:
352,96,143436,1,8,0:0:0:0:
160,96,143491,1,0,0:0:0:0:
160,96,143575,1,0,0:0:0:0:
352,96,143658,1,8,0:0:0:0:
352,96,143741,1,8,0:0:0:0:
352,96,143825,1,8,0:0:0:0:
352,96,143908,1,8,0:0:0:0:
160,96,143991,1,0,0:0:0:0:
352,96,144241,1,8,0:0:0:0:
160,96,144325,1,0,0:0:0:0:
352,96,144491,1,8,0:0:0:0:
160,96,144658,1,0,0:0:0:0:
352,96,144825,1,8,0:0:0:0:
352,96,144908,1,8,0:0:0:0:
160,96,144991,1,0,0:0:0:0:
352,96,145158,1,8,0:0:0:0:
160,96,145325,1,0,0:0:0:0:
160,96,145408,1,0,0:0:0:0:
352,96,145575,1,8,0:0:0:0:
160,96,145658,1,0,0:0:0:0:
352,96,145825,1,8,0:0:0:0:
160,96,145991,1,0,0:0:0:0:
160,96,146158,1,0,0:0:0:0:
352,96,146241,1,8,0:0:0:0:
160,96,146325,1,0,0:0:0:0:
352,96,146491,1,8,0:0:0:0:
160,96,146658,1,0,0:0:0:0:
352,96,146908,1,8,0:0:0:0:
160,96,146991,1,0,0:0:0:0:
352,96,147158,1,8,0:0:0:0:
160,96,147325,1,0,0:0:0:0:
352,96,147491,1,8,0:0:0:0:
352,96,147575,1,8,0:0:0:0:
160,96,147658,1,0,0:0:0:0:
352,96,147825,1,8,0:0:0:0:
160,96,147908,1,0,0:0:0:0:
160,96,147991,1,0,0:0:0:0:
352,96,148075,1,8,0:0:0:0:
352,96,148241,1,8,0:0:0:0:
160,96,148325,1,0,0:0:0:0:
352,96,148491,1,8,0:0:0:0:
160,96,148658,1,0,0:0:0:0:
160,96,148825,1,0,0:0:0:0:
352,96,148908,1,8,0:0:0:0:
160,96,148991,1,0,0:0:0:0:
160,96,149075,1,0,0:0:0:0:
352,96,149158,1,8,0:0:0:0:
160,96,149325,1,0,0:0:0:0:
352,96,149575,1,8,0:0:0:0:
160,96,149658,1,0,0:0:0:0:
352,96,149825,1,8,0:0:0:0:
352,96,149908,1,8,0:0:0:0:
160,96,149991,1,0,0:0:0:0:
160,96,150158,1,0,0:0:0:0:
352,96,150241,1,8,0:0:0:0:
160,96,150325,1,0,0:0:0:0:
352,96,150491,1,8,0:0:0:0:
160,96,150658,1,0,0:0:0:0:
160,96,150741,1,0,0:0:0:0:
352,96,150908,1,8,0:0:0:0:
160,96,150991,1,0,0:0:0:0:
352,96,151158,1,8,0:0:0:0:
160,96,151325,1,0,0:0:0:0:
160,96,151491,1,0,0:0:0:0:
352,96,151575,1,8,0:0:0:0:
160,96,151658,1,0,0:0:0:0:
352,96,151825,1,8,0:0:0:0:
160,96,151991,1,0,0:0:0:0:
352,96,152241,1,8,0:0:0:0:
160,96,152325,1,0,0:0:0:0:
352,96,152491,1,8,0:0:0:0:
160,96,152658,1,0,0:0:0:0:
352,96,152825,1,8,0:0:0:0:
352,96,152908,1,8,0:0:0:0:
160,96,152991,1,0,0:0:0:0:
352,96,153158,1,8,0:0:0:0:
160,96,153325,1,0,0:0:0:0:
160,96,153408,1,0,0:0:0:0:
352,96,153491,1,8,0:0:0:0:
352,96,153575,1,8,0:0:0:0:
160,96,153658,1,0,0:0:0:0:
352,96,153825,1,8,0:0:0:0:
160,96,153991,1,0,0:0:0:0:
160,96,154075,1,0,0:0:0:0:
160,96,154158,1,0,0:0:0:0:
352,96,154241,1,8,0:0:0:0:
160,96,154325,1,0,0:0:0:0:
352,96,154491,1,8,0:0:0:0:
160,288,154658,1,4,0:0:0:0:
352,96,154908,1,8,0:0:0:0:
160,96,154991,1,0,0:0:0:0:
160,96,155158,1,0,0:0:0:0:
352,96,155241,1,8,0:0:0:0:
160,96,155325,1,0,0:0:0:0:
352,96,155491,1,8,0:0:0:0:
352,96,155575,1,8,0:0:0:0:
160,96,155658,1,0,0:0:0:0:
352,96,155825,1,8,0:0:0:0:
160,96,155991,1,0,0:0:0:0:
160,96,156075,1,0,0:0:0:0:
352,96,156241,1,8,0:0:0:0:
160,96,156325,1,0,0:0:0:0:
352,96,156491,1,8,0:0:0:0:
160,96,156658,1,0,0:0:0:0:
160,96,156825,1,0,0:0:0:0:
352,96,156908,1,8,0:0:0:0:
160,96,156991,1,0,0:0:0:0:
352,96,157158,1,8,0:0:0:0:
160,96,157325,1,0,0:0:0:0:
352,96,157575,1,8,0:0:0:0:
160,96,157658,1,0,0:0:0:0:
352,96,157825,1,8,0:0:0:0:
160,96,157908,1,0,0:0:0:0:
160,96,157991,1,0,0:0:0:0:
352,96,158158,1,8,0:0:0:0:
352,96,158241,1,8,0:0:0:0:
160,96,158325,1,0,0:0:0:0:
352,96,158491,1,8,0:0:0:0:
160,96,158658,1,0,0:0:0:0:
352,96,158741,1,8,0:0:0:0:
352,96,158908,1,8,0:0:0:0:
160,96,158991,1,0,0:0:0:0:
352,96,159158,1,8,0:0:0:0:
352,96,159241,1,8,0:0:0:0:
160,96,159325,1,0,0:0:0:0:
160,96,159491,1,0,0:0:0:0:
352,96,159575,5,8,0:0:0:0:
160,96,159658,1,0,0:0:0:0:
160,96,159741,1,0,0:0:0:0:
352,96,159825,1,8,0:0:0:0:
352,96,159908,1,8,0:0:0:0:
160,96,159991,5,0,0:0:0:0:
160,96,160241,1,0,0:0:0:0:
352,96,160325,1,8,0:0:0:0:
160,96,160491,1,0,0:0:0:0:
352,96,160658,1,8,0:0:0:0:
160,96,160825,1,0,0:0:0:0:
160,96,160908,1,0,0:0:0:0:
352,96,160991,1,8,0:0:0:0:
160,96,161158,1,0,0:0:0:0:
352,96,161325,1,8,0:0:0:0:
160,96,161575,1,0,0:0:0:0:
352,96,161658,1,8,0:0:0:0:
160,96,161825,1,0,0:0:0:0:
352,96,161991,1,8,0:0:0:0:
352,96,162075,1,8,0:0:0:0:
160,96,162158,1,0,0:0:0:0:
160,96,162241,1,0,0:0:0:0:
352,96,162325,1,8,0:0:0:0:
352,96,162491,1,8,0:0:0:0:
160,96,162658,1,0,0:0:0:0:
352,96,162741,1,8,0:0:0:0:
160,96,162825,1,0,0:0:0:0:
160,96,162908,1,0,0:0:0:0:
352,96,162991,1,8,0:0:0:0:
160,96,163075,1,0,0:0:0:0:
352,96,163158,1,8,0:0:0:0:
352,96,163214,1,8,0:0:0:0:
352,96,163269,1,8,0:0:0:0:
160,96,163325,1,0,0:0:0:0:
160,96,163408,1,0,0:0:0:0:
352,96,163491,1,8,0:0:0:0:
160,96,163547,1,0,0:0:0:0:
160,96,163603,1,0,0:0:0:0:
352,96,163658,1,8,0:0:0:0:
160,96,163714,1,0,0:0:0:0:
160,96,163769,1,0,0:0:0:0:
352,96,163825,1,8,0:0:0:0:
352,96,163908,1,8,0:0:0:0:
160,96,163991,1,0,0:0:0:0:
352,96,164075,1,8,0:0:0:0:
352,96,164158,1,8,0:0:0:0:
352,96,164241,1,8,0:0:0:0:
160,96,164325,1,0,0:0:0:0:
160,96,164380,1,0,0:0:0:0:
160,96,164436,1,0,0:0:0:0:
352,96,164491,1,8,0:0:0:0:
352,96,164575,1,8,0:0:0:0:
160,96,164658,1,0,0:0:0:0:
160,96,164741,1,0,0:0:0:0:
160,96,164825,1,0,0:0:0:0:
160,96,164908,5,0,0:0:0:0:
352,96,164991,1,8,0:0:0:0:
160,96,165325,5,0,0:0:0:0:
160,96,165658,1,0,0:0:0:0:
160,96,165991,1,0,0:0:0:0:
160,96,166241,1,0,0:0:0:0:
160,96,166491,1,0,0:0:0:0:
160,96,166658,1,0,0:0:0:0:
160,96,166825,1,0,0:0:0:0:
160,96,166991,1,0,0:0:0:0:
160,96,167158,1,0,0:0:0:0:
160,96,167325,1,0,0:0:0:0:
160,96,167575,1,0,0:0:0:0:
352,96,167825,1,8,0:0:0:0:
160,96,167991,1,0,0:0:0:0:
160,96,168325,1,0,0:0:0:0:
160,96,168658,1,0,0:0:0:0:
160,96,168908,1,0,0:0:0:0:
160,96,169158,1,0,0:0:0:0:
160,96,169325,1,0,0:0:0:0:
160,96,169491,1,0,0:0:0:0:
160,96,169658,1,0,0:0:0:0:
160,96,169825,1,0,0:0:0:0:
160,96,169991,1,0,0:0:0:0:
352,96,170158,1,8,0:0:0:0:
352,96,170325,1,8,0:0:0:0:
160,96,170658,1,0,0:0:0:0:
160,96,170991,1,0,0:0:0:0:
352,96,171158,1,8,0:0:0:0:
160,96,171325,1,0,0:0:0:0:
352,96,171491,1,8,0:0:0:0:
160,96,171575,1,0,0:0:0:0:
160,96,171825,1,0,0:0:0:0:
160,96,171991,1,0,0:0:0:0:
160,96,172158,1,0,0:0:0:0:
352,96,172241,1,8,0:0:0:0:
160,96,172325,1,0,0:0:0:0:
352,96,172491,1,8,0:0:0:0:
160,96,172658,1,0,0:0:0:0:
352,96,172825,1,8,0:0:0:0:
160,96,172908,1,0,0:0:0:0:
352,96,173158,1,8,0:0:0:0:
160,96,173325,1,0,0:0:0:0:
160,96,173658,1,0,0:0:0:0:
352,96,173825,1,8,0:0:0:0:
160,96,173991,1,0,0:0:0:0:
352,96,174158,1,8,0:0:0:0:
160,96,174241,1,0,0:0:0:0:
160,96,174491,1,0,0:0:0:0:
160,96,174658,1,0,0:0:0:0:
160,96,174825,1,0,0:0:0:0:
352,96,174908,1,8,0:0:0:0:
160,96,174991,1,0,0:0:0:0:
352,96,175158,1,8,0:0:0:0:
160,96,175325,1,0,0:0:0:0:
160,96,175575,1,0,0:0:0:0:
352,96,175658,1,8,0:0:0:0:
160,96,175991,1,0,0:0:0:0:
352,96,176075,1,8,0:0:0:0:
352,96,176158,1,8,0:0:0:0:
160,96,176325,1,0,0:0:0:0:
352,96,176491,1,8,0:0:0:0:
352,96,176547,1,8,0:0:0:0:
352,96,176603,1,8,0:0:0:0:
160,96,176658,1,0,0:0:0:0:
352,96,176741,1,8,0:0:0:0:
352,96,176797,1,8,0:0:0:0:
352,96,176853,1,8,0:0:0:0:
160,96,176908,1,0,0:0:0:0:
352,96,176991,1,8,0:0:0:0:
352,96,177047,1,8,0:0:0:0:
352,96,177103,1,8,0:0:0:0:
160,96,177158,1,0,0:0:0:0:
352,96,177241,1,8,0:0:0:0:
160,96,177325,1,0,0:0:0:0:
160,96,177491,1,0,0:0:0:0:
352,96,177575,1,8,0:0:0:0:
160,96,177658,1,0,0:0:0:0:
160,96,177741,1,0,0:0:0:0:
352,96,177825,1,8,0:0:0:0:
352,96,177908,1,8,0:0:0:0:
160,96,177991,1,0,0:0:0:0:
352,96,178158,1,8,0:0:0:0:
160,96,178241,1,0,0:0:0:0:
160,96,178408,1,0,0:0:0:0:
352,96,178491,1,8,0:0:0:0:
160,96,178658,1,0,0:0:0:0:
352,96,178741,1,8,0:0:0:0:
352,96,178825,1,8,0:0:0:0:
160,96,178991,1,0,0:0:0:0:
352,96,179158,1,8,0:0:0:0:
352,96,179214,1,8,0:0:0:0:
352,96,179269,1,8,0:0:0:0:
160,96,179325,1,0,0:0:0:0:
352,96,179408,1,8,0:0:0:0:
352,96,179464,1,8,0:0:0:0:
352,96,179519,1,8,0:0:0:0:
160,96,179575,1,0,0:0:0:0:
352,96,179658,1,8,0:0:0:0:
352,96,179714,1,8,0:0:0:0:
352,96,179769,1,8,0:0:0:0:
160,96,179825,1,0,0:0:0:0:
352,96,179908,1,8,0:0:0:0:
160,96,179991,1,0,0:0:0:0:
160,96,180158,1,0,0:0:0:0:
352,96,180241,1,8,0:0:0:0:
160,96,180325,1,0,0:0:0:0:
160,96,180408,1,0,0:0:0:0:
352,96,180491,1,8,0:0:0:0:
352,96,180575,1,8,0:0:0:0:
160,96,180658,1,0,0:0:0:0:
352,96,180825,1,8,0:0:0:0:
352,96,180991,1,8,0:0:0:0:
352,96,181075,1,8,0:0:0:0:
352,96,181158,1,8,0:0:0:0:
352,96,181241,1,8,0:0:0:0:
160,96,181325,1,0,0:0:0:0:
352,96,181408,1,8,0:0:0:0:
352,96,181491,1,8,0:0:0:0:
352,96,181575,1,8,0:0:0:0:
160,96,181658,1,0,0:0:0:0:
352,96,181741,1,8,0:0:0:0:
352,96,181825,1,8,0:0:0:0:
352,96,181880,1,8,0:0:0:0:
352,96,181936,1,8,0:0:0:0:
160,96,181991,1,0,0:0:0:0:
352,96,182075,1,8,0:0:0:0:
352,96,182130,1,8,0:0:0:0:
352,96,182186,1,8,0:0:0:0:
160,96,182241,1,0,0:0:0:0:
352,96,182325,1,8,0:0:0:0:
352,96,182380,1,8,0:0:0:0:
352,96,182436,1,8,0:0:0:0:
160,96,182491,1,0,0:0:0:0:
352,96,182575,1,8,0:0:0:0:
160,96,182658,1,0,0:0:0:0:
352,96,182741,1,8,0:0:0:0:
160,96,182825,1,0,0:0:0:0:
352,96,182908,1,8,0:0:0:0:
160,96,182991,1,0,0:0:0:0:
160,96,183075,1,0,0:0:0:0:
352,96,183158,1,8,0:0:0:0:
352,96,183241,1,8,0:0:0:0:
160,96,183325,1,0,0:0:0:0:
352,96,183491,1,8,0:0:0:0:
160,96,183575,1,0,0:0:0:0:
160,96,183741,1,0,0:0:0:0:
352,96,183825,1,8,0:0:0:0:
160,96,183991,1,0,0:0:0:0:
352,96,184075,1,8,0:0:0:0:
352,96,184158,1,8,0:0:0:0:
352,96,184241,1,8,0:0:0:0:
160,96,184325,1,0,0:0:0:0:
352,96,184408,1,8,0:0:0:0:
352,96,184491,1,8,0:0:0:0:
352,96,184547,1,8,0:0:0:0:
352,96,184603,1,8,0:0:0:0:
160,96,184658,1,0,0:0:0:0:
352,96,184741,1,8,0:0:0:0:
352,96,184797,1,8,0:0:0:0:
352,96,184853,1,8,0:0:0:0:
160,96,184908,1,0,0:0:0:0:
352,96,184991,1,8,0:0:0:0:
352,96,185047,1,8,0:0:0:0:
352,96,185103,1,8,0:0:0:0:
160,96,185158,1,0,0:0:0:0:
352,96,185241,1,8,0:0:0:0:
160,96,185325,1,0,0:0:0:0:
352,96,185491,1,8,0:0:0:0:
160,96,185575,1,0,0:0:0:0:
352,96,185658,1,8,0:0:0:0:
352,96,185741,1,8,0:0:0:0:
160,96,185825,1,0,0:0:0:0:
160,96,185908,1,0,0:0:0:0:
352,96,185991,1,8,0:0:0:0:
352,96,186047,1,8,0:0:0:0:
352,96,186103,1,8,0:0:0:0:
160,96,186158,1,0,0:0:0:0:
352,288,186325,1,12,0:0:0:0:
160,288,186658,1,4,0:0:0:0:
160,96,186825,1,0,0:0:0:0:
352,96,186908,1,8,0:0:0:0:
160,96,186991,1,0,0:0:0:0:
160,96,187075,1,0,0:0:0:0:
352,96,187158,1,8,0:0:0:0:
352,96,187241,1,8,0:0:0:0:
160,96,187325,1,0,0:0:0:0:
352,96,187491,1,8,0:0:0:0:
160,96,187575,1,0,0:0:0:0:
160,96,187658,1,0,0:0:0:0:
352,96,187741,1,8,0:0:0:0:
352,96,187825,1,8,0:0:0:0:
160,96,187991,1,0,0:0:0:0:
352,96,188158,1,8,0:0:0:0:
160,96,188241,1,0,0:0:0:0:
352,96,188325,1,8,0:0:0:0:
352,96,188491,1,8,0:0:0:0:
352,96,188575,1,8,0:0:0:0:
160,96,188658,1,0,0:0:0:0:
160,96,188741,1,0,0:0:0:0:
352,96,188825,1,8,0:0:0:0:
160,96,188908,1,0,0:0:0:0:
352,96,188991,1,8,0:0:0:0:
352,96,189075,1,8,0:0:0:0:
160,96,189158,1,0,0:0:0:0:
160,96,189241,1,0,0:0:0:0:
352,96,189325,1,8,0:0:0:0:
160,96,189491,1,0,0:0:0:0:
352,96,189575,1,8,0:0:0:0:
160,96,189658,1,0,0:0:0:0:
160,96,189741,1,0,0:0:0:0:
352,96,189825,1,8,0:0:0:0:
160,96,189991,1,0,0:0:0:0:
352,96,190158,1,8,0:0:0:0:
160,96,190241,1,0,0:0:0:0:
352,96,190325,1,8,0:0:0:0:
352,96,190408,1,8,0:0:0:0:
160,96,190491,1,0,0:0:0:0:
160,96,190658,1,0,0:0:0:0:
352,96,190741,1,8,0:0:0:0:
352,96,190825,1,8,0:0:0:0:
352,96,190908,1,8,0:0:0:0:
160,96,190991,1,0,0:0:0:0:
160,96,191075,1,0,0:0:0:0:
352,96,191158,1,8,0:0:0:0:
160,96,191325,1,0,0:0:0:0:
352,96,191408,1,8,0:0:0:0:
352,96,191491,1,8,0:0:0:0:
160,96,191575,1,0,0:0:0:0:
352,96,191658,1,8,0:0:0:0:
352,96,191741,1,8,0:0:0:0:
160,96,191825,1,0,0:0:0:0:
352,96,191908,1,8,0:0:0:0:
160,96,191991,1,0,0:0:0:0:
160,96,192158,1,0,0:0:0:0:
352,96,192241,1,8,0:0:0:0:
160,96,192325,1,0,0:0:0:0:
160,96,192408,1,0,0:0:0:0:
352,96,192491,1,8,0:0:0:0:
352,96,192575,1,8,0:0:0:0:
160,96,192658,1,0,0:0:0:0:
352,96,192741,1,8,0:0:0:0:
352,96,192825,1,8,0:0:0:0:
160,96,192908,1,0,0:0:0:0:
352,96,192991,1,8,0:0:0:0:
160,96,193075,1,0,0:0:0:0:
352,96,193158,1,8,0:0:0:0:
160,96,193325,1,0,0:0:0:0:
352,96,193491,1,8,0:0:0:0:
352,96,193575,1,8,0:0:0:0:
160,96,193658,1,0,0:0:0:0:
352,96,193741,1,8,0:0:0:0:
352,96,193825,1,8,0:0:0:0:
352,96,193908,1,8,0:0:0:0:
160,96,193991,1,0,0:0:0:0:
352,96,194075,1,8,0:0:0:0:
352,96,194158,1,8,0:0:0:0:
160,96,194241,1,0,0:0:0:0:
352,96,194325,1,8,0:0:0:0:
352,96,194408,1,8,0:0:0:0:
160,96,194491,1,0,0:0:0:0:
352,96,194575,1,8,0:0:0:0:
160,96,194658,1,0,0:0:0:0:
352,96,194825,1,8,0:0:0:0:
352,96,194908,1,8,0:0:0:0:
160,96,194991,1,0,0:0:0:0:
160,96,195075,1,0,0:0:0:0:
160,96,195158,1,0,0:0:0:0:
352,96,195241,1,8,0:0:0:0:
160,96,195325,1,0,0:0:0:0:
160,96,195491,1,0,0:0:0:0:
352,96,195575,1,8,0:0:0:0:
160,96,195658,1,0,0:0:0:0:
160,96,195741,1,0,0:0:0:0:
352,96,195825,1,8,0:0:0:0:
160,96,195991,1,0,0:0:0:0:
352,96,196158,1,8,0:0:0:0:
352,96,196241,1,8,0:0:0:0:
160,96,196325,1,0,0:0:0:0:
352,96,196491,1,8,0:0:0:0:
160,96,196575,1,0,0:0:0:0:
352,96,196658,1,8,0:0:0:0:
160,96,196741,1,0,0:0:0:0:
352,96,196825,1,8,0:0:0:0:
160,96,196908,1,0,0:0:0:0:
352,96,196991,1,8,0:0:0:0:
352,96,197158,1,8,0:0:0:0:
160,288,197325,1,4,0:0:0:0:
160,96,197491,1,0,0:0:0:0:
352,96,197575,1,8,0:0:0:0:
160,96,197658,1,0,0:0:0:0:
160,96,197741,1,0,0:0:0:0:
352,96,197825,1,8,0:0:0:0:
352,96,197908,1,8,0:0:0:0:
160,96,197991,1,0,0:0:0:0:
352,96,198158,1,8,0:0:0:0:
160,96,198241,1,0,0:0:0:0:
160,96,198325,1,0,0:0:0:0:
352,96,198408,1,8,0:0:0:0:
352,96,198491,1,8,0:0:0:0:
160,96,198658,1,0,0:0:0:0:
352,96,198825,1,8,0:0:0:0:
160,96,198908,1,0,0:0:0:0:
352,96,198991,1,8,0:0:0:0:
352,96,199075,1,8,0:0:0:0:
160,96,199158,1,0,0:0:0:0:
352,96,199241,1,8,0:0:0:0:
160,96,199325,1,0,0:0:0:0:
160,96,199408,1,0,0:0:0:0:
352,96,199491,1,8,0:0:0:0:
160,96,199575,1,0,0:0:0:0:
352,96,199658,1,8,0:0:0:0:
352,96,199741,1,8,0:0:0:0:
160,96,199825,1,0,0:0:0:0:
160,96,199908,1,0,0:0:0:0:
352,96,199991,1,8,0:0:0:0:
160,96,200158,1,0,0:0:0:0:
352,96,200241,1,8,0:0:0:0:
160,96,200325,1,0,0:0:0:0:
160,96,200408,1,0,0:0:0:0:
352,96,200491,1,8,0:0:0:0:
160,96,200658,1,0,0:0:0:0:
352,96,200825,1,8,0:0:0:0:
160,96,200908,1,0,0:0:0:0:
352,96,200991,1,8,0:0:0:0:
352,96,201075,1,8,0:0:0:0:
160,96,201158,1,0,0:0:0:0:
160,96,201325,1,0,0:0:0:0:
352,96,201408,1,8,0:0:0:0:
352,96,201491,1,8,0:0:0:0:
160,96,201575,1,0,0:0:0:0:
352,96,201658,1,8,0:0:0:0:
160,96,201741,1,0,0:0:0:0:
352,96,201825,1,8,0:0:0:0:
160,96,201991,1,0,0:0:0:0:
352,96,202075,1,8,0:0:0:0:
160,96,202158,1,0,0:0:0:0:
352,96,202241,1,8,0:0:0:0:
352,96,202325,1,8,0:0:0:0:
160,96,202408,1,0,0:0:0:0:
352,96,202491,1,8,0:0:0:0:
352,96,202575,1,8,0:0:0:0:
160,96,202658,1,0,0:0:0:0:
160,96,202825,1,0,0:0:0:0:
352,96,202908,1,8,0:0:0:0:
160,96,202991,1,0,0:0:0:0:
160,96,203075,1,0,0:0:0:0:
352,96,203158,1,8,0:0:0:0:
352,96,203241,1,8,0:0:0:0:
160,96,203325,1,0,0:0:0:0:
352,96,203408,1,8,0:0:0:0:
352,96,203491,1,8,0:0:0:0:
160,96,203575,1,0,0:0:0:0:
352,96,203658,1,8,0:0:0:0:
160,96,203741,1,0,0:0:0:0:
352,96,203825,1,8,0:0:0:0:
160,96,203991,1,0,0:0:0:0:
160,96,204158,1,0,0:0:0:0:
352,96,204241,1,8,0:0:0:0:
160,96,204325,1,0,0:0:0:0:
352,96,204408,1,8,0:0:0:0:
352,96,204491,1,8,0:0:0:0:
352,96,204575,1,8,0:0:0:0:
160,96,204658,1,0,0:0:0:0:
160,96,204741,1,0,0:0:0:0:
352,96,204825,1,8,0:0:0:0:
160,96,204908,1,0,0:0:0:0:
352,96,204991,1,8,0:0:0:0:
352,96,205075,1,8,0:0:0:0:
160,96,205158,1,0,0:0:0:0:
352,96,205241,1,8,0:0:0:0:
160,96,205325,1,0,0:0:0:0:
160,288,207991,1,4,0:0:0:0:
352,96,208658,1,8,0:0:0:0:
160,288,209325,1,0,0:0:0:0:
160,96,209658,1,0,0:0:0:0:
352,96,209991,1,8,0:0:0:0:
160,96,210158,1,0,0:0:0:0:
160,96,210325,1,0,0:0:0:0:
160,96,210491,1,0,0:0:0:0:
352,288,210658,1,12,0:0:0:0:
160,96,210825,1,0,0:0:0:0:
160,96,210908,1,0,0:0:0:0:
352,96,210991,1,8,0:0:0:0:
160,96,211158,1,0,0:0:0:0:
352,96,211325,1,8,0:0:0:0:
352,96,211408,1,8,0:0:0:0:
160,96,211491,1,0,0:0:0:0:
160,96,211547,1,0,0:0:0:0:
160,96,211603,1,0,0:0:0:0:
352,96,211658,1,8,0:0:0:0:
160,96,211714,1,0,0:0:0:0:
160,96,211769,1,0,0:0:0:0:
352,96,211825,1,8,0:0:0:0:
352,96,211908,1,8,0:0:0:0:
160,96,211991,1,0,0:0:0:0:
160,96,212075,1,0,0:0:0:0:
352,96,212158,1,8,0:0:0:0:
352,96,212241,1,8,0:0:0:0:
160,96,212325,1,0,0:0:0:0:
352,96,212408,1,8,0:0:0:0:
352,96,212491,1,8,0:0:0:0:
160,96,212575,1,0,0:0:0:0:
352,96,212658,1,8,0:0:0:0:
160,96,212825,1,0,0:0:0:0:
160,96,212880,5,0,0:0:0:0:
160,96,212936,1,0,0:0:0:0:
352,96,212991,1,8,0:0:0:0:
160,96,213075,1,0,0:0:0:0:
352,96,213158,1,8,0:0:0:0:
160,288,213325,5,4,0:0:0:0:
352,96,213491,1,8,0:0:0:0:
352,96,213575,1,8,0:0:0:0:
160,96,213658,1,0,0:0:0:0:
160,96,213741,1,0,0:0:0:0:
352,96,213825,1,8,0:0:0:0:
352,96,213908,1,8,0:0:0:0:
160,96,213991,1,0,0:0:0:0:
352,96,214158,1,8,0:0:0:0:
160,96,214241,1,0,0:0:0:0:
160,96,214325,1,0,0:0:0:0:
352,96,214491,1,8,0:0:0:0:
160,96,214658,1,0,0:0:0:0:
160,96,214825,1,0,0:0:0:0:
352,96,214908,1,8,0:0:0:0:
160,96,214991,1,0,0:0:0:0:
352,96,215158,1,8,0:0:0:0:
352,96,215241,1,8,0:0:0:0:
160,96,215325,1,0,0:0:0:0:
352,96,215491,1,8,0:0:0:0:
160,96,215575,1,0,0:0:0:0:
160,96,215741,1,0,0:0:0:0:
352,96,215825,1,8,0:0:0:0:
378,139,215908,1,8,0:0:0:0:
160,96,215991,1,0,0:0:0:0:
352,96,216158,1,8,0:0:0:0:
352,96,216241,1,8,0:0:0:0:
160,96,216325,1,0,0:0:0:0:
352,96,216408,1,8,0:0:0:0:
352,96,216491,1,8,0:0:0:0:
352,96,216575,1,8,0:0:0:0:
160,96,216658,1,0,0:0:0:0:
160,96,216825,1,0,0:0:0:0:
352,96,216908,1,8,0:0:0:0:
160,96,216991,1,0,0:0:0:0:
160,96,217075,1,0,0:0:0:0:
352,96,217158,1,8,0:0:0:0:
160,96,217325,1,0,0:0:0:0:
160,96,217491,1,0,0:0:0:0:
160,96,217575,1,0,0:0:0:0:
352,96,217658,1,8,0:0:0:0:
160,96,217741,1,0,0:0:0:0:
352,96,217825,1,8,0:0:0:0:
160,96,217991,1,0,0:0:0:0:
352,96,218158,1,8,0:0:0:0:
160,96,218241,1,0,0:0:0:0:
352,96,218325,1,8,0:0:0:0:
352,96,218408,1,8,0:0:0:0:
160,96,218491,1,0,0:0:0:0:
352,96,218575,1,8,0:0:0:0:
160,96,218658,1,0,0:0:0:0:
352,96,218825,1,8,0:0:0:0:
352,96,218908,1,8,0:0:0:0:
160,96,218991,1,0,0:0:0:0:
160,96,219075,1,0,0:0:0:0:
352,96,219158,1,8,0:0:0:0:
352,96,219241,1,8,0:0:0:0:
160,96,219325,1,0,0:0:0:0:
352,96,219491,1,8,0:0:0:0:
160,96,219575,1,0,0:0:0:0:
160,96,219658,1,0,0:0:0:0:
352,96,219825,1,8,0:0:0:0:
352,96,219880,1,8,0:0:0:0:
352,96,219936,1,8,0:0:0:0:
160,96,219991,1,0,0:0:0:0:
160,96,220158,1,0,0:0:0:0:
352,96,220241,1,8,0:0:0:0:
160,96,220325,1,0,0:0:0:0:
352,96,220491,1,8,0:0:0:0:
352,96,220575,1,8,0:0:0:0:
160,96,220658,1,0,0:0:0:0:
194,115,220741,1,0,0:0:0:0:
352,96,220825,1,8,0:0:0:0:
160,96,220908,1,0,0:0:0:0:
160,96,221075,1,0,0:0:0:0:
352,96,221158,1,8,0:0:0:0:
305,100,221241,1,8,0:0:0:0:
160,96,221325,1,0,0:0:0:0:
352,96,221491,1,8,0:0:0:0:
352,96,221575,1,8,0:0:0:0:
160,96,221658,1,0,0:0:0:0:
160,96,221741,1,0,0:0:0:0:
160,96,221825,1,0,0:0:0:0:
352,96,221908,1,8,0:0:0:0:
160,96,221991,1,0,0:0:0:0:
160,96,222158,1,0,0:0:0:0:
352,96,222241,1,8,0:0:0:0:
352,96,222325,1,8,0:0:0:0:
160,96,222408,1,0,0:0:0:0:
352,96,222491,1,8,0:0:0:0:
160,96,222658,1,0,0:0:0:0:
352,96,222825,1,8,0:0:0:0:
352,96,222908,1,8,0:0:0:0:
160,96,222991,1,0,0:0:0:0:
352,96,223158,1,8,0:0:0:0:
160,96,223241,1,0,0:0:0:0:
352,96,223325,1,8,0:0:0:0:
160,96,223408,1,0,0:0:0:0:
352,96,223491,1,8,0:0:0:0:
160,96,223575,1,0,0:0:0:0:
352,96,223658,1,8,0:0:0:0:
352,96,223825,1,8,0:0:0:0:
160,288,223991,1,4,0:0:0:0:
160,96,224325,1,0,0:0:0:0:
352,96,224380,1,8,0:0:0:0:
352,96,224436,1,8,0:0:0:0:
352,96,224491,1,8,0:0:0:0:
352,96,224575,1,8,0:0:0:0:
160,96,224658,1,0,0:0:0:0:
352,96,224714,1,8,0:0:0:0:
352,96,224769,1,8,0:0:0:0:
352,96,224825,1,8,0:0:0:0:
160,96,224908,1,0,0:0:0:0:
352,96,224991,1,8,0:0:0:0:
352,96,225047,1,8,0:0:0:0:
352,96,225103,1,8,0:0:0:0:
160,96,225158,1,0,0:0:0:0:
352,96,225241,1,8,0:0:0:0:
160,96,225325,1,0,0:0:0:0:
160,96,225491,1,0,0:0:0:0:
352,96,225575,1,8,0:0:0:0:
160,96,225658,1,0,0:0:0:0:
352,96,225714,1,8,0:0:0:0:
352,96,225769,1,8,0:0:0:0:
352,96,225825,1,8,0:0:0:0:
352,96,225908,1,8,0:0:0:0:
160,96,225991,1,0,0:0:0:0:
352,96,226047,1,8,0:0:0:0:
352,96,226103,1,8,0:0:0:0:
352,96,226158,1,8,0:0:0:0:
160,96,226241,1,0,0:0:0:0:
352,96,226325,1,8,0:0:0:0:
352,96,226380,1,8,0:0:0:0:
352,96,226436,1,8,0:0:0:0:
160,96,226491,1,0,0:0:0:0:
352,96,226575,1,8,0:0:0:0:
160,96,226658,1,0,0:0:0:0:
352,96,226825,1,8,0:0:0:0:
352,96,226908,1,8,0:0:0:0:
160,96,226991,1,0,0:0:0:0:
352,96,227075,1,8,0:0:0:0:
160,96,227158,1,0,0:0:0:0:
160,96,227241,1,0,0:0:0:0:
352,96,227325,1,8,0:0:0:0:
160,96,227380,1,0,0:0:0:0:
160,96,227436,1,0,0:0:0:0:
352,96,227491,1,8,0:0:0:0:
160,96,227547,1,0,0:0:0:0:
160,96,227603,1,0,0:0:0:0:
352,96,227658,1,8,0:0:0:0:
352,96,227741,1,8,0:0:0:0:
160,96,227825,1,0,0:0:0:0:
160,96,227908,1,0,0:0:0:0:
352,96,227991,1,8,0:0:0:0:
160,96,228158,1,0,0:0:0:0:
352,96,228241,1,8,0:0:0:0:
160,96,228325,1,0,0:0:0:0:
160,96,228408,1,0,0:0:0:0:
352,96,228491,1,8,0:0:0:0:
160,96,228658,1,0,0:0:0:0:
352,96,228741,1,8,0:0:0:0:
352,96,228825,1,8,0:0:0:0:
160,96,228908,1,0,0:0:0:0:
160,96,228991,1,0,0:0:0:0:
352,96,229075,1,8,0:0:0:0:
352,96,229158,1,8,0:0:0:0:
160,96,229241,1,0,0:0:0:0:
352,96,229325,1,8,0:0:0:0:
160,96,229408,1,0,0:0:0:0:
352,96,229491,1,8,0:0:0:0:
160,96,229547,1,0,0:0:0:0:
160,96,229603,1,0,0:0:0:0:
352,96,229658,1,8,0:0:0:0:
352,96,229741,1,8,0:0:0:0:
160,96,229825,1,0,0:0:0:0:
352,96,229880,1,8,0:0:0:0:
352,96,229936,1,8,0:0:0:0:
160,96,229991,1,0,0:0:0:0:
160,96,230075,1,0,0:0:0:0:
352,96,230158,1,8,0:0:0:0:
160,96,230214,1,0,0:0:0:0:
160,96,230269,1,0,0:0:0:0:
352,96,230325,1,8,0:0:0:0:
352,96,230408,1,8,0:0:0:0:
160,96,230491,1,0,0:0:0:0:
352,96,230547,1,8,0:0:0:0:
352,96,230603,1,8,0:0:0:0:
160,96,230658,1,0,0:0:0:0:
160,96,230825,1,0,0:0:0:0:
352,96,230908,1,8,0:0:0:0:
160,96,230991,1,0,0:0:0:0:
160,96,231075,1,0,0:0:0:0:
352,96,231158,1,8,0:0:0:0:
352,96,231241,1,8,0:0:0:0:
160,96,231325,1,0,0:0:0:0:
352,96,231491,1,8,0:0:0:0:
160,96,231575,1,0,0:0:0:0:
352,96,231658,1,8,0:0:0:0:
160,96,231741,1,0,0:0:0:0:
352,96,231825,1,8,0:0:0:0:
352,96,231908,1,8,0:0:0:0:
160,96,231991,1,0,0:0:0:0:
352,96,232241,1,8,0:0:0:0:
160,96,232325,1,0,0:0:0:0:
352,96,232491,1,8,0:0:0:0:
160,96,232658,1,0,0:0:0:0:
160,96,232741,1,0,0:0:0:0:
352,96,232825,1,8,0:0:0:0:
160,96,232908,1,0,0:0:0:0:
160,96,233075,1,0,0:0:0:0:
352,96,233158,1,8,0:0:0:0:
160,288,233325,1,4,0:0:0:0:
352,96,233491,1,8,0:0:0:0:
352,96,233575,1,8,0:0:0:0:
352,96,233658,1,8,0:0:0:0:
352,96,233741,1,8,0:0:0:0:
352,96,233825,1,8,0:0:0:0:
352,96,233880,1,8,0:0:0:0:
352,96,233936,1,8,0:0:0:0:
352,96,233991,1,8,0:0:0:0:
352,96,234075,1,8,0:0:0:0:
160,96,234158,1,0,0:0:0:0:
160,96,234214,1,0,0:0:0:0:
160,96,234269,1,0,0:0:0:0:
352,96,234325,1,8,0:0:0:0:
160,96,234491,1,0,0:0:0:0:
160,96,234658,1,0,0:0:0:0:
352,96,234741,1,8,0:0:0:0:
160,96,234825,1,0,0:0:0:0:
160,96,234908,1,0,0:0:0:0:
352,96,234991,1,8,0:0:0:0:
160,96,235158,1,0,0:0:0:0:
352,96,235241,1,8,0:0:0:0:
160,96,235325,1,0,0:0:0:0:
160,96,235408,1,0,0:0:0:0:
352,96,235491,1,8,0:0:0:0:
160,96,235658,1,0,0:0:0:0:
352,96,235741,1,8,0:0:0:0:
160,96,235825,1,0,0:0:0:0:
160,96,235908,1,0,0:0:0:0:
352,96,235991,1,8,0:0:0:0:
160,96,236158,1,0,0:0:0:0:
352,96,236214,1,8,0:0:0:0:
352,96,236269,1,8,0:0:0:0:
160,96,236325,1,0,0:0:0:0:
160,96,236408,1,0,0:0:0:0:
352,96,236491,1,8,0:0:0:0:
352,96,236658,1,8,0:0:0:0:
352,96,236741,1,8,0:0:0:0:
160,96,236825,1,0,0:0:0:0:
160,96,236908,1,0,0:0:0:0:
352,96,236991,1,8,0:0:0:0:
160,96,237075,1,0,0:0:0:0:
352,96,237158,1,8,0:0:0:0:
352,96,237241,1,8,0:0:0:0:
160,96,237325,1,0,0:0:0:0:
160,96,237408,1,0,0:0:0:0:
352,96,237491,1,8,0:0:0:0:
160,96,237575,1,0,0:0:0:0:
352,96,237658,1,8,0:0:0:0:
352,96,237741,1,8,0:0:0:0:
160,96,237825,1,0,0:0:0:0:
160,96,237908,1,0,0:0:0:0:
352,96,237991,1,8,0:0:0:0:
160,96,238075,1,0,0:0:0:0:
352,96,238158,1,8,0:0:0:0:
352,96,238241,1,8,0:0:0:0:
160,96,238325,1,0,0:0:0:0:
352,96,238408,1,8,0:0:0:0:
160,96,238491,1,0,0:0:0:0:
160,96,238575,1,0,0:0:0:0:
352,96,238658,1,8,0:0:0:0:
160,96,238741,1,0,0:0:0:0:
352,96,238825,1,8,0:0:0:0:
160,96,238880,1,0,0:0:0:0:
160,96,238936,1,0,0:0:0:0:
352,96,238991,1,8,0:0:0:0:
160,96,239075,1,0,0:0:0:0:
352,96,239158,1,8,0:0:0:0:
352,96,239241,1,8,0:0:0:0:
160,96,239325,1,0,0:0:0:0:
352,96,239408,1,8,0:0:0:0:
352,96,239491,1,8,0:0:0:0:
352,96,239575,1,8,0:0:0:0:
160,96,239658,1,0,0:0:0:0:
352,96,239741,1,8,0:0:0:0:
160,96,239908,1,0,0:0:0:0:
352,96,239991,1,8,0:0:0:0:
352,96,240075,1,8,0:0:0:0:
352,96,240158,1,8,0:0:0:0:
352,96,240241,1,8,0:0:0:0:
160,96,240325,1,0,0:0:0:0:
352,96,240491,1,8,0:0:0:0:
352,96,240547,1,8,0:0:0:0:
352,96,240603,1,8,0:0:0:0:
160,96,240658,1,0,0:0:0:0:
160,96,240714,1,0,0:0:0:0:
160,96,240769,1,0,0:0:0:0:
352,96,240825,1,8,0:0:0:0:
160,96,240908,1,0,0:0:0:0:
352,96,240991,1,8,0:0:0:0:
352,96,241075,1,8,0:0:0:0:
160,96,241158,1,0,0:0:0:0:
352,96,241241,1,8,0:0:0:0:
352,96,241325,1,8,0:0:0:0:
160,96,241408,1,0,0:0:0:0:
352,96,241491,1,8,0:0:0:0:
160,96,241547,1,0,0:0:0:0:
160,96,241603,1,0,0:0:0:0:
352,96,241658,1,8,0:0:0:0:
160,96,241714,1,0,0:0:0:0:
160,96,241769,1,0,0:0:0:0:
352,96,241825,1,8,0:0:0:0:
352,96,241908,1,8,0:0:0:0:
160,96,241991,1,0,0:0:0:0:
352,96,242075,1,8,0:0:0:0:
160,96,242158,1,0,0:0:0:0:
160,96,242241,1,0,0:0:0:0:
352,96,242325,1,8,0:0:0:0:
160,96,242408,1,0,0:0:0:0:
352,96,242491,1,8,0:0:0:0:
352,96,242575,1,8,0:0:0:0:
160,96,242658,1,0,0:0:0:0:
352,96,242741,1,8,0:0:0:0:
160,96,242825,1,0,0:0:0:0:
160,96,242880,1,0,0:0:0:0:
160,96,242936,1,0,0:0:0:0:
352,96,242991,1,8,0:0:0:0:
160,96,243075,1,0,0:0:0:0:
352,96,243130,1,8,0:0:0:0:
352,96,243186,1,8,0:0:0:0:
160,96,243241,1,0,0:0:0:0:
352,96,243325,1,8,0:0:0:0:
160,96,243380,1,0,0:0:0:0:
160,96,243436,1,0,0:0:0:0:
352,96,243491,1,8,0:0:0:0:
352,96,243575,1,8,0:0:0:0:
160,96,243658,1,0,0:0:0:0:
352,96,243741,1,8,0:0:0:0:
352,96,243825,1,8,0:0:0:0:
160,96,243908,1,0,0:0:0:0:
352,96,243991,1,8,0:0:0:0:
352,96,244075,1,8,0:0:0:0:
160,96,244158,1,0,0:0:0:0:
352,96,244241,1,8,0:0:0:0:
160,96,244325,1,0,0:0:0:0:
160,96,244408,1,0,0:0:0:0:
352,96,244491,1,8,0:0:0:0:
352,96,244575,1,8,0:0:0:0:
160,96,244658,1,0,0:0:0:0:
352,96,244741,1,8,0:0:0:0:
160,96,244825,1,0,0:0:0:0:
160,96,244908,1,0,0:0:0:0:
352,96,244991,1,8,0:0:0:0:
352,96,245075,1,8,0:0:0:0:
352,96,245158,1,8,0:0:0:0:
352,96,245241,1,8,0:0:0:0:
160,96,245325,1,0,0:0:0:0:
352,96,250158,5,8,0:0:0:0:
352,96,250325,1,8,0:0:0:0:
352,96,250491,1,8,0:0:0:0:
160,96,255491,5,0,0:0:0:0:
160,96,255575,1,0,0:0:0:0:
352,96,255658,1,8,0:0:0:0:
352,96,255825,1,8,0:0:0:0:
352,96,255908,1,8,0:0:0:0:
160,96,255991,1,0,0:0:0:0:
160,96,256158,1,0,0:0:0:0:
160,96,256658,1,0,0:0:0:0:
352,96,256825,1,8,0:0:0:0:
160,96,256991,1,0,0:0:0:0:
352,96,257158,1,8,0:0:0:0:
352,96,257491,1,8,0:0:0:0:
352,96,257658,1,8,0:0:0:0:
160,96,257825,1,0,0:0:0:0:
160,96,258158,1,0,0:0:0:0:
160,96,258491,1,0,0:0:0:0:
352,96,258658,1,8,0:0:0:0:
352,96,259158,1,8,0:0:0:0:
352,96,259325,1,8,0:0:0:0:
160,96,259491,1,0,0:0:0:0:
352,96,259658,1,8,0:0:0:0:
160,96,259825,1,0,0:0:0:0:
160,96,260158,1,0,0:0:0:0:
160,96,260325,1,0,0:0:0:0:
352,96,260491,1,8,0:0:0:0:
160,96,260825,1,0,0:0:0:0:
352,96,260991,1,8,0:0:0:0:
352,96,261158,1,8,0:0:0:0:
160,96,261325,1,0,0:0:0:0:
352,96,261491,1,8,0:0:0:0:
160,96,261658,1,0,0:0:0:0:
160,96,261991,1,0,0:0:0:0:
352,96,262158,1,8,0:0:0:0:
160,96,262325,1,0,0:0:0:0:
352,96,262491,1,8,0:0:0:0:
352,96,262575,1,8,0:0:0:0:
160,96,262658,1,0,0:0:0:0:
352,96,262825,1,8,0:0:0:0:
160,96,262991,1,0,0:0:0:0:
160,96,263075,1,0,0:0:0:0:
352,96,263158,1,8,0:0:0:0:
160,96,263325,1,0,0:0:0:0:
352,96,263491,1,8,0:0:0:0:
352,96,263575,1,8,0:0:0:0:
160,96,263658,1,0,0:0:0:0:
160,96,263741,1,0,0:0:0:0:
352,96,263825,1,8,0:0:0:0:
160,96,263991,1,0,0:0:0:0:
160,96,264075,1,0,0:0:0:0:
352,96,264158,1,8,0:0:0:0:
160,96,264241,1,0,0:0:0:0:
352,96,264325,1,8,0:0:0:0:
352,96,264408,1,8,0:0:0:0:
160,96,264491,1,0,0:0:0:0:
352,96,264547,1,8,0:0:0:0:
352,96,264603,1,8,0:0:0:0:
160,96,264658,1,0,0:0:0:0:
160,96,264741,1,0,0:0:0:0:
352,96,264825,1,8,0:0:0:0:
160,96,264880,1,0,0:0:0:0:
160,96,264936,1,0,0:0:0:0:
352,96,264991,1,8,0:0:0:0:
160,96,265047,1,0,0:0:0:0:
160,96,265103,1,0,0:0:0:0:
352,96,265158,1,8,0:0:0:0:
160,96,265325,1,0,0:0:0:0:
352,96,265408,1,8,0:0:0:0:
160,96,265491,1,0,0:0:0:0:
160,96,265575,1,0,0:0:0:0:
352,96,265658,1,8,0:0:0:0:
160,96,265714,1,0,0:0:0:0:
160,96,265769,1,0,0:0:0:0:
352,96,265825,1,8,0:0:0:0:
160,96,266158,1,0,0:0:0:0:
352,96,266325,1,8,0:0:0:0:
352,96,266491,1,8,0:0:0:0:
