osu file format v14

[General]
AudioFilename: audio.mp3
AudioLeadIn: 0
PreviewTime: 165241
Countdown: 0
SampleSet: Normal
StackLeniency: 0.7
Mode: 1
LetterboxInBreaks: 0
WidescreenStoryboard: 0

[Editor]
Bookmarks: 2666,13329,23999,45329,55995,61329,69329,90662,101329,111995,122662,143995,165329,186662,205329,213329
DistanceSpacing: 1.7
BeatDivisor: 4
GridSize: 4
TimelineZoom: 2.799999

[Metadata]
Title:Future Coaster
TitleUnicode:Future Coaster
Artist:Sakuzyo
ArtistUnicode:削除
Creator:komasy
Version:Muzukashii
Source:GROOVE COASTER 3EX DREAM PARTY
Tags:Instrumental Electronic Long Version Video Rhythm Game TAITO タイトー グルーヴコースター ドリームパーティ AC グルコス FutureCore Bass Cyber Meteoroid SCCD-0008 yassu-
BeatmapID:2299037
BeatmapSetID:1095078

[Difficulty]
HPDrainRate:5
CircleSize:2
OverallDifficulty:5
ApproachRate:10
SliderMultiplier:1.4
SliderTickRate:1

[Events]
//Background and Video events
0,0,"bg.jpg",0,0
//Break Periods
2,101525,105658
2,106691,110991
2,245525,249658
2,250691,254991
//Storyboard Layer 0 (Background)
//Storyboard Layer 1 (Fail)
//Storyboard Layer 2 (Pass)
//Storyboard Layer 3 (Foreground)
//Storyboard Layer 4 (Overlay)
//Storyboard Sound Samples

[TimingPoints]
-8,333.333333333333,4,1,0,5,1,0
658,-100,4,1,0,15,0,0
1325,-100,4,1,0,25,0,0
1825,-100,4,1,0,80,0,0
2241,-105.263157894737,4,1,0,80,0,0
2575,-111.111111111111,4,1,0,80,0,0
12741,-108.695652173913,4,1,0,80,0,0
12908,-107.52688172043,4,1,0,80,0,0
13075,-106.382978723404,4,1,0,80,0,0
13241,-105.263157894737,4,1,0,90,0,0
18575,-100,4,1,0,90,0,0
45491,-111.111111111111,4,1,0,70,0,0
55575,-107.52688172043,4,1,0,70,0,0
55741,-104.166666666667,4,1,0,70,0,0
55908,-100,4,1,0,80,0,0
61241,-100,4,1,0,50,0,0
61408,-133.333333333333,4,1,0,20,0,0
63908,-111.111111111111,4,1,0,80,0,0
65908,-108.695652173913,4,1,0,80,0,0
66075,-106.382978723404,4,1,0,80,0,0
66241,-104.166666666667,4,1,0,80,0,0
66408,-102.040816326531,4,1,0,80,0,0
66575,-100,4,1,0,90,0,0
67741,-95.2380952380952,4,1,0,90,0,0
67908,-90.9090909090909,4,1,0,90,0,0
68741,-94.3396226415094,4,1,0,80,0,0
69075,-97.0873786407767,4,1,0,80,0,0
69241,-100,4,1,0,100,0,0
69325,-100,4,1,0,100,0,1
89325,-100,4,1,0,100,0,0
89408,-100,4,1,0,80,0,0
90575,-90.9090909090909,4,1,0,100,0,0
90658,-90.9090909090909,4,1,0,100,0,1
101325,-90.9090909090909,4,1,0,100,0,0
101408,-111.111111111111,4,1,0,20,0,0
105991,-111.111111111111,4,1,0,40,0,0
106575,-111.111111111111,4,1,0,20,0,0
111325,-108.695652173913,4,1,0,80,0,0
111575,-107.52688172043,4,1,0,80,0,0
111741,-106.382978723404,4,1,0,80,0,0
111908,-105.263157894737,4,1,0,90,0,0
117241,-100,4,1,0,90,0,0
122075,-103.092783505155,4,1,0,80,0,0
122241,-106.382978723404,4,1,0,80,0,0
122408,-108.695652173913,4,1,0,80,0,0
122575,-111.111111111111,4,1,0,70,0,0
133241,-105.263157894737,4,1,0,70,0,0
138575,-100,4,1,0,80,0,0
141240,-100,4,1,0,90,0,0
143908,-100,4,1,0,80,0,0
159908,-95.2380952380952,4,1,0,80,0,0
162575,-90.9090909090909,4,1,0,90,0,0
163991,-90.9090909090909,4,1,0,70,0,0
164075,-100,4,1,0,70,0,0
165241,-111.111111111111,4,1,0,90,0,0
165325,-111.111111111111,4,1,0,90,0,1
170325,-111.111111111111,4,1,0,90,0,0
170658,-105.263157894737,4,1,0,90,0,1
175658,-105.263157894737,4,1,0,90,0,0
175991,-100,4,1,0,90,0,1
180991,-100,4,1,0,90,0,0
181325,-95.2380952380952,4,1,0,90,0,1
185325,-95.2380952380952,4,1,0,90,0,0
185408,-100,4,1,0,70,0,0
186575,-100,4,1,0,100,0,0
186658,-100,4,1,0,100,0,1
205241,-100,4,1,0,50,0,1
205325,-100,4,1,0,50,0,0
205408,-133.333333333333,4,1,0,20,0,0
207908,-111.111111111111,4,1,0,80,0,0
209908,-108.695652173913,4,1,0,80,0,0
210075,-106.382978723404,4,1,0,80,0,0
210241,-104.166666666667,4,1,0,80,0,0
210408,-102.040816326531,4,1,0,80,0,0
210575,-100,4,1,0,90,0,0
211741,-95.2380952380952,4,1,0,90,0,0
211908,-90.9090909090909,4,1,0,90,0,0
212741,-94.3396226415094,4,1,0,80,0,0
213075,-97.0873786407767,4,1,0,80,0,0
213241,-100,4,1,0,100,0,0
213325,-100,4,1,0,100,0,1
233325,-100,4,1,0,100,0,0
233408,-100,4,1,0,80,0,0
234575,-90.9090909090909,4,1,0,100,0,0
234658,-90.9090909090909,4,1,0,100,0,1
245325,-90.9090909090909,4,1,0,100,0,0
245408,-111.111111111111,4,1,0,20,0,0
249991,-111.111111111111,4,1,0,40,0,0
250575,-111.111111111111,4,1,0,20,0,0
255408,-108.695652173913,4,1,0,80,0,0
255575,-107.52688172043,4,1,0,80,0,0
255741,-106.382978723404,4,1,0,80,0,0
255908,-105.263157894737,4,1,0,90,0,0
261241,-100,4,1,0,90,0,0
266075,-104.166666666667,4,1,0,70,0,0
266241,-108.695652173913,4,1,0,60,0,0
266408,-113.636363636364,4,1,0,50,0,0

[HitObjects]
352,96,1991,5,8,0:0:0:0:
160,96,2325,1,0,0:0:0:0:
160,288,2658,1,4,0:0:0:0:
352,96,3658,1,8,0:0:0:0:
160,96,3825,1,0,0:0:0:0:
352,96,4491,1,8,0:0:0:0:
160,96,5325,1,0,0:0:0:0:
352,96,6325,1,8,0:0:0:0:
160,96,6491,1,0,0:0:0:0:
352,96,7158,1,8,0:0:0:0:
352,96,7658,1,8,0:0:0:0:
160,96,7991,1,0,0:0:0:0:
352,96,8991,1,8,0:0:0:0:
160,96,9158,1,0,0:0:0:0:
352,96,9825,1,8,0:0:0:0:
160,96,10658,1,0,0:0:0:0:
352,96,11658,1,8,0:0:0:0:
160,96,11825,1,0,0:0:0:0:
352,96,12491,1,8,0:0:0:0:
160,96,12825,1,0,0:0:0:0:
352,96,12991,1,8,0:0:0:0:
352,96,13158,1,8,0:0:0:0:
160,96,13325,1,0,0:0:0:0:
160,96,13491,1,0,0:0:0:0:
160,96,13991,1,0,0:0:0:0:
160,96,14325,1,0,0:0:0:0:
352,96,14491,1,8,0:0:0:0:
352,96,14825,1,8,0:0:0:0:
160,96,15158,1,0,0:0:0:0:
160,96,15491,1,0,0:0:0:0:
352,96,15991,1,8,0:0:0:0:
352,96,16658,1,8,0:0:0:0:
352,96,16991,1,8,0:0:0:0:
160,96,17158,1,0,0:0:0:0:
160,96,17491,1,0,0:0:0:0:
352,96,17825,1,8,0:0:0:0:
352,96,18325,1,8,0:0:0:0:
160,96,18658,1,0,0:0:0:0:
352,96,18825,1,8,0:0:0:0:
160,96,18991,1,0,0:0:0:0:
160,96,19325,1,0,0:0:0:0:
160,96,19658,1,0,0:0:0:0:
352,96,19825,1,8,0:0:0:0:
352,96,20158,1,8,0:0:0:0:
160,96,20325,1,0,0:0:0:0:
352,96,20491,1,8,0:0:0:0:
352,96,20825,1,8,0:0:0:0:
352,96,21158,1,8,0:0:0:0:
160,96,21325,1,0,0:0:0:0:
160,96,21491,1,0,0:0:0:0:
160,96,21658,1,0,0:0:0:0:
160,96,21825,1,0,0:0:0:0:
352,96,21991,1,8,0:0:0:0:
352,96,22158,1,8,0:0:0:0:
352,96,22241,1,8,0:0:0:0:
352,96,22325,1,8,0:0:0:0:
352,96,22491,1,8,0:0:0:0:
160,96,22658,1,0,0:0:0:0:
160,96,22741,1,0,0:0:0:0:
160,96,22825,1,0,0:0:0:0:
160,96,22991,1,0,0:0:0:0:
352,96,23158,1,8,0:0:0:0:
160,96,23325,1,0,0:0:0:0:
160,96,23408,1,0,0:0:0:0:
160,96,23491,1,0,0:0:0:0:
352,96,23658,1,8,0:0:0:0:
160,288,23991,1,4,0:0:0:0:
352,96,24491,1,8,0:0:0:0:
352,96,24658,1,8,0:0:0:0:
352,96,24825,1,8,0:0:0:0:
352,96,25158,1,8,0:0:0:0:
352,96,25325,1,8,0:0:0:0:
352,96,25491,1,8,0:0:0:0:
352,96,25825,1,8,0:0:0:0:
352,96,25991,1,8,0:0:0:0:
160,96,26158,1,0,0:0:0:0:
352,96,26325,1,8,0:0:0:0:
160,96,26491,1,0,0:0:0:0:
160,96,26658,1,0,0:0:0:0:
352,96,27158,1,8,0:0:0:0:
352,96,27241,1,8,0:0:0:0:
352,96,27325,1,8,0:0:0:0:
352,96,27491,1,8,0:0:0:0:
352,96,27825,1,8,0:0:0:0:
160,288,27991,1,4,0:0:0:0:
352,96,28325,1,8,0:0:0:0:
160,288,28491,1,4,0:0:0:0:
160,96,28825,1,0,0:0:0:0:
352,288,28991,1,12,0:0:0:0:
160,96,29158,1,0,0:0:0:0:
160,288,29325,1,4,0:0:0:0:
352,96,29825,1,8,0:0:0:0:
352,96,29908,1,8,0:0:0:0:
352,96,29991,1,8,0:0:0:0:
352,96,30158,1,8,0:0:0:0:
352,96,30491,1,8,0:0:0:0:
352,96,30575,1,8,0:0:0:0:
352,96,30658,1,8,0:0:0:0:
352,96,30825,1,8,0:0:0:0:
352,96,31158,1,8,0:0:0:0:
352,96,31241,1,8,0:0:0:0:
352,96,31325,1,8,0:0:0:0:
160,96,31491,1,0,0:0:0:0:
352,96,31658,1,8,0:0:0:0:
160,96,31825,1,0,0:0:0:0:
160,96,31991,1,0,0:0:0:0:
352,96,32241,1,8,0:0:0:0:
352,96,32325,1,8,0:0:0:0:
352,96,32491,1,8,0:0:0:0:
352,96,32658,1,8,0:0:0:0:
352,96,32991,1,8,0:0:0:0:
352,96,33075,1,8,0:0:0:0:
352,96,33158,1,8,0:0:0:0:
352,288,33325,1,12,0:0:0:0:
352,96,33658,1,8,0:0:0:0:
160,288,33825,1,4,0:0:0:0:
160,96,34158,1,0,0:0:0:0:
352,288,34325,1,12,0:0:0:0:
352,96,34491,1,8,0:0:0:0:
160,288,34658,1,4,0:0:0:0:
352,96,34991,1,8,0:0:0:0:
160,96,35491,1,0,0:0:0:0:
352,96,35658,1,8,0:0:0:0:
352,96,35741,1,8,0:0:0:0:
352,96,35825,1,8,0:0:0:0:
160,96,35991,1,0,0:0:0:0:
352,96,36325,1,8,0:0:0:0:
160,96,36491,1,0,0:0:0:0:
160,96,36825,1,0,0:0:0:0:
352,96,36991,1,8,0:0:0:0:
352,96,37075,1,8,0:0:0:0:
352,96,37158,1,8,0:0:0:0:
160,96,37325,1,0,0:0:0:0:
352,96,37658,1,8,0:0:0:0:
160,96,37991,1,0,0:0:0:0:
160,96,38158,1,0,0:0:0:0:
352,96,38325,1,8,0:0:0:0:
352,96,38408,1,8,0:0:0:0:
352,96,38491,1,8,0:0:0:0:
160,288,38658,1,4,0:0:0:0:
352,96,38991,1,8,0:0:0:0:
160,288,39158,1,4,0:0:0:0:
160,96,39491,1,0,0:0:0:0:
352,288,39658,1,12,0:0:0:0:
160,96,39825,1,0,0:0:0:0:
160,288,39991,1,4,0:0:0:0:
352,96,40325,1,8,0:0:0:0:
160,96,40658,1,0,0:0:0:0:
160,96,40825,1,0,0:0:0:0:
352,96,40991,1,8,0:0:0:0:
352,96,41075,1,8,0:0:0:0:
352,96,41158,1,8,0:0:0:0:
160,288,41325,1,4,0:0:0:0:
160,96,41658,1,0,0:0:0:0:
352,288,41825,1,12,0:0:0:0:
352,96,42325,1,8,0:0:0:0:
352,96,42491,1,8,0:0:0:0:
160,288,42658,1,4,0:0:0:0:
160,96,42991,1,0,0:0:0:0:
352,96,43158,1,8,0:0:0:0:
160,96,43325,1,0,0:0:0:0:
160,96,43408,1,0,0:0:0:0:
160,96,43491,1,0,0:0:0:0:
352,96,43658,1,8,0:0:0:0:
352,96,43825,1,8,0:0:0:0:
160,96,43991,1,0,0:0:0:0:
352,96,44158,1,8,0:0:0:0:
352,96,44325,1,8,0:0:0:0:
160,96,44658,1,0,0:0:0:0:
160,96,44741,1,0,0:0:0:0:
160,96,44825,1,0,0:0:0:0:
352,96,44991,1,8,0:0:0:0:
352,96,45075,1,8,0:0:0:0:
352,96,45158,1,8,0:0:0:0:
160,288,45325,1,4,0:0:0:0:
352,96,46491,1,8,0:0:0:0:
352,96,46658,1,8,0:0:0:0:
352,96,47158,1,8,0:0:0:0:
352,96,47325,1,8,0:0:0:0:
352,96,47575,1,8,0:0:0:0:
352,96,47825,1,8,0:0:0:0:
160,96,47991,1,0,0:0:0:0:
352,96,48325,1,8,0:0:0:0:
352,96,48491,1,8,0:0:0:0:
352,96,49658,1,8,0:0:0:0:
352,96,49991,1,8,0:0:0:0:
352,96,50241,1,8,0:0:0:0:
352,96,50491,1,8,0:0:0:0:
160,96,50658,1,0,0:0:0:0:
352,96,51158,1,8,0:0:0:0:
352,96,51325,1,8,0:0:0:0:
352,96,51575,1,8,0:0:0:0:
352,96,51825,1,8,0:0:0:0:
352,96,51991,1,8,0:0:0:0:
352,96,52658,1,8,0:0:0:0:
352,96,52908,1,8,0:0:0:0:
352,96,53158,1,8,0:0:0:0:
160,96,53325,1,0,0:0:0:0:
352,96,53825,1,8,0:0:0:0:
352,96,53991,1,8,0:0:0:0:
352,96,54241,1,8,0:0:0:0:
352,96,54491,1,8,0:0:0:0:
352,96,54825,1,8,0:0:0:0:
352,96,55158,1,8,0:0:0:0:
352,96,55325,1,8,0:0:0:0:
160,96,55658,1,0,0:0:0:0:
352,96,55825,1,8,0:0:0:0:
160,288,55991,1,4,0:0:0:0:
352,96,56491,1,8,0:0:0:0:
352,96,56575,1,8,0:0:0:0:
160,96,56658,1,8,0:0:0:0:
352,96,56908,1,8,0:0:0:0:
352,96,57158,1,8,0:0:0:0:
160,96,57325,1,0,0:0:0:0:
160,96,57825,1,0,0:0:0:0:
160,96,57908,1,0,0:0:0:0:
160,96,57991,1,0,0:0:0:0:
352,96,58241,1,8,0:0:0:0:
352,96,58491,1,8,0:0:0:0:
160,96,58658,1,0,0:0:0:0:
160,96,58991,1,0,0:0:0:0:
352,96,59158,1,8,0:0:0:0:
160,96,59325,1,0,0:0:0:0:
352,96,59491,1,8,0:0:0:0:
352,96,59575,1,8,0:0:0:0:
352,96,59658,1,8,0:0:0:0:
352,96,59825,1,8,0:0:0:0:
160,96,59991,1,0,0:0:0:0:
160,96,60325,1,0,0:0:0:0:
352,96,60491,1,8,0:0:0:0:
160,96,60658,1,0,0:0:0:0:
352,96,60908,1,8,0:0:0:0:
352,96,60991,1,8,0:0:0:0:
352,96,61158,1,8,0:0:0:0:
160,288,61325,1,4,0:0:0:0:
160,288,63991,1,4,0:0:0:0:
352,96,64658,1,8,0:0:0:0:
160,288,65325,1,0,0:0:0:0:
160,96,65658,1,0,0:0:0:0:
352,96,65991,1,8,0:0:0:0:
160,96,66158,1,0,0:0:0:0:
160,96,66325,1,0,0:0:0:0:
160,96,66491,1,0,0:0:0:0:
352,288,66658,1,12,0:0:0:0:
352,96,66991,1,8,0:0:0:0:
352,96,67158,1,8,0:0:0:0:
160,96,67325,1,0,0:0:0:0:
352,96,67491,1,8,0:0:0:0:
352,96,67825,1,8,0:0:0:0:
160,96,67991,1,0,0:0:0:0:
160,96,68158,1,0,0:0:0:0:
352,96,68325,1,0,0:0:0:0:
160,96,68408,1,0,0:0:0:0:
218,133,68491,1,0,0:0:0:0:
352,96,68658,1,8,0:0:0:0:
352,96,68991,1,8,0:0:0:0:
352,96,69158,1,8,0:0:0:0:
160,288,69325,1,4,0:0:0:0:
352,96,69658,1,8,0:0:0:0:
352,96,69741,1,8,0:0:0:0:
352,96,69825,1,8,0:0:0:0:
160,96,69991,1,0,0:0:0:0:
352,96,70158,1,8,0:0:0:0:
160,96,70325,1,0,0:0:0:0:
352,96,70491,1,8,0:0:0:0:
352,96,70825,1,8,0:0:0:0:
352,96,70991,1,8,0:0:0:0:
160,96,71158,1,0,0:0:0:0:
160,96,71491,1,0,0:0:0:0:
352,96,71825,1,8,0:0:0:0:
352,96,71991,1,8,0:0:0:0:
160,96,72158,1,0,0:0:0:0:
160,96,72241,1,0,0:0:0:0:
160,96,72325,1,0,0:0:0:0:
352,96,72658,1,8,0:0:0:0:
160,96,72825,1,0,0:0:0:0:
352,96,72991,1,8,0:0:0:0:
352,96,73075,1,8,0:0:0:0:
352,96,73158,1,8,0:0:0:0:
160,96,73491,1,0,0:0:0:0:
352,96,73658,1,8,0:0:0:0:
352,96,73825,1,8,0:0:0:0:
352,96,74325,1,8,0:0:0:0:
352,96,74491,1,8,0:0:0:0:
160,96,74658,1,0,0:0:0:0:
352,96,74991,1,8,0:0:0:0:
352,96,75075,1,8,0:0:0:0:
352,96,75158,1,8,0:0:0:0:
160,96,75325,1,0,0:0:0:0:
352,96,75491,1,8,0:0:0:0:
160,96,75658,1,0,0:0:0:0:
352,96,75825,1,8,0:0:0:0:
352,96,76158,1,8,0:0:0:0:
352,96,76325,1,8,0:0:0:0:
160,96,76491,1,0,0:0:0:0:
160,96,76825,1,0,0:0:0:0:
352,96,77158,1,8,0:0:0:0:
352,96,77325,1,8,0:0:0:0:
160,96,77491,1,0,0:0:0:0:
160,96,77575,1,0,0:0:0:0:
160,96,77658,1,0,0:0:0:0:
160,96,77825,1,0,0:0:0:0:
352,96,77991,1,8,0:0:0:0:
352,96,78158,1,8,0:0:0:0:
352,96,78241,1,8,0:0:0:0:
352,96,78325,1,8,0:0:0:0:
352,96,78491,1,8,0:0:0:0:
160,96,78658,1,0,0:0:0:0:
352,96,79158,1,8,0:0:0:0:
160,96,79325,1,0,0:0:0:0:
352,96,79491,1,8,0:0:0:0:
352,96,79575,1,8,0:0:0:0:
352,96,79658,1,8,0:0:0:0:
352,96,79825,1,8,0:0:0:0:
160,288,79991,1,4,0:0:0:0:
352,96,80325,1,8,0:0:0:0:
160,96,80658,1,0,0:0:0:0:
160,96,80908,1,0,0:0:0:0:
352,96,81158,1,8,0:0:0:0:
160,96,81325,1,0,0:0:0:0:
352,96,81658,1,8,0:0:0:0:
160,96,81991,1,0,0:0:0:0:
160,96,82241,1,0,0:0:0:0:
160,96,82325,1,0,0:0:0:0:
352,96,82491,1,8,0:0:0:0:
160,96,82658,1,0,0:0:0:0:
352,96,82991,1,8,0:0:0:0:
352,96,83158,1,8,0:0:0:0:
160,96,83325,1,0,0:0:0:0:
160,96,83408,1,0,0:0:0:0:
160,96,83491,1,0,0:0:0:0:
352,96,83658,1,8,0:0:0:0:
352,96,83825,1,8,0:0:0:0:
160,96,83991,1,0,0:0:0:0:
160,96,84241,1,0,0:0:0:0:
352,96,84491,1,8,0:0:0:0:
160,96,84658,1,0,0:0:0:0:
352,96,85158,1,8,0:0:0:0:
160,96,85325,1,0,0:0:0:0:
352,96,85658,1,8,0:0:0:0:
352,96,85825,1,8,0:0:0:0:
160,96,85991,1,0,0:0:0:0:
160,96,86241,1,0,0:0:0:0:
352,96,86491,1,8,0:0:0:0:
160,96,86658,1,0,0:0:0:0:
352,96,86991,1,8,0:0:0:0:
352,96,87075,1,8,0:0:0:0:
352,96,87158,1,8,0:0:0:0:
160,96,87325,1,0,0:0:0:0:
160,96,87575,1,0,0:0:0:0:
160,96,87658,1,0,0:0:0:0:
352,96,87825,1,8,0:0:0:0:
160,96,87991,1,0,0:0:0:0:
160,96,88325,1,0,0:0:0:0:
352,96,88491,1,8,0:0:0:0:
160,96,88658,1,0,0:0:0:0:
160,96,88908,1,0,0:0:0:0:
352,96,89158,1,8,0:0:0:0:
160,288,89325,1,4,0:0:0:0:
352,96,90325,1,8,0:0:0:0:
160,96,90491,1,0,0:0:0:0:
160,96,90658,1,0,0:0:0:0:
160,96,90741,1,0,0:0:0:0:
160,96,90825,1,0,0:0:0:0:
352,96,90991,1,8,0:0:0:0:
160,96,91158,1,0,0:0:0:0:
352,96,91491,1,8,0:0:0:0:
160,96,91658,1,0,0:0:0:0:
160,96,91825,1,0,0:0:0:0:
352,96,91991,1,8,0:0:0:0:
160,96,92158,1,0,0:0:0:0:
352,96,92491,1,8,0:0:0:0:
352,96,92658,1,8,0:0:0:0:
352,96,92741,1,8,0:0:0:0:
352,96,92825,1,8,0:0:0:0:
352,96,92991,1,8,0:0:0:0:
160,96,93325,1,0,0:0:0:0:
160,96,93408,1,0,0:0:0:0:
160,96,93491,1,0,0:0:0:0:
352,96,93658,1,8,0:0:0:0:
160,96,93825,1,0,0:0:0:0:
160,96,93991,1,0,0:0:0:0:
352,96,94158,1,8,0:0:0:0:
160,96,94325,1,0,0:0:0:0:
352,96,94658,1,8,0:0:0:0:
160,96,94825,1,0,0:0:0:0:
160,96,94991,1,0,0:0:0:0:
352,96,95158,1,8,0:0:0:0:
160,96,95325,1,0,0:0:0:0:
160,96,95408,1,0,0:0:0:0:
160,96,95491,1,0,0:0:0:0:
352,96,95658,1,8,0:0:0:0:
160,96,95991,1,0,0:0:0:0:
352,96,96325,1,8,0:0:0:0:
160,96,96491,1,0,0:0:0:0:
160,96,96575,1,0,0:0:0:0:
160,96,96658,1,0,0:0:0:0:
352,96,96825,1,8,0:0:0:0:
160,96,96991,1,0,0:0:0:0:
352,96,97325,1,8,0:0:0:0:
160,96,97491,1,0,0:0:0:0:
160,96,97658,1,0,0:0:0:0:
352,96,97825,1,8,0:0:0:0:
160,96,97991,1,0,0:0:0:0:
352,96,98325,1,8,0:0:0:0:
352,96,98491,1,8,0:0:0:0:
160,96,98658,1,0,0:0:0:0:
352,96,98991,1,8,0:0:0:0:
160,96,99158,1,0,0:0:0:0:
160,96,99241,1,0,0:0:0:0:
160,96,99325,1,0,0:0:0:0:
352,96,99491,1,8,0:0:0:0:
160,96,99658,1,0,0:0:0:0:
160,96,99825,1,0,0:0:0:0:
352,96,99991,1,8,0:0:0:0:
160,96,100325,1,0,0:0:0:0:
352,96,100491,1,8,0:0:0:0:
160,96,100658,1,0,0:0:0:0:
352,96,100825,1,8,0:0:0:0:
352,96,100991,1,8,0:0:0:0:
352,96,101075,1,8,0:0:0:0:
352,96,101158,1,8,0:0:0:0:
160,288,101325,1,4,0:0:0:0:
352,96,106158,5,8,0:0:0:0:
352,96,106325,1,8,0:0:0:0:
352,96,106491,1,8,0:0:0:0:
160,96,111491,5,0,0:0:0:0:
352,96,111658,1,8,0:0:0:0:
352,96,111825,1,8,0:0:0:0:
160,96,111991,1,0,0:0:0:0:
160,96,112158,1,0,0:0:0:0:
160,96,112658,1,0,0:0:0:0:
160,96,112991,1,0,0:0:0:0:
352,96,113158,1,8,0:0:0:0:
352,96,113491,1,8,0:0:0:0:
160,96,113825,1,0,0:0:0:0:
160,96,114158,1,0,0:0:0:0:
352,96,114658,1,8,0:0:0:0:
352,96,115325,1,8,0:0:0:0:
352,96,115658,1,8,0:0:0:0:
160,96,115825,1,0,0:0:0:0:
160,96,116158,1,0,0:0:0:0:
352,96,116491,1,8,0:0:0:0:
352,96,116991,1,8,0:0:0:0:
160,96,117325,1,0,0:0:0:0:
352,96,117491,1,8,0:0:0:0:
160,96,117658,1,0,0:0:0:0:
160,96,117991,1,0,0:0:0:0:
160,96,118325,1,0,0:0:0:0:
352,96,118491,1,8,0:0:0:0:
352,96,118825,1,8,0:0:0:0:
160,96,118991,1,0,0:0:0:0:
352,96,119158,1,8,0:0:0:0:
352,96,119491,1,8,0:0:0:0:
352,96,119825,1,8,0:0:0:0:
160,96,119991,1,0,0:0:0:0:
160,96,120158,1,0,0:0:0:0:
160,96,120325,1,0,0:0:0:0:
160,96,120491,1,0,0:0:0:0:
352,96,120658,1,8,0:0:0:0:
352,96,120825,5,8,0:0:0:0:
352,96,120908,1,8,0:0:0:0:
352,96,120991,1,8,0:0:0:0:
352,96,121158,1,8,0:0:0:0:
160,96,121325,1,0,0:0:0:0:
160,96,121408,1,0,0:0:0:0:
160,96,121491,1,0,0:0:0:0:
160,96,121658,1,0,0:0:0:0:
352,96,121825,1,8,0:0:0:0:
352,96,122158,1,8,0:0:0:0:
160,96,122325,1,0,0:0:0:0:
160,96,122491,5,0,0:0:0:0:
352,288,122658,5,12,0:0:0:0:
160,96,123325,1,0,0:0:0:0:
160,96,123658,1,0,0:0:0:0:
352,96,123825,1,8,0:0:0:0:
352,96,124491,1,8,0:0:0:0:
160,96,124658,1,0,0:0:0:0:
160,96,124991,1,0,0:0:0:0:
352,96,125325,5,8,0:0:0:0:
352,96,125991,1,8,0:0:0:0:
160,96,126325,1,0,0:0:0:0:
352,96,126491,1,8,0:0:0:0:
352,96,127158,1,8,0:0:0:0:
160,96,127325,1,0,0:0:0:0:
352,96,127658,1,8,0:0:0:0:
352,96,127991,5,8,0:0:0:0:
160,96,128658,1,0,0:0:0:0:
160,96,128991,1,0,0:0:0:0:
352,96,129158,1,8,0:0:0:0:
352,96,129825,1,8,0:0:0:0:
160,96,129991,1,0,0:0:0:0:
352,96,130158,1,8,0:0:0:0:
160,96,130325,1,0,0:0:0:0:
352,96,130658,5,8,0:0:0:0:
352,96,131325,1,8,0:0:0:0:
160,96,131658,5,0,0:0:0:0:
352,96,131825,1,8,0:0:0:0:
352,96,132491,1,8,0:0:0:0:
160,96,132658,1,0,0:0:0:0:
160,96,132825,1,0,0:0:0:0:
352,96,132991,1,8,0:0:0:0:
352,96,133325,5,12,0:0:0:0:
352,96,133658,1,8,0:0:0:0:
160,96,133991,1,0,0:0:0:0:
160,96,134325,1,0,0:0:0:0:
352,96,134491,1,8,0:0:0:0:
160,96,134825,1,0,0:0:0:0:
352,96,135158,1,8,0:0:0:0:
160,96,135325,1,0,0:0:0:0:
160,96,135658,1,0,0:0:0:0:
352,96,135991,1,8,0:0:0:0:
352,96,136325,1,8,0:0:0:0:
160,96,136658,1,0,0:0:0:0:
352,96,136991,1,8,0:0:0:0:
160,96,137158,1,0,0:0:0:0:
352,96,137491,1,8,0:0:0:0:
160,96,137825,1,0,0:0:0:0:
352,96,138325,5,8,0:0:0:0:
160,96,138658,5,0,0:0:0:0:
160,96,138991,1,0,0:0:0:0:
352,96,139158,1,8,0:0:0:0:
160,96,139325,1,0,0:0:0:0:
160,96,139658,1,0,0:0:0:0:
352,96,139825,1,8,0:0:0:0:
352,96,140158,1,8,0:0:0:0:
160,96,140325,1,0,0:0:0:0:
352,96,140491,1,8,0:0:0:0:
160,96,140658,1,0,0:0:0:0:
160,96,140825,1,0,0:0:0:0:
160,96,140991,1,0,0:0:0:0:
352,96,141158,1,8,0:0:0:0:
160,96,141325,1,0,0:0:0:0:
352,96,141658,1,8,0:0:0:0:
160,96,141825,1,0,0:0:0:0:
160,96,141908,1,0,0:0:0:0:
160,96,141991,1,0,0:0:0:0:
352,96,142325,1,8,0:0:0:0:
160,96,142491,1,0,0:0:0:0:
160,96,142575,1,0,0:0:0:0:
160,96,142658,1,0,0:0:0:0:
352,96,142825,1,8,0:0:0:0:
160,96,142991,1,0,0:0:0:0:
352,96,143158,1,8,0:0:0:0:
352,96,143491,1,8,0:0:0:0:
352,96,143658,1,8,0:0:0:0:
352,96,143741,1,8,0:0:0:0:
352,96,143825,1,8,0:0:0:0:
160,288,143991,1,4,0:0:0:0:
352,96,144491,1,8,0:0:0:0:
160,96,144658,1,0,0:0:0:0:
160,96,144991,1,0,0:0:0:0:
352,96,145158,1,8,0:0:0:0:
160,96,145325,1,0,0:0:0:0:
352,96,145575,1,8,0:0:0:0:
352,96,145825,1,8,0:0:0:0:
160,96,145991,1,0,0:0:0:0:
160,96,146158,1,0,0:0:0:0:
352,96,146325,1,8,0:0:0:0:
352,96,146491,1,8,0:0:0:0:
160,96,146658,1,0,0:0:0:0:
352,96,147158,1,8,0:0:0:0:
160,96,147325,1,0,0:0:0:0:
160,96,147658,1,0,0:0:0:0:
352,96,147825,1,8,0:0:0:0:
352,96,147991,1,8,0:0:0:0:
160,96,148325,1,0,0:0:0:0:
352,96,148491,1,8,0:0:0:0:
160,96,148658,1,0,0:0:0:0:
160,96,148825,1,0,0:0:0:0:
352,96,148991,1,8,0:0:0:0:
352,96,149158,1,8,0:0:0:0:
160,96,149325,1,0,0:0:0:0:
352,96,149825,1,8,0:0:0:0:
160,96,149991,1,0,0:0:0:0:
160,96,150241,1,0,0:0:0:0:
160,96,150491,1,0,0:0:0:0:
352,96,150658,1,8,0:0:0:0:
160,96,150991,1,0,0:0:0:0:
352,96,151158,1,8,0:0:0:0:
160,96,151325,1,0,0:0:0:0:
352,96,151575,1,8,0:0:0:0:
352,96,151825,1,8,0:0:0:0:
160,96,151991,1,0,0:0:0:0:
352,96,152325,1,8,0:0:0:0:
352,96,152491,1,8,0:0:0:0:
160,96,152658,1,0,0:0:0:0:
352,96,152825,1,8,0:0:0:0:
352,96,153158,1,8,0:0:0:0:
160,96,153325,1,0,0:0:0:0:
160,96,153491,1,0,0:0:0:0:
352,96,153658,1,8,0:0:0:0:
160,96,153825,1,0,0:0:0:0:
352,96,154158,1,8,0:0:0:0:
352,96,154241,1,8,0:0:0:0:
352,96,154325,1,8,0:0:0:0:
352,96,154491,1,8,0:0:0:0:
160,96,154658,1,4,0:0:0:0:
352,96,155158,1,8,0:0:0:0:
160,96,155325,1,0,0:0:0:0:
160,96,155575,1,0,0:0:0:0:
160,96,155825,1,0,0:0:0:0:
352,96,155991,1,8,0:0:0:0:
160,96,156325,1,0,0:0:0:0:
352,96,156491,1,8,0:0:0:0:
160,96,156658,1,0,0:0:0:0:
352,96,156908,1,8,0:0:0:0:
352,96,157158,1,8,0:0:0:0:
160,96,157325,1,0,0:0:0:0:
352,96,157825,1,8,0:0:0:0:
160,96,157991,1,0,0:0:0:0:
352,96,158158,1,8,0:0:0:0:
352,96,158241,1,8,0:0:0:0:
352,96,158325,1,8,0:0:0:0:
352,96,158491,1,8,0:0:0:0:
160,96,158658,5,0,0:0:0:0:
160,96,158991,1,0,0:0:0:0:
352,96,159158,1,8,0:0:0:0:
160,96,159325,1,0,0:0:0:0:
352,96,159575,1,8,0:0:0:0:
352,96,159658,1,8,0:0:0:0:
352,96,159825,1,8,0:0:0:0:
160,96,159991,1,4,0:0:0:0:
352,96,160325,5,8,0:0:0:0:
352,96,160658,1,8,0:0:0:0:
160,96,160908,1,0,0:0:0:0:
160,96,160991,1,0,0:0:0:0:
160,96,161158,1,0,0:0:0:0:
352,96,161325,1,8,0:0:0:0:
352,96,161658,1,8,0:0:0:0:
352,96,161991,1,8,0:0:0:0:
160,96,162241,1,0,0:0:0:0:
160,96,162325,1,0,0:0:0:0:
160,96,162491,1,0,0:0:0:0:
352,96,162658,1,8,0:0:0:0:
352,96,162825,1,8,0:0:0:0:
160,96,162991,1,0,0:0:0:0:
352,96,163158,1,8,0:0:0:0:
352,96,163241,1,8,0:0:0:0:
352,96,163325,1,8,0:0:0:0:
160,96,163491,1,0,0:0:0:0:
352,96,163658,1,8,0:0:0:0:
352,96,163741,1,8,0:0:0:0:
352,96,163825,1,8,0:0:0:0:
160,96,163991,1,0,0:0:0:0:
160,96,164658,1,0,0:0:0:0:
160,96,164741,1,0,0:0:0:0:
160,96,164825,1,0,0:0:0:0:
352,96,164991,1,8,0:0:0:0:
160,96,165325,5,0,0:0:0:0:
160,96,165658,1,0,0:0:0:0:
160,96,165991,1,0,0:0:0:0:
160,96,166241,1,0,0:0:0:0:
160,96,166658,1,0,0:0:0:0:
160,96,166825,1,0,0:0:0:0:
160,96,166991,1,0,0:0:0:0:
160,96,167325,1,0,0:0:0:0:
352,96,167825,1,8,0:0:0:0:
160,96,167991,1,0,0:0:0:0:
160,96,168325,1,0,0:0:0:0:
160,96,168658,1,0,0:0:0:0:
160,96,168908,1,0,0:0:0:0:
160,96,169325,1,0,0:0:0:0:
160,96,169491,1,0,0:0:0:0:
160,96,169658,1,0,0:0:0:0:
160,96,169991,1,0,0:0:0:0:
352,96,170158,1,8,0:0:0:0:
352,96,170325,1,8,0:0:0:0:
160,96,170658,1,0,0:0:0:0:
160,96,170991,1,0,0:0:0:0:
160,96,171325,1,0,0:0:0:0:
224,233,171575,1,0,0:0:0:0:
299,87,171825,1,0,0:0:0:0:
160,96,171991,1,0,0:0:0:0:
160,96,172158,1,0,0:0:0:0:
160,96,172325,1,0,0:0:0:0:
160,96,172658,1,0,0:0:0:0:
352,96,173158,1,8,0:0:0:0:
160,96,173325,1,0,0:0:0:0:
160,96,173658,1,0,0:0:0:0:
160,96,173991,1,0,0:0:0:0:
240,21,174241,1,0,0:0:0:0:
160,96,174491,1,0,0:0:0:0:
160,96,174658,1,0,0:0:0:0:
160,96,174825,1,0,0:0:0:0:
160,96,174991,1,0,0:0:0:0:
160,96,175325,1,0,0:0:0:0:
352,96,175658,1,8,0:0:0:0:
160,96,175991,1,0,0:0:0:0:
160,96,176325,1,0,0:0:0:0:
160,96,176658,1,0,0:0:0:0:
160,96,176908,1,0,0:0:0:0:
160,96,177158,1,0,0:0:0:0:
352,96,177325,1,8,0:0:0:0:
160,96,177491,1,0,0:0:0:0:
160,96,177658,1,0,0:0:0:0:
160,96,177991,1,0,0:0:0:0:
352,96,178491,1,8,0:0:0:0:
160,96,178658,1,0,0:0:0:0:
160,96,178991,1,0,0:0:0:0:
160,96,179325,1,0,0:0:0:0:
160,96,179575,1,0,0:0:0:0:
160,96,179825,1,0,0:0:0:0:
352,96,179991,1,8,0:0:0:0:
160,96,180158,1,0,0:0:0:0:
160,96,180325,1,0,0:0:0:0:
160,96,180658,1,0,0:0:0:0:
352,96,180825,1,8,0:0:0:0:
352,96,180991,1,8,0:0:0:0:
160,96,181325,1,0,0:0:0:0:
160,96,181658,1,0,0:0:0:0:
352,96,181825,1,8,0:0:0:0:
160,96,181991,1,0,0:0:0:0:
160,96,182241,1,0,0:0:0:0:
160,96,182491,1,0,0:0:0:0:
352,96,182658,1,8,0:0:0:0:
160,96,182825,1,0,0:0:0:0:
160,96,182991,1,0,0:0:0:0:
352,96,183158,1,8,0:0:0:0:
160,96,183325,1,0,0:0:0:0:
352,96,183825,1,8,0:0:0:0:
160,96,183991,1,0,0:0:0:0:
160,96,184325,1,0,0:0:0:0:
352,96,184491,1,8,0:0:0:0:
160,96,184658,1,0,0:0:0:0:
160,96,184908,1,0,0:0:0:0:
160,96,185158,1,0,0:0:0:0:
160,96,185325,1,0,0:0:0:0:
352,288,186325,1,12,0:0:0:0:
160,288,186658,1,4,0:0:0:0:
160,96,186991,1,0,0:0:0:0:
160,96,187075,1,0,0:0:0:0:
160,96,187158,1,0,0:0:0:0:
352,96,187325,1,8,0:0:0:0:
160,96,187491,1,0,0:0:0:0:
160,96,187658,1,0,0:0:0:0:
352,96,187825,1,8,0:0:0:0:
352,96,188158,1,8,0:0:0:0:
352,96,188325,1,8,0:0:0:0:
352,96,188491,1,8,0:0:0:0:
160,96,188658,1,0,0:0:0:0:
160,96,188825,1,0,0:0:0:0:
160,96,188908,1,0,0:0:0:0:
160,96,188991,1,0,0:0:0:0:
352,96,189158,1,8,0:0:0:0:
160,96,189325,1,0,0:0:0:0:
352,96,189658,1,8,0:0:0:0:
352,96,189741,1,8,0:0:0:0:
352,96,189825,1,8,0:0:0:0:
160,96,189991,1,0,0:0:0:0:
160,96,190325,1,0,0:0:0:0:
352,96,190491,1,8,0:0:0:0:
160,96,190658,1,0,0:0:0:0:
160,96,190741,1,0,0:0:0:0:
160,96,190825,1,0,0:0:0:0:
160,96,190991,1,0,0:0:0:0:
352,96,191158,1,8,0:0:0:0:
352,96,191325,1,8,0:0:0:0:
352,96,191825,1,8,0:0:0:0:
160,96,191991,1,0,0:0:0:0:
160,96,192325,1,0,0:0:0:0:
160,96,192408,1,0,0:0:0:0:
160,96,192491,1,0,0:0:0:0:
160,96,192658,1,0,0:0:0:0:
352,96,192825,1,8,0:0:0:0:
160,96,192991,1,0,0:0:0:0:
352,96,193158,1,8,0:0:0:0:
352,96,193491,1,8,0:0:0:0:
160,96,193658,1,0,0:0:0:0:
352,96,193825,1,8,0:0:0:0:
160,96,193991,1,0,0:0:0:0:
352,96,194158,1,8,0:0:0:0:
352,96,194241,1,8,0:0:0:0:
352,96,194325,1,8,0:0:0:0:
352,96,194491,1,8,0:0:0:0:
160,96,194658,1,0,0:0:0:0:
160,96,194991,1,0,0:0:0:0:
160,96,195075,1,0,0:0:0:0:
160,96,195158,1,0,0:0:0:0:
352,96,195325,1,8,0:0:0:0:
160,96,195658,1,0,0:0:0:0:
352,96,195825,1,8,0:0:0:0:
160,96,195991,1,0,0:0:0:0:
352,96,196491,1,8,0:0:0:0:
352,96,196658,1,8,0:0:0:0:
352,96,196825,1,8,0:0:0:0:
352,96,196908,1,8,0:0:0:0:
352,96,196991,1,8,0:0:0:0:
352,96,197158,1,8,0:0:0:0:
160,288,197325,1,4,0:0:0:0:
160,96,197658,1,0,0:0:0:0:
160,96,197741,1,0,0:0:0:0:
160,96,197825,1,0,0:0:0:0:
352,96,197991,1,8,0:0:0:0:
160,96,198158,1,0,0:0:0:0:
160,96,198325,1,0,0:0:0:0:
352,96,198491,1,8,0:0:0:0:
352,96,198825,1,8,0:0:0:0:
352,96,198991,1,8,0:0:0:0:
352,96,199158,1,8,0:0:0:0:
160,96,199325,1,0,0:0:0:0:
160,96,199491,1,0,0:0:0:0:
160,96,199575,1,0,0:0:0:0:
160,96,199658,1,0,0:0:0:0:
352,96,199825,1,8,0:0:0:0:
160,96,199991,1,0,0:0:0:0:
352,96,200325,1,8,0:0:0:0:
352,96,200408,1,8,0:0:0:0:
352,96,200491,1,8,0:0:0:0:
160,96,200658,1,0,0:0:0:0:
160,96,200991,1,0,0:0:0:0:
352,96,201158,5,8,0:0:0:0:
160,96,201325,1,0,0:0:0:0:
160,96,201408,1,0,0:0:0:0:
160,96,201491,1,0,0:0:0:0:
160,96,201658,1,0,0:0:0:0:
352,96,201825,1,8,0:0:0:0:
352,96,201991,1,8,0:0:0:0:
352,96,202491,1,8,0:0:0:0:
160,96,202658,1,0,0:0:0:0:
352,96,202991,1,8,0:0:0:0:
352,96,203075,1,8,0:0:0:0:
352,96,203158,1,8,0:0:0:0:
160,96,203325,1,0,0:0:0:0:
160,96,203575,1,0,0:0:0:0:
160,96,203658,1,0,0:0:0:0:
352,96,203825,1,8,0:0:0:0:
160,96,203991,1,0,0:0:0:0:
160,96,204158,1,0,0:0:0:0:
352,96,204325,1,8,0:0:0:0:
352,96,204491,1,8,0:0:0:0:
160,96,204658,1,0,0:0:0:0:
160,96,204741,1,0,0:0:0:0:
160,96,204825,1,0,0:0:0:0:
352,96,204991,1,8,0:0:0:0:
352,96,205075,1,8,0:0:0:0:
352,96,205158,1,8,0:0:0:0:
160,288,205325,1,4,0:0:0:0:
160,288,207991,1,4,0:0:0:0:
352,96,208658,1,8,0:0:0:0:
160,288,209325,1,0,0:0:0:0:
160,96,209658,1,0,0:0:0:0:
352,96,209991,1,8,0:0:0:0:
160,96,210158,1,0,0:0:0:0:
160,96,210325,1,0,0:0:0:0:
160,96,210491,1,0,0:0:0:0:
352,288,210658,1,12,0:0:0:0:
352,96,210991,1,8,0:0:0:0:
352,96,211158,1,8,0:0:0:0:
160,96,211325,1,0,0:0:0:0:
352,96,211491,1,8,0:0:0:0:
352,96,211825,1,8,0:0:0:0:
160,96,211991,1,0,0:0:0:0:
160,96,212158,1,0,0:0:0:0:
352,96,212325,1,0,0:0:0:0:
160,96,212408,1,0,0:0:0:0:
160,96,212491,1,0,0:0:0:0:
352,96,212658,1,8,0:0:0:0:
352,96,212991,1,8,0:0:0:0:
352,96,213158,1,8,0:0:0:0:
160,288,213325,1,4,0:0:0:0:
352,96,213658,1,8,0:0:0:0:
352,96,213741,1,8,0:0:0:0:
352,96,213825,1,8,0:0:0:0:
160,96,213991,1,0,0:0:0:0:
352,96,214158,1,8,0:0:0:0:
160,96,214325,1,0,0:0:0:0:
352,96,214491,1,8,0:0:0:0:
352,96,214825,1,8,0:0:0:0:
352,96,214991,1,8,0:0:0:0:
160,96,215158,1,0,0:0:0:0:
160,96,215491,1,0,0:0:0:0:
352,96,215825,1,8,0:0:0:0:
352,96,215991,1,8,0:0:0:0:
160,96,216158,1,0,0:0:0:0:
160,96,216241,1,0,0:0:0:0:
160,96,216325,1,0,0:0:0:0:
352,96,216658,1,8,0:0:0:0:
160,96,216825,1,0,0:0:0:0:
352,96,216991,1,8,0:0:0:0:
352,96,217075,1,8,0:0:0:0:
352,96,217158,1,8,0:0:0:0:
160,96,217491,1,0,0:0:0:0:
352,96,217658,1,8,0:0:0:0:
352,96,217825,1,8,0:0:0:0:
352,96,218325,1,8,0:0:0:0:
352,96,218491,1,8,0:0:0:0:
160,96,218658,1,0,0:0:0:0:
352,96,218991,1,8,0:0:0:0:
352,96,219075,1,8,0:0:0:0:
352,96,219158,1,8,0:0:0:0:
160,96,219325,1,0,0:0:0:0:
352,96,219491,1,8,0:0:0:0:
160,96,219658,1,0,0:0:0:0:
352,96,219825,1,8,0:0:0:0:
352,96,220158,1,8,0:0:0:0:
160,96,220325,1,0,0:0:0:0:
352,96,220491,1,8,0:0:0:0:
160,96,220825,1,0,0:0:0:0:
352,96,221158,1,8,0:0:0:0:
352,96,221325,1,8,0:0:0:0:
160,96,221491,1,0,0:0:0:0:
160,96,221575,1,0,0:0:0:0:
160,96,221658,1,0,0:0:0:0:
160,96,221825,1,0,0:0:0:0:
352,96,221991,1,8,0:0:0:0:
352,96,222158,1,8,0:0:0:0:
352,96,222241,1,8,0:0:0:0:
352,96,222325,1,8,0:0:0:0:
352,96,222491,1,8,0:0:0:0:
160,96,222658,1,0,0:0:0:0:
352,96,223158,1,8,0:0:0:0:
160,96,223325,1,0,0:0:0:0:
352,96,223491,1,8,0:0:0:0:
352,96,223575,1,8,0:0:0:0:
352,96,223658,1,8,0:0:0:0:
352,96,223825,1,8,0:0:0:0:
160,288,223991,1,4,0:0:0:0:
352,96,224325,1,8,0:0:0:0:
352,96,224658,1,8,0:0:0:0:
160,96,224908,1,0,0:0:0:0:
352,96,225158,1,8,0:0:0:0:
160,96,225325,1,0,0:0:0:0:
352,96,225658,1,8,0:0:0:0:
352,96,225991,1,8,0:0:0:0:
160,96,226241,1,0,0:0:0:0:
160,96,226325,1,0,0:0:0:0:
352,96,226491,1,8,0:0:0:0:
160,96,226658,1,0,0:0:0:0:
352,96,226991,1,8,0:0:0:0:
352,96,227158,1,8,0:0:0:0:
160,96,227325,1,0,0:0:0:0:
160,96,227408,1,0,0:0:0:0:
160,96,227491,1,0,0:0:0:0:
352,96,227658,1,8,0:0:0:0:
352,96,227825,1,8,0:0:0:0:
160,96,227991,1,0,0:0:0:0:
160,96,228241,1,0,0:0:0:0:
352,96,228491,1,8,0:0:0:0:
160,96,228658,1,0,0:0:0:0:
352,96,229158,1,8,0:0:0:0:
160,96,229325,1,0,0:0:0:0:
352,96,229658,1,8,0:0:0:0:
352,96,229825,1,8,0:0:0:0:
160,96,229991,1,0,0:0:0:0:
160,96,230241,1,0,0:0:0:0:
352,96,230491,1,8,0:0:0:0:
160,96,230658,1,0,0:0:0:0:
352,96,230991,1,8,0:0:0:0:
352,96,231075,1,8,0:0:0:0:
352,96,231158,1,8,0:0:0:0:
160,96,231325,1,0,0:0:0:0:
160,96,231575,1,0,0:0:0:0:
160,96,231658,1,0,0:0:0:0:
352,96,231825,1,8,0:0:0:0:
160,96,231991,1,0,0:0:0:0:
160,96,232325,1,0,0:0:0:0:
352,96,232491,1,8,0:0:0:0:
160,96,232658,1,0,0:0:0:0:
160,96,232908,1,0,0:0:0:0:
352,96,233158,1,8,0:0:0:0:
160,288,233325,1,4,0:0:0:0:
352,96,234325,1,8,0:0:0:0:
160,96,234491,1,0,0:0:0:0:
160,96,234658,1,0,0:0:0:0:
160,96,234741,1,0,0:0:0:0:
160,96,234825,1,0,0:0:0:0:
352,96,234991,1,8,0:0:0:0:
160,96,235158,1,0,0:0:0:0:
352,96,235491,1,8,0:0:0:0:
160,96,235658,1,0,0:0:0:0:
160,96,235825,1,0,0:0:0:0:
352,96,235991,1,8,0:0:0:0:
160,96,236158,1,0,0:0:0:0:
352,96,236491,1,8,0:0:0:0:
352,96,236658,1,8,0:0:0:0:
352,96,236741,1,8,0:0:0:0:
352,96,236825,1,8,0:0:0:0:
352,96,236991,1,8,0:0:0:0:
160,96,237325,1,0,0:0:0:0:
160,96,237408,1,0,0:0:0:0:
160,96,237491,1,0,0:0:0:0:
352,96,237658,1,8,0:0:0:0:
160,96,237825,1,0,0:0:0:0:
160,96,237991,1,0,0:0:0:0:
352,96,238158,1,8,0:0:0:0:
160,96,238325,1,0,0:0:0:0:
352,96,238658,1,8,0:0:0:0:
160,96,238825,1,0,0:0:0:0:
160,96,238991,1,0,0:0:0:0:
352,96,239158,1,8,0:0:0:0:
160,96,239325,1,0,0:0:0:0:
160,96,239408,1,0,0:0:0:0:
160,96,239491,1,0,0:0:0:0:
352,96,239658,1,8,0:0:0:0:
352,96,239991,1,8,0:0:0:0:
160,96,240158,1,0,0:0:0:0:
160,96,240241,1,0,0:0:0:0:
160,96,240325,1,0,0:0:0:0:
352,96,240491,1,8,0:0:0:0:
352,96,240991,1,8,0:0:0:0:
160,96,241158,1,0,0:0:0:0:
160,96,241325,1,0,0:0:0:0:
352,96,241491,1,8,0:0:0:0:
160,96,241658,1,0,0:0:0:0:
181,146,241741,1,0,0:0:0:0:
160,96,241825,1,0,0:0:0:0:
352,96,241991,1,8,0:0:0:0:
352,96,242325,1,8,0:0:0:0:
352,96,242491,1,8,0:0:0:0:
160,96,242658,1,0,0:0:0:0:
160,96,242741,1,0,0:0:0:0:
160,96,242825,1,0,0:0:0:0:
352,96,242991,1,8,0:0:0:0:
160,96,243158,1,0,0:0:0:0:
160,96,243241,1,0,0:0:0:0:
160,96,243325,1,0,0:0:0:0:
352,96,243491,1,8,0:0:0:0:
160,96,243658,1,0,0:0:0:0:
160,96,243825,1,0,0:0:0:0:
352,96,243991,1,8,0:0:0:0:
160,96,244325,1,0,0:0:0:0:
352,96,244491,1,8,0:0:0:0:
160,96,244658,1,0,0:0:0:0:
352,96,244825,1,8,0:0:0:0:
352,96,244991,1,8,0:0:0:0:
352,96,245075,1,8,0:0:0:0:
352,96,245158,1,8,0:0:0:0:
160,288,245325,1,4,0:0:0:0:
352,96,250158,5,8,0:0:0:0:
352,96,250325,1,8,0:0:0:0:
352,96,250491,1,8,0:0:0:0:
160,96,255491,5,0,0:0:0:0:
352,96,255658,1,8,0:0:0:0:
352,96,255825,1,8,0:0:0:0:
160,96,255991,1,0,0:0:0:0:
160,96,256158,1,0,0:0:0:0:
160,96,256658,1,0,0:0:0:0:
160,96,256991,1,0,0:0:0:0:
352,96,257158,1,8,0:0:0:0:
352,96,257491,1,8,0:0:0:0:
160,96,257825,1,0,0:0:0:0:
160,96,258158,1,0,0:0:0:0:
352,96,258658,1,8,0:0:0:0:
352,96,259325,1,8,0:0:0:0:
352,96,259658,1,8,0:0:0:0:
160,96,259825,1,0,0:0:0:0:
160,96,260158,1,0,0:0:0:0:
352,96,260491,1,8,0:0:0:0:
352,96,260991,1,8,0:0:0:0:
160,96,261325,1,0,0:0:0:0:
352,96,261491,1,8,0:0:0:0:
160,96,261658,1,0,0:0:0:0:
160,96,261991,1,0,0:0:0:0:
160,96,262325,1,0,0:0:0:0:
352,96,262491,1,8,0:0:0:0:
352,96,262825,1,8,0:0:0:0:
160,96,262991,1,0,0:0:0:0:
352,96,263158,1,8,0:0:0:0:
352,96,263491,1,8,0:0:0:0:
352,96,263825,1,8,0:0:0:0:
160,96,263991,1,0,0:0:0:0:
160,96,264158,1,0,0:0:0:0:
160,96,264325,1,0,0:0:0:0:
160,96,264491,1,0,0:0:0:0:
352,96,264658,1,8,0:0:0:0:
352,96,264825,5,8,0:0:0:0:
352,96,264908,1,8,0:0:0:0:
352,96,264991,1,8,0:0:0:0:
352,96,265158,1,8,0:0:0:0:
160,96,265325,1,0,0:0:0:0:
160,96,265408,1,0,0:0:0:0:
160,96,265491,1,0,0:0:0:0:
160,96,265658,1,0,0:0:0:0:
352,96,265825,1,8,0:0:0:0:
160,96,266158,1,0,0:0:0:0:
352,96,266325,1,8,0:0:0:0:
352,96,266491,5,8,0:0:0:0:
