osu file format v14

[General]
AudioFilename: audio.mp3
AudioLeadIn: 0
PreviewTime: 165241
Countdown: 0
SampleSet: Normal
StackLeniency: 0.7
Mode: 1
LetterboxInBreaks: 0
WidescreenStoryboard: 0

[Editor]
Bookmarks: 2666,13329,23999,45329,55995,61329,69329,90662,101329,111995,122662,143995,165329,186662,205329,213329
DistanceSpacing: 1.7
BeatDivisor: 2
GridSize: 4
TimelineZoom: 0.6999989

[Metadata]
Title:Future Coaster
TitleUnicode:Future Coaster
Artist:Sakuzyo
ArtistUnicode:削除
Creator:komasy
Version:Kantan
Source:GROOVE COASTER 3EX DREAM PARTY
Tags:Instrumental Electronic Long Version Video Rhythm Game TAITO タイトー グルーヴコースター ドリームパーティ AC グルコス FutureCore Bass Cyber Meteoroid SCCD-0008 yassu-
BeatmapID:2299700
BeatmapSetID:1095078

[Difficulty]
HPDrainRate:7
CircleSize:2
OverallDifficulty:3
ApproachRate:10
SliderMultiplier:1.4
SliderTickRate:1

[Events]
//Background and Video events
0,0,"bg.jpg",0,0
//Break Periods
2,101525,110991
2,245525,254991
//Storyboard Layer 0 (Background)
//Storyboard Layer 1 (Fail)
//Storyboard Layer 2 (Pass)
//Storyboard Layer 3 (Foreground)
//Storyboard Layer 4 (Overlay)
//Storyboard Sound Samples

[TimingPoints]
-8,333.333333333333,4,1,0,5,1,0
658,-100,4,1,0,15,0,0
1325,-100,4,1,0,25,0,0
1825,-100,4,1,0,80,0,0
13241,-100,4,1,0,90,0,0
45491,-100,4,1,0,70,0,0
55908,-100,4,1,0,80,0,0
61241,-100,4,1,0,50,0,0
61408,-100,4,1,0,20,0,0
63908,-100,4,1,0,80,0,0
66575,-100,4,1,0,90,0,0
68741,-100,4,1,0,80,0,0
69241,-100,4,1,0,100,0,0
69325,-100,4,1,0,100,0,1
89325,-100,4,1,0,100,0,0
89408,-100,4,1,0,80,0,0
90575,-100,4,1,0,100,0,0
90658,-100,4,1,0,100,0,1
101325,-100,4,1,0,100,0,0
101408,-100,4,1,0,20,0,0
111325,-100,4,1,0,80,0,0
111908,-100,4,1,0,90,0,0
122075,-100,4,1,0,80,0,0
122575,-100,4,1,0,70,0,0
138575,-100,4,1,0,80,0,0
141240,-100,4,1,0,90,0,0
143908,-100,4,1,0,80,0,0
162575,-100,4,1,0,90,0,0
163991,-100,4,1,0,70,0,0
165241,-100,4,1,0,90,0,0
165325,-100,4,1,0,90,0,1
170325,-100,4,1,0,90,0,0
170658,-100,4,1,0,90,0,1
175658,-100,4,1,0,90,0,0
175991,-100,4,1,0,90,0,1
180991,-100,4,1,0,90,0,0
181325,-100,4,1,0,90,0,1
185325,-100,4,1,0,90,0,0
185408,-100,4,1,0,70,0,0
186575,-100,4,1,0,100,0,0
186658,-100,4,1,0,100,0,1
205241,-100,4,1,0,50,0,1
205325,-100,4,1,0,50,0,0
205408,-100,4,1,0,20,0,0
207908,-100,4,1,0,80,0,0
210575,-100,4,1,0,90,0,0
212741,-100,4,1,0,80,0,0
213241,-100,4,1,0,100,0,0
213325,-100,4,1,0,100,0,1
233325,-100,4,1,0,100,0,0
233408,-100,4,1,0,80,0,0
234575,-100,4,1,0,100,0,0
234658,-100,4,1,0,100,0,1
245325,-100,4,1,0,100,0,0
245408,-100,4,1,0,20,0,0
255408,-100,4,1,0,80,0,0
255990,-100,4,1,0,90,0,0
266075,-100,4,1,0,70,0,0
266241,-100,4,1,0,60,0,0
266408,-100,4,1,0,50,0,0

[HitObjects]
352,96,1991,5,8,0:0:0:0:
160,96,2325,1,0,0:0:0:0:
160,288,2658,1,4,0:0:0:0:
160,96,3825,1,0,0:0:0:0:
352,96,4491,1,8,0:0:0:0:
160,96,5325,1,0,0:0:0:0:
160,96,6491,1,0,0:0:0:0:
352,96,7158,1,8,0:0:0:0:
160,96,7991,1,0,0:0:0:0:
160,96,9158,1,0,0:0:0:0:
352,96,9825,1,8,0:0:0:0:
160,96,10658,1,0,0:0:0:0:
160,96,11825,1,0,0:0:0:0:
352,96,12491,1,8,0:0:0:0:
352,96,12991,1,8,0:0:0:0:
160,288,13325,1,4,0:0:0:0:
352,96,14491,1,8,0:0:0:0:
160,96,15158,1,0,0:0:0:0:
352,96,15991,1,8,0:0:0:0:
352,96,16658,1,8,0:0:0:0:
160,96,17158,1,0,0:0:0:0:
352,96,17825,1,8,0:0:0:0:
160,96,18658,1,0,0:0:0:0:
160,96,19658,1,8,0:0:0:0:
352,96,19991,1,0,0:0:0:0:
187,110,20658,1,8,0:0:0:0:
160,96,21325,1,0,0:0:0:0:
160,96,21658,1,0,0:0:0:0:
352,96,21991,1,8,0:0:0:0:
352,96,22325,1,8,0:0:0:0:
123,234,22658,2,0,L|255:199,6,70
160,288,23991,5,4,0:0:0:0:
352,96,24991,1,8,0:0:0:0:
352,96,25325,1,8,0:0:0:0:
352,96,25658,1,8,0:0:0:0:
352,96,26325,1,8,0:0:0:0:
160,96,26658,1,0,0:0:0:0:
352,96,27325,1,8,0:0:0:0:
160,288,27991,1,4,0:0:0:0:
160,288,28491,1,4,0:0:0:0:
160,288,29325,1,4,0:0:0:0:
352,96,30325,1,8,0:0:0:0:
352,96,30658,1,8,0:0:0:0:
352,96,30991,1,8,0:0:0:0:
352,96,31658,1,8,0:0:0:0:
160,96,31991,1,0,0:0:0:0:
352,96,32658,1,8,0:0:0:0:
352,288,33325,1,12,0:0:0:0:
160,288,33825,1,4,0:0:0:0:
160,288,34658,1,4,0:0:0:0:
352,96,35658,1,8,0:0:0:0:
160,96,35991,1,0,0:0:0:0:
352,96,36325,1,8,0:0:0:0:
352,96,36991,1,8,0:0:0:0:
160,96,37325,1,0,0:0:0:0:
352,96,37991,1,8,0:0:0:0:
160,288,38658,1,4,0:0:0:0:
160,288,39158,1,4,0:0:0:0:
160,288,39991,1,4,0:0:0:0:
352,96,40991,1,8,0:0:0:0:
160,288,41325,1,4,0:0:0:0:
352,288,41825,1,12,0:0:0:0:
160,288,42658,1,4,0:0:0:0:
352,96,43325,1,8,0:0:0:0:
160,96,43991,1,0,0:0:0:0:
160,96,44325,1,0,0:0:0:0:
352,96,44658,1,8,0:0:0:0:
352,96,44991,1,8,0:0:0:0:
160,288,45325,1,4,0:0:0:0:
352,96,46658,1,8,0:0:0:0:
352,96,47325,1,8,0:0:0:0:
160,96,47991,1,0,0:0:0:0:
352,96,49991,1,8,0:0:0:0:
160,96,50658,1,0,0:0:0:0:
352,96,51991,1,8,0:0:0:0:
160,96,53325,1,0,0:0:0:0:
352,96,53991,1,8,0:0:0:0:
352,96,55325,1,8,0:0:0:0:
160,96,55658,1,0,0:0:0:0:
160,288,55991,1,4,0:0:0:0:
352,96,56991,1,8,0:0:0:0:
160,96,57325,1,0,0:0:0:0:
160,96,57991,1,0,0:0:0:0:
352,96,58325,1,8,0:0:0:0:
160,96,58658,1,0,0:0:0:0:
352,96,59658,1,8,0:0:0:0:
160,96,59991,1,0,0:0:0:0:
352,96,60658,1,8,0:0:0:0:
352,96,60991,1,8,0:0:0:0:
160,288,61325,1,4,0:0:0:0:
160,288,63991,1,4,0:0:0:0:
352,96,64658,1,8,0:0:0:0:
160,288,65325,1,0,0:0:0:0:
352,96,65991,1,8,0:0:0:0:
160,96,66325,1,0,0:0:0:0:
352,288,66658,1,12,0:0:0:0:
160,96,67325,1,0,0:0:0:0:
352,96,67658,1,8,0:0:0:0:
124,199,67991,2,0,L|227:174,4,70
160,288,69325,1,4,0:0:0:0:
352,96,70491,1,8,0:0:0:0:
352,96,70825,1,8,0:0:0:0:
160,96,71158,1,0,0:0:0:0:
348,66,71491,1,0,0:0:0:0:
352,96,71991,1,8,0:0:0:0:
352,96,72658,1,8,0:0:0:0:
160,96,73325,1,0,0:0:0:0:
352,96,73658,1,8,0:0:0:0:
352,96,74325,1,8,0:0:0:0:
160,96,74658,1,0,0:0:0:0:
352,96,75825,1,8,0:0:0:0:
352,96,76158,1,8,0:0:0:0:
160,96,76491,1,0,0:0:0:0:
475,72,76825,1,0,0:0:0:0:
352,96,77325,1,8,0:0:0:0:
352,96,77991,1,0,0:0:0:0:
352,96,78325,1,8,0:0:0:0:
176,246,78658,1,8,0:0:0:0:
352,96,79325,1,8,0:0:0:0:
352,96,79658,1,8,0:0:0:0:
160,288,79991,1,4,0:0:0:0:
352,96,80991,1,8,0:0:0:0:
160,96,81325,1,0,0:0:0:0:
160,96,81991,1,0,0:0:0:0:
352,96,82325,1,8,0:0:0:0:
160,96,82658,1,0,0:0:0:0:
352,96,83325,1,8,0:0:0:0:
160,96,83991,1,0,0:0:0:0:
160,96,84325,1,0,0:0:0:0:
352,96,84658,1,8,0:0:0:0:
160,96,85325,1,0,0:0:0:0:
352,96,86325,1,8,0:0:0:0:
160,96,86658,1,0,0:0:0:0:
352,96,87325,1,8,0:0:0:0:
352,96,87658,1,8,0:0:0:0:
160,96,87991,1,0,0:0:0:0:
160,96,88658,1,0,0:0:0:0:
352,96,88991,1,8,0:0:0:0:
160,288,89325,1,4,0:0:0:0:
352,96,90325,1,8,0:0:0:0:
160,288,90658,1,4,0:0:0:0:
160,96,91158,1,0,0:0:0:0:
160,96,91658,1,0,0:0:0:0:
352,96,92658,1,8,0:0:0:0:
352,96,92991,1,8,0:0:0:0:
160,96,93325,1,0,0:0:0:0:
352,96,93825,1,8,0:0:0:0:
160,96,94658,1,0,0:0:0:0:
160,96,94991,1,0,0:0:0:0:
352,96,95325,1,8,0:0:0:0:
160,96,95991,1,0,0:0:0:0:
160,96,96491,1,0,0:0:0:0:
160,96,96991,1,0,0:0:0:0:
352,96,97991,1,8,0:0:0:0:
352,96,98325,1,8,0:0:0:0:
160,96,98658,1,0,0:0:0:0:
352,96,99158,1,8,0:0:0:0:
160,96,99991,1,0,0:0:0:0:
160,96,100325,1,0,0:0:0:0:
352,96,100658,1,8,0:0:0:0:
352,96,100991,1,8,0:0:0:0:
160,288,101325,1,4,0:0:0:0:
352,96,111658,5,8,0:0:0:0:
160,288,111991,1,4,0:0:0:0:
352,96,113158,1,8,0:0:0:0:
160,96,113825,1,0,0:0:0:0:
352,96,114658,1,8,0:0:0:0:
352,96,115325,1,8,0:0:0:0:
160,96,115825,1,0,0:0:0:0:
352,96,116491,1,8,0:0:0:0:
160,96,117325,1,0,0:0:0:0:
352,96,118325,1,8,0:0:0:0:
160,96,118658,1,0,0:0:0:0:
352,96,119325,1,8,0:0:0:0:
160,96,119991,1,0,0:0:0:0:
160,96,120325,1,0,0:0:0:0:
352,96,120658,1,8,0:0:0:0:
352,96,120991,1,8,0:0:0:0:
123,234,121325,2,0,L|255:199,3,70
352,288,122658,1,12,0:0:0:0:
160,96,123825,1,0,0:0:0:0:
352,96,124491,1,8,0:0:0:0:
352,96,125325,5,8,0:0:0:0:
160,96,126491,1,0,0:0:0:0:
352,96,127158,1,8,0:0:0:0:
352,96,127658,1,8,0:0:0:0:
352,96,127991,5,8,0:0:0:0:
160,96,129158,1,0,0:0:0:0:
352,96,129825,1,8,0:0:0:0:
352,96,130658,5,8,0:0:0:0:
160,96,131825,1,0,0:0:0:0:
352,96,132491,1,8,0:0:0:0:
352,96,132991,5,8,0:0:0:0:
352,96,133325,5,12,0:0:0:0:
160,96,133991,1,0,0:0:0:0:
352,96,134491,1,8,0:0:0:0:
160,96,135158,1,0,0:0:0:0:
352,96,135991,1,8,0:0:0:0:
160,96,136658,1,0,0:0:0:0:
352,96,137158,1,8,0:0:0:0:
160,96,137825,1,0,0:0:0:0:
160,96,138658,5,0,0:0:0:0:
352,96,139658,1,8,0:0:0:0:
160,96,139991,1,0,0:0:0:0:
352,96,140658,1,8,0:0:0:0:
160,96,141325,1,0,0:0:0:0:
352,96,141658,1,8,0:0:0:0:
352,96,142325,1,8,0:0:0:0:
160,96,142658,1,0,0:0:0:0:
18,275,142991,1,0,0:0:0:0:
352,96,143325,1,8,0:0:0:0:
160,288,143991,1,4,0:0:0:0:
352,96,144991,1,0,0:0:0:0:
160,96,145325,1,8,0:0:0:0:
160,96,145991,1,0,0:0:0:0:
352,96,146325,1,8,0:0:0:0:
160,96,146658,1,0,0:0:0:0:
160,96,147658,1,0,0:0:0:0:
352,96,147991,1,8,0:0:0:0:
160,96,148658,1,0,0:0:0:0:
352,96,148991,1,8,0:0:0:0:
160,96,149325,1,8,0:0:0:0:
160,96,149991,1,0,0:0:0:0:
160,96,150325,1,0,0:0:0:0:
352,96,150658,1,8,0:0:0:0:
160,96,151325,1,8,0:0:0:0:
352,96,151658,1,8,0:0:0:0:
160,96,151991,1,0,0:0:0:0:
160,96,152491,1,0,0:0:0:0:
160,96,153325,1,0,0:0:0:0:
352,96,153658,1,8,0:0:0:0:
352,96,154325,1,8,0:0:0:0:
160,288,154658,1,4,0:0:0:0:
160,96,155658,1,0,0:0:0:0:
352,96,155991,1,8,0:0:0:0:
160,96,156658,1,8,0:0:0:0:
352,96,156991,1,8,0:0:0:0:
160,96,157325,1,0,0:0:0:0:
352,96,157991,1,8,0:0:0:0:
160,96,158658,5,0,0:0:0:0:
160,96,159325,1,0,0:0:0:0:
352,96,159658,1,8,0:0:0:0:
160,288,159991,1,4,0:0:0:0:
160,96,160991,1,0,0:0:0:0:
352,96,161325,1,8,0:0:0:0:
352,96,161991,1,8,0:0:0:0:
352,96,162658,1,8,0:0:0:0:
186,218,162991,1,8,0:0:0:0:
118,159,163325,2,0,L|204:139,4,70
352,96,164991,1,8,0:0:0:0:
160,96,165325,5,0,0:0:0:0:
160,96,166658,1,0,0:0:0:0:
274,275,166991,1,0,0:0:0:0:
160,96,167325,1,0,0:0:0:0:
160,96,167991,1,0,0:0:0:0:
160,96,169325,1,0,0:0:0:0:
285,252,169658,1,0,0:0:0:0:
160,96,169991,1,0,0:0:0:0:
160,96,170658,1,8,0:0:0:0:
160,96,171991,1,8,0:0:0:0:
160,96,172325,1,8,0:0:0:0:
160,96,172658,1,8,0:0:0:0:
160,96,173325,1,8,0:0:0:0:
160,96,174658,1,8,0:0:0:0:
160,96,174991,1,8,0:0:0:0:
160,96,175325,1,8,0:0:0:0:
160,96,175991,1,0,0:0:0:0:
160,96,177325,1,0,0:0:0:0:
160,96,177658,1,0,0:0:0:0:
160,96,177991,1,0,0:0:0:0:
160,96,178658,1,0,0:0:0:0:
160,96,179325,1,0,0:0:0:0:
160,96,179991,1,0,0:0:0:0:
160,96,180325,1,0,0:0:0:0:
160,96,180658,1,0,0:0:0:0:
160,96,181325,1,8,0:0:0:0:
160,96,181991,1,8,0:0:0:0:
160,96,182658,1,8,0:0:0:0:
160,96,182991,1,8,0:0:0:0:
160,96,183325,1,8,0:0:0:0:
160,96,183991,1,8,0:0:0:0:
160,96,184658,1,8,0:0:0:0:
160,96,185325,1,8,0:0:0:0:
352,288,186325,1,12,0:0:0:0:
160,288,186658,1,4,0:0:0:0:
352,96,187825,1,8,0:0:0:0:
352,96,188158,1,8,0:0:0:0:
160,96,188491,1,8,0:0:0:0:
352,157,188825,1,0,0:0:0:0:
352,96,189325,1,8,0:0:0:0:
160,96,189991,1,8,0:0:0:0:
160,96,190325,1,0,0:0:0:0:
160,96,190991,1,0,0:0:0:0:
352,96,191325,1,8,0:0:0:0:
160,96,191991,1,0,0:0:0:0:
200,92,192658,1,0,0:0:0:0:
352,96,193158,1,8,0:0:0:0:
352,96,193491,1,8,0:0:0:0:
160,96,193825,1,8,0:0:0:0:
388,84,194158,1,0,0:0:0:0:
352,96,194658,1,8,0:0:0:0:
333,179,195325,1,0,0:0:0:0:
352,96,195658,1,8,0:0:0:0:
333,179,195991,1,8,0:0:0:0:
352,96,196658,1,8,0:0:0:0:
352,96,196991,1,8,0:0:0:0:
160,288,197325,1,4,0:0:0:0:
352,96,198491,1,8,0:0:0:0:
352,96,198825,1,8,0:0:0:0:
160,96,199158,1,8,0:0:0:0:
430,96,199491,1,0,0:0:0:0:
352,96,199991,1,8,0:0:0:0:
160,96,200658,1,8,0:0:0:0:
160,96,200991,1,0,0:0:0:0:
160,96,201658,1,0,0:0:0:0:
352,96,201991,1,8,0:0:0:0:
160,288,202658,1,4,0:0:0:0:
160,96,203325,1,8,0:0:0:0:
201,84,203658,1,8,0:0:0:0:
160,96,203991,1,0,0:0:0:0:
197,59,204658,1,0,0:0:0:0:
352,96,204991,1,0,0:0:0:0:
160,288,205325,1,4,0:0:0:0:
160,288,207991,1,4,0:0:0:0:
352,96,208658,1,8,0:0:0:0:
160,288,209325,1,0,0:0:0:0:
352,96,209991,1,8,0:0:0:0:
160,96,210325,1,0,0:0:0:0:
352,288,210658,1,12,0:0:0:0:
160,96,211325,1,0,0:0:0:0:
352,96,211658,1,8,0:0:0:0:
124,199,211991,2,0,L|227:174,4,70
160,288,213325,1,4,0:0:0:0:
352,96,214491,1,8,0:0:0:0:
352,96,214825,1,8,0:0:0:0:
160,96,215158,1,0,0:0:0:0:
373,117,215491,1,0,0:0:0:0:
352,96,215991,1,8,0:0:0:0:
352,96,216658,1,8,0:0:0:0:
160,96,217325,1,0,0:0:0:0:
352,96,217658,1,8,0:0:0:0:
352,96,218325,1,8,0:0:0:0:
160,96,218658,1,0,0:0:0:0:
352,96,219825,1,8,0:0:0:0:
352,96,220158,1,8,0:0:0:0:
160,96,220491,1,0,0:0:0:0:
352,96,220825,1,0,0:0:0:0:
352,96,221325,1,8,0:0:0:0:
352,96,221991,1,0,0:0:0:0:
352,96,222325,1,8,0:0:0:0:
305,308,222658,1,8,0:0:0:0:
352,96,223325,1,8,0:0:0:0:
352,96,223658,1,8,0:0:0:0:
160,288,223991,1,4,0:0:0:0:
352,96,224991,1,8,0:0:0:0:
160,96,225325,1,0,0:0:0:0:
160,96,225991,1,0,0:0:0:0:
352,96,226325,1,8,0:0:0:0:
160,96,226658,1,0,0:0:0:0:
352,96,227325,1,8,0:0:0:0:
160,96,227991,1,0,0:0:0:0:
160,96,228325,1,0,0:0:0:0:
352,96,228658,1,8,0:0:0:0:
160,96,229325,1,0,0:0:0:0:
352,96,230325,1,8,0:0:0:0:
160,96,230658,1,0,0:0:0:0:
352,96,231325,1,8,0:0:0:0:
352,96,231658,1,8,0:0:0:0:
160,96,231991,1,0,0:0:0:0:
160,96,232658,1,0,0:0:0:0:
352,96,232991,1,8,0:0:0:0:
160,288,233325,1,4,0:0:0:0:
352,96,234325,1,8,0:0:0:0:
160,288,234658,1,4,0:0:0:0:
160,96,235158,1,0,0:0:0:0:
160,96,235658,1,0,0:0:0:0:
352,96,236658,1,8,0:0:0:0:
352,96,236991,1,8,0:0:0:0:
160,96,237325,1,0,0:0:0:0:
352,96,237825,1,8,0:0:0:0:
160,96,238658,1,0,0:0:0:0:
160,96,238991,1,0,0:0:0:0:
352,96,239325,1,8,0:0:0:0:
352,96,239991,1,8,0:0:0:0:
352,96,240491,1,8,0:0:0:0:
352,96,240991,1,8,0:0:0:0:
352,96,241991,1,8,0:0:0:0:
160,96,242325,1,0,0:0:0:0:
352,96,242658,1,8,0:0:0:0:
160,96,243158,1,0,0:0:0:0:
352,96,243991,1,8,0:0:0:0:
352,96,244325,1,8,0:0:0:0:
160,96,244658,1,0,0:0:0:0:
352,96,244991,1,8,0:0:0:0:
160,288,245325,1,4,0:0:0:0:
352,96,255658,5,8,0:0:0:0:
160,288,255991,1,4,0:0:0:0:
352,96,257158,1,8,0:0:0:0:
160,96,257825,1,0,0:0:0:0:
352,96,258658,1,8,0:0:0:0:
352,96,259325,1,8,0:0:0:0:
160,96,259825,1,0,0:0:0:0:
352,96,260491,1,8,0:0:0:0:
160,96,261325,1,0,0:0:0:0:
352,96,262325,1,8,0:0:0:0:
160,96,262658,1,0,0:0:0:0:
352,96,263325,1,8,0:0:0:0:
160,96,263991,1,0,0:0:0:0:
160,96,264325,1,0,0:0:0:0:
352,96,264658,1,8,0:0:0:0:
352,96,264991,1,8,0:0:0:0:
123,234,265325,2,0,L|255:199,3,70
