osu file format v14

[General]
AudioFilename: audio.mp3
AudioLeadIn: 0
PreviewTime: 68732
Countdown: 0
SampleSet: Normal
StackLeniency: 0.7
Mode: 1
LetterboxInBreaks: 0
WidescreenStoryboard: 1

[Editor]
Bookmarks: 3653,24986,46320,69320,90649,111982
DistanceSpacing: 0.1
BeatDivisor: 4
GridSize: 32
TimelineZoom: 2.799999

[Metadata]
Title:Future Coaster
TitleUnicode:Future Coaster
Artist:Sakuzyo
ArtistUnicode:削除
Creator:_DUSK_
Version:Kantan
Source:GROOVE COASTER 3EX DREAM PARTY
Tags:グルーヴコースター ドリームパーティ AC TAITO タイトー bass Cyber Meteoroid Electronic Instrumental
BeatmapID:2209097
BeatmapSetID:1056866

[Difficulty]
HPDrainRate:8
CircleSize:5
OverallDifficulty:3
ApproachRate:9
SliderMultiplier:1.4
SliderTickRate:1

[Events]
//Background and Video events
0,0,"thanks nifty.jpg",0,20
//Break Periods
2,61516,63382
2,101516,111049
//Storyboard Layer 0 (Background)
//Storyboard Layer 1 (Fail)
//Storyboard Layer 2 (Pass)
//Storyboard Layer 3 (Foreground)
//Storyboard Layer 4 (Overlay)
//Storyboard Sound Samples

[TimingPoints]
-17,333.333333333333,4,1,0,100,1,0
61399,-100,4,1,0,30,0,0
63899,-100,4,1,0,100,0,0
69316,-100,4,1,0,100,0,1
89316,-100,4,1,0,100,0,0
90649,-100,4,1,0,100,0,1
101316,-100,4,1,0,100,0,0
101399,-100,4,1,0,30,0,0
111399,-100,4,1,0,100,0,0
121982,-100,4,1,0,80,0,0
122649,-100,4,1,0,60,0,0
122982,-100,4,1,0,40,0,0
123316,-100,4,1,0,20,0,0
123649,-100,4,1,0,10,0,0

[HitObjects]
256,192,1982,5,8,0:0:0:0:
256,192,2649,1,12,0:0:0:0:
256,192,3816,1,0,0:0:0:0:
256,192,4482,1,0,0:0:0:0:
256,192,5316,1,0,0:0:0:0:
256,192,6482,1,0,0:0:0:0:
256,192,7149,1,8,0:0:0:0:
256,192,7982,1,0,0:0:0:0:
256,192,9149,1,0,0:0:0:0:
256,192,9816,1,0,0:0:0:0:
256,192,10649,1,0,0:0:0:0:
256,192,11816,1,0,0:0:0:0:
256,192,12482,1,0,0:0:0:0:
256,192,12982,1,8,0:0:0:0:
256,192,13316,1,0,0:0:0:0:
256,192,14482,1,8,0:0:0:0:
256,192,15149,1,0,0:0:0:0:
256,192,15982,1,8,0:0:0:0:
256,192,17149,1,0,0:0:0:0:
256,192,17816,1,8,0:0:0:0:
256,192,18316,1,8,0:0:0:0:
256,192,18649,1,0,0:0:0:0:
256,192,19816,1,8,0:0:0:0:
256,192,20482,1,8,0:0:0:0:
256,192,20982,1,8,0:0:0:0:
256,192,21316,1,0,0:0:0:0:
256,192,21649,1,0,0:0:0:0:
256,192,21982,1,8,0:0:0:0:
256,192,22482,1,0,0:0:0:0:
256,192,23149,1,8,0:0:0:0:
256,192,23982,1,4,0:0:0:0:
256,192,24649,1,8,0:0:0:0:
256,192,24982,1,8,0:0:0:0:
256,192,25316,1,8,0:0:0:0:
256,192,25982,1,8,0:0:0:0:
256,192,26316,1,8,0:0:0:0:
256,192,26649,1,0,0:0:0:0:
256,192,27316,1,8,0:0:0:0:
256,192,27649,1,0,0:0:0:0:
256,192,27982,1,8,0:0:0:0:
256,192,28982,1,8,0:0:0:0:
256,192,29316,1,4,0:0:0:0:
256,192,29982,1,8,0:0:0:0:
256,192,30316,1,8,0:0:0:0:
256,192,30649,1,8,0:0:0:0:
256,192,31316,1,8,0:0:0:0:
256,192,31649,1,8,0:0:0:0:
256,192,31982,1,0,0:0:0:0:
256,192,32649,1,8,0:0:0:0:
256,192,32982,1,0,0:0:0:0:
256,192,33316,1,8,0:0:0:0:
256,192,33816,1,0,0:0:0:0:
256,192,34649,1,4,0:0:0:0:
256,192,35649,1,8,0:0:0:0:
256,192,35982,1,0,0:0:0:0:
256,192,36982,1,8,0:0:0:0:
256,192,37316,1,0,0:0:0:0:
256,192,37816,1,0,0:0:0:0:
256,192,38316,1,8,0:0:0:0:
256,192,38649,1,0,0:0:0:0:
256,192,39149,1,8,0:0:0:0:
256,192,39982,1,0,0:0:0:0:
256,192,40649,1,8,0:0:0:0:
256,192,40982,1,8,0:0:0:0:
256,192,41316,1,0,0:0:0:0:
256,192,41816,1,0,0:0:0:0:
256,192,42316,1,8,0:0:0:0:
256,192,42649,1,0,0:0:0:0:
256,192,43316,1,0,0:0:0:0:
256,192,43982,1,8,0:0:0:0:
256,192,44316,1,8,0:0:0:0:
256,192,44649,1,0,0:0:0:0:
256,192,44982,1,0,0:0:0:0:
256,192,45316,1,0,0:0:0:0:
256,192,46649,1,8,0:0:0:0:
256,192,47982,1,0,0:0:0:0:
256,192,49982,1,8,0:0:0:0:
256,192,50649,1,0,0:0:0:0:
256,192,51982,1,8,0:0:0:0:
256,192,53316,1,0,0:0:0:0:
256,192,55649,1,0,0:0:0:0:
256,192,55982,1,8,0:0:0:0:
256,192,56649,1,8,0:0:0:0:
256,192,57149,1,0,0:0:0:0:
256,192,57982,1,0,0:0:0:0:
256,192,58316,1,0,0:0:0:0:
256,192,58649,1,8,0:0:0:0:
256,192,59316,1,8,0:0:0:0:
256,192,59649,1,8,0:0:0:0:
256,192,59982,1,8,0:0:0:0:
256,192,60649,1,0,0:0:0:0:
256,192,60982,1,0,0:0:0:0:
256,192,61316,1,8,0:0:0:0:
256,192,63982,5,4,0:0:0:0:
256,192,64649,1,8,0:0:0:0:
256,192,65316,1,0,0:0:0:0:
256,192,65649,1,0,0:0:0:0:
256,192,65982,1,8,0:0:0:0:
256,192,66649,1,0,0:0:0:0:
256,192,67316,1,8,0:0:0:0:
256,192,67982,1,0,0:0:0:0:
256,192,68316,1,0,0:0:0:0:
256,192,68649,1,8,0:0:0:0:
256,192,68982,1,8,0:0:0:0:
256,192,69316,1,4,0:0:0:0:
256,192,69982,1,8,0:0:0:0:
256,192,70482,1,8,0:0:0:0:
256,192,71149,1,0,0:0:0:0:
256,192,71649,1,0,0:0:0:0:
256,192,71982,1,8,0:0:0:0:
256,192,72316,1,0,0:0:0:0:
256,192,72649,1,8,0:0:0:0:
256,192,73149,1,0,0:0:0:0:
256,192,73982,1,8,0:0:0:0:
256,192,74316,1,8,0:0:0:0:
256,192,74649,1,0,0:0:0:0:
256,192,74982,1,0,0:0:0:0:
256,192,75316,1,8,0:0:0:0:
256,192,75816,1,8,0:0:0:0:
256,192,76482,1,0,0:0:0:0:
256,192,77316,1,8,0:0:0:0:
256,192,77982,1,0,0:0:0:0:
256,192,78316,1,8,0:0:0:0:
256,192,78649,1,0,0:0:0:0:
256,192,79316,1,0,0:0:0:0:
256,192,79649,1,8,0:0:0:0:
256,192,79982,1,8,0:0:0:0:
256,192,80982,1,8,0:0:0:0:
256,192,81316,1,0,0:0:0:0:
256,192,81982,1,0,0:0:0:0:
256,192,82649,1,0,0:0:0:0:
256,192,82982,1,0,0:0:0:0:
256,192,83316,1,8,0:0:0:0:
256,192,83649,1,8,0:0:0:0:
256,192,83982,1,0,0:0:0:0:
256,192,84482,1,0,0:0:0:0:
256,192,84982,1,8,0:0:0:0:
256,192,85316,1,0,0:0:0:0:
256,192,85982,1,8,0:0:0:0:
256,192,86316,1,0,0:0:0:0:
256,192,86649,1,8,0:0:0:0:
256,192,86982,1,8,0:0:0:0:
256,192,87316,1,8,0:0:0:0:
256,192,87982,1,0,0:0:0:0:
256,192,88649,1,8,0:0:0:0:
256,192,89316,1,0,0:0:0:0:
256,192,89649,1,0,0:0:0:0:
256,192,89982,1,8,0:0:0:0:
256,192,90316,1,8,0:0:0:0:
256,192,90649,1,4,0:0:0:0:
256,192,91149,1,0,0:0:0:0:
256,192,91649,1,0,0:0:0:0:
256,192,92649,1,8,0:0:0:0:
256,192,92982,1,8,0:0:0:0:
256,192,93316,1,0,0:0:0:0:
256,192,93816,1,8,0:0:0:0:
256,192,94316,1,0,0:0:0:0:
256,192,94816,1,0,0:0:0:0:
256,192,95316,1,8,0:0:0:0:
256,192,95982,1,0,0:0:0:0:
256,192,96482,1,8,0:0:0:0:
256,192,96982,1,0,0:0:0:0:
256,192,97982,1,8,0:0:0:0:
256,192,98649,1,8,0:0:0:0:
256,192,99149,1,8,0:0:0:0:
256,192,99649,1,8,0:0:0:0:
256,192,99982,1,0,0:0:0:0:
256,192,100649,1,0,0:0:0:0:
256,192,100982,1,8,0:0:0:0:
256,192,101316,1,0,0:0:0:0:
256,192,111649,5,8,0:0:0:0:
256,192,111982,1,4,0:0:0:0:
256,192,113149,1,8,0:0:0:0:
256,192,113816,1,0,0:0:0:0:
256,192,114649,1,8,0:0:0:0:
256,192,115816,1,0,0:0:0:0:
256,192,116482,1,8,0:0:0:0:
256,192,116982,1,8,0:0:0:0:
256,192,117316,1,0,0:0:0:0:
256,192,117982,1,0,0:0:0:0:
256,192,118482,1,8,0:0:0:0:
256,192,119149,1,8,0:0:0:0:
256,192,119649,1,8,0:0:0:0:
256,192,119982,1,0,0:0:0:0:
256,192,120316,1,0,0:0:0:0:
256,192,120649,1,8,0:0:0:0:
256,192,120982,1,8,0:0:0:0:
256,192,121316,1,0,0:0:0:0:
256,192,121816,1,8,0:0:0:0:
